osu file format v14

[General]
AudioFilename: audio.mp3
AudioLeadIn: 0
PreviewTime: 130845
Countdown: 0
SampleSet: Soft
StackLeniency: 0.5
Mode: 0
LetterboxInBreaks: 0
WidescreenStoryboard: 1

[Editor]
Bookmarks: 6229,18537,30845,43152,55460,67768,80076,83152,95460,107768,120076,132383,144691,156999,169306,181614,193922
DistanceSpacing: 1
BeatDivisor: 4
GridSize: 16
TimelineZoom: 1.3

[Metadata]
Title:Paper Thin
TitleUnicode:Paper Thin
Artist:ILLENIUM, Tom DeLonge, Angels & Airwaves
ArtistUnicode:ILLENIUM, Tom DeLonge, Angels & Airwaves
Creator:Altai
Version:Normal
Source:
Tags:flowziee electronic dance music edm english air waves de longe pop punk melodic dubstep nicholas miller aaron rubin colin dieden elijah noll pete nappi fallen embers trilogy
BeatmapID:2787951
BeatmapSetID:1346246

[Difficulty]
HPDrainRate:4
CircleSize:3
OverallDifficulty:4
ApproachRate:5
SliderMultiplier:1
SliderTickRate:1

[Events]
//Background and Video events
0,0,"muhammx-nafay-insta-le_nafay-pink-skies-v2.jpg",0,0
//Break Periods
2,80275,81952
//Storyboard Layer 0 (Background)
//Storyboard Layer 1 (Fail)
//Storyboard Layer 2 (Pass)
//Storyboard Layer 3 (Foreground)
//Storyboard Layer 4 (Overlay)
//Storyboard Sound Samples

[TimingPoints]
76,384.615384615385,4,2,1,50,1,0
6229,-111.111111111111,4,2,1,50,0,0
16518,-111.111111111111,4,2,1,5,0,0
16614,-111.111111111111,4,2,1,50,0,0
18537,-105.263157894737,4,2,1,65,0,0
30845,-111.111111111111,4,2,1,50,0,0
41614,-111.111111111111,4,2,1,55,0,0
42383,-111.111111111111,4,2,1,60,0,0
43152,-105.263157894737,4,2,1,70,0,0
43441,-105.263157894737,4,2,1,5,0,0
43537,-105.263157894737,4,2,1,70,0,0
44979,-105.263157894737,4,2,1,5,0,0
45076,-105.263157894737,4,2,1,70,0,0
46518,-105.263157894737,4,2,1,5,0,0
46614,-105.263157894737,4,2,1,70,0,0
48056,-105.263157894737,4,2,1,5,0,0
48152,-105.263157894737,4,2,1,70,0,0
49306,-105.263157894737,4,2,1,75,0,0
49979,-105.263157894737,4,2,1,5,0,0
50076,-105.263157894737,4,2,1,75,0,0
52383,-105.263157894737,4,2,1,85,0,0
53922,-105.263157894737,4,2,1,60,0,0
55268,-105.263157894737,4,2,1,80,0,0
55460,-100,4,2,1,85,0,0
56229,-100,4,2,1,95,0,1
58537,-100,4,2,1,85,0,0
59306,-100,4,2,1,95,0,1
61614,-100,4,2,1,85,0,0
62383,-100,4,2,1,95,0,1
64691,-100,4,2,1,85,0,0
65460,-100,4,2,1,95,0,1
67768,-100,4,2,1,85,0,0
68537,-100,4,2,1,95,0,1
70845,-100,4,2,1,85,0,0
71614,-100,4,2,1,95,0,1
73441,-100,4,2,1,5,0,1
73537,-100,4,2,1,95,0,1
73922,-100,4,2,1,85,0,0
74691,-100,4,2,1,95,0,1
76999,-100,4,2,1,85,0,0
77768,-100,4,2,1,95,0,1
78826,-100,4,2,1,5,0,1
78922,-100,4,2,1,95,0,1
79210,-100,4,2,1,5,0,1
79306,-100,4,2,1,95,0,1
79979,-100,4,2,1,5,0,1
80076,-111.111111111111,4,2,1,70,0,0
80172,-111.111111111111,4,2,1,45,0,0
83152,-111.111111111111,4,2,1,65,0,0
87287,-111.111111111111,4,2,1,5,0,0
87383,-111.111111111111,4,2,1,65,0,0
93441,-111.111111111111,4,2,1,5,0,0
93537,-111.111111111111,4,2,1,65,0,0
95460,-105.263157894737,4,2,1,65,0,0
95749,-105.263157894737,4,2,1,5,0,0
95845,-105.263157894737,4,2,1,65,0,0
98922,-105.263157894737,4,2,1,65,0,0
101902,-105.263157894737,4,2,1,5,0,0
101999,-105.263157894737,4,2,1,65,0,0
107768,-111.111111111111,4,2,1,55,0,0
108056,-111.111111111111,4,2,1,5,0,0
108152,-111.111111111111,4,2,1,55,0,0
108441,-111.111111111111,4,2,1,5,0,0
108537,-111.111111111111,4,2,1,55,0,0
109595,-111.111111111111,4,2,1,5,0,0
109691,-111.111111111111,4,2,1,55,0,0
109979,-111.111111111111,4,2,1,5,0,0
110076,-111.111111111111,4,2,1,55,0,0
111133,-111.111111111111,4,2,1,5,0,0
111229,-111.111111111111,4,2,1,55,0,0
111518,-111.111111111111,4,2,1,5,0,0
111614,-111.111111111111,4,2,1,55,0,0
112672,-111.111111111111,4,2,1,5,0,0
112768,-111.111111111111,4,2,1,55,0,0
115749,-111.111111111111,4,2,1,5,0,0
115845,-111.111111111111,4,2,1,55,0,0
116133,-111.111111111111,4,2,1,5,0,0
116229,-111.111111111111,4,2,1,55,0,0
116902,-111.111111111111,4,2,1,5,0,0
116999,-111.111111111111,4,2,1,55,0,0
118537,-111.111111111111,4,2,1,60,0,0
119306,-111.111111111111,4,2,1,65,0,0
120076,-105.263157894737,4,2,1,75,0,0
120364,-105.263157894737,4,2,1,5,0,0
120460,-105.263157894737,4,2,1,75,0,0
121133,-105.263157894737,4,2,1,5,0,0
121229,-105.263157894737,4,2,1,75,0,0
121902,-105.263157894737,4,2,1,5,0,0
121999,-105.263157894737,4,2,1,75,0,0
123441,-105.263157894737,4,2,1,5,0,0
123537,-105.263157894737,4,2,1,75,0,0
124210,-105.263157894737,4,2,1,5,0,0
124306,-105.263157894737,4,2,1,75,0,0
124979,-105.263157894737,4,2,1,5,0,0
125076,-105.263157894737,4,2,1,75,0,0
126902,-105.263157894737,4,2,1,5,0,0
126999,-105.263157894737,4,2,1,75,0,0
129306,-105.263157894737,4,2,1,85,0,0
130845,-105.263157894737,4,2,1,60,0,0
132191,-105.263157894737,4,2,1,80,0,0
132383,-100,4,2,1,85,0,0
133152,-100,4,2,1,95,0,1
135460,-100,4,2,1,85,0,0
136229,-100,4,2,1,95,0,1
138537,-100,4,2,1,85,0,0
139306,-100,4,2,1,95,0,1
141614,-100,4,2,1,85,0,0
142383,-100,4,2,1,95,0,1
144691,-100,4,2,1,85,0,0
145460,-100,4,2,1,95,0,1
147768,-100,4,2,1,85,0,0
148537,-100,4,2,1,95,0,1
150364,-100,4,2,1,5,0,1
150460,-100,4,2,1,95,0,1
150845,-100,4,2,1,85,0,0
151614,-100,4,2,1,95,0,1
153922,-100,4,2,1,85,0,0
157768,-100,4,2,1,90,0,1
158056,-100,4,2,1,5,0,1
158152,-100,4,2,1,90,0,1
159595,-100,4,2,1,5,0,1
159691,-100,4,2,1,90,0,1
161133,-100,4,2,1,5,0,1
161229,-100,4,2,1,90,0,1
163056,-100,4,2,1,5,0,1
163152,-100,4,2,1,90,0,1
164210,-100,4,2,1,5,0,1
164306,-100,4,2,1,90,0,1
164979,-100,4,2,1,5,0,1
165076,-100,4,2,1,90,0,1
165749,-100,4,2,1,5,0,1
165845,-100,4,2,1,90,0,1
169306,-100,4,2,1,85,0,0
170076,-100,4,2,1,90,0,1
170364,-100,4,2,1,5,0,1
170460,-100,4,2,1,90,0,1
171902,-100,4,2,1,5,0,1
171999,-100,4,2,1,90,0,1
173441,-100,4,2,1,5,0,1
173537,-100,4,2,1,90,0,1
175364,-100,4,2,1,5,0,1
175460,-100,4,2,1,90,0,1
176518,-100,4,2,1,5,0,1
176614,-100,4,2,1,90,0,1
177287,-100,4,2,1,5,0,1
177383,-100,4,2,1,90,0,1
178056,-100,4,2,1,5,0,1
178152,-100,4,2,1,90,0,1
180364,-100,4,2,1,5,0,1
180460,-100,4,2,1,90,0,1
180749,-100,4,2,1,5,0,1
180845,-100,4,2,1,90,0,1
181518,-100,4,2,1,5,0,1
181614,-111.111111111111,4,2,1,70,0,0
181710,-111.111111111111,4,2,1,50,0,0

[Colours]
Combo1 : 58,100,243
Combo2 : 245,82,241

[HitObjects]
29,359,6229,6,0,P|82:290|122:301,1,134.999995880127,2|2,3:2|3:3,0:0:0:0:
160,283,6999,2,0,P|212:317|245:310,1,89.999997253418,10|2,0:0|3:2,0:0:0:0:
296,245,7768,2,0,P|307:184|321:140,2,89.999997253418,2|2|10,0:2|0:0|0:0,0:0:0:0:
400,339,9114,5,2,0:0:0:0:
400,339,9306,1,2,0:0:0:0:
475,289,9691,2,0,P|461:241|445:186,1,89.999997253418,2|10,0:0|0:0,0:0:0:0:
503,78,10652,1,2,0:0:0:0:
503,78,10845,2,0,P|436:58|395:53,2,89.999997253418,2|2|10,0:0|0:0|0:0,0:0:0:0:
410,232,12383,5,2,3:3:0:0:
317,133,12960,1,2,3:2:0:0:
317,133,13152,2,0,P|241:113|218:108,1,89.999997253418,10|2,0:0|3:2,0:0:0:0:
141,128,13922,2,0,P|116:74|89:46,2,89.999997253418,2|2|10,0:0|0:0|0:0,0:0:0:0:
87,254,15268,5,2,0:0:0:0:
87,254,15460,2,0,P|27:248|-10:258,2,89.999997253418,2|2|10,3:2|0:0|0:0,0:0:0:0:
163,302,16614,2,0,P|157:330|154:349,1,44.999998626709,2|2,3:2|0:0,0:0:0:0:
183,380,16999,1,2,0:0:0:0:
260,334,17383,1,2,0:0:0:0:
346,358,17768,1,10,0:0:0:0:
474,229,18537,6,0,P|460:157|447:85,1,142.49999619484,4|0,1:2|0:0,0:2:0:0:
471,47,19306,1,10,0:2:0:0:
385,5,19691,2,0,P|360:11|333:25,1,47.4999987316132,2|2,1:2|0:2,0:0:0:0:
307,55,20076,2,0,P|254:31|203:26,2,94.9999974632264,2|2|10,0:2|0:2|0:2,0:2:0:0:
341,193,21422,5,2,0:2:0:0:
341,193,21614,2,0,P|354:256|361:300,2,94.9999974632264,2|2|10,1:2|0:2|0:2,3:2:0:0:
268,131,22768,2,0,P|240:135|217:140,1,47.4999987316132,2|2,1:2|0:2,0:0:0:0:
188,104,23152,2,0,P|140:115|90:127,1,94.9999974632264,2|2,0:2|0:2,0:2:0:0:
20,184,23922,1,10,0:2:0:0:
88,250,24306,1,8,0:3:0:0:
43,333,24691,6,0,P|114:350|182:384,1,142.49999619484,4|0,1:2|0:0,0:2:0:0:
215,352,25460,1,10,0:2:0:0:
308,367,25845,2,0,P|317:328|325:303,1,47.4999987316132,2|2,1:2|0:2,0:0:0:0:
360,296,26229,2,0,P|401:329|463:324,2,94.9999974632264,2|2|10,0:2|0:2|0:2,0:2:0:0:
458,133,27768,6,0,P|468:98|475:76,2,47.4999987316132,2|2|2,1:2|0:2|0:2,0:0:0:0:
365,109,28537,1,10,0:2:0:0:
272,86,28922,2,0,P|278:63|284:40,1,47.4999987316132,2|2,1:2|0:2,0:0:0:0:
255,3,29306,2,0,P|202:3|165:50,2,94.9999974632264,2|2|10,0:2|0:2|0:2,0:2:0:0:
298,177,30845,6,0,P|308:238|313:270,2,89.9999972534181,6|2|2,1:2|0:0|0:0,0:0:0:0:
168,161,32191,1,2,0:0:0:0:
168,161,32383,2,0,P|158:100|153:68,2,89.9999972534181,2|2|2,0:2|0:0|0:0,0:0:0:0:
74,315,33922,6,0,P|38:282|-4:281,2,89.9999972534181,2|2|2,0:2|0:0|0:0,0:0:0:0:
211,342,35268,1,2,0:0:0:0:
211,342,35460,2,0,P|247:375|289:376,1,89.9999972534181,2|2,0:2|0:0,0:0:0:0:
332,299,36229,6,0,P|314:227|286:118,1,179.999994506836,2|10,0:0|0:0,0:0:0:0:
334,47,37383,6,0,P|366:37|385:32,1,44.999998626709,2|2,0:0|0:0,0:0:0:0:
417,54,37768,2,0,P|428:82|435:100,1,44.999998626709,2|2,0:0|0:0,0:0:0:0:
474,115,38152,1,2,0:0:0:0:
433,195,38537,2,0,P|468:232|478:274,2,89.9999972534181,2|2|2,0:0|0:0|0:0,0:0:0:0:
163,357,40652,5,2,0:0:0:0:
163,357,40845,2,0,P|167:321|171:307,1,44.999998626709,10|2,0:0|0:0,0:0:0:0:
147,273,41229,1,2,0:0:0:0:
66,313,41614,2,0,P|44:248|31:224,1,89.9999972534181,2|2,3:2|3:2,0:0:0:0:
72,147,42383,1,10,3:2:0:0:
15,76,42768,1,0,3:2:0:0:
89,17,43152,6,0,P|137:29|181:42,1,94.9999974632264,6|2,1:2|1:2,0:2:0:0:
240,116,43922,2,0,P|287:102|332:91,1,94.9999974632264,2|0,1:2|1:2,0:2:0:0:
377,117,44499,1,2,0:2:0:0:
377,117,44691,2,0,P|397:66|421:32,2,94.9999974632264,2|2|2,1:2|1:2|1:2,0:2:0:0:
424,199,45845,1,0,1:2:0:0:
351,260,46229,6,0,P|307:269|280:321,1,94.9999974632264,2|2,1:2|1:2,0:2:0:0:
187,288,46999,2,0,P|176:242|137:218,1,94.9999974632264,2|0,1:2|1:2,0:2:0:0:
128,171,47576,1,2,0:2:0:0:
128,171,47768,2,0,P|145:116|156:79,2,94.9999974632264,2|2|2,1:2|1:2|1:2,0:2:0:0:
41,205,48922,1,0,1:2:0:0:
47,251,49114,1,2,0:2:0:0:
54,297,49306,1,0,1:2:0:0:
191,352,49883,5,0,0:0:0:0:
191,352,50076,2,0,P|197:314|199:303,1,47.4999987316132,2|2,1:2|0:2,0:0:0:0:
238,280,50460,2,0,P|276:286|295:288,1,47.4999987316132,2|2,1:2|0:2,0:0:0:0:
332,287,50845,2,0,P|327:336|320:387,2,94.9999974632264,2|2|2,1:2|1:2|1:2,0:2:0:0:
392,213,51999,1,0,1:2:0:0:
334,138,52383,6,0,P|304:130|273:123,1,47.4999987316132,0|0,1:2|1:2,0:2:0:0:
266,83,52768,2,0,P|274:53|281:22,1,47.4999987316132,0|2,1:2|1:2,0:2:0:0:
321,15,53152,2,0,P|351:23|382:30,1,47.4999987316132,2|2,1:2|1:2,0:2:0:0:
389,70,53537,2,0,P|381:100|374:131,1,47.4999987316132,2|2,1:2|1:2,0:2:0:0:
410,149,53922,1,2,0:0:0:0:
502,169,54306,1,2,0:0:0:0:
487,263,54691,1,2,0:0:0:0:
356,314,55268,5,2,0:0:0:0:
356,314,55460,2,0,P|349:344|346:377,2,50,2|2|2,1:2|0:0|0:0,0:0:0:0:
264,272,56229,6,0,B|219:281|219:281|217:286|217:286|166:296,1,100,14|2,0:2|0:3,0:0:0:0:
120,307,56806,1,2,0:0:0:0:
39,257,57191,1,2,0:0:0:0:
39,257,57383,1,2,0:0:0:0:
94,174,57768,1,14,0:0:0:0:
161,100,58152,1,2,0:3:0:0:
89,30,58537,6,0,P|57:24|33:22,2,50,2|2|2,1:2|0:0|0:2,0:0:0:0:
187,10,59306,2,0,B|225:44|225:44|282:15,1,100,14|2,0:0|0:3,0:0:0:0:
314,2,59883,1,2,0:0:0:0:
360,107,60268,1,2,0:0:0:0:
360,107,60460,1,2,0:0:0:0:
409,194,60845,2,0,P|441:200|465:204,1,50,14|4,0:0|3:3,0:0:0:0:
484,245,61229,2,0,P|478:275|474:300,1,50,4|4,3:3|3:3,0:0:0:0:
428,312,61614,6,0,P|437:347|442:361,2,50,0|2|2,1:0|0:0|0:0,0:0:0:0:
330,291,62383,2,0,B|284:283|284:283|278:279|278:279|227:271,1,100,14|2,0:0|0:3,0:0:0:0:
207,228,62960,1,2,0:0:0:0:
279,159,63345,1,2,0:0:0:0:
279,159,63537,1,2,0:0:0:0:
250,62,63922,1,14,0:0:0:0:
160,32,64306,5,2,0:3:0:0:
160,32,64499,2,0,P|127:42|100:54,1,50,2|0,0:0|1:0,0:0:0:0:
79,85,64883,2,0,P|93:111|104:134,1,50,2|2,0:2|0:0,0:0:0:0:
17,183,65460,1,14,0:0:0:0:
87,260,65845,1,2,0:0:0:0:
41,348,66229,2,0,P|102:362|142:378,1,100,2|2,1:2|0:0,0:0:0:0:
231,337,66999,1,14,0:0:0:0:
231,337,67191,2,2,P|266:347|295:359,2,50,2|2|2,0:3|0:3|0:0,0:1:0:0:
212,290,67768,6,0,P|222:262|231:239,2,50,2|2|2,1:2|0:0|0:0,0:0:0:0:
133,228,68537,2,0,B|149:188|149:188|154:186|154:186|175:131,1,100,14|2,0:0|0:3,0:0:0:0:
153,91,69114,2,0,P|131:80|103:69,1,50,2|0,0:0|1:2,0:0:0:0:
98,26,69499,1,2,0:0:0:0:
98,26,69691,1,2,0:0:0:0:
194,0,70076,1,14,0:0:0:0:
266,71,70460,2,0,P|296:66|322:61,1,50,2|2,0:3|0:0,0:0:0:0:
361,80,70845,6,0,P|387:48|411:41,2,50,2|2|2,1:2|0:0|0:0,0:0:0:0:
422,158,71614,2,0,B|448:202|448:202|413:244,1,100,14|2,0:0|0:3,0:0:0:0:
368,254,72191,2,0,L|358:307,1,50,2|0,0:0|1:0,0:0:0:0:
389,343,72576,1,2,0:0:0:0:
389,343,72768,1,2,0:0:0:0:
296,379,73152,1,14,0:0:0:0:
229,304,73537,1,4,3:0:0:0:
140,350,73922,6,0,P|113:358|90:367,2,50,0|2|2,1:0|0:0|0:0,0:0:0:0:
108,255,74691,2,0,B|94:209|94:209|97:207|97:207|81:154,1,100,14|2,0:0|0:3,0:0:0:0:
104,115,75268,2,0,L|162:101,1,50,2|0,0:0|1:0,0:0:0:0:
173,60,75652,1,2,0:0:0:0:
173,60,75845,1,2,0:0:0:0:
262,103,76229,1,14,0:0:0:0:
334,33,76614,1,2,0:3:0:0:
422,79,76999,6,0,P|448:82|490:90,2,50,0|2|2,1:0|0:0|0:0,0:0:0:0:
357,155,77768,1,14,0:0:0:0:
426,226,78152,1,2,0:0:0:0:
355,297,78537,2,0,P|308:312|278:356,1,100,2|2,1:2|0:0,0:0:0:0:
179,346,79306,2,0,B|121:363|84:310|109:294|73:243|14:259,1,200,14|4,0:0|1:2,0:0:0:0:
495,14,83152,6,0,P|465:52|442:137,1,134.999995880127,4|2,1:2|0:3,0:0:0:0:
470,169,83922,1,10,0:0:0:0:
394,217,84306,1,2,1:2:0:0:
431,299,84691,2,0,P|474:330|495:365,2,89.9999972534181,2|2|10,0:0|0:0|0:0,0:0:0:0:
304,347,86037,5,2,0:0:0:0:
304,347,86229,2,0,P|272:352|252:359,1,44.999998626709,2|2,1:2|0:0,0:0:0:0:
218,338,86614,2,0,P|204:278|192:247,1,89.9999972534181,2|10,0:0|0:0,0:0:0:0:
255,130,87576,1,2,0:0:0:0:
255,130,87768,2,0,P|262:92|269:75,1,44.999998626709,2|2,0:0|0:0,0:0:0:0:
251,43,88152,2,0,P|202:32|150:26,1,89.9999972534181,2|10,0:0|0:2,0:0:0:0:
62,177,89306,6,0,P|126:189|199:207,1,134.999995880127,4|2,1:2|0:3,0:0:0:0:
237,216,90076,1,10,0:0:0:0:
264,301,90460,1,2,1:2:0:0:
193,357,90845,2,0,P|163:323|108:318,2,89.9999972534181,2|2|10,0:0|0:0|0:0,0:0:0:0:
327,375,92191,5,2,0:0:0:0:
327,375,92383,1,2,1:2:0:0:
384,305,92768,1,2,0:0:0:0:
470,328,93152,2,0,P|485:269|498:231,1,89.9999972534181,10|2,0:0|1:3,0:0:0:0:
456,159,93922,1,2,0:0:0:0:
411,165,94114,1,2,0:0:0:0:
367,174,94306,1,2,0:0:0:0:
297,116,94691,1,10,0:0:0:0:
297,116,94883,2,0,P|285:62|276:19,1,89.9999972534181,8|8,0:0|0:0,0:0:0:0:
236,4,95460,5,4,1:2:0:0:
162,64,95845,1,2,0:3:0:0:
78,18,96229,2,0,P|42:27|16:32,1,47.4999987316132,10|2,0:0|0:0,0:0:0:0:
0,65,96614,2,0,P|9:99|16:124,1,47.4999987316132,2|2,1:2|0:0,0:0:0:0:
52,135,96999,1,2,0:0:0:0:
1,212,97383,1,2,0:0:0:0:
67,280,97768,2,0,P|111:295|136:339,1,94.9999974632264,10|2,0:0|0:3,0:0:0:0:
226,360,98537,6,0,P|252:329|271:325,1,47.4999987316132,2|0,1:2|0:0,0:0:0:0:
290,292,98922,2,0,P|278:219|273:196,1,94.9999974632264,2|10,0:0|0:0,0:0:0:0:
340,130,99691,1,2,1:3:0:0:
425,172,100076,2,0,P|431:205|437:237,1,47.4999987316132,2|2,0:0|0:0,0:0:0:0:
472,246,100460,1,2,0:0:0:0:
451,338,100845,2,0,P|399:335|360:362,1,94.9999974632264,10|2,0:0|0:3,0:0:0:0:
290,292,101614,5,4,1:2:0:0:
211,345,101999,1,2,0:3:0:0:
148,274,102383,2,0,P|139:235|133:214,1,47.4999987316132,10|2,0:0|0:0,0:0:0:0:
168,191,102768,2,0,P|175:166|181:142,1,47.4999987316132,2|2,1:2|0:0,0:0:0:0:
145,112,103152,1,2,0:0:0:0:
196,31,103537,1,2,0:0:0:0:
275,82,103922,2,0,P|336:93|372:97,1,94.9999974632264,10|2,0:0|0:3,0:0:0:0:
427,171,104691,6,0,P|421:201|416:224,1,47.4999987316132,2|2,1:2|0:0,0:0:0:0:
426,264,105076,2,0,P|371:252|318:248,1,94.9999974632264,2|10,0:0|0:0,0:0:0:0:
290,333,105845,1,0,1:0:0:0:
216,273,106229,1,2,0:0:0:0:
169,281,106422,1,2,0:0:0:0:
122,291,106614,1,2,0:0:0:0:
57,220,106999,2,0,P|75:147|98:82,1,142.49999619484,10|2,0:2|0:2,0:2:0:0:
86,39,107768,6,0,P|41:46|-9:62,2,89.9999972534181,6|2|2,1:2|0:0|0:0,0:0:0:0:
216,91,109114,1,2,0:0:0:0:
216,91,109306,2,0,P|261:80|311:71,2,89.9999972534181,2|2|2,0:0|0:0|0:0,0:0:0:0:
70,197,110845,6,0,P|43:236|52:284,2,89.9999972534181,2|2|2,0:0|0:0|0:0,0:0:0:0:
205,232,112191,1,2,0:0:0:0:
205,232,112383,2,0,P|208:275|182:311,1,89.9999972534181,2|2,0:0|0:0,0:0:0:0:
254,366,113152,6,0,B|267:336|290:323|290:323|418:290,1,179.999994506836,2|10,0:0|0:0,0:0:0:0:
473,228,114306,6,0,P|482:189|484:177,1,44.999998626709,2|2,0:0|0:0,0:0:0:0:
463,143,114691,2,0,P|436:136|413:130,1,44.999998626709,2|2,0:0|0:0,0:0:0:0:
392,95,115076,1,2,0:0:0:0:
321,150,115460,2,0,P|251:171|229:182,2,89.9999972534181,2|2|2,0:0|0:0|0:0,0:0:0:0:
189,26,116999,5,0,0:0:0:0:
74,97,117576,1,2,0:0:0:0:
74,97,117768,2,0,P|82:127|87:151,1,44.999998626709,10|2,0:0|0:0,0:0:0:0:
120,168,118152,1,2,0:0:0:0:
75,246,118537,2,0,P|120:288|126:321,1,89.9999972534181,2|2,3:2|3:2,0:0:0:0:
198,367,119306,1,10,3:2:0:0:
262,303,119691,1,0,3:2:0:0:
222,216,120076,6,0,P|231:172|245:117,1,94.9999974632264,6|2,1:2|1:2,0:0:0:0:
309,54,120845,2,0,P|367:66|409:73,1,94.9999974632264,2|0,1:2|1:0,0:0:0:0:
430,110,121422,1,2,0:2:0:0:
430,110,121614,2,0,P|421:157|409:211,2,94.9999974632264,2|2|2,1:2|1:2|1:2,0:0:0:0:
366,38,122768,1,0,1:0:0:0:
289,94,123152,6,0,P|251:100|179:120,1,94.9999974632264,2|2,1:2|1:2,0:0:0:0:
138,38,123922,2,0,P|93:27|32:13,1,94.9999974632264,2|0,1:2|1:0,0:0:0:0:
13,51,124499,1,2,0:0:0:0:
13,51,124691,2,0,P|41:89|40:141,1,94.9999974632264,2|2,1:2|1:2,0:0:0:0:
9,224,125460,1,2,1:2:0:0:
77,289,125845,1,0,1:2:0:0:
123,278,126037,1,2,0:2:0:0:
169,270,126229,1,0,1:0:0:0:
285,352,126806,5,0,0:0:0:0:
285,352,126999,2,0,P|326:345|346:341,1,47.4999987316132,2|2,1:2|0:2,0:0:0:0:
365,310,127383,2,0,P|358:272|352:246,1,47.4999987316132,2|2,1:2|0:2,0:0:0:0:
377,220,127768,2,0,B|461:206|461:206|468:198,2,94.9999974632264,2|2|2,1:2|1:2|1:2,0:0:0:0:
285,193,128922,1,0,1:0:0:0:
263,100,129306,6,0,P|272:71|277:52,1,47.4999987316132,0|0,1:0|1:0,0:0:0:0:
247,16,129691,2,0,P|218:7|199:2,1,47.4999987316132,0|2,1:0|1:2,0:0:0:0:
163,32,130076,2,0,P|154:61|149:80,1,47.4999987316132,2|2,1:2|1:2,0:0:0:0:
179,116,130460,2,0,P|208:125|227:130,1,47.4999987316132,2|2,1:2|1:2,0:0:0:0:
240,174,130845,1,2,0:0:0:0:
226,267,131229,1,2,0:0:0:0:
319,283,131614,1,2,0:0:0:0:
374,154,132191,5,2,0:0:0:0:
374,154,132383,2,0,P|415:161|431:164,2,50,2|2|2,1:2|0:0|0:0,0:0:0:0:
306,79,133152,6,0,B|257:98|257:98|220:57,1,100,14|2,0:2|0:3,0:0:0:0:
190,26,133729,1,2,0:0:0:0:
136,111,134114,1,2,0:0:0:0:
136,111,134306,1,2,0:0:0:0:
37,83,134691,1,14,0:0:0:0:
3,177,135076,2,0,P|13:209|18:231,1,50,2|2,0:3|0:0,0:0:0:0:
52,259,135460,6,0,P|42:285|37:309,2,50,0|2|2,1:0|0:0|0:2,0:0:0:0:
149,280,136229,2,0,B|195:272|195:272|199:274|199:274|259:264,1,100,14|2,0:0|0:3,0:0:0:0:
275,224,136806,1,2,0:0:0:0:
359,277,137191,1,2,0:0:0:0:
359,277,137383,1,2,0:0:0:0:
438,216,137768,2,0,P|446:182|452:164,1,50,14|4,0:0|3:3,0:0:0:0:
431,121,138152,2,0,P|405:111|382:104,1,50,4|4,3:3|3:3,0:0:0:0:
360,60,138537,6,0,P|369:30|374:-8,2,50,0|2|2,1:0|0:0|0:0,0:0:0:0:
265,94,139306,2,0,B|254:118|254:118|272:206,1,100,14|2,0:0|0:3,0:0:0:0:
310,217,139883,1,2,0:0:0:0:
242,291,140268,1,2,0:0:0:0:
242,291,140460,1,2,0:0:0:0:
162,229,140845,1,14,0:0:0:0:
74,273,141229,1,2,0:3:0:0:
74,273,141422,6,0,P|69:310|66:332,1,50,2|0,0:0|1:0,0:0:0:0:
98,361,141806,2,0,P|142:366|158:370,1,50,2|2,0:2|0:0,0:0:0:0:
246,378,142383,1,14,0:0:0:0:
303,295,142768,1,2,0:0:0:0:
400,317,143152,2,0,P|417:258|446:214,1,100,2|2,1:2|0:0,0:0:0:0:
435,129,143922,1,14,0:0:0:0:
435,129,144114,2,2,P|457:123|485:118,2,50,2|2|2,0:3|0:3|0:2,0:1:0:0:
395,97,144691,6,0,P|385:68|380:47,2,50,2|0|0,1:2|0:0|0:0,0:0:0:0:
318,161,145460,2,0,B|283:153|283:153|259:161|259:161|210:149,1,100,14|2,0:0|0:3,0:0:0:0:
172,165,146037,2,0,L|117:151,1,50,2|0,0:0|1:0,0:0:0:0:
101,107,146422,1,2,0:0:0:0:
101,107,146614,1,2,0:0:0:0:
9,146,146999,1,14,0:0:0:0:
43,239,147383,2,0,P|53:271|56:289,1,50,2|2,0:3|0:2,0:0:0:0:
103,302,147768,6,0,P|93:330|89:354,2,50,0|2|2,1:0|0:0|0:0,0:0:0:0:
199,328,148537,2,0,B|232:294|232:294|284:314,1,100,14|2,0:0|0:3,0:0:0:0:
330,302,149114,2,0,L|381:323,1,50,2|0,0:0|1:0,0:0:0:0:
404,368,149499,1,2,0:0:0:0:
404,368,149691,1,2,0:0:0:0:
483,306,150076,2,2,P|475:270|472:250,1,50,14|0,0:0|0:0,0:1:0:0:
493,211,150460,2,0,P|483:177|476:156,1,50,4|4,3:0|3:0,0:0:0:0:
431,145,150845,6,0,P|405:141|381:139,2,50,0|2|2,1:0|0:2|0:0,0:0:0:0:
416,46,151614,2,0,L|305:33,1,100,14|2,0:0|0:2,0:0:0:0:
267,45,152191,2,0,L|262:100,1,50,2|0,0:0|1:0,0:0:0:0:
225,128,152576,1,2,0:0:0:0:
225,128,152768,1,2,0:0:0:0:
168,45,153152,1,14,0:0:0:0:
73,79,153537,1,2,0:3:0:0:
0,12,153922,6,0,P|22:104|46:221,1,200,0|10,1:0|0:0,0:0:0:0:
256,76,155652,1,8,0:0:0:0:
256,76,155845,2,0,P|243:116|238:138,1,50,8|8,0:0|3:0,0:0:0:0:
302,202,156422,1,8,3:0:0:0:
351,209,156614,2,0,P|385:198|417:194,1,50,8|4,3:0|3:0,3:0:0:0:
446,210,156999,5,0,1:0:0:0:
413,305,157383,1,2,0:0:0:0:
313,298,157768,2,0,P|260:314|218:336,1,100,14|2,0:0|0:0,0:0:0:0:
174,314,158345,2,0,P|157:276|150:263,1,50,2|0,0:0|1:0,0:0:0:0:
193,176,158922,1,2,0:0:0:0:
105,127,159306,2,0,P|122:74|140:27,1,100,14|2,0:0|0:0,0:0:0:0:
185,16,159883,2,0,P|224:26|250:33,1,50,2|0,0:0|1:0,0:0:0:0:
331,6,160460,5,2,0:0:0:0:
372,97,160845,2,0,P|428:67|471:87,1,100,14|2,0:0|0:0,0:0:0:0:
486,119,161422,2,0,P|476:146|466:182,1,50,2|0,0:0|1:0,0:0:0:0:
334,231,162191,1,2,0:0:0:0:
334,231,162383,2,0,P|341:261|344:284,1,50,14|2,0:0|0:0,0:0:0:0:
324,326,162768,1,2,0:0:0:0:
174,309,163345,6,0,P|181:345|186:363,2,50,2|2|2,0:0|0:0|0:0,0:0:0:0:
129,285,163922,2,0,P|150:206|160:182,1,100,14|2,0:0|0:0,0:0:0:0:
131,145,164499,1,2,0:0:0:0:
131,145,164691,1,2,1:2:0:0:
178,56,165076,1,2,0:0:0:0:
274,82,165460,2,0,P|328:68|372:64,2,100,14|2|0,0:0|0:3|1:0,0:0:0:0:
247,229,166806,5,2,0:0:0:0:
247,229,166999,2,0,P|283:244|304:266,1,50,14|2,0:0|0:0,0:0:0:0:
327,285,167383,1,2,0:0:0:0:
423,257,167768,1,2,1:3:0:0:
433,208,167960,1,8,0:0:0:0:
442,159,168152,2,0,P|451:121|454:106,1,50,8|8,0:0|3:0,0:0:0:0:
432,64,168537,2,0,P|403:54|378:49,1,50,8|8,0:0|3:0,0:0:0:0:
337,69,168922,2,0,P|329:98|321:122,1,50,8|4,3:0|3:0,0:0:0:0:
342,162,169306,5,0,1:0:0:0:
252,206,169691,1,2,0:0:0:0:
195,123,170076,2,0,P|157:83|107:85,1,100,14|2,0:0|0:0,0:0:0:0:
70,59,170652,2,0,P|48:67|15:78,1,50,2|0,0:0|1:0,0:0:0:0:
0,171,171229,1,2,0:0:0:0:
66,246,171614,2,0,P|109:256|170:280,1,100,14|2,0:0|0:0,0:0:0:0:
181,321,172191,2,0,P|215:312|248:311,1,50,2|0,0:0|1:0,0:0:0:0:
314,363,172768,5,2,0:0:0:0:
395,305,173152,2,0,P|411:245|428:198,1,100,14|2,0:0|0:0,0:0:0:0:
405,162,173729,2,0,P|380:166|350:168,1,50,2|0,0:0|1:0,0:0:0:0:
262,57,174499,1,2,0:0:0:0:
262,57,174691,2,0,P|220:46|202:44,1,50,14|2,0:0|0:0,0:0:0:0:
189,1,175076,1,2,0:0:0:0:
53,63,175652,6,0,P|45:36|33:15,2,50,2|2|2,0:0|0:0|0:0,0:0:0:0:
95,89,176229,2,0,P|70:130|55:195,1,100,14|2,0:0|0:0,0:0:0:0:
18,212,176806,1,2,0:0:0:0:
18,212,176999,1,2,1:2:0:0:
50,306,177383,1,2,0:0:0:0:
144,274,177768,2,0,P|189:302|195:348,2,100,14|2|0,0:0|0:3|1:2,0:0:0:0:
237,156,179114,5,2,0:0:0:0:
237,156,179306,2,0,P|279:147|301:146,1,50,14|2,0:0|0:0,0:0:0:0:
314,104,179691,1,2,0:0:0:0:
401,152,180076,1,2,1:2:0:0:
383,250,180460,1,2,0:0:0:0:
365,348,180845,1,10,0:0:0:0:
214,249,181614,5,4,3:2:0:0:
133,289,181999,1,2,0:0:0:0:
80,215,182383,2,0,P|95:149|113:84,1,134.999995880127,2|2,0:0|0:0,0:0:0:0:
228,13,183537,1,2,0:0:0:0:
302,63,183922,2,0,B|337:60|369:83|344:100|383:129|422:114,1,134.999995880127,2|2,0:0|0:0,0:0:0:0:
489,230,185076,5,2,0:0:0:0:
428,296,185460,2,0,P|365:292|338:354,1,134.999995880127,2|2,0:0|0:0,0:0:0:0:
247,193,186806,2,0,P|256:167|266:146,2,44.999998626709,2|2|2,0:0|0:0|0:0,0:0:0:0:
202,201,187383,2,0,P|227:271|234:341,1,134.999995880127,2|2,0:0|0:0,0:0:0:0:
204,365,188152,1,2,0:0:0:0:
140,300,188537,1,2,0:0:0:0:
50,306,188922,2,0,P|38:275|31:258,1,44.999998626709,2|2,0:0|0:0,0:0:0:0:
44,220,189306,6,0,P|97:197|134:188,2,89.9999972534181,2|2|2,0:0|0:0|0:0,0:0:0:0:
324,71,191422,1,2,0:0:0:0:
324,71,191614,2,0,P|313:105|308:132,1,44.999998626709,2|2,0:0|0:0,0:0:0:0:
333,152,191999,2,0,P|360:160|379:169,1,44.999998626709,2|2,0:0|0:0,0:0:0:0:
396,206,192383,2,0,P|379:252|366:310,2,89.9999972534181,2|2|2,0:0|0:0|0:0,0:0:0:0:
