osu file format v14

[General]
AudioFilename: audio.mp3
AudioLeadIn: 0
PreviewTime: 130845
Countdown: 0
SampleSet: Soft
StackLeniency: 0.5
Mode: 0
LetterboxInBreaks: 0
WidescreenStoryboard: 0

[Editor]
Bookmarks: 6229,18537,30845,43152,55460,67768,80076,95460,107768,120076,132383,144691,156999,169306,181614,193922
DistanceSpacing: 1
BeatDivisor: 4
GridSize: 16
TimelineZoom: 1.8

[Metadata]
Title:Paper Thin
TitleUnicode:Paper Thin
Artist:ILLENIUM, Tom DeLonge, Angels & Airwaves
ArtistUnicode:ILLENIUM, Tom DeLonge, Angels & Airwaves
Creator:Altai
Version:Collab Wounds
Source:
Tags:flowziee electronic dance music edm english air waves de longe pop punk melodic dubstep nicholas miller aaron rubin colin dieden elijah noll pete nappi fallen embers trilogy
BeatmapID:2787950
BeatmapSetID:1346246

[Difficulty]
HPDrainRate:6
CircleSize:4.2
OverallDifficulty:8.5
ApproachRate:9.2
SliderMultiplier:1.8
SliderTickRate:1

[Events]
//Background and Video events
0,0,"muhammx-nafay-insta-le_nafay-pink-skies-v2.jpg",0,0
//Break Periods
//Storyboard Layer 0 (Background)
//Storyboard Layer 1 (Fail)
//Storyboard Layer 2 (Pass)
//Storyboard Layer 3 (Foreground)
//Storyboard Layer 4 (Overlay)
//Storyboard Sound Samples

[TimingPoints]
76,384.615384615385,4,2,1,50,1,0
6229,-133.333333333333,4,2,1,50,0,0
16518,-133.333333333333,4,2,1,5,0,0
16614,-133.333333333333,4,2,1,50,0,0
18537,-90.9090909090909,4,2,1,65,0,0
18922,-111.111111111111,4,2,1,65,0,0
19306,-100,4,2,1,65,0,0
19691,-111.111111111111,4,2,1,65,0,0
20845,-100,4,2,1,65,0,0
21614,-111.111111111111,4,2,1,65,0,0
22383,-100,4,2,1,65,0,0
23152,-111.111111111111,4,2,1,65,0,0
24691,-90.9090909090908,4,2,1,65,0,0
25460,-100,4,2,1,65,0,0
26229,-111.111111111111,4,2,1,65,0,0
26999,-100,4,2,1,65,0,0
27768,-111.111111111111,4,2,1,65,0,0
28537,-100,4,2,1,65,0,0
29306,-111.111111111111,4,2,1,65,0,0
30076,-142.857142857143,4,2,1,65,0,0
30845,-142.857142857143,4,2,1,50,0,0
41614,-142.857142857143,4,2,1,55,0,0
42383,-142.857142857143,4,2,1,60,0,0
43152,-111.111111111111,4,2,1,70,0,0
43441,-111.111111111111,4,2,1,5,0,0
43537,-111.111111111111,4,2,1,70,0,0
43922,-100,4,2,1,70,0,0
44691,-111.111111111111,4,2,1,70,0,0
44979,-111.111111111111,4,2,1,5,0,0
45076,-111.111111111111,4,2,1,70,0,0
45460,-100,4,2,1,70,0,0
46229,-111.111111111111,4,2,1,70,0,0
46518,-111.111111111111,4,2,1,5,0,0
46614,-111.111111111111,4,2,1,70,0,0
46999,-100,4,2,1,70,0,0
47768,-111.111111111111,4,2,1,70,0,0
48056,-111.111111111111,4,2,1,5,0,0
48152,-111.111111111111,4,2,1,70,0,0
48537,-100,4,2,1,70,0,0
49306,-90.9090909090909,4,2,1,75,0,0
49979,-90.9090909090909,4,2,1,5,0,0
50076,-90.9090909090909,4,2,1,75,0,0
50845,-83.3333333333333,4,2,1,75,0,0
52383,-71.4285714285714,4,2,1,85,0,0
52768,-66.6666666666667,4,2,1,85,0,0
53152,-62.5,4,2,1,85,0,0
53537,-58.8235294117647,4,2,1,85,0,0
53922,-142.857142857143,4,2,1,60,0,0
55268,-142.857142857143,4,2,1,80,0,0
55460,-105.263157894737,4,2,1,85,0,0
56229,-57.1428571428571,4,2,1,95,0,1
58537,-105.263157894737,4,2,1,85,0,0
59306,-57.1428571428571,4,2,1,95,0,1
60845,-44.4444444444445,4,2,1,95,0,1
61037,-55.5555555555556,4,2,1,95,0,1
61229,-80,4,2,1,95,0,1
61422,-200,4,2,1,95,0,1
61614,-105.263157894737,4,2,1,85,0,0
62383,-57.1428571428571,4,2,1,95,0,1
64691,-105.263157894737,4,2,1,85,0,0
65460,-57.1428571428571,4,2,1,95,0,1
67191,-50,4,2,1,95,0,1
67768,-500,4,2,1,85,0,0
68537,-57.1428571428571,4,2,1,95,0,1
69306,-50,4,2,1,95,0,1
70460,-100,4,2,1,95,0,1
70845,-333.333333333333,4,2,1,85,0,0
71614,-54.054054054054,4,2,1,95,0,1
72383,-47.6190476190476,4,2,1,95,0,1
73441,-47.6190476190476,4,2,1,5,0,1
73537,-90.9090909090909,4,2,1,95,0,1
73922,-250,4,2,1,85,0,0
74691,-51.2820512820513,4,2,1,95,0,1
75460,-45.4545454545455,4,2,1,95,0,1
76614,-83.3333333333333,4,2,1,95,0,1
76999,-333.333333333333,4,2,1,85,0,0
77768,-54.054054054054,4,2,1,95,0,1
78826,-54.054054054054,4,2,1,5,0,1
78922,-54.054054054054,4,2,1,95,0,1
79210,-54.054054054054,4,2,1,5,0,1
79306,-100,4,2,1,95,0,1
79979,-100,4,2,1,5,0,1
80076,-100,4,2,1,70,0,0
80172,-100,4,2,1,45,0,0
82383,-166.666666666667,4,2,1,45,0,0
83152,-111.111111111111,4,2,1,65,0,0
85460,-95.2380952380952,4,2,1,65,0,0
86614,-111.111111111111,4,2,1,65,0,0
86999,-95.2380952380952,4,2,1,65,0,0
87287,-95.2380952380952,4,2,1,5,0,0
87383,-95.2380952380952,4,2,1,65,0,0
88152,-111.111111111111,4,2,1,65,0,0
89306,-111.111111111111,4,2,1,65,0,0
91614,-95.2380952380952,4,2,1,65,0,0
92768,-111.111111111111,4,2,1,65,0,0
93152,-95.2380952380952,4,2,1,65,0,0
93441,-95.2380952380952,4,2,1,5,0,0
93537,-111.111111111111,4,2,1,65,0,0
95460,-76.9230769230769,4,2,1,65,0,0
95749,-76.9230769230769,4,2,1,5,0,0
95845,-76.9230769230769,4,2,1,65,0,0
96229,-90.9090909090909,4,2,1,65,0,0
97768,-83.3333333333333,4,2,1,65,0,0
98537,-90.9090909090909,4,2,1,65,0,0
98826,-90.9090909090909,4,2,1,5,0,0
98922,-90.9090909090909,4,2,1,65,0,0
99306,-83.3333333333333,4,2,1,65,0,0
100076,-90.9090909090909,4,2,1,65,0,0
101614,-76.9230769230769,4,2,1,65,0,0
101902,-76.9230769230769,4,2,1,5,0,0
101999,-76.9230769230769,4,2,1,65,0,0
102383,-90.9090909090909,4,2,1,65,0,0
103922,-83.3333333333333,4,2,1,65,0,0
104691,-90.9090909090909,4,2,1,65,0,0
105460,-83.3333333333333,4,2,1,65,0,0
106229,-90.9090909090909,4,2,1,65,0,0
106999,-142.857142857143,4,2,1,65,0,0
107768,-125,4,2,1,55,0,0
108056,-125,4,2,1,5,0,0
108152,-125,4,2,1,55,0,0
108441,-125,4,2,1,5,0,0
108537,-125,4,2,1,55,0,0
109595,-125,4,2,1,5,0,0
109691,-125,4,2,1,55,0,0
109979,-125,4,2,1,5,0,0
110076,-125,4,2,1,55,0,0
111133,-125,4,2,1,5,0,0
111229,-125,4,2,1,55,0,0
111518,-125,4,2,1,5,0,0
111614,-125,4,2,1,55,0,0
112672,-125,4,2,1,5,0,0
112768,-125,4,2,1,55,0,0
113152,-111.111111111111,4,2,1,55,0,0
115460,-125,4,2,1,55,0,0
115749,-125,4,2,1,5,0,0
115845,-125,4,2,1,55,0,0
116133,-125,4,2,1,5,0,0
116229,-125,4,2,1,55,0,0
116902,-125,4,2,1,5,0,0
116999,-125,4,2,1,55,0,0
118537,-125,4,2,1,60,0,0
119306,-125,4,2,1,65,0,0
120076,-100,4,2,1,75,0,0
120364,-100,4,2,1,5,0,0
120460,-100,4,2,1,75,0,0
120845,-90.9090909090909,4,2,1,75,0,0
121133,-90.9090909090909,4,2,1,5,0,0
121229,-90.9090909090909,4,2,1,75,0,0
121614,-100,4,2,1,75,0,0
121902,-100,4,2,1,5,0,0
121999,-100,4,2,1,75,0,0
122383,-90.9090909090909,4,2,1,75,0,0
123152,-100,4,2,1,75,0,0
123441,-100,4,2,1,5,0,0
123537,-100,4,2,1,75,0,0
123922,-90.9090909090909,4,2,1,75,0,0
124210,-90.9090909090909,4,2,1,5,0,0
124306,-90.9090909090909,4,2,1,75,0,0
124691,-100,4,2,1,75,0,0
124979,-100,4,2,1,5,0,0
125076,-100,4,2,1,75,0,0
125460,-90.9090909090909,4,2,1,75,0,0
126229,-83.3333333333333,4,2,1,75,0,0
126902,-83.3333333333333,4,2,1,5,0,0
126999,-83.3333333333333,4,2,1,75,0,0
127768,-76.9230769230769,4,2,1,75,0,0
129306,-66.6666666666667,4,2,1,85,0,0
129691,-62.5,4,2,1,85,0,0
130076,-58.8235294117647,4,2,1,85,0,0
130460,-55.5555555555556,4,2,1,85,0,0
130845,-142.857142857143,4,2,1,60,0,0
132191,-142.857142857143,4,2,1,80,0,0
132383,-105.263157894737,4,2,1,85,0,0
133152,-57.1428571428571,4,2,1,95,0,1
135460,-105.263157894737,4,2,1,85,0,0
136229,-57.1428571428571,4,2,1,95,0,1
137768,-44.4444444444445,4,2,1,95,0,1
137960,-55.5555555555556,4,2,1,95,0,1
138152,-80,4,2,1,95,0,1
138345,-200,4,2,1,95,0,1
138537,-105.263157894737,4,2,1,85,0,0
139306,-57.1428571428571,4,2,1,95,0,1
141614,-105.263157894737,4,2,1,85,0,0
142383,-57.1428571428571,4,2,1,95,0,1
144114,-40,4,2,1,95,0,1
144691,-500,4,2,1,85,0,0
145460,-55.5555555555556,4,2,1,95,0,1
146229,-50,4,2,1,95,0,1
147383,-100,4,2,1,95,0,1
147768,-333.333333333333,4,2,1,85,0,0
148537,-52.6315789473684,4,2,1,95,0,1
149306,-47.6190476190476,4,2,1,95,0,1
150364,-47.6190476190476,4,2,1,5,0,1
150460,-90.9090909090909,4,2,1,95,0,1
150845,-250,4,2,1,85,0,0
151614,-50,4,2,1,95,0,1
152383,-45.4545454545455,4,2,1,95,0,1
153537,-83.3333333333333,4,2,1,95,0,1
153922,-333.333333333333,4,2,1,85,0,0
154691,-100,4,2,1,85,0,0
155460,-100,4,2,1,85,0,1
156037,-100,4,2,1,85,0,0
156422,-100,4,2,1,85,0,1
156999,-100,4,2,1,85,0,0
157768,-47.6190476190476,4,2,1,90,0,1
158056,-47.6190476190476,4,2,1,5,0,1
158152,-47.6190476190476,4,2,1,90,0,1
159595,-47.6190476190476,4,2,1,5,0,1
159691,-47.6190476190476,4,2,1,90,0,1
161133,-47.6190476190476,4,2,1,5,0,1
161229,-47.6190476190476,4,2,1,90,0,1
163056,-47.6190476190476,4,2,1,5,0,1
163152,-47.6190476190476,4,2,1,90,0,1
164210,-47.6190476190476,4,2,1,5,0,1
164306,-47.6190476190476,4,2,1,90,0,1
164979,-47.6190476190476,4,2,1,5,0,1
165076,-47.6190476190476,4,2,1,90,0,1
165749,-47.6190476190476,4,2,1,5,0,1
165845,-47.6190476190476,4,2,1,90,0,1
167768,-100,4,2,1,90,0,1
169306,-250,4,2,1,85,0,0
170076,-47.6190476190476,4,2,1,90,0,1
170364,-47.6190476190476,4,2,1,5,0,1
170460,-47.6190476190476,4,2,1,90,0,1
171902,-47.6190476190476,4,2,1,5,0,1
171999,-47.6190476190476,4,2,1,90,0,1
173441,-47.6190476190476,4,2,1,5,0,1
173537,-47.6190476190476,4,2,1,90,0,1
175364,-47.6190476190476,4,2,1,5,0,1
175460,-47.6190476190476,4,2,1,90,0,1
176518,-47.6190476190476,4,2,1,5,0,1
176614,-47.6190476190476,4,2,1,90,0,1
177287,-47.6190476190476,4,2,1,5,0,1
177383,-47.6190476190476,4,2,1,90,0,1
178056,-47.6190476190476,4,2,1,5,0,1
178152,-47.6190476190476,4,2,1,90,0,1
180076,-47.6190476190476,4,2,1,90,0,1
180364,-47.6190476190476,4,2,1,5,0,1
180460,-47.6190476190476,4,2,1,90,0,1
180749,-47.6190476190476,4,2,1,5,0,1
180845,-100,4,2,1,90,0,1
181518,-100,4,2,1,5,0,1
181614,-166.666666666667,4,2,1,70,0,0
181710,-166.666666666667,4,2,1,50,0,0

[Colours]
Combo1 : 58,100,243
Combo2 : 245,82,241

[HitObjects]
0,352,6229,6,0,B|46:377|96:341|66:297|121:257|166:282,1,202.500007724762,2|2,3:2|3:3,0:0:0:0:
269,289,6999,6,0,P|251:317|249:351,1,67.5000025749208,10|2,0:0|0:0,0:0:0:0:
321,369,7383,2,0,P|338:340|340:306,1,67.5000025749208,2|2,3:2|0:0,0:0:0:0:
456,298,7768,2,0,P|444:237|433:151,1,135.000005149842,2|2,0:2|0:0,0:0:0:0:
470,97,8345,1,2,3:3:0:0:
363,203,8537,6,0,P|325:156|248:170,1,135.000005149842,10|2,0:0|0:3,0:0:0:0:
204,219,9114,1,2,0:0:0:0:
134,136,9306,5,2,0:0:0:0:
134,136,9499,1,2,0:0:0:0:
224,93,9691,2,0,P|235:47|238:17,1,67.5000025749208,2|2,0:0|3:3,0:0:0:0:
296,220,10076,1,10,0:0:0:0:
296,220,10652,5,2,0:0:0:0:
359,126,10845,2,0,B|434:106|390:65|470:56,1,135.000005149842,2|2,0:0|0:0,0:0:0:0:
401,0,11422,1,2,3:3:0:0:
505,151,11614,6,0,P|492:188|486:226,1,67.5000025749208,10|2,0:0|0:3,0:0:0:0:
417,243,11999,2,0,P|430:280|436:318,1,67.5000025749208,2|2,0:3|0:3,0:0:0:0:
486,362,12383,1,2,3:3:0:0:
486,362,12960,5,2,3:2:0:0:
355,318,13152,2,0,P|318:333|289:353,1,67.5000025749208,10|2,0:0|0:0,0:0:0:0:
255,278,13537,2,0,P|292:263|321:243,1,67.5000025749208,2|2,3:2|0:0,0:0:0:0:
191,361,13922,6,0,P|157:299|100:305,1,135.000005149842,2|2,0:0|0:0,0:0:0:0:
42,248,14499,1,2,3:3:0:0:
126,182,14691,2,0,P|140:117|159:42,1,135.000005149842,10|2,0:0|0:3,0:0:0:0:
92,12,15268,5,2,0:0:0:0:
184,127,15460,1,2,3:2:0:0:
184,127,15652,1,2,0:0:0:0:
253,61,15845,2,0,P|289:48|324:46,1,67.5000025749208,2|2,0:0|3:3,0:0:0:0:
373,185,16229,6,0,P|320:193|258:215,1,101.250003862381,10|0,0:0|0:0,0:0:0:0:
274,207,16614,1,2,3:2:0:0:
305,121,16806,1,2,0:0:0:0:
512,215,16999,6,0,P|483:143|431:144,1,135.000005149842,2|2,0:0|0:0,0:0:0:0:
378,91,17576,1,2,3:3:0:0:
415,345,17768,2,0,P|428:303|441:276,1,67.5000025749208,10|2,0:0|0:3,0:0:0:0:
483,369,18152,2,0,P|496:327|509:300,1,67.5000025749208,2|2,0:0|0:3,0:0:0:0:
254,107,18537,6,0,B|208:82|158:117|188:161|134:201|89:176,1,198.000006042481,4|2,1:2|0:2,0:2:0:0:
92,177,19306,2,0,P|85:216|66:276,1,90,10|2,0:2|0:2,0:2:0:0:
97,348,19691,1,2,1:2:0:0:
97,348,19883,1,2,0:2:0:0:
254,268,20076,6,0,P|264:229|288:177,1,80.9999975280763,2|2,0:2|0:3,0:2:0:0:
183,334,20460,2,0,P|172:295|166:238,1,80.9999975280763,2|2,0:2|1:3,0:2:0:0:
395,350,20845,2,0,P|378:270|365:173,1,180,10|2,0:2|0:3,0:2:0:0:
430,126,21422,1,2,0:2:0:0:
353,33,21614,6,0,P|312:25|255:22,1,80.9999975280763,2|2,1:2|0:3,3:2:0:0:
174,134,21999,2,0,P|166:93|163:36,1,80.9999975280763,2|2,0:2|0:3,0:2:0:0:
364,172,22383,2,0,B|314:155|266:187|293:197|247:231|200:215,1,180,10|2,0:2|1:2,0:2:0:0:
147,149,22960,1,2,0:2:0:0:
54,229,23152,6,0,P|35:271|30:313,1,80.9999975280763,2|2,0:2|0:3,0:2:0:0:
107,336,23537,2,0,P|123:299|130:259,1,80.9999975280763,2|2,0:2|1:3,0:2:0:0:
52,143,23922,5,10,0:2:0:0:
68,149,24114,1,8,0:3:0:0:
100,57,24306,1,8,0:3:0:0:
9,24,24499,1,8,0:3:0:0:
160,182,24691,6,0,B|228:179|215:113|200:48|281:44,1,198.000006042481,4|2,1:2|0:3,0:2:0:0:
273,44,25460,2,0,P|325:55|367:59,1,90,10|2,0:2|0:2,0:2:0:0:
446,38,25845,1,2,1:2:0:0:
446,38,26037,1,2,0:2:0:0:
420,134,26229,6,0,P|384:151|342:150,1,80.9999975280763,2|2,0:2|0:3,0:2:0:0:
369,245,26614,2,0,P|405:227|445:228,1,80.9999975280763,2|2,0:2|1:3,0:2:0:0:
251,138,26999,2,0,P|275:216|293:330,1,180,10|2,0:2|0:3,0:2:0:0:
36,358,27768,5,2,1:2:0:0:
8,280,27960,1,2,0:2:0:0:
91,292,28152,2,0,P|125:306|166:323,1,80.9999975280763,2|2,0:2|0:3,0:2:0:0:
172,137,28537,2,0,P|102:131|60:226,1,180,10|2,0:2|1:2,0:2:0:0:
133,200,29114,1,2,0:2:0:0:
225,254,29306,6,0,P|229:213|245:177,1,80.9999975280763,2|2,0:2|0:3,0:2:0:0:
317,74,29691,2,0,P|333:110|337:150,1,80.9999975280763,2|2,0:2|1:3,0:2:0:0:
485,276,30076,6,0,B|438:255|387:295|410:310|361:340|309:322,1,188.999994232178,10|2,0:2|0:2,0:2:0:0:
83,383,30845,6,0,P|117:321|172:327,2,125.999996154785,6|2|2,1:2|0:0|0:0,0:0:0:0:
412,207,32191,5,2,0:0:0:0:
412,207,32383,2,0,P|378:145|323:151,2,125.999996154785,2|2|2,0:2|0:0|0:0,0:0:0:0:
58,263,33922,6,0,P|43:192|12:150,2,125.999996154785,2|2|2,0:2|0:0|0:0,0:0:0:0:
451,364,35268,5,2,0:0:0:0:
451,364,35460,2,0,P|466:293|497:251,1,125.999996154785,2|2,0:2|0:0,0:0:0:0:
392,140,36229,2,0,B|433:201|379:273|350:220|276:279|308:346,1,251.999992309571,2|10,0:0|0:0,0:0:0:0:
108,255,37383,6,0,P|134:279|151:312,1,62.9999980773926,2|2,0:0|0:0,0:0:0:0:
204,174,37768,2,0,P|170:184|133:182,1,62.9999980773926,2|2,0:0|0:0,0:0:0:0:
226,297,38152,2,0,P|233:262|253:231,1,62.9999980773926,2|2,0:0|0:0,0:0:0:0:
96,257,38537,6,0,P|134:302|154:376,2,125.999996154785,2|2|2,0:0|0:0|0:0,0:0:0:0:
302,109,40652,5,2,0:0:0:0:
355,180,40845,1,10,0:0:0:0:
355,180,41037,1,2,0:0:0:0:
435,141,41229,1,2,0:0:0:0:
435,141,41422,1,2,0:0:0:0:
470,304,41614,6,0,P|485:258|499:237,1,62.9999980773926,2|0,3:2|3:2,0:0:0:0:
369,303,41999,2,0,P|389:338|395:366,1,62.9999980773926,2|0,3:2|3:2,0:0:0:0:
239,361,42383,5,10,3:2:0:0:
252,258,42576,1,0,3:2:0:0:
150,244,42768,1,0,3:2:0:0:
136,346,42960,1,0,3:2:0:0:
254,233,43152,6,0,P|260:169|278:83,1,121.499996292114,6|0,1:2|0:2,0:2:0:0:
299,39,43537,2,0,P|341:51|380:13,1,80.9999975280763,2|0,1:2|0:2,0:2:0:0:
512,183,43922,2,0,B|462:194|421:172|442:147|393:114|333:137,1,180,2|0,1:2|1:2,0:2:0:0:
256,151,44499,1,2,0:2:0:0:
382,226,44691,6,0,P|391:274|413:353,1,121.499996292114,2|0,1:2|0:2,0:2:0:0:
333,364,45076,2,0,P|298:336|253:338,1,80.9999975280763,2|0,1:2|0:2,0:2:0:0:
141,220,45460,2,0,P|80:233|71:348,1,180,2|0,1:2|1:2,0:2:0:0:
61,336,46229,6,0,P|58:278|41:199,1,121.499996292114,2|0,1:2|0:2,0:2:0:0:
0,144,46614,2,0,P|34:106|60:111,1,80.9999975280763,2|0,1:2|0:2,0:2:0:0:
191,58,46999,2,0,B|209:102|176:151|151:131|129:172|140:221,1,180,2|0,1:2|1:2,0:2:0:0:
179,298,47576,1,2,0:2:0:0:
299,218,47768,6,0,P|352:223|440:241,1,121.499996292114,2|0,1:2|0:2,0:2:0:0:
471,301,48152,2,0,P|511:258|494:213,1,80.9999975280763,2|0,1:2|0:2,0:2:0:0:
503,110,48537,2,0,P|407:117|376:50,1,180,2|0,1:2|1:2,0:2:0:0:
446,4,49114,1,2,0:2:0:0:
257,13,49306,6,0,P|272:59|282:122,1,99.0000030212403,0|0,1:2|0:2,0:2:0:0:
138,200,49691,2,0,P|151:124|175:50,1,148.50000453186,0|0,1:2|0:2,0:2:0:0:
184,29,50076,1,2,1:2:0:0:
106,14,50268,1,2,0:2:0:0:
175,141,50460,1,2,1:2:0:0:
290,118,50652,1,2,0:2:0:0:
361,232,50845,6,0,P|308:225|246:209,1,107.999996704102,2|0,1:2|0:2,0:2:0:0:
336,342,51229,2,0,P|389:335|451:319,1,107.999996704102,2|0,1:2|0:2,0:2:0:0:
512,66,51614,2,0,P|422:47|387:162,1,215.999993408203,2|0,1:2|1:2,0:2:0:0:
445,333,52191,1,0,0:2:0:0:
263,317,52383,6,0,P|252:277|255:247,1,62.9999980773926,0|0,1:2|0:2,0:2:0:0:
175,226,52576,2,0,P|195:189|218:170,1,62.9999980773926,0|0,1:2|0:2,0:2:0:0:
368,210,52768,6,0,P|380:165|376:132,1,67.5000025749208,0|0,1:2|0:2,0:2:0:0:
465,109,52961,2,0,P|442:69|416:48,1,67.5000025749208,2|0,1:2|0:2,0:2:0:0:
132,40,53152,6,0,P|162:26|212:22,1,72,2|0,1:2|0:2,0:2:0:0:
343,84,53345,2,0,P|364:109|380:156,1,72,2|0,1:2|0:2,0:2:0:0:
23,186,53537,6,0,P|42:158|77:135,1,76.5000014591217,2|0,1:2|0:2,0:2:0:0:
227,118,53729,2,0,P|257:129|295:162,1,76.5000014591217,2|0,1:2|0:2,0:2:0:0:
105,361,53922,6,0,B|35:368|66:301|-7:309,2,125.999996154785,2|2|2,0:0|0:0|0:0,0:0:0:0:
236,130,55268,5,2,0:0:0:0:
437,303,55460,2,0,P|476:268|515:267,2,85.4999977169037,2|2|2,1:2|0:0|0:0,0:0:0:0:
466,192,56037,1,0,1:0:0:0:
154,308,56229,6,0,P|147:270|126:228,1,78.7500007510185,14|0,0:2|0:0,0:0:0:0:
236,130,56422,2,0,P|272:142|319:145,1,78.7500007510185,2|0,0:3|0:0,0:0:0:0:
349,290,56614,2,0,P|320:315|294:354,1,78.7500007510185,2|0,0:3|0:0,0:0:0:0:
248,244,56806,5,2,0:0:0:0:
248,244,56999,1,0,1:0:0:0:
77,129,57191,6,0,P|124:115|158:108,1,78.7500007510185,2|0,0:0|0:0,0:0:0:0:
167,6,57383,2,0,P|88:22|14:44,1,157.500001502037,2|2,0:0|0:3,0:0:0:0:
24,310,57768,6,0,P|10:263|3:229,1,78.7500007510185,14|0,0:0|0:0,0:0:0:0:
77,129,57960,2,0,P|124:115|158:108,1,78.7500007510185,2|0,0:3|0:0,0:0:0:0:
258,182,58152,2,0,P|272:229|279:263,1,78.7500007510185,2|0,0:3|0:0,0:0:0:0:
205,363,58345,2,0,P|158:377|124:384,1,78.7500007510185,2|0,0:0|0:0,0:0:0:0:
0,133,58537,6,0,P|14:180|23:217,1,85.4999977169037,2|2,1:2|0:0,0:0:0:0:
77,129,58922,2,0,P|65:87|55:46,1,85.4999977169037,2|0,0:2|1:0,0:0:0:0:
443,237,59306,6,0,P|411:190|378:184,1,78.7500007510185,14|0,0:0|0:0,0:0:0:0:
258,182,59499,2,0,P|234:232|244:264,1,78.7500007510185,2|0,0:3|0:0,0:0:0:0:
304,369,59691,2,0,P|359:364|381:339,1,78.7500007510185,2|0,0:3|0:0,0:0:0:0:
336,266,59883,5,2,0:0:0:0:
336,266,60076,1,0,1:0:0:0:
173,109,60268,6,0,P|188:64|195:30,1,78.7500007510185,2|0,0:0|0:0,0:0:0:0:
311,29,60460,2,0,P|286:102|264:193,1,157.500001502037,2|2,0:0|0:3,0:0:0:0:
501,369,60845,6,0,P|473:322|420:312,1,101.250003862381,14|0,0:0|0:0,0:0:0:0:
456,143,61037,2,0,P|410:160|387:197,1,80.9999975280763,4|0,3:3|0:0,0:0:0:0:
269,124,61229,2,0,P|263:165|270:191,1,56.25,4|0,3:3|0:0,0:0:0:0:
194,248,61422,2,0,P|206:259|213:262,1,22.5,4|0,3:3|0:0,0:0:0:0:
257,330,61614,5,0,1:0:0:0:
257,330,61806,1,2,0:0:0:0:
131,368,61999,2,0,P|122:323|110:284,1,85.4999977169037,2|0,0:0|1:0,0:0:0:0:
486,227,62383,6,0,P|471:168|462:140,1,78.7500007510185,14|0,0:0|0:0,0:0:0:0:
321,123,62576,2,0,P|277:165|257:187,1,78.7500007510185,2|0,0:3|0:0,0:0:0:0:
313,317,62768,2,0,P|371:333|400:339,1,78.7500007510185,2|0,0:3|0:0,0:0:0:0:
379,224,62960,5,2,0:0:0:0:
379,224,63152,1,0,1:0:0:0:
243,96,63345,6,0,P|281:104|319:116,1,78.7500007510185,2|0,0:0|0:0,0:0:0:0:
222,0,63537,2,0,P|301:16|375:38,1,157.500001502037,2|2,0:0|0:3,0:0:0:0:
305,239,63922,6,0,P|291:195|259:177,1,78.7500007510185,14|0,0:0|0:0,0:0:0:0:
168,97,64114,2,0,P|124:110|106:142,1,78.7500007510185,2|0,0:3|0:0,0:0:0:0:
27,233,64306,2,0,P|40:276|72:294,1,78.7500007510185,2|0,0:3|0:0,0:0:0:0:
163,375,64499,2,0,P|206:361|224:329,1,78.7500007510185,2|0,0:0|0:0,0:0:0:0:
176,171,64691,5,0,1:0:0:0:
176,171,64883,2,0,P|158:213|150:262,1,85.4999977169037,2|2,0:2|0:0,0:0:0:0:
27,233,65268,1,2,1:2:0:0:
304,349,65460,6,0,P|339:327|378:329,1,78.7500007510185,14|0,0:0|0:0,0:0:0:0:
285,98,65652,2,0,P|286:139|265:172,1,78.7500007510185,2|0,0:0|0:0,0:0:0:0:
504,206,65845,2,0,P|467:186|449:151,1,78.7500007510185,2|0,0:0|0:0,0:0:0:0:
239,239,66037,5,2,0:0:0:0:
453,282,66229,2,0,B|458:326|499:339|499:339|455:339|434:380,1,157.500001502037,2|2,1:2|0:3,0:0:0:0:
223,335,66614,2,0,B|217:290|176:277|176:277|220:277|241:236,1,157.500001502037,2|2,0:0|0:3,0:0:0:0:
350,59,66999,5,14,0:0:0:0:
339,307,67191,2,2,P|355:226|380:122,2,180,2|2|2,0:3|0:3|0:0,0:1:0:0:
238,72,67768,6,0,P|228:34|224:15,1,54,2|0,1:2|1:0,0:0:0:0:
123,213,68537,5,14,0:0:0:0:
222,150,68729,2,0,P|180:127|157:87,1,78.7500007510185,2|0,0:3|0:0,0:0:0:0:
18,158,68922,2,0,P|19:204|-3:244,1,78.7500007510185,2|0,0:3|0:0,0:0:0:0:
127,329,69114,2,0,P|166:304|213:304,1,78.7500007510185,2|0,0:0|0:0,0:0:0:0:
335,362,69306,5,0,1:2:0:0:
335,362,69499,2,0,P|351:258|376:164,2,180,2|2|2,0:0|0:0|0:3,0:0:0:0:
448,317,70076,2,0,P|462:270|512:263,1,90,14|0,0:0|0:0,0:0:0:0:
331,205,70268,2,0,P|326:172|276:120,1,90,2|0,0:3|0:0,0:0:0:0:
421,57,70460,6,0,P|454:27|475:16,1,45,2|0,0:3|0:0,0:0:0:0:
464,31,70652,2,0,P|446:44|430:61,1,45,2|0,0:0|0:0,0:0:0:0:
222,71,70845,5,2,1:2:0:0:
292,49,71037,1,2,0:0:0:0:
222,71,71229,2,0,P|205:64|188:60,1,26.9999991760254,2|0,0:0|1:0,0:0:0:0:
361,237,71614,5,14,0:0:0:0:
277,139,71807,2,0,P|318:114|371:106,1,83.2499996824265,2|0,0:3|0:0,0:0:0:0:
317,357,71999,2,0,P|274:333|241:291,1,83.2499996824265,2|0,0:3|0:0,0:0:0:0:
486,213,72191,2,0,P|486:261|467:310,1,83.2499996824265,2|0,0:0|0:0,0:0:0:0:
188,206,72383,5,0,1:0:0:0:
188,206,72576,2,0,P|91:225|-2:259,2,188.999994232178,2|2|2,0:0|0:0|0:3,0:0:0:0:
196,368,73152,2,2,P|210:248|237:83,1,283.499991348267,14|0,0:0|0:0,0:1:0:0:
143,39,73537,6,0,P|116:37|91:43,1,49.5000015106202,4|0,3:0|0:0,0:0:0:0:
86,53,73729,2,0,P|110:48|134:50,1,49.5000015106202,4|0,3:0|0:0,0:0:0:0:
325,91,73922,6,0,P|329:80|330:69,1,18,0|0,1:0|0:0,0:0:0:0:
322,47,74114,2,0,P|326:36|327:25,1,18,2|0,0:0|0:0,0:0:0:0:
415,47,74306,2,0,L|423:94,1,36,2|0,0:0|1:0,0:0:0:0:
295,249,74691,5,14,0:0:0:0:
325,91,74883,2,0,P|280:98|235:98,1,87.7500003347397,2|0,0:3|0:0,0:0:0:0:
416,353,75076,2,0,P|432:310|454:271,1,87.7500003347397,2|0,0:3|0:0,0:0:0:0:
143,302,75268,2,0,P|171:337|194:376,1,87.7500003347397,2|0,0:0|0:0,0:0:0:0:
459,144,75460,5,0,1:0:0:0:
459,144,75652,2,0,P|370:106|350:14,2,198.000006042481,2|2|2,0:0|0:0|0:3,0:0:0:0:
318,210,76229,2,0,P|255:193|207:198,1,99.0000030212403,14|0,0:0|0:0,0:0:0:0:
118,134,76422,2,0,P|55:151|11:146,1,99.0000030212403
49,340,76614,6,0,P|51:313|62:281,1,53.9999983520508,2|0,0:3|0:0,0:0:0:0:
53,273,76806,2,0,P|45:298|42:325,1,53.9999983520508,2|0,0:0|0:0,0:0:0:0:
262,370,76999,6,0,P|267:321|279:282,1,80.9999975280763,0|2,1:0|1:2,0:0:0:0:
404,157,77768,5,14,0:0:0:0:
239,63,77960,2,0,P|246:106|282:147,1,83.2499996824265,2|0,0:0|0:0,0:0:0:0:
402,245,78152,2,0,P|445:237|486:201,1,83.2499996824265,2|0,0:0|0:0,0:0:0:0:
416,5,78345,2,0,P|393:45|388:102,1,83.2499996824265,2|0,0:0|0:0,0:0:0:0:
226,228,78537,6,0,B|130:261|118:194|105:128|-5:179,1,249.749999047279,2|0,1:2|0:0,0:0:0:0:
29,263,78922,2,0,B|130:261|118:194|107:128|229:138,1,249.749999047279,2|0,0:0|0:0,0:0:0:0:
402,245,79306,6,0,P|347:135|482:165,1,315,14|0,0:0|0:0,0:0:0:0:
409,172,80076,5,4,1:2:0:0:
307,207,80652,5,0,1:0:0:0:
307,207,80845,1,8,0:0:0:0:
219,137,81229,5,0,1:0:0:0:
219,137,81422,1,2,0:3:0:0:
94,219,82191,5,0,1:0:0:0:
94,219,82383,2,0,P|84:169|80:148,1,53.9999983520508,8|2,0:0|0:3,0:0:0:0:
24,233,82768,2,0,P|14:183|10:162,1,53.9999983520508,2|2,0:3|0:3,0:0:0:0:
123,371,83152,6,0,P|152:299|231:321,1,161.999995056153,4|2,1:2|0:3,0:0:0:0:
305,268,83729,1,2,0:3:0:0:
257,112,83922,5,10,0:0:0:0:
257,112,84114,1,2,0:0:0:0:
155,181,84306,1,2,1:2:0:0:
83,166,84499,1,2,0:0:0:0:
305,268,84691,6,0,P|352:247|389:242,1,80.9999975280763,2|2,0:0|0:3,0:0:0:0:
331,338,85076,2,0,P|378:317|415:312,1,80.9999975280763,2|2,0:0|1:3,0:0:0:0:
502,228,85460,6,0,P|478:147|440:28,1,188.999994232178,10|2,0:0|0:3,0:0:0:0:
507,0,86037,1,2,0:0:0:0:
375,118,86229,5,2,1:2:0:0:
375,118,86422,1,2,0:0:0:0:
502,228,86614,2,0,P|471:204|426:210,1,80.9999975280763,2|2,0:0|0:3,0:0:0:0:
331,338,86999,6,0,P|343:262|359:185,1,141.749995674133,10|0,0:0|0:0,0:0:0:0:
350,191,87383,1,2,1:3:0:0:
260,260,87576,1,2,0:0:0:0:
186,119,87768,5,2,0:0:0:0:
186,119,87960,1,2,0:0:0:0:
67,262,88152,2,0,P|123:248|160:246,1,80.9999975280763,2|2,0:0|1:3,0:0:0:0:
254,369,88537,5,10,0:2:0:0:
202,309,88729,1,8,0:3:0:0:
350,191,88921,1,8,0:3:0:0:
186,119,89114,1,8,0:3:0:0:
323,311,89306,6,0,P|307:239|281:140,1,161.999995056153,4|2,1:2|0:3,0:0:0:0:
323,71,89883,1,2,0:3:0:0:
105,2,90076,5,10,0:0:0:0:
105,2,90268,1,2,0:0:0:0:
186,119,90460,1,2,1:2:0:0:
227,53,90653,1,2,0:0:0:0:
27,187,90845,6,0,P|19:147|1:111,1,80.9999975280763,2|2,0:0|0:3,0:0:0:0:
98,167,91229,2,0,P|90:127|73:90,1,80.9999975280763,2|2,0:0|1:3,0:0:0:0:
1,358,91614,6,0,P|38:276|126:291,1,188.999994232178,10|2,0:0|0:3,0:0:0:0:
150,362,92191,1,2,0:0:0:0:
288,233,92383,6,0,P|296:202|308:170,1,62.9999980773926,2|2,1:2|0:2,0:0:0:0:
123,288,92768,2,0,P|107:225|87:186,1,80.9999975280763,2|2,0:0|0:3,0:0:0:0:
0,137,93152,6,0,P|28:51|55:2,1,141.749995674133,10|0,0:0|0:0,0:0:0:0:
59,14,93537,2,0,P|70:57|92:93,1,80.9999975280763,2|2,1:3|0:3,0:0:0:0:
24,236,93922,5,2,0:0:0:0:
24,236,94114,1,2,0:0:0:0:
230,163,94306,2,0,P|188:151|151:146,1,80.9999975280763,2|2,0:0|1:3,0:0:0:0:
123,288,94691,5,10,0:0:0:0:
258,89,94883,1,8,0:0:0:0:
258,89,95076,1,2,1:3:0:0:
320,258,95268,1,8,0:0:0:0:
447,51,95460,6,0,B|429:-4|342:24|359:103|420:138,1,175.499991966248,4|0,1:2|0:0,0:0:0:0:
464,194,95845,5,2,0:3:0:0:
462,208,95941,1,2,0:3:0:0:
461,223,96037,1,2,0:3:0:0:
460,237,96133,1,2,0:3:0:0:
420,306,96229,5,10,0:0:0:0:
420,306,96422,1,2,0:0:0:0:
301,260,96614,1,2,1:2:0:0:
152,334,96806,1,2,0:0:0:0:
32,299,96999,6,0,P|19:250|-3:201,1,99.0000030212403,2|2,0:0|0:3,0:0:0:0:
168,342,97383,2,0,P|181:293|186:239,1,99.0000030212403,2|2,0:0|1:3,0:0:0:0:
34,82,97768,2,0,B|97:61|142:112|112:121|167:164|230:138,1,215.999993408203,10|2,0:0|0:3,0:0:0:0:
251,50,98345,1,2,0:3:0:0:
448,39,98537,6,0,P|398:62|339:148,1,148.50000453186,2|0,1:2|0:0,0:0:0:0:
271,231,98922,5,2,0:0:0:0:
259,234,99018,1,2,0:3:0:0:
246,236,99114,1,2,0:3:0:0:
234,237,99210,1,2,0:3:0:0:
265,307,99306,6,0,L|375:293,1,107.999996704102,10|2,0:0|0:3,0:0:0:0:
456,163,99691,2,0,L|345:149,1,107.999996704102,2|2,1:3|0:0,0:0:0:0:
176,91,100076,5,2,0:0:0:0:
325,14,100268,1,2,0:0:0:0:
176,91,100460,2,0,P|234:75|290:68,1,99.0000030212403,2|2,0:0|1:3,0:0:0:0:
154,218,100845,5,10,0:0:0:0:
25,193,101037,1,2,0:3:0:0:
25,193,101133,1,2,0:3:0:0:
25,193,101229,1,2,0:3:0:0:
47,66,101422,1,2,0:3:0:0:
236,174,101614,6,0,B|263:216|237:258|237:258|277:228|323:244,1,175.499991966248,4|0,1:2|0:0,0:0:0:0:
382,306,101999,5,2,0:3:0:0:
379,320,102095,1,2,0:3:0:0:
377,334,102191,1,2,0:3:0:0:
374,349,102287,1,2,0:3:0:0:
454,341,102383,5,10,0:0:0:0:
454,341,102576,1,2,0:0:0:0:
405,220,102768,1,2,1:2:0:0:
488,79,102960,1,2,0:0:0:0:
303,99,103152,6,0,P|321:45|343:1,1,99.0000030212403,2|2,0:0|0:3,0:0:0:0:
218,155,103537,2,0,P|206:99|203:50,1,99.0000030212403,2|2,0:0|1:3,0:0:0:0:
402,196,103922,2,0,P|317:201|251:329,1,215.999993408203,10|2,0:0|0:3,0:0:0:0:
172,358,104499,1,2,0:0:0:0:
52,195,104691,5,2,1:2:0:0:
146,262,104883,1,2,0:0:0:0:
35,186,105076,5,2,0:0:0:0:
38,200,105172,1,2,0:3:0:0:
40,214,105268,1,2,0:3:0:0:
43,229,105364,1,2,0:3:0:0:
63,306,105460,5,10,0:0:0:0:
63,306,105652,1,2,0:3:0:0:
178,190,105845,2,0,P|212:147|259:94,1,107.999996704102,0|2,1:0|0:2,0:0:0:0:
43,33,106229,5,2,0:0:0:0:
157,79,106422,1,2,0:0:0:0:
19,27,106614,2,0,P|53:69|100:122,1,99.0000030212403,2|2,0:0|1:3,0:0:0:0:
299,41,106999,6,0,B|346:20|397:60|374:75|423:105|475:87,1,188.999994232178,10|2,0:2|0:2,0:2:0:0:
494,328,107768,6,0,P|473:268|432:257,1,108,6|0,1:2|0:0,0:0:0:0:
426,247,108152,2,0,P|374:260|363:325,1,108,2|0,0:0|0:0,0:0:0:0:
344,312,108537,2,0,P|359:343|364:382,2,72,2|0|0,0:0|0:0|0:0,0:0:0:0:
299,225,109114,1,2,0:0:0:0:
162,382,109306,6,0,P|174:317|187:272,1,108,2|0,0:0|0:0,0:0:0:0:
184,262,109691,2,0,P|131:251|71:233,1,108,2|0,0:0|0:0,0:0:0:0:
67,243,110076,2,0,P|83:277|91:318,1,72,2|0,0:0|0:0,0:0:0:0:
0,266,110460,2,0,P|15:297|24:335,1,72
156,171,110845,6,0,P|168:117|187:68,1,108,2|0,0:0|0:0,0:0:0:0:
198,64,111229,2,0,P|243:74|302:96,1,108,2|0,0:0|0:0,0:0:0:0:
313,92,111614,2,0,P|328:55|335:21,2,72,2|0|0,0:0|0:0|0:0,0:0:0:0:
263,0,112191,1,2,0:0:0:0:
370,205,112383,6,0,P|401:151|442:150,1,108,2|0,0:0|0:0,0:0:0:0:
454,147,112768,2,0,P|484:173|490:213,1,72,2|0,0:0|0:0,0:0:0:0:
283,360,113152,6,0,B|267:345|253:340|253:340|297:278|291:222|291:222|305:277|367:320|367:320|356:329|347:348,1,323.999990112305,2|10,0:0|0:0,0:0:0:0:
120,277,114306,5,2,0:0:0:0:
120,277,114499,1,2,0:0:0:0:
37,372,114691,5,2,0:0:0:0:
13,297,114883,1,2,0:0:0:0:
224,170,115076,5,2,0:0:0:0:
215,240,115268,1,2,0:0:0:0:
22,157,115460,6,0,P|74:137|64:84,1,108,2|0,0:0|0:0,0:0:0:0:
73,80,115845,2,0,P|68:27|126:31,1,108,2|0,0:0|0:0,0:0:0:0:
123,17,116229,2,0,B|187:16|248:66|196:98|244:173|324:133,1,252,2|0,0:0|0:0,0:0:0:0:
384,168,116999,6,0,P|393:133|412:101,2,72
335,47,117576,5,2,0:0:0:0:
468,165,117768,1,10,0:0:0:0:
468,165,117960,1,2,0:0:0:0:
321,274,118152,1,2,0:0:0:0:
321,274,118345,1,2,0:0:0:0:
481,362,118537,6,0,P|496:316|517:285,1,72,2|0,3:2|3:2,0:0:0:0:
401,242,118922,2,0,P|381:207|374:170,1,72,2|0,3:2|3:2,0:0:0:0:
180,362,119306,5,10,3:2:0:0:
196,219,119499,1,0,3:2:0:0:
57,201,119691,1,0,3:2:0:0:
37,341,119883,1,0,3:2:0:0:
201,204,120076,6,0,P|193:135|172:61,1,135,6|0,1:2|0:0,0:0:0:0:
43,74,120460,2,0,P|86:63|110:14,1,90,2|0,1:2|0:0,0:0:0:0:
309,20,120845,2,0,P|269:87|317:142,1,148.50000453186,2|0,1:2|0:0,0:0:0:0:
380,109,121229,1,0,1:0:0:0:
380,109,121422,1,2,0:2:0:0:
488,261,121614,6,0,P|417:254|336:276,1,135,2|0,1:2|0:0,0:0:0:0:
275,368,121999,2,0,P|273:319|256:261,1,90,2|0,1:2|0:0,0:0:0:0:
118,186,122383,2,0,P|45:217|80:317,1,198.000006042481,2|0,1:2|1:0,0:0:0:0:
72,313,123152,6,0,P|114:282|188:247,1,135,2|0,1:2|0:0,0:0:0:0:
270,182,123537,2,0,P|251:134|275:82,1,90,2|0,1:2|0:0,0:0:0:0:
46,9,123922,2,0,L|35:169,1,148.50000453186,2|0,1:2|0:0,0:0:0:0:
118,186,124306,1,0,1:0:0:0:
118,186,124499,1,2,0:0:0:0:
204,40,124691,6,0,P|276:30|347:32,1,135,2|0,1:2|0:0,0:0:0:0:
439,113,125076,2,0,P|424:55|442:37,1,90,2|0,1:2|0:0,0:0:0:0:
259,190,125460,2,0,B|307:209|361:173|339:145|384:121|438:133,1,198.000006042481,2|0,1:2|1:2,0:2:0:0:
508,204,126037,1,2,0:2:0:0:
398,368,126229,6,0,L|411:253,1,107.999996704102,0|0,1:0|0:0,0:0:0:0:
248,156,126614,2,0,L|266:320,1,161.999995056153,0|0,1:0|0:0,0:0:0:0:
267,342,126999,1,2,1:2:0:0:
147,371,127191,1,2,0:2:0:0:
14,241,127383,1,2,1:2:0:0:
181,281,127575,1,2,0:2:0:0:
106,144,127768,6,0,P|96:193|98:263,1,116.999994644165,2|0,1:2|0:0,0:0:0:0:
220,112,128152,2,0,P|235:159|272:219,1,116.999994644165,2|0,1:2|0:0,0:0:0:0:
38,21,128537,2,0,P|74:103|198:67,1,233.999989288331,2|0,1:2|1:0,0:0:0:0:
282,6,129114,1,0,0:0:0:0:
471,93,129306,6,0,P|429:111|395:110,1,67.5000025749208,0|0,1:0|0:0,0:0:0:0:
370,185,129499,2,0,P|333:157|317:127,1,67.5000025749208,0|0,1:0|0:0,0:0:0:0:
200,35,129691,6,0,P|163:62|146:91,1,72,0|0,1:0|0:0,0:0:0:0:
57,67,129883,2,0,P|62:112|80:141,1,72,2|0,1:2|0:0,0:0:0:0:
248,163,130076,6,0,P|212:163|164:184,1,76.5000014591217,2|0,1:2|0:0,0:0:0:0:
32,272,130268,2,0,P|14:303|8:355,1,76.5000014591217,2|0,1:2|0:0,0:0:0:0:
403,348,130460,6,0,P|375:324|323:310,1,80.9999975280763,2|0,1:2|0:0,0:0:0:0:
167,292,130652,2,0,P|133:304|94:341,1,80.9999975280763,2|0,1:2|0:0,0:0:0:0:
384,170,130845,6,0,B|454:163|423:230|496:222,2,125.999996154785,2|2|2,0:0|0:0|0:0,0:0:0:0:
462,80,132191,5,2,0:0:0:0:
376,247,132383,2,0,P|343:260|293:285,2,85.4999977169037,2|2|2,1:2|0:0|0:0,0:0:0:0:
378,338,132960,1,0,1:0:0:0:
50,241,133152,6,0,P|55:201|89:180,1,78.7500007510185,14|0,0:2|0:0,0:0:0:0:
210,47,133345,2,0,P|242:71|243:111,1,78.7500007510185,2|0,0:3|0:0,0:0:0:0:
298,282,133537,2,0,P|260:297|225:278,1,78.7500007510185,2|0,0:3|0:0,0:0:0:0:
187,195,133729,5,2,0:0:0:0:
187,195,133922,1,0,1:0:0:0:
421,69,134114,6,0,P|374:55|340:48,1,78.7500007510185,2|0,0:0|0:0,0:0:0:0:
324,122,134306,2,0,P|361:130|405:143,1,78.7500007510185,2|0,0:0|0:0,0:0:0:0:
429,60,134499,1,2,0:3:0:0:
319,357,134691,6,0,P|306:310|296:276,1,78.7500007510185,14|0,0:0|0:0,0:0:0:0:
165,119,134883,2,0,P|178:166|188:200,1,78.7500007510185,2|0,0:3|0:0,0:0:0:0:
94,357,135076,2,0,P|81:310|71:276,1,78.7500007510185,2|0,0:3|0:0,0:0:0:0:
0,223,135268,1,2,0:0:0:0:
200,44,135460,5,0,1:0:0:0:
200,44,135652,1,2,0:0:0:0:
165,119,135845,2,0,P|118:106|79:95,1,85.4999977169037,2|0,0:2|1:0,0:0:0:0:
180,372,136229,6,0,P|212:325|251:318,1,78.7500007510185,14|0,0:0|0:0,0:0:0:0:
242,111,136422,2,0,P|289:143|296:182,1,78.7500007510185,2|0,0:3|0:0,0:0:0:0:
498,177,136614,2,0,P|466:224|427:231,1,78.7500007510185,2|0,0:3|0:0,0:0:0:0:
376,377,136806,5,2,0:0:0:0:
376,377,136999,1,0,1:0:0:0:
164,270,137191,6,0,P|179:225|186:191,1,78.7500007510185,2|0,0:0|0:0,0:0:0:0:
108,171,137383,2,0,P|100:208|85:251,1,78.7500007510185,2|0,0:0|0:0,0:0:0:0:
156,276,137576,1,2,0:3:0:0:
329,13,137768,6,0,P|347:60|357:123,1,101.250003862381,14|0,0:0|0:0,0:0:0:0:
490,154,137960,2,0,P|466:194|453:246,1,80.9999975280763,4|0,3:3|0:0,0:0:0:0:
303,238,138152,2,0,P|325:271|335:302,1,56.25,4|0,3:3|0:0,0:0:0:0:
439,313,138345,2,0,P|436:331|434:345,1,22.5,4|0,3:3|0:0,0:0:0:0:
376,377,138537,5,0,1:0:0:0:
376,377,138729,1,2,0:0:0:0:
256,330,138922,2,0,P|214:342|158:369,1,85.4999977169037,2|0,0:0|1:0,0:0:0:0:
72,22,139306,6,0,P|28:54|29:91,1,78.7500007510185,14|0,0:0|0:0,0:0:0:0:
16,233,139499,2,0,P|48:253|85:246,1,78.7500007510185,2|0,0:3|0:0,0:0:0:0:
228,176,139691,2,0,P|230:137|204:108,1,78.7500007510185,2|0,0:3|0:0,0:0:0:0:
106,145,139884,5,2,0:0:0:0:
106,145,140076,1,0,1:0:0:0:
362,13,140268,6,0,P|313:22|280:32,1,78.7500007510185,2|0,0:0|0:0,0:0:0:0:
301,105,140460,2,0,P|337:94|382:85,1,78.7500007510185,2|0,0:0|0:0,0:0:0:0:
364,1,140653,1,2,0:3:0:0:
434,292,140845,6,0,P|447:245|457:211,1,78.7500007510185,14|0,0:0|0:0,0:0:0:0:
301,105,141037,2,0,P|314:152|324:186,1,78.7500007510185,2|0,0:3|0:0,0:0:0:0:
210,354,141229,2,0,P|223:307|233:273,1,78.7500007510185,2|0,0:3|0:0,0:0:0:0:
85,246,141422,1,2,0:0:0:0:
294,361,141614,5,0,1:0:0:0:
294,361,141806,2,0,P|325:329|368:328,1,85.4999977169037,2|2,0:2|0:0,0:0:0:0:
322,180,142191,1,2,1:2:0:0:
132,304,142383,6,0,P|109:261|68:240,1,78.7500007510185,14|0,0:0|0:0,0:0:0:0:
12,41,142575,2,0,P|50:44|86:29,1,78.7500007510185,2|0,0:0|0:0,0:0:0:0:
298,60,142768,2,0,P|275:92|271:130,1,78.7500007510185,2|0,0:0|0:0,0:0:0:0:
55,318,142960,5,2,0:0:0:0:
190,70,143152,6,0,B|160:78|160:78|143:173|143:173|168:191,1,157.500001502037,2|2,1:2|0:3,0:0:0:0:
405,241,143537,2,0,B|434:232|434:232|451:137|451:137|426:119,1,157.500001502037,2|2,0:0|0:3,0:0:0:0:
268,367,143922,5,14,0:0:0:0:
298,60,144114,2,2,B|283:147|283:147|313:193|313:193|296:281,2,225,2|2|2,0:3|0:3|0:2,0:1:0:0:
60,24,144691,6,0,P|73:38|91:75,1,54,2|0,1:2|1:0,0:0:0:0:
126,231,145460,5,14,0:0:0:0:
227,155,145652,2,0,P|192:125|160:111,1,80.9999975280763,2|0,0:3|0:0,0:0:0:0:
140,355,145845,2,0,P|182:339|210:318,1,80.9999975280763,2|0,0:3|0:0,0:0:0:0:
8,180,146037,2,0,P|0:224|3:259,1,80.9999975280763,2|0,0:0|0:0,0:0:0:0:
267,244,146229,5,0,1:0:0:0:
278,253,146422,2,0,P|300:284|314:355,1,90,2|0,0:0|0:0,0:0:0:0:
377,158,146614,2,0,P|380:195|357:264,1,90,2|0,0:0|0:0,0:0:0:0:
510,125,146806,2,0,P|494:159|439:207,1,90,2|0,0:3|0:0,0:0:0:0:
443,330,146999,5,14,0:0:0:0:
294,168,147191,2,0,P|290:119|321:62,1,90,2|0,0:3|0:0,0:0:0:0:
445,28,147383,6,0,L|499:21,1,45,2|0,0:3|0:0,0:0:0:0:
503,28,147576,2,0,L|458:33,1,45,2|0,0:2|0:0,0:0:0:0:
235,42,147768,5,0,1:0:0:0:
304,81,147960,1,2,0:0:0:0:
235,42,148152,2,0,P|209:38|199:35,1,26.9999991760254,2|0,0:0|1:0,0:0:0:0:
135,217,148537,5,14,0:0:0:0:
16,91,148729,2,0,P|18:127|52:173,1,85.4999977169037,2|0,0:3|0:0,0:0:0:0:
304,177,148922,2,0,P|271:160|214:167,1,85.4999977169037,2|0,0:3|0:0,0:0:0:0:
86,384,149114,2,0,P|116:364|139:311,1,85.4999977169037,2|0,0:0|0:0,0:0:0:0:
156,81,149306,5,0,1:0:0:0:
162,68,149498,2,0,P|195:64|255:80,1,94.499997116089,2|0,0:0|0:0,0:0:0:0:
313,24,149690,2,0,P|343:37|387:80,1,94.499997116089,2|0,0:0|0:0,0:0:0:0:
466,61,149883,2,0,P|485:87|502:147,1,94.499997116089,2|0,0:3|0:0,0:0:0:0:
502,310,150076,2,2,P|392:266|204:264,1,283.499991348267,14|0,0:0|0:0,0:1:0:0:
70,318,150460,6,0,L|78:258,1,49.5000015106202,4|0,3:0|0:0,0:0:0:0:
70,257,150652,2,0,L|63:306,1,49.5000015106202,4|0,3:0|0:0,0:0:0:0:
218,380,150845,6,0,L|221:348,1,18,0|0,1:0|0:0,0:0:0:0:
230,346,151037,2,0,L|233:314,1,18,2|0,0:2|0:0,0:0:0:0:
161,223,151229,2,0,L|156:172,1,36,2|0,0:0|1:0,0:0:0:0:
319,170,151614,5,14,0:0:0:0:
229,22,151806,2,0,P|231:77|203:122,1,90,2|0,0:3|0:0,0:0:0:0:
492,166,151999,2,0,P|443:140|418:93,1,90,2|0,0:2|0:0,0:0:0:0:
235,321,152191,2,0,P|281:291|334:293,1,90,2|0,0:0|0:0,0:0:0:0:
135,41,152383,5,0,1:0:0:0:
124,30,152576,2,0,P|89:71|70:111,1,99.0000030212403,2|0,0:0|0:0,0:0:0:0:
7,180,152768,2,0,P|25:230|50:267,1,99.0000030212403,2|0,0:0|0:0,0:0:0:0:
78,356,152960,2,0,P|131:365|175:362,1,99.0000030212403,2|0,0:3|0:0,0:0:0:0:
240,180,153152,6,0,P|200:205|194:260,1,99.0000030212403,14|0,0:0|0:0,0:0:0:0:
316,346,153345,2,0,P|356:321|362:266,1,99.0000030212403,2|0,0:3|0:0,0:0:0:0:
447,225,153537,6,0,P|440:197|441:168,1,53.9999983520508,2|0,0:3|0:0,0:0:0:0:
377,85,153729,2,0,P|384:57|383:28,1,53.9999983520508,2|0,0:3|0:0,0:0:0:0:
240,0,153922,6,0,L|247:82,1,80.9999975280763,0|2,1:0|1:2,0:0:0:0:
257,368,154691,5,10,0:0:0:0:
257,368,155460,5,2,0:3:0:0:
259,347,155556,1,2,0:3:0:0:
261,327,155652,2,0,P|254:301|243:276,1,45,8|0,0:0|0:0,0:0:0:0:
308,199,155845,2,0,P|314:173|326:148,1,45,8|0,0:0|0:0,0:0:0:0:
240,0,156037,1,8,3:0:0:0:
240,0,156422,5,8,3:0:0:0:
358,92,156614,1,8,3:0:0:0:
212,201,156806,1,4,3:0:0:0:
478,347,156999,5,0,1:0:0:0:
478,347,157383,1,2,0:0:0:0:
492,272,157576,1,0,1:0:0:0:
109,358,157768,6,0,B|169:399|243:339|205:290|278:228|342:268,1,283.499991348267,14|0,0:0|0:0,0:0:0:0:
416,222,158152,2,0,P|424:171|433:128,1,94.499997116089,2|0,0:0|0:0,0:0:0:0:
358,92,158345,2,0,P|350:143|341:186,1,94.499997116089,2|0,0:0|0:0,0:0:0:0:
307,337,158537,5,0,1:0:0:0:
307,337,158922,2,0,P|266:250|183:260,1,188.999994232178,2|2,0:0|0:3,0:0:0:0:
0,97,159306,6,0,B|94:106|116:194|116:194|107:112|170:81,1,283.499991348267,14|0,0:0|0:0,0:0:0:0:
242,104,159691,2,0,P|276:68|262:23,1,94.499997116089,2|0,0:0|0:0,0:0:0:0:
178,3,159883,2,0,P|145:34|153:79,1,94.499997116089,2|0,0:0|0:0,0:0:0:0:
249,216,160076,5,0,1:0:0:0:
249,216,160460,2,0,P|331:154|411:172,1,188.999994232178,2|2,0:0|0:3,0:0:0:0:
216,360,160845,6,0,P|130:227|13:235,1,283.499991348267,14|0,0:0|0:0,0:0:0:0:
0,158,161229,2,0,P|18:110|32:61,1,94.499997116089,2|0,0:0|0:0,0:0:0:0:
121,48,161422,2,0,P|103:96|89:145,1,94.499997116089,2|0,0:0|0:0,0:0:0:0:
63,295,161614,5,0,1:0:0:0:
63,295,161999,1,2,0:3:0:0:
133,260,162191,1,2,0:0:0:0:
306,370,162383,5,14,0:0:0:0:
385,123,162576,1,2,0:0:0:0:
405,335,162768,6,2,P|368:207|320:56,1,283.499991348267,2|0,0:0|0:0,0:1:0:0:
367,5,163152,1,0,1:0:0:0:
512,107,163345,1,2,0:0:0:0:
319,180,163537,5,2,0:0:0:0:
319,180,163729,1,2,0:0:0:0:
490,371,163922,6,0,B|429:412|355:352|393:303|320:241|256:281,1,283.499991348267,14|0,0:0|0:0,0:0:0:0:
216,211,164306,2,0,P|176:193|126:177,1,94.499997116089,2|0,0:0|0:0,0:0:0:0:
156,111,164499,2,0,P|198:125|246:145,1,94.499997116089,2|0,0:0|0:0,0:0:0:0:
437,259,164691,6,0,P|326:291|163:352,1,283.499991348267,2|0,1:2|0:0,0:0:0:0:
159,270,165076,2,0,P|245:237|347:208,1,188.999994232178,2|2,0:0|0:3,0:0:0:0:
18,48,165460,6,0,B|-20:124|77:191|78:131|178:177|151:267,1,283.499991348267,14|0,0:0|0:0,0:0:0:0:
66,300,165845,1,2,0:3:0:0:
66,300,166037,1,2,0:3:0:0:
388,377,166229,5,0,1:0:0:0:
388,377,166614,1,2,0:3:0:0:
465,336,166806,1,2,0:0:0:0:
244,144,166999,5,14,0:0:0:0:
229,30,167191,1,2,0:0:0:0:
343,15,167383,1,2,0:0:0:0:
358,129,167576,1,2,0:0:0:0:
80,195,167768,5,2,1:3:0:0:
96,197,167864,1,2,0:3:0:0:
111,199,167960,2,0,P|137:192|162:181,1,45,8|0,0:0|0:0,0:0:0:0:
239,246,168153,2,0,P|265:252|290:264,1,45,8|0,0:0|0:0,0:0:0:0:
438,178,168345,1,8,3:0:0:0:
229,30,168537,5,8,0:0:0:0:
229,30,168729,1,8,3:0:0:0:
358,129,168922,1,8,3:0:0:0:
159,287,169114,1,4,3:0:0:0:
469,370,169306,6,0,P|475:342|483:324,2,36,0|2|2,1:0|0:0|0:0,0:0:0:0:
213,182,169883,1,0,1:0:0:0:
501,250,170076,6,0,B|396:238|303:211|303:211|275:259|224:264,1,283.499991348267,14|0,0:0|0:0,0:0:0:0:
145,237,170460,2,0,P|142:289|129:345,1,94.499997116089,2|0,0:0|0:0,0:0:0:0:
230,355,170652,2,0,P|233:303|246:247,1,94.499997116089,2|0,0:0|0:0,0:0:0:0:
394,107,170845,5,0,1:0:0:0:
394,107,171229,2,0,P|326:98|235:15,1,188.999994232178,2|2,0:0|0:3,0:0:0:0:
5,134,171614,6,0,B|71:144|121:87|121:87|189:129|183:218,1,283.499991348267,14|0,0:0|0:0,0:0:0:0:
106,321,171999,2,0,P|54:328|14:314,1,94.499997116089,2|0,0:0|0:0,0:0:0:0:
16,234,172191,2,0,P|67:226|107:240,1,94.499997116089,2|0,0:0|0:0,0:0:0:0:
331,365,172383,5,0,1:0:0:0:
331,365,172768,2,0,P|352:311|473:315,1,188.999994232178,2|2,0:0|0:3,0:0:0:0:
243,92,173152,6,0,P|273:171|451:165,1,283.499991348267,14|0,0:0|0:0,0:0:0:0:
490,99,173537,2,0,P|494:56|504:-10,1,94.499997116089,2|0,0:0|0:0,0:0:0:0:
389,28,173729,2,0,P|385:71|375:137,1,94.499997116089,2|0,0:0|0:0,0:0:0:0:
279,271,173922,5,0,1:0:0:0:
279,271,174306,1,2,0:3:0:0:
206,235,174498,1,2,0:0:0:0:
65,282,174691,5,14,0:0:0:0:
142,76,174883,1,2,0:0:0:0:
99,365,175076,6,2,P|87:241|27:88,1,283.499991348267,2|0,0:0|0:0,0:1:0:0:
68,24,175460,1,0,1:0:0:0:
272,151,175652,1,2,0:0:0:0:
150,182,175845,5,2,0:0:0:0:
150,182,176037,1,2,0:0:0:0:
395,114,176229,6,0,B|476:123|467:244|329:241|261:135,1,283.499991348267,14|0,0:0|0:0,0:0:0:0:
206,102,176614,2,0,P|199:58|182:3,1,94.499997116089,2|0,0:0|0:0,0:0:0:0:
296,0,176806,2,0,P|303:44|320:99,1,94.499997116089,2|0,0:0|0:0,0:0:0:0:
291,351,176999,6,0,P|176:322|11:283,1,283.499991348267,2|0,1:2|0:0,0:0:0:0:
92,219,177383,2,0,P|184:240|277:264,1,188.999994232178,2|0,0:0|0:0,0:0:0:0:
505,98,177768,6,0,B|529:178|429:224|428:164|331:231|369:307,1,283.499991348267,14|0,0:0|0:0,0:0:0:0:
428,364,178152,1,2,0:3:0:0:
428,364,178345,1,2,0:3:0:0:
352,71,178537,5,0,1:2:0:0:
352,71,178922,1,2,0:3:0:0:
241,36,179114,1,2,0:0:0:0:
124,172,179306,5,14,0:0:0:0:
279,290,179499,1,2,0:0:0:0:
261,152,179691,1,2,0:0:0:0:
143,309,179883,1,2,0:0:0:0:
50,72,180076,6,0,B|13:178|87:191|160:206|104:328,1,283.499991348267,2|0,1:2|0:0,0:0:0:0:
11,290,180461,2,0,B|13:177|87:191|160:203|149:68,1,283.499991348267,2|0,0:0|0:0,0:0:0:0:
389,75,180845,6,0,P|263:48|311:168,1,315,10|0,0:0|0:0,0:0:0:0:
318,95,181614,5,4,3:2:0:0:
377,260,181999,1,2,0:0:0:0:
377,260,182383,2,0,P|421:218|466:213,1,107.999996704102,2|2,0:0|0:0,0:0:0:0:
507,274,182960,1,2,0:0:0:0:
301,365,183537,5,2,0:0:0:0:
301,365,183922,2,0,P|285:293|271:245,1,107.999996704102,2|2,0:0|0:0,0:0:0:0:
324,197,184499,1,2,0:0:0:0:
186,104,185076,5,2,0:0:0:0:
186,104,185460,2,0,P|147:109|118:181,1,107.999996704102,2|2,0:0|0:0,0:0:0:0:
154,227,186037,1,2,0:0:0:0:
23,360,186806,5,2,0:0:0:0:
63,294,186999,1,2,0:0:0:0:
63,294,187191,1,2,0:0:0:0:
132,334,187383,2,0,P|194:343|260:357,1,107.999996704102,2|0,0:0|0:0,0:0:0:0:
303,298,187960,2,0,P|292:259|286:244,2,53.9999983520508,2|2|2,0:0|0:0|0:0,0:0:0:0:
383,299,188537,2,0,P|370:244|346:183,1,107.999996704102,2|2,0:0|0:0,0:0:0:0:
363,121,189114,1,2,0:0:0:0:
437,102,189306,6,0,P|469:109|494:119,1,53.9999983520508,2|0,0:0|0:0,0:0:0:0:
512,43,189691,2,0,P|480:36|455:26,1,53.9999983520508,2|0,0:0|0:0,0:0:0:0:
323,56,190076,2,0,B|277:40|248:77|262:98|222:131|182:111,1,161.999995056153,2|0,0:0|0:0,0:0:0:0:
134,165,190845,1,0,0:0:0:0:
134,165,191422,5,2,0:0:0:0:
189,271,191614,2,0,P|185:244|194:219,1,53.9999983520508,2|2,0:0|0:0,0:0:0:0:
270,226,191999,2,0,P|273:252|264:277,1,53.9999983520508,2|2,0:0|0:0,0:0:0:0:
318,367,192383,2,0,P|347:316|400:312,1,107.999996704102,2|2,0:0|0:0,0:0:0:0:
504,224,193152,2,0,P|431:205|326:183,1,161.999995056153,2|0,0:0|0:0,0:0:0:0:
