osu file format v14

[General]
AudioFilename: audio.mp3
AudioLeadIn: 0
PreviewTime: 205144
Countdown: 0
SampleSet: Soft
StackLeniency: 0.4
Mode: 0
LetterboxInBreaks: 0
WidescreenStoryboard: 1

[Editor]
Bookmarks: 10645,21312,31979,42664,53331,63998,74664,90645,101311,111978,122644,133330,143997,154663,165312,175979,186644,197312,207977,218643,239977,250643,261312,271979
DistanceSpacing: 3.2
BeatDivisor: 8
GridSize: 32
TimelineZoom: 2.3

[Metadata]
Title:Brave Soul
TitleUnicode:Brave Soul
Artist:ILLENIUM & Emma Grace
ArtistUnicode:ILLENIUM & Emma Grace
Creator:elicz1
Version:Broken Collab
Source:
Tags:altai undeadphoneguy english electronic instrumental fallen embers warner records cd piano pop chill
BeatmapID:3209463
BeatmapSetID:1571811

[Difficulty]
HPDrainRate:5
CircleSize:4.2
OverallDifficulty:8
ApproachRate:8.8
SliderMultiplier:1.4
SliderTickRate:1

[Events]
//Background and Video events
0,0,"edityesfinal.jpg",0,0
//Break Periods
//Storyboard Layer 0 (Background)
//Storyboard Layer 1 (Fail)
//Storyboard Layer 2 (Pass)
//Storyboard Layer 3 (Foreground)
//Storyboard Layer 4 (Overlay)
//Storyboard Sound Samples

[TimingPoints]
10646,666.666666666666,4,2,1,35,1,0
10646,-142.857142857143,4,2,1,35,0,0
11729,-142.857142857143,4,2,1,5,0,0
12645,-142.857142857143,4,2,1,35,0,0
13979,-142.857142857143,4,2,1,5,0,0
14312,-142.857142857143,4,2,1,35,0,0
14979,-142.857142857143,4,2,1,5,0,0
15312,-142.857142857143,4,2,1,35,0,0
19729,-142.857142857143,4,2,1,5,0,0
20645,-142.857142857143,4,2,1,35,0,0
22395,-142.857142857143,4,2,1,5,0,0
23312,-142.857142857143,4,2,1,35,0,0
29979,-142.857142857143,4,2,1,5,0,0
30312,-142.857142857143,4,2,1,35,0,0
39479,-142.857142857143,4,2,1,5,0,0
39701,-333.333333333334,4,2,1,35,0,0
39770,-333.333333333334,4,2,1,5,0,0
41312,-333.333333333334,4,2,1,35,0,0
42312,705.882352941176,4,2,1,40,1,0
42665,666.666666666666,4,2,1,40,1,0
42665,-66.6666666666667,4,2,1,40,0,0
44165,-66.6666666666667,4,2,1,5,0,0
44332,-66.6666666666667,4,2,1,40,0,0
44499,-66.6666666666667,4,2,1,5,0,0
44665,-66.6666666666667,4,2,1,40,0,0
46832,-66.6666666666667,4,2,1,5,0,0
46999,-66.6666666666667,4,2,1,40,0,0
47165,-66.6666666666667,4,2,1,5,0,0
47332,-66.6666666666667,4,2,1,40,0,0
49332,-66.6666666666667,4,2,1,5,0,0
49665,-66.6666666666667,4,2,1,40,0,0
50415,-66.6666666666667,4,2,1,5,0,0
51332,-66.6666666666667,4,2,1,40,0,0
52165,-66.6666666666667,4,2,1,5,0,0
52332,-66.6666666666667,4,2,1,40,0,0
52499,-66.6666666666667,4,2,1,5,0,0
52665,-66.6666666666667,4,2,1,40,0,0
54832,-66.6666666666667,4,2,1,5,0,0
54999,-66.6666666666667,4,2,1,40,0,0
55165,-66.6666666666667,4,2,1,5,0,0
55332,-66.6666666666667,4,2,1,40,0,0
62665,-66.6666666666667,4,2,1,5,0,0
62749,-66.6666666666667,4,2,1,40,0,0
62915,-66.6666666666667,4,2,1,5,0,0
63082,-66.6666666666667,4,2,1,40,0,0
63249,-66.6666666666667,4,2,1,5,0,0
63415,-66.6666666666667,4,2,1,40,0,0
63999,-66.6666666666667,4,2,1,45,0,0
67665,-66.6666666666667,4,2,1,5,0,0
67999,-66.6666666666667,4,2,1,45,0,0
68582,-66.6666666666667,4,2,1,5,0,0
68665,-66.6666666666667,4,2,1,45,0,0
70499,-66.6666666666667,4,2,1,5,0,0
70665,-66.6666666666667,4,2,1,45,0,0
71165,-66.6666666666667,4,2,1,5,0,0
71332,-66.6666666666667,4,2,1,45,0,0
71499,-66.6666666666667,4,2,1,5,0,0
71665,-66.6666666666667,4,2,1,45,0,0
72582,-66.6666666666667,4,2,1,5,0,0
72665,-66.6666666666667,4,2,1,45,0,0
74165,-66.6666666666667,4,2,1,5,0,0
74332,-66.6666666666667,4,2,1,45,0,0
74582,-66.6666666666667,4,2,1,5,0,0
74665,-66.6666666666667,4,2,1,45,0,0
78915,-66.6666666666667,4,2,1,5,0,0
78999,-66.6666666666667,4,2,1,45,0,0
80582,-66.6666666666667,4,2,1,5,0,0
80664,-100,4,2,1,45,0,0
80749,-100,4,2,1,5,0,0
81999,-100,4,2,1,45,0,0
85332,-100,4,2,1,40,0,0
85415,-100,4,2,1,5,0,0
88039,-100,4,2,1,35,0,0
88123,-100,4,2,1,5,0,0
90645,666.666666666666,4,2,1,40,1,0
90645,-80,4,2,1,40,0,0
91145,-80,4,2,1,5,0,0
91311,-80,4,2,1,40,0,0
93811,-80,4,2,1,5,0,0
93978,-80,4,2,1,40,0,0
94145,-80,4,2,1,5,0,0
94311,-80,4,2,1,40,0,0
94811,-80,4,2,1,5,0,0
94978,-80,4,2,1,40,0,0
96478,-80,4,2,1,5,0,0
96645,-80,4,2,1,40,0,0
99144,-80,4,2,1,5,0,0
99311,-80,4,2,1,40,0,0
99478,-80,4,2,1,5,0,0
99644,-80,4,2,1,40,0,0
100144,-80,4,2,1,5,0,0
100311,-80,4,2,1,40,0,0
101811,-80,4,2,1,5,0,0
101978,-80,4,2,1,40,0,0
102811,-80,4,2,1,5,0,0
102978,-80,4,2,1,40,0,0
103478,-80,4,2,1,5,0,0
103644,-80,4,2,1,40,0,0
104478,-80,4,2,1,5,0,0
104644,-80,4,2,1,40,0,0
106144,-80,4,2,1,5,0,0
106311,-80,4,2,1,40,0,0
108811,-80,4,2,1,5,0,0
108978,-80,4,2,1,40,0,0
110811,-80,4,2,1,5,0,0
110978,-80,4,2,1,40,0,0
111144,-80,4,2,1,5,0,0
111311,-80,4,2,1,40,0,0
111478,-80,4,2,1,5,0,0
111644,-80,4,2,1,40,0,0
111978,-74.0740740740741,4,2,1,40,0,0
112228,-74.0740740740741,4,2,1,5,0,0
112311,-74.0740740740741,4,2,1,40,0,0
113311,-74.0740740740741,4,2,1,40,0,0
113561,-74.0740740740741,4,2,1,5,0,0
113644,-74.0740740740741,4,2,1,40,0,0
114894,-74.0740740740741,4,2,1,5,0,0
114978,-74.0740740740741,4,2,1,40,0,0
116228,-74.0740740740741,4,2,1,5,0,0
116311,-74.0740740740741,4,2,1,40,0,0
117561,-74.0740740740741,4,2,1,5,0,0
117644,-74.0740740740741,4,2,1,40,0,0
117811,-74.0740740740741,4,2,1,5,0,0
117978,-74.0740740740741,4,2,1,40,0,0
118144,-74.0740740740741,4,2,1,5,0,0
118311,-74.0740740740741,4,2,1,40,0,0
119644,-74.0740740740741,4,2,1,5,0,0
119769,-74.0740740740741,4,2,1,40,0,0
120311,-74.0740740740741,4,2,1,5,0,0
121311,-74.0740740740741,4,2,1,40,0,0
122311,705.882352941176,4,2,1,40,1,0
122664,666.666666666666,4,2,1,40,1,0
122664,-66.6666666666667,4,2,1,40,0,0
124164,-66.6666666666667,4,2,1,5,0,0
124331,-66.6666666666667,4,2,1,40,0,0
124498,-66.6666666666667,4,2,1,5,0,0
124664,-66.6666666666667,4,2,1,40,0,0
126831,-66.6666666666667,4,2,1,5,0,0
126998,-66.6666666666667,4,2,1,40,0,0
127164,-66.6666666666667,4,2,1,5,0,0
127331,-66.6666666666667,4,2,1,40,0,0
129331,-66.6666666666667,4,2,1,5,0,0
129664,-66.6666666666667,4,2,1,40,0,0
130414,-66.6666666666667,4,2,1,5,0,0
131331,-66.6666666666667,4,2,1,40,0,0
132164,-66.6666666666667,4,2,1,5,0,0
132331,-66.6666666666667,4,2,1,40,0,0
132498,-66.6666666666667,4,2,1,5,0,0
132664,-66.6666666666667,4,2,1,40,0,0
134831,-66.6666666666667,4,2,1,5,0,0
134998,-66.6666666666667,4,2,1,40,0,0
135164,-66.6666666666667,4,2,1,5,0,0
135331,-66.6666666666667,4,2,1,40,0,0
140498,-66.6666666666667,4,2,1,5,0,0
140664,-66.6666666666667,4,2,1,40,0,0
142664,-66.6666666666667,4,2,1,5,0,0
142748,-66.6666666666667,4,2,1,40,0,0
142914,-66.6666666666667,4,2,1,5,0,0
143081,-66.6666666666667,4,2,1,40,0,0
143998,-66.6666666666667,4,2,1,45,0,0
147664,-66.6666666666667,4,2,1,5,0,0
147998,-66.6666666666667,4,2,1,45,0,0
148581,-66.6666666666667,4,2,1,5,0,0
148664,-66.6666666666667,4,2,1,45,0,0
150498,-66.6666666666667,4,2,1,5,0,0
150664,-66.6666666666667,4,2,1,45,0,0
151164,-66.6666666666667,4,2,1,5,0,0
151331,-66.6666666666667,4,2,1,45,0,0
151498,-66.6666666666667,4,2,1,5,0,0
151664,-66.6666666666667,4,2,1,45,0,0
152581,-66.6666666666667,4,2,1,5,0,0
152664,-66.6666666666667,4,2,1,45,0,0
154164,-66.6666666666667,4,2,1,5,0,0
154331,-66.6666666666667,4,2,1,45,0,0
154581,-66.6666666666667,4,2,1,5,0,0
154664,-66.6666666666667,4,2,1,45,0,0
158914,-66.6666666666667,4,2,1,5,0,0
158998,-66.6666666666667,4,2,1,45,0,0
159164,-66.6666666666667,4,2,1,5,0,0
159331,-66.6666666666667,4,2,1,45,0,0
161498,-66.6666666666667,4,2,1,5,0,0
161664,-66.6666666666667,4,2,1,45,0,0
161831,-66.6666666666667,4,2,1,5,0,0
161998,-66.6666666666667,4,2,1,45,0,0
162164,-66.6666666666667,4,2,1,5,0,0
162331,-66.6666666666667,4,2,1,45,0,0
162498,-66.6666666666667,4,2,1,5,0,0
162644,666.666666666666,4,2,1,40,1,0
162644,-44.4444444444445,4,2,4,60,0,0
162728,-44.4444444444445,4,2,4,5,0,0
163144,-44.4444444444445,4,2,4,60,0,0
163228,-44.4444444444445,4,2,4,5,0,0
163644,-44.4444444444445,4,2,4,60,0,0
163728,-44.4444444444445,4,2,4,5,0,0
164144,-44.4444444444445,4,2,3,55,0,0
164811,-44.4444444444445,4,2,3,5,0,0
164978,-44.4444444444445,4,2,3,55,0,0
165311,-200,4,2,1,45,0,0
165394,-200,4,2,1,5,0,0
167978,-166.666666666667,4,2,1,45,0,0
168061,-166.666666666667,4,2,1,5,0,0
170644,-142.857142857143,4,2,1,45,0,0
170728,-142.857142857143,4,2,1,5,0,0
175978,-100,4,2,1,45,0,0
176061,-100,4,2,1,5,0,0
178643,-100,4,2,1,45,0,0
178727,-100,4,2,1,5,0,0
179977,-100,4,2,1,45,0,0
181394,-100,4,2,1,5,0,0
182644,-100,4,2,1,45,0,0
186644,-83.3333333333333,4,2,2,50,0,0
187061,-83.3333333333333,4,2,2,5,0,0
187144,-83.3333333333333,4,2,2,50,0,0
189728,-83.3333333333333,4,2,2,5,0,0
189811,-83.3333333333333,4,2,2,50,0,0
191228,-83.3333333333333,4,2,2,5,0,0
191311,-83.3333333333333,4,2,2,50,0,0
192394,-83.3333333333333,4,2,2,5,0,0
192478,-83.3333333333333,4,2,2,50,0,0
193894,-83.3333333333333,4,2,2,5,0,0
193978,-83.3333333333333,4,2,2,50,0,0
195061,-83.3333333333333,4,2,2,5,0,0
195144,-83.3333333333333,4,2,2,50,0,0
196478,-83.3333333333333,4,2,2,5,0,0
196644,-83.3333333333333,4,2,2,50,0,0
196811,-83.3333333333333,4,2,2,5,0,0
196978,-83.3333333333333,4,2,2,50,0,0
197311,-66.6666666666667,4,2,2,55,0,0
198144,-66.6666666666667,4,2,2,5,0,0
198311,-66.6666666666667,4,2,2,55,0,0
198478,-66.6666666666667,4,2,2,5,0,0
198644,-66.6666666666667,4,2,2,55,0,0
199561,-66.6666666666667,4,2,2,5,0,0
199644,-66.6666666666667,4,2,2,55,0,0
199978,-58.8235294117647,4,2,2,60,0,0
200811,-58.8235294117647,4,2,2,5,0,0
200978,-58.8235294117647,4,2,2,60,0,0
201144,-58.8235294117647,4,2,2,5,0,0
201311,-58.8235294117647,4,2,2,60,0,0
202228,-58.8235294117647,4,2,2,5,0,0
202311,-58.8235294117647,4,2,2,60,0,0
202644,-58.8235294117647,4,2,2,65,0,0
205310,-44.4444444444445,4,2,4,75,0,0
205393,-44.4444444444445,4,2,4,5,0,0
205810,-44.4444444444445,4,2,4,75,0,0
205893,-44.4444444444445,4,2,4,5,0,0
206310,-44.4444444444445,4,2,4,75,0,0
206393,-44.4444444444445,4,2,4,5,0,0
206978,-33.3333333333333,4,2,3,60,0,0
207228,-33.3333333333333,4,2,3,5,0,0
207311,-33.3333333333333,4,2,3,70,0,0
207811,-33.3333333333333,4,2,3,5,0,0
207977,-28.5714285714286,4,2,3,85,0,1
208060,-28.5714285714286,4,2,3,5,0,1
208144,-28.5714285714286,4,2,3,85,0,1
208561,-28.5714285714286,4,2,3,5,0,1
208644,-28.5714285714286,4,2,3,85,0,1
209228,-28.5714285714286,4,2,3,5,0,1
209311,-28.5714285714286,4,2,3,85,0,1
209894,-28.5714285714286,4,2,3,5,0,1
209978,-28.5714285714286,4,2,3,85,0,1
210728,-28.5714285714286,4,2,3,5,0,1
210811,-28.5714285714286,4,2,3,85,0,1
211228,-28.5714285714286,4,2,3,5,0,1
211311,-28.5714285714286,4,2,3,85,0,1
212061,-28.5714285714286,4,2,3,5,0,1
212144,-28.5714285714286,4,2,3,85,0,1
212561,-28.5714285714286,4,2,3,5,0,1
212644,-28.5714285714286,4,2,3,85,0,1
213394,-28.5714285714286,4,2,3,5,0,1
213478,-28.5714285714286,4,2,3,85,0,1
213894,-28.5714285714286,4,2,3,5,0,1
213978,-28.5714285714286,4,2,3,85,0,1
214561,-28.5714285714286,4,2,3,5,0,1
214644,-28.5714285714286,4,2,3,85,0,1
214728,-28.5714285714286,4,2,3,5,0,1
214811,-28.5714285714286,4,2,3,85,0,1
215228,-28.5714285714286,4,2,3,5,0,1
215311,-28.5714285714286,4,2,3,85,0,1
216061,-28.5714285714286,4,2,3,5,0,1
216144,-28.5714285714286,4,2,3,85,0,1
216561,-28.5714285714286,4,2,3,5,0,1
216644,-28.5714285714286,4,2,3,85,0,1
217228,-28.5714285714286,4,2,3,5,0,1
217311,-28.5714285714286,4,2,3,85,0,1
217561,-28.5714285714286,4,2,3,5,0,1
217811,-28.5714285714286,4,2,3,85,0,1
218061,-28.5714285714286,4,2,3,5,0,1
218143,-28.5714285714286,4,2,3,70,0,0
218643,-33.3333333333333,4,2,3,85,0,1
218727,-33.3333333333333,4,2,3,5,0,1
218811,-25,4,2,3,85,0,1
219228,-25,4,2,3,5,0,1
219311,-33.3333333333333,4,2,3,85,0,1
219478,-25,4,2,3,85,0,1
219894,-25,4,2,3,5,0,1
219978,-33.3333333333333,4,2,3,85,0,1
220311,-25,4,2,3,85,0,1
220561,-25,4,2,3,5,0,1
220644,-25,4,2,3,85,0,1
220978,-28.5714285714286,4,2,3,85,0,1
221228,-28.5714285714286,4,2,3,5,0,1
221311,-33.3333333333333,4,2,3,85,0,1
221394,-33.3333333333333,4,2,3,5,0,1
221478,-25,4,2,3,85,0,1
221894,-25,4,2,3,5,0,1
221978,-28.5714285714286,4,2,3,85,0,1
222644,-30.7692307692308,4,2,3,85,0,1
223061,-30.7692307692308,4,2,3,5,0,1
223144,-30.7692307692308,4,2,3,85,0,1
223978,-33.3333333333333,4,2,3,85,0,1
224061,-33.3333333333333,4,2,3,5,0,1
224144,-25,4,2,3,85,0,1
224561,-25,4,2,3,5,0,1
224644,-25,4,2,3,85,0,1
225228,-25,4,2,3,5,0,1
225311,-33.3333333333333,4,2,3,85,0,1
225644,-25,4,2,3,85,0,1
225894,-25,4,2,3,5,0,1
225978,-25,4,2,3,85,0,1
226310,-28.5714285714286,4,2,3,85,0,1
226560,-28.5714285714286,4,2,3,5,0,1
226643,-33.3333333333333,4,2,3,85,0,1
226727,-33.3333333333333,4,2,3,5,0,1
226811,-25,4,2,3,85,0,1
227061,-25,4,2,3,5,0,1
227144,-25,4,2,3,85,0,1
227728,-25,4,2,3,5,0,1
227977,-50,4,2,3,70,0,0
228644,-33.3333333333333,4,2,3,70,0,0
228728,-33.3333333333333,4,2,3,5,0,0
228978,-33.3333333333333,4,2,3,70,0,0
229144,-33.3333333333333,4,2,3,5,0,0
229310,-26.6666666666667,4,2,3,85,0,1
230477,-26.6666666666667,4,2,3,5,0,1
230644,-26.6666666666667,4,2,3,85,0,1
232311,-26.6666666666667,4,2,3,5,0,1
232478,-26.6666666666667,4,2,3,85,0,1
232811,-26.6666666666667,4,2,3,5,0,1
232978,-26.6666666666667,4,2,3,85,0,1
233311,-33.3333333333333,4,2,3,85,0,1
234644,-26.6666666666667,4,2,3,85,0,1
235728,-26.6666666666667,4,2,3,5,0,1
235811,-26.6666666666667,4,2,3,85,0,1
236978,-26.6666666666667,4,2,3,5,0,1
237311,-26.6666666666667,4,2,3,85,0,1
237644,-26.6666666666667,4,2,3,5,0,1
237811,-26.6666666666667,4,2,3,85,0,1
238144,-26.6666666666667,4,2,3,5,0,1
238311,-26.6666666666667,4,2,3,85,0,1
239061,-26.6666666666667,4,2,3,5,0,1
239144,-26.6666666666667,4,2,3,85,0,1
239643,-33.3333333333333,4,2,3,70,0,0
239810,-33.3333333333333,4,2,3,5,0,0
239977,-26.6666666666667,4,2,3,85,0,1
240560,-26.6666666666667,4,2,3,5,0,1
240644,-26.6666666666667,4,2,3,85,0,1
241144,-26.6666666666667,4,2,3,5,0,1
241311,-26.6666666666667,4,2,3,85,0,1
241894,-26.6666666666667,4,2,3,5,0,1
241978,-26.6666666666667,4,2,3,85,0,1
242978,-26.6666666666667,4,2,3,5,0,1
243144,-26.6666666666667,4,2,3,85,0,1
243478,-26.6666666666667,4,2,3,5,0,1
243644,-26.6666666666667,4,2,3,85,0,1
243978,-33.3333333333333,4,2,3,85,0,1
245311,-26.6666666666667,4,2,3,85,0,1
246394,-26.6666666666667,4,2,3,5,0,1
246478,-26.6666666666667,4,2,3,85,0,1
247228,-26.6666666666667,4,2,3,5,0,1
247311,-26.6666666666667,4,2,3,85,0,1
248311,-26.6666666666667,4,2,3,5,0,1
248478,-26.6666666666667,4,2,3,85,0,1
248811,-26.6666666666667,4,2,3,5,0,1
248978,-26.6666666666667,4,2,3,85,0,1
249728,-26.6666666666667,4,2,3,5,0,1
249811,-26.6666666666667,4,2,3,85,0,1
250311,-33.3333333333333,4,2,3,85,0,1
250478,-33.3333333333333,4,2,3,5,0,1
250643,-133.333333333333,4,2,1,40,0,0
250727,-133.333333333333,4,2,1,5,0,0
253311,-133.333333333333,4,2,1,35,0,0
253394,-133.333333333333,4,2,1,5,0,0
254644,-133.333333333333,4,2,1,35,0,0
255978,-153.846153846154,4,2,1,35,0,0
256061,-153.846153846154,4,2,1,5,0,0
258644,-153.846153846154,4,2,1,30,0,0
259311,-153.846153846154,4,2,1,5,0,0
259978,-153.846153846154,4,2,1,30,0,0
261311,-200,4,2,1,30,0,0
261394,-200,4,2,1,5,0,0
263978,-285.714285714286,4,2,1,30,0,0
264061,-285.714285714286,4,2,1,5,0,0
266644,-285.714285714286,4,2,1,30,0,0
271978,-285.714285714286,4,2,1,5,0,0

[Colours]
Combo1 : 228,196,63
Combo2 : 165,173,173
Combo3 : 111,111,111
Combo4 : 4,117,255
Combo5 : 255,64,146

[HitObjects]
404,250,10646,54,0,P|458:252|470:289,1,97.9999970092774,2|2,3:2|2:2,2:2:0:0:
404,325,11645,2,0,P|377:212|362:163,1,146.999995513916,2|2,3:2|2:2,2:2:0:0:
446,125,12979,1,2,2:2:0:0:
165,155,13312,38,0,P|127:177|143:239,1,97.9999970092774,0|0,3:2|2:2,2:2:0:0:
201,259,14312,2,0,P|239:237|223:175,1,97.9999970092774,0|0,3:2|2:2,2:2:0:0:
103,349,15312,21,2,2:2:0:0:
103,349,15645,1,2,2:2:0:0:
339,379,15979,38,0,P|329:330|315:283,1,97.9999970092774,2|2,3:2|2:2,2:2:0:0:
443,198,16979,2,0,P|431:229|425:260,1,48.9999985046387,2|2,3:2|2:2,2:2:0:0:
353,221,17645,2,0,P|365:190|371:159,1,48.9999985046387,2|2,2:2|2:2,2:2:0:0:
453,315,18312,1,2,2:2:0:0:
136,267,18645,22,0,P|158:221|210:228,1,97.9999970092774,0|2,3:2|2:2,2:2:0:0:
209,301,19479,1,2,2:2:0:0:
209,301,19645,2,0,P|163:293|49:279,1,146.999995513916,2|2,3:2|2:2,2:2:0:0:
81,187,20979,1,2,2:2:0:0:
309,367,21312,38,0,P|350:347|335:291,1,97.9999970092774,2|2,3:2|2:2,2:2:0:0:
431,166,22312,2,0,P|453:226|382:235,1,146.999995513916,2|2,3:2|2:2,2:2:0:0:
344,310,23645,1,2,2:2:0:0:
114,196,23979,5,0,3:2:0:0:
114,196,24312,2,0,P|145:186|166:176,1,48.9999985046387,2|2,2:2|2:2,2:2:0:0:
94,276,24979,2,0,P|37:296|-12:317,1,97.9999970092774,2|2,3:2|2:2,2:2:0:0:
144,371,25979,2,0,P|151:341|157:320,1,48.9999985046387,2|2,2:2|2:2,2:2:0:0:
52,97,26645,54,0,P|15:105|13:169,1,97.9999970092774,2|2,3:2|2:2,2:2:0:0:
177,60,27645,1,2,3:2:0:0:
177,60,27979,2,0,P|163:17|159:7,1,48.9999985046387,2|2,2:2|2:2,2:2:0:0:
130,131,28645,2,0,P|144:174|148:184,1,48.9999985046387,2|0,2:2|2:2,2:2:0:0:
337,35,29312,6,0,P|377:35|405:82,1,97.9999970092774,0|0,3:2|2:2,2:2:0:0:
484,92,30312,2,0,P|504:126|477:174,1,97.9999970092774,0|2,3:2|2:2,2:2:0:0:
468,252,31312,1,2,2:2:0:0:
468,252,31645,1,2,2:2:0:0:
216,214,31979,54,0,P|221:191|235:145,1,48.9999985046387,0|2,3:2|2:2,2:2:0:0:
199,98,32479,1,2,2:2:0:0:
199,98,32645,1,2,2:2:0:0:
342,209,32979,1,2,3:2:0:0:
72,350,33423,2,0,P|86:298|93:253,1,97.9999970092775,2|2,2:2|2:2,2:2:0:0:
56,187,34312,1,2,2:2:0:0:
304,297,34645,22,0,P|328:293|352:287,1,48.9999985046387,2|2,3:2|2:2,2:2:0:0:
268,365,35201,2,0,P|229:372|200:378,1,65.3333313395183,2|2,2:2|3:2,2:2:0:0:
72,99,35979,37,2,2:2:0:0:
72,99,36312,1,2,2:2:0:0:
0,199,36479,2,0,P|16:174|63:175,1,73.4999977569581,2|0,2:2|2:2,2:2:0:0:
419,89,37312,21,0,3:2:0:0:
419,89,37645,2,0,P|425:65|431:41,1,48.9999985046387,2|2,2:2|2:2,2:2:0:0:
491,128,38312,2,0,P|484:151|478:175,2,48.9999985046387,2|2|2,3:2|2:2|2:2,2:2:0:0:
101,308,39312,38,0,P|106:323|110:335,1,24.4999992523194,2|0,3:2|2:2,2:2:0:0:
42,373,39701,2,0,P|32:339|21:317,1,59.4999981842042,2|0,2:2|2:2,2:2:0:0:
463,309,41312,21,2,2:2:0:0:
463,309,41645,1,2,2:2:0:0:
443,236,41979,1,2,2:2:0:0:
225,357,42312,37,2,3:2:0:0:
244,355,42429,1,0,3:2:0:0:
265,358,42547,1,0,3:2:0:0:
283,365,42664,5,0,1:2:0:0:
103,217,42998,2,0,P|51:225|-15:239,1,105.000004005432,2|0,2:2|3:2,2:2:0:0:
149,372,43664,1,2,2:2:0:0:
338,180,43998,54,0,P|322:219|318:244,1,52.5000020027161,2|0,2:2|2:2,2:2:0:0:
258,288,44331,2,0,P|247:249|240:233,1,52.5000020027161,2|0,2:2|2:2,2:2:0:0:
177,195,44664,1,2,3:2:0:0:
408,58,44998,6,0,P|357:48|292:28,1,105.000004005432,2|0,2:2|3:2,2:2:0:0:
450,203,45664,2,0,P|399:188|348:178,1,105.000004005432,2|0,2:2|3:2,2:2:0:0:
28,372,46664,54,0,P|18:337|9:312,1,52.5000020027161,2|0,2:2|2:2,2:2:0:0:
44,257,46998,2,0,P|79:247|104:238,1,52.5000020027161,2|0,2:2|2:2,2:2:0:0:
159,273,47331,1,2,3:2:0:0:
10,71,47664,6,0,P|67:78|81:124,1,105.000004005432,2|0,2:2|3:2,2:2:0:0:
211,32,48331,2,0,P|159:58|162:106,1,105.000004005432,2|0,2:2|3:2,2:2:0:0:
94,321,48998,54,0,P|75:255|61:218,1,105.000004005432,2|0,2:2|2:2,2:2:0:0:
230,293,49664,2,0,P|225:224|225:184,1,105.000004005432,2|0,2:2|3:2,2:2:0:0:
361,359,50331,6,0,B|374:283|436:236|502:246|520:308|485:352|449:344,1,262.500010013581,2|0,2:2|2:2,2:2:0:0:
353,181,51331,1,0,3:2:0:0:
115,377,51998,54,0,P|80:351|57:349,1,52.5000020027161,2|0,2:2|2:2,2:2:0:0:
0,293,52331,2,0,P|33:284|56:276,1,52.5000020027161,2|0,2:2|2:2,2:2:0:0:
63,205,52664,1,2,3:2:0:0:
0,370,52998,1,2,2:2:0:0:
231,241,53331,21,0,3:2:0:0:
78,75,53664,2,0,P|92:122|141:129,1,105.000004005432,2|0,2:2|3:2,2:2:0:0:
338,0,54664,38,0,P|329:29|316:65,1,52.5000020027161,2|0,2:2|2:2,2:2:0:0:
398,140,54998,2,0,P|391:110|387:80,1,52.5000020027161,2|0,2:2|2:2,2:2:0:0:
247,59,55331,1,2,3:2:0:0:
503,257,55664,22,0,P|512:206|453:182,1,105.000004005432,2|0,2:2|3:2,2:2:0:0:
399,370,56331,2,0,P|358:340|368:291,1,105.000004005432,2|0,2:2|3:2,2:2:0:0:
0,196,57206,37,2,2:2:0:0:
105,328,57442,2,0,P|96:276|71:197,2,105.000004005432,2|2|2,2:2|2:2|2:2,2:2:0:0:
362,185,58498,21,2,2:2:0:0:
362,185,58664,2,0,B|381:137|317:65|305:143|243:75|259:19,1,210.000008010865,2|2,3:2|3:2,2:2:0:0:
482,192,59748,1,2,0:0:0:0:
436,81,60081,2,0,P|409:159|379:275,1,183.750007009506,2|0,2:2|3:2,2:2:0:0:
240,334,60998,2,0,P|207:268|315:216,1,210.000008010865,2|0,3:2|2:2,2:2:0:0:
149,346,61998,37,0,3:2:0:0:
21,113,62331,22,0,P|36:159|55:228,1,105.000004005432,2|0,2:2|2:2,2:2:0:0:
43,225,62748,2,0,P|22:256|38:284,1,52.5000020027161,2|0,2:2|2:2,2:2:0:0:
145,151,63081,2,0,P|165:119|149:91,1,52.5000020027161,2|0,2:2|2:2,2:2:0:0:
109,56,63414,1,2,2:2:0:0:
158,269,63664,37,2,3:2:0:0:
177,268,63775,1,0,3:2:0:0:
195,271,63886,1,0,3:2:0:0:
210,276,63997,5,4,1:2:0:0:
109,56,64331,2,0,P|57:72|-3:92,1,105.000004005432,2|2,2:2|3:2,2:2:0:0:
276,364,65331,38,0,P|284:324|288:292,1,52.5000020027161,2|0,2:2|2:2,2:2:0:0:
348,267,65664,2,0,P|388:275|420:279,1,52.5000020027161,2|0,2:2|2:2,2:2:0:0:
435,343,65998,1,2,3:2:0:0:
252,156,66331,22,0,P|319:141|353:121,1,105.000004005432,2|0,2:2|3:2,2:2:0:0:
66,219,66998,2,0,P|95:234|111:256,1,52.5000020027161,2|0,2:2|2:2,2:2:0:0:
158,378,67331,2,0,P|168:330|187:266,1,105.000004005432,2|0,3:2|2:2,2:2:0:0:
17,14,67998,38,0,P|30:99|102:57,1,183.750007009506,2|0,2:2|2:2,2:2:0:0:
106,79,68664,2,0,P|160:66|212:57,1,105.000004005432,2|0,3:2|2:2,2:2:0:0:
477,365,69331,22,0,P|472:289|415:308,1,157.500006008148,2|0,3:2|2:2,2:2:0:0:
360,249,69998,2,0,P|291:215|279:274,1,157.500006008148,2|0,3:2|2:2,2:2:0:0:
201,292,70664,2,0,P|137:334|182:374,1,157.500006008148,2|0,2:2|2:2,2:2:0:0:
256,369,71331,38,0,P|291:355|321:350,1,52.5000020027161,2|0,3:2|2:2,2:2:0:0:
105,323,71664,2,0,P|70:337|40:342,1,52.5000020027161,2|0,2:2|2:2,2:2:0:0:
194,281,71998,22,0,P|209:175|222:88,1,183.750007009506,2|0,2:2|2:2,2:2:0:0:
208,105,72664,1,2,3:2:0:0:
395,377,73331,38,0,P|432:351|453:347,1,52.5000020027161,2|0,2:2|2:2,2:2:0:0:
512,298,73664,2,0,P|470:278|457:262,1,52.5000020027161,2|0,2:2|2:2,2:2:0:0:
352,215,73998,22,0,P|365:256|371:274,1,52.5000020027161,2|0,3:2|2:2,2:2:0:0:
416,86,74331,2,0,P|403:45|386:4,1,78.7500030040742,2|0,2:2|2:2,2:2:0:0:
377,16,74664,38,0,P|325:30|316:76,1,105.000004005432,0|2,3:2|2:2,2:2:0:0:
485,225,75331,2,0,P|433:211|424:165,1,105.000004005432,0|2,3:2|2:2,2:2:0:0:
140,351,75998,38,0,P|145:328|150:297,1,52.5000020027161,2|0,2:2|2:2,2:2:0:0:
213,254,76331,2,0,P|236:259|267:264,1,52.5000020027161,2|0,2:2|2:2,2:2:0:0:
307,324,76664,1,2,3:2:0:0:
75,52,76998,22,0,P|30:66|-41:80,1,105.000004005432,2|0,2:2|3:2,2:2:0:0:
166,137,77664,2,0,P|211:123|282:109,1,105.000004005432,2|0,2:2|3:2,2:2:0:0:
28,311,78331,2,0,P|44:227|71:116,1,183.750007009506,2|0,2:2|2:2,2:2:0:0:
81,129,78998,2,0,P|116:125|127:191,1,105.000004005432,2|2,2:2|3:2,2:2:0:0:
462,243,79664,38,0,P|472:275|484:304,1,52.5000020027161,2|0,2:2|2:2,2:2:0:0:
418,356,79998,2,0,P|396:284|353:180,1,183.750007009506,2|0,3:2|2:2,2:2:0:0:
361,172,80664,2,0,P|310:191|161:365,1,280,2|0,3:2|3:2,2:2:0:0:
235,384,82331,1,0,3:2:0:0:
162,365,83331,21,0,3:2:0:0:
235,384,83998,1,0,3:2:0:0:
58,179,84998,37,0,3:2:0:0:
58,179,85164,1,0,3:2:0:0:
97,114,85331,2,0,P|94:106|91:97,1,17.5,2|0,1:2|2:2,2:2:0:0:
445,358,88039,38,0,P|448:350|451:341,1,17.5,2|0,3:2|2:2,2:2:0:0:
271,18,90645,6,0,P|247:81|236:160,1,131.25,2|0,1:2|2:2,2:2:0:0:
170,189,91311,2,0,P|140:148|95:144,2,87.5,10|2|2,2:2|3:2|2:2,2:2:0:0:
310,269,92311,38,0,P|340:249|348:241,1,43.75,2|0,1:2|2:2,2:2:0:0:
415,297,92645,2,0,P|370:322|332:360,1,87.5,10|2,2:2|2:2,2:2:0:0:
69,376,93311,22,0,P|12:343|40:292,1,131.25,0|0,1:2|2:2,2:2:0:0:
110,308,93978,2,0,P|144:315|160:320,1,43.75,8|0,2:2|2:2,2:2:0:0:
253,369,94311,2,0,P|229:312|202:235,1,131.25,0|0,1:2|2:2,2:2:0:0:
246,186,94978,37,0,1:2:0:0:
461,255,95311,2,0,P|492:218|473:181,1,87.5,10|2,2:2|2:2,2:2:0:0:
258,15,95978,22,0,P|282:72|309:149,1,131.25,2|0,1:2|2:2,2:2:0:0:
377,162,96645,2,0,P|422:133|419:99,2,87.5,10|2|2,2:2|3:2|2:2,2:2:0:0:
192,102,97645,38,0,P|168:93|144:85,1,43.75,2|0,1:2|2:2,2:2:0:0:
95,12,97978,2,0,P|79:59|57:118,1,87.5,10|2,2:2|2:2,2:2:0:0:
9,286,98644,22,0,P|71:284|81:359,1,131.25,0|0,1:2|2:2,2:2:0:0:
158,374,99311,2,0,P|184:348|193:343,1,43.75,8|0,2:2|2:2,2:2:0:0:
320,320,99644,2,0,P|257:301|189:253,1,131.25,0|0,1:2|2:2,2:2:0:0:
160,205,100311,37,0,1:2:0:0:
453,373,100644,2,0,P|460:330|469:279,1,87.5,8|2,2:2|2:2,2:2:0:0:
326,41,101311,38,0,P|369:42|388:121,1,131.25,2|0,1:2|2:2,2:2:0:0:
323,158,101978,2,0,P|304:153|280:148,1,43.75,10|0,2:2|2:2,2:2:0:0:
218,99,102311,2,0,P|139:134|85:152,1,131.25,2|0,3:2|2:2,2:2:0:0:
41,208,102978,21,2,1:2:0:0:
224,293,103311,2,0,P|213:318|207:346,1,43.75,10|0,2:2|2:2,2:2:0:0:
149,377,103644,1,2,3:2:0:0:
149,377,103811,1,0,3:2:0:0:
110,306,103978,37,0,1:2:0:0:
443,355,104311,2,0,P|420:358|399:362,1,43.75,2|0,2:2|2:2,2:2:0:0:
338,322,104644,2,0,P|335:299|330:278,1,43.75,10|0,2:2|2:2,2:2:0:0:
371,213,104978,2,0,B|355:167|404:121|424:170|472:113|456:62,1,175,2|0,1:2|1:2,2:2:0:0:
211,8,105978,22,0,P|224:30|237:63,1,43.75,8|0,2:2|2:2,2:2:0:0:
302,74,106311,1,2,2:2:0:0:
109,305,106644,38,0,P|66:314|24:326,1,87.5,2|2,1:2|2:2,2:2:0:0:
195,176,107311,2,0,P|237:166|279:154,1,87.5,10|2,2:2|3:2,2:2:0:0:
35,150,107978,21,2,2:2:0:0:
35,150,108311,1,2,1:2:0:0:
189,334,108644,2,0,P|195:309|212:256,1,43.75,10|0,2:2|2:2,2:2:0:0:
148,239,108978,1,0,3:2:0:0:
417,104,109311,37,0,1:2:0:0:
473,158,109644,1,0,2:2:0:0:
434,31,109978,1,8,2:2:0:0:
344,128,110311,2,0,P|367:205|382:270,1,131.25,0|0,1:2|2:2,2:2:0:0:
368,334,110978,22,0,P|348:326|321:321,1,43.75,2|0,1:2|2:2,2:2:0:0:
449,284,111311,2,0,P|467:290|494:295,1,43.75,10|0,2:2|2:2,2:2:0:0:
510,374,111644,1,2,3:2:0:0:
510,374,111811,1,0,3:2:0:0:
283,260,111978,22,0,P|241:279|233:318,1,70.8750002703667,0|0,1:2|2:2,2:2:0:0:
223,302,112311,38,0,P|196:290|178:286,1,47.2500001802444,2|2,2:2|2:2,2:2:0:0:
18,370,112644,2,0,P|53:355|115:341,1,94.5000003604889,10|2,2:2|3:2,2:2:0:0:
10,100,113311,22,0,P|13:72|20:20,1,70.8750002703667,2|0,2:2|2:2,2:2:0:0:
12,23,113644,1,0,1:2:0:0:
158,159,113978,38,0,P|197:141|189:89,1,94.5000003604889,10|2,2:2|3:2,2:2:0:0:
117,90,114478,1,0,3:2:0:0:
244,236,114644,22,0,P|288:244|318:253,1,70.8750002703667,2|0,1:2|2:2,2:2:0:0:
318,260,114978,1,2,2:2:0:0:
400,212,115144,1,2,2:2:0:0:
356,146,115311,2,0,P|371:94|386:36,1,94.5000003604889,8|2,2:2|1:2,2:2:0:0:
495,248,115978,38,0,P|480:300|470:338,1,70.8750002703667,2|0,2:2|2:2,2:2:0:0:
482,323,116311,1,2,1:2:0:0:
399,375,116478,1,2,2:2:0:0:
335,335,116644,2,0,P|292:343|263:387,1,94.5000003604889,8|0,2:2|3:2,2:2:0:0:
244,236,117144,1,0,3:2:0:0:
50,368,117311,22,0,P|39:322|32:293,1,70.8750002703667,0|0,1:2|2:2,2:2:0:0:
34,287,117644,38,0,P|71:277|92:270,1,47.2500001802444,2|0,2:2|2:2,2:2:0:0:
184,111,117978,2,0,P|147:121|126:128,1,47.2500001802444,10|0,2:2|2:2,2:2:0:0:
186,321,118311,22,0,P|179:298|173:275,1,47.2500001802444,2|0,1:2|2:2,2:2:0:0:
9,77,118644,2,0,P|25:133|38:183,1,94.5000003604889,2|0,2:2|1:2,2:2:0:0:
262,112,119311,38,0,P|273:81|291:15,1,94.5000003604889,10|0,2:2|2:2,2:2:0:0:
366,7,119769,2,0,P|439:10|419:115,1,189.000000720978,2|0,2:2|2:2,2:2:0:0:
487,357,121311,21,2,2:2:0:0:
451,295,121644,1,2,2:2:0:0:
392,338,121978,1,2,2:2:0:0:
226,293,122311,53,2,3:2:0:0:
235,313,122428,1,0,3:2:0:0:
240,336,122546,1,0,3:2:0:0:
239,360,122664,21,0,1:2:0:0:
407,138,122997,2,0,P|396:189|388:241,1,105.000004005432,2|0,2:2|3:2,2:2:0:0:
268,152,123664,1,2,2:2:0:0:
160,367,123997,38,0,P|146:326|144:301,1,52.5000020027161,2|0,2:2|2:2,2:2:0:0:
84,274,124330,2,0,P|43:287|18:289,1,52.5000020027161,2|0,2:2|2:2,2:2:0:0:
0,360,124664,1,2,3:2:0:0:
164,75,124997,22,0,P|189:98|162:173,1,105.000004005432,2|0,2:2|3:2,2:2:0:0:
6,131,125664,2,0,P|5:80|48:54,1,105.000004005432,2|0,2:2|3:2,2:2:0:0:
452,106,126664,38,0,P|462:71|471:46,1,52.5000020027161,2|0,2:2|2:2,2:2:0:0:
391,30,126997,2,0,P|381:65|372:90,1,52.5000020027161,2|0,2:2|2:2,2:2:0:0:
316,129,127330,1,2,3:2:0:0:
410,352,127664,22,0,P|458:337|534:319,1,105.000004005432,2|0,2:2|3:2,2:2:0:0:
380,239,128330,2,0,P|332:254|256:272,1,105.000004005432,2|0,2:2|3:2,2:2:0:0:
93,356,128997,38,0,P|77:310|132:277,1,105.000004005432,2|0,2:2|2:2,2:2:0:0:
212,303,129664,2,0,P|227:348|172:381,1,105.000004005432,2|0,2:2|3:2,2:2:0:0:
8,272,130330,22,0,P|36:199|82:13,1,262.500010013581,2|0,2:2|2:2,2:2:0:0:
185,104,131330,1,0,3:2:0:0:
474,219,131997,38,0,P|465:252|457:275,1,52.5000020027161,2|0,2:2|2:2,2:2:0:0:
405,351,132330,2,0,P|391:323|384:293,1,52.5000020027161,2|0,2:2|2:2,2:2:0:0:
328,251,132663,1,2,3:2:0:0:
149,372,132997,6,0,P|96:355|104:303,1,105.000004005432,2|0,2:2|3:2,2:2:0:0:
0,216,133663,2,0,P|53:199|45:147,1,105.000004005432,2|0,2:2|3:2,2:2:0:0:
301,18,134663,54,0,P|288:50|282:79,1,52.5000020027161,2|0,2:2|2:2,2:2:0:0:
210,92,134997,2,0,P|223:124|229:153,1,52.5000020027161,2|0,2:2|2:2,2:2:0:0:
246,213,135330,1,2,3:2:0:0:
510,46,135663,6,0,P|458:61|395:72,1,105.000004005432,2|0,2:2|3:2,2:2:0:0:
421,218,136330,2,0,P|370:228|320:243,1,105.000004005432,2|0,2:2|3:2,2:2:0:0:
18,322,137205,53,2,2:2:0:0:
108,274,137441,2,0,P|99:222|48:206,2,105.000004005432,2|2|2,2:2|2:2|2:2,2:2:0:0:
248,363,138497,5,2,2:2:0:0:
248,363,138663,2,0,P|269:263|292:156,1,210.000008010865,2|2,3:2|3:2,2:2:0:0:
405,357,139747,53,2,0:0:0:0:
504,247,140080,2,0,P|430:273|375:287,1,131.25000500679,2|0,2:2|2:2,2:2:0:0:
321,235,140663,1,0,3:2:0:0:
398,80,140997,6,0,P|409:137|462:142,1,105.000004005432,2|0,3:2|2:2,2:2:0:0:
27,361,141997,53,0,3:2:0:0:
117,222,142330,6,0,P|140:167|106:132,1,105.000004005432,2|0,2:2|2:2,2:2:0:0:
103,142,142747,2,0,P|67:156|57:178,1,52.5000020027161,2|0,2:2|2:2,2:2:0:0:
146,298,143080,2,0,P|203:313|239:349,1,105.000004005432,2|2,2:2|2:2,2:2:0:0:
391,284,143663,53,2,3:2:0:0:
424,274,143775,1,0,3:2:0:0:
455,258,143886,1,0,3:2:0:0:
482,236,143997,21,4,1:2:0:0:
393,30,144330,2,0,P|379:88|370:146,1,105.000004005432,2|2,2:2|3:2,2:2:0:0:
13,85,145330,22,0,P|21:125|25:157,1,52.5000020027161,2|0,2:2|2:2,2:2:0:0:
85,182,145663,2,0,P|125:174|157:170,1,52.5000020027161,2|0,2:2|2:2,2:2:0:0:
172,106,145997,1,2,3:2:0:0:
331,351,146330,38,0,P|326:295|370:265,1,105.000004005432,2|0,2:2|3:2,2:2:0:0:
436,74,146997,2,0,P|441:106|422:130,1,52.5000020027161,2|0,2:2|2:2,2:2:0:0:
368,186,147330,2,0,P|355:135|339:85,1,105.000004005432,2|0,3:2|2:2,2:2:0:0:
45,343,147997,22,0,P|61:280|82:148,1,183.750007009506,2|0,2:2|2:2,2:2:0:0:
74,154,148663,2,0,P|97:196|152:194,1,105.000004005432,2|0,3:2|2:2,2:2:0:0:
418,336,149330,38,0,P|346:315|257:296,1,157.500006008148,2|0,3:2|2:2,2:2:0:0:
237,227,149997,2,0,P|258:155|277:66,1,157.500006008148,2|0,3:2|2:2,2:2:0:0:
346,42,150663,2,0,P|418:63|507:82,1,157.500006008148,2|0,2:2|2:2,2:2:0:0:
423,256,151330,22,0,P|454:245|485:233,1,52.5000020027161,2|0,3:2|2:2,2:2:0:0:
336,354,151663,2,0,P|304:365|274:377,1,52.5000020027161,2|0,2:2|2:2,2:2:0:0:
175,239,151997,38,0,B|163:189|222:141|224:191|277:143|271:90,1,183.750007009506,2|0,2:2|2:2,2:2:0:0:
263,88,152663,1,0,3:2:0:0:
0,50,153330,22,0,P|9:74|16:105,1,52.5000020027161,2|0,2:2|2:2,2:2:0:0:
91,79,153663,2,0,P|81:54|74:23,1,52.5000020027161,2|0,2:2|2:2,2:2:0:0:
20,202,153997,38,0,P|16:228|-8:251,1,52.5000020027161,2|0,3:2|2:2,2:2:0:0:
131,367,154330,2,0,P|97:341|93:293,1,78.7500030040742,2|0,2:2|2:2,2:2:0:0:
100,298,154663,22,0,P|158:299|209:308,1,105.000004005432,0|2,3:2|2:2,2:2:0:0:
15,100,155330,1,0,3:2:0:0:
453,361,155997,22,0,P|469:341|471:310,1,52.5000020027161,2|0,2:2|2:2,2:2:0:0:
377,330,156330,2,0,P|380:304|397:284,1,52.5000020027161,2|0,2:2|2:2,2:2:0:0:
474,211,156663,1,2,3:2:0:0:
286,359,156997,38,0,P|259:322|188:310,1,105.000004005432,2|0,2:2|3:2,2:2:0:0:
20,196,157663,2,0,P|72:176|91:128,1,105.000004005432,2|0,2:2|3:2,2:2:0:0:
250,16,158330,2,0,P|239:62|209:217,1,183.750007009506,2|0,2:2|2:2,2:2:0:0:
227,192,158997,2,0,P|233:162|239:136,1,52.5000020027161,2|0,2:2|2:2,2:2:0:0:
308,108,159330,1,0,3:2:0:0:
469,346,159663,22,0,P|425:360|414:365,1,52.5000020027161,2|0,2:2|2:2,2:2:0:0:
354,322,159997,2,0,P|388:216|476:245,1,210.000008010865,2|2,1:2|2:2,2:2:0:0:
28,367,161330,38,0,P|38:330|42:308,1,52.5000020027161,2|0,2:2|2:2,2:2:0:0:
97,252,161663,2,0,P|107:281|117:309,1,52.5000020027161,2|0,2:2|2:2,2:2:0:0:
188,334,161997,2,0,P|220:319|244:317,1,52.5000020027161,2|0,3:2|2:2,2:2:0:0:
0,126,162330,2,0,P|32:141|56:143,1,52.5000020027161,2|0,2:2|2:2,2:2:0:0:
379,67,162644,22,0,L|392:19,1,39.3750015020371,10|0,1:3|2:2,2:2:0:0:
104,245,163144,2,0,L|91:197,1,39.3750015020371,10|0,1:3|2:2,2:2:0:0:
404,364,163644,2,0,L|417:316,1,39.3750015020371,10|0,1:3|2:2,2:2:0:0:
266,157,164144,37,0,1:2:0:0:
236,316,164311,1,6,1:3:0:0:
418,185,164644,22,0,P|378:191|329:205,1,78.7500030040742,8|0,2:2|2:2,2:2:0:0:
110,291,164978,1,6,2:3:0:0:
200,43,165311,54,0,B|222:96|143:173|124:63|53:158|80:217,1,245,6|0,1:2|2:2,2:2:0:0:
0,76,167978,54,0,P|175:114|288:145,1,293.999991027832,2|0,2:2|2:2,2:2:0:0:
421,101,170644,6,0,B|471:95|493:23|426:-40|323:-22|278:110|343:221,1,391.99998803711,2|0,2:2|2:2,2:2:0:0:
190,142,175978,54,0,B|218:131|233:97|217:59|180:29|72:78|123:201|123:201|73:131|29:128|-24:161|0:229|43:225,1,490,2|0,2:2|2:2,2:2:0:0:
75,20,178643,6,0,P|107:187|123:301,1,280,2|2,2:2|2:2,2:2:0:0:
177,373,180311,2,0,P|244:343|224:291,1,140,2|2,2:2|2:2,2:2:0:0:
471,81,181311,54,0,B|506:51|498:-1|432:-32|381:4|366:100|411:144,1,262.5,2|0,2:2|2:2,2:2:0:0:
401,148,182644,2,0,P|468:172|478:179,1,70,2|2,2:2|2:2,2:2:0:0:
344,210,183311,5,2,2:2:0:0:
344,210,183644,2,0,P|378:286|391:357,2,140,2|2|2,2:2|2:2|2:2,2:2:0:0:
183,82,185644,54,0,P|187:42|213:23,2,70,2|0|2,2:2|2:2|2:2,2:2:0:0:
256,80,186478,1,0,2:2:0:0:
113,211,186644,38,0,P|64:195|5:181,1,104.999996795654,6|0,1:2|2:2,2:2:0:0:
6,190,187144,1,0,3:2:0:0:
61,114,187311,1,0,3:2:0:0:
61,114,187644,1,0,3:2:0:0:
190,367,187978,21,0,3:2:0:0:
190,367,188144,1,0,3:2:0:0:
215,269,188311,1,0,3:2:0:0:
215,269,188644,2,0,P|171:268|151:315,1,83.9999974365235,0|0,3:2|2:2,2:2:0:0:
415,250,189144,37,0,3:2:0:0:
423,243,189228,1,0,3:2:0:0:
430,238,189311,2,0,P|403:190|346:189,1,104.999996795654,2|0,1:2|2:2,2:2:0:0:
347,178,189811,1,0,3:2:0:0:
357,293,189978,1,0,3:2:0:0:
357,293,190311,1,0,3:2:0:0:
202,143,190644,21,0,3:2:0:0:
202,143,190811,1,0,3:2:0:0:
290,39,190978,2,0,P|279:62|264:106,1,62.9999980773926,0|0,3:2|2:2,2:2:0:0:
272,107,191311,1,0,3:2:0:0:
220,3,191478,1,0,3:2:0:0:
220,3,191644,1,0,3:2:0:0:
429,102,191811,37,0,3:2:0:0:
424,109,191894,1,0,3:2:0:0:
420,116,191978,2,0,P|433:175|453:236,1,104.999996795654,2|0,1:2|2:2,2:2:0:0:
458,224,192478,1,0,3:2:0:0:
354,186,192644,1,0,3:2:0:0:
354,186,192978,1,0,3:2:0:0:
150,356,193311,21,0,3:2:0:0:
150,356,193478,1,0,3:2:0:0:
262,320,193644,2,0,P|229:305|202:296,1,62.9999980773926,0|0,3:2|2:2,2:2:0:0:
196,287,193978,1,0,3:2:0:0:
25,80,194478,37,0,3:2:0:0:
27,71,194561,1,0,3:2:0:0:
29,62,194644,2,0,P|96:63|104:96,1,104.999996795654,2|0,1:2|2:2,2:2:0:0:
98,100,195144,1,0,3:2:0:0:
162,22,195311,1,0,3:2:0:0:
162,22,195644,1,0,3:2:0:0:
469,124,195978,21,0,3:2:0:0:
469,124,196144,1,0,3:2:0:0:
284,221,196311,2,0,P|292:245|299:272,1,41.9999987182618,0|0,3:2|2:2,2:2:0:0:
386,93,196644,2,0,P|377:68|370:41,1,41.9999987182618,0|0,3:2|2:2,2:2:0:0:
464,267,196978,37,0,3:2:0:0:
464,267,197144,1,0,3:2:0:0:
186,379,197311,22,0,P|195:335|258:325,1,105.000004005432,6|0,1:2|3:2,2:2:0:0:
261,147,197811,21,0,3:2:0:0:
168,253,197978,2,0,P|134:244|108:236,1,52.5000020027161,0|0,3:2|2:2,2:2:0:0:
331,227,198311,2,0,P|365:236|391:244,1,52.5000020027161,0|0,3:2|2:2,2:2:0:0:
186,105,198644,37,0,1:2:0:0:
249,234,198811,1,0,3:2:0:0:
186,105,198978,1,0,3:2:0:0:
402,178,199311,22,0,P|446:153|447:116,1,78.7500030040742,0|0,3:2|2:2,2:2:0:0:
440,130,199644,1,0,3:2:0:0:
287,302,199811,37,0,3:2:0:0:
282,309,199894,1,0,3:2:0:0:
277,316,199978,2,0,P|220:326|136:355,1,119.000002269745,2|0,1:2|3:2,2:2:0:0:
345,358,200478,21,0,3:2:0:0:
227,181,200644,2,0,P|213:207|218:236,1,59.5000011348725,0|0,3:2|2:2,2:2:0:0:
382,265,200978,2,0,P|396:239|392:211,1,59.5000011348725,0|0,3:2|2:2,2:2:0:0:
187,108,201311,37,0,1:2:0:0:
331,66,201478,1,0,3:2:0:0:
187,108,201644,1,0,3:2:0:0:
374,273,201978,22,0,P|420:284|469:297,1,89.2500017023087,0|0,3:2|2:2,2:2:0:0:
456,284,202311,1,0,3:2:0:0:
152,362,202478,37,0,3:2:0:0:
142,354,202561,1,0,3:2:0:0:
133,347,202644,21,6,1:2:0:0:
96,228,202810,1,0,3:2:0:0:
174,267,202977,37,0,3:2:0:0:
55,304,203143,1,0,3:2:0:0:
249,167,203310,21,0,1:2:0:0:
286,48,203477,1,0,3:2:0:0:
208,87,203643,37,0,3:2:0:0:
327,124,203810,1,0,3:2:0:0:
416,248,203977,21,4,1:2:0:0:
373,384,204143,1,0,3:2:0:0:
463,339,204310,37,0,3:2:0:0:
326,297,204477,1,0,3:2:0:0:
95,217,204643,21,0,1:2:0:0:
138,353,204810,1,0,3:2:0:0:
48,308,204977,37,0,3:2:0:0:
185,266,205143,1,0,3:2:0:0:
286,48,205310,22,0,L|295:0,1,39.3750015020371,14|0,1:3|2:2,2:2:0:0:
102,209,205810,2,0,L|93:161,1,39.3750015020371,10|0,1:3|2:2,2:2:0:0:
463,339,206310,2,0,L|472:291,1,39.3750015020371,8|0,1:3|2:2,2:2:0:0:
163,100,206978,54,0,P|180:183|194:280,1,157.500006008148,4|0,1:3|2:2,2:2:0:0:
185,266,207311,1,8,2:2:0:0:
425,18,207644,54,0,P|471:18|492:68,1,105.000004005432,6|0,1:3|2:2,2:2:0:0:
344,203,207977,38,0,P|341:171|366:143,1,61.2500005841255,6|0,1:2|2:2,2:2:0:0:
486,194,208144,2,0,P|389:224|235:382,1,306.250002920628,2|0,3:2|2:2,2:2:0:0:
231,367,208644,5,10,1:2:0:0:
388,329,208811,2,0,P|252:221|187:98,1,306.250002920628,2|0,3:2|2:2,2:2:0:0:
67,59,209311,54,0,P|57:91|41:127,1,61.2500005841255,2|0,1:2|2:2,2:2:0:0:
80,186,209478,2,0,P|111:193|138:203,1,61.2500005841255,2|0,3:2|2:2,2:2:0:0:
198,93,209644,2,0,P|281:66|375:31,1,183.750001752377,2|0,2:2|2:2,2:2:0:0:
386,39,209978,1,8,1:2:0:0:
408,274,210228,5,2,2:2:0:0:
406,263,210311,2,0,P|431:220|486:250,1,122.500001168251,2|0,2:2|2:2,2:2:0:0:
489,263,210644,54,0,P|479:293|473:327,1,61.2500005841255,6|0,1:2|2:2,2:2:0:0:
348,368,210811,2,0,B|315:261|223:256|242:314|128:292|116:209,1,306.250002920628,2|0,3:2|2:2,2:2:0:0:
105,209,211311,1,10,1:2:0:0:
237,128,211478,5,2,3:2:0:0:
210,246,211644,1,2,2:2:0:0:
185,366,211811,1,2,2:2:0:0:
396,249,211978,54,0,P|384:220|374:191,1,61.2500005841255,2|0,1:2|2:2,2:2:0:0:
333,323,212144,2,0,P|304:235|211:35,1,306.250002920628,2|0,3:2|2:2,2:2:0:0:
222,31,212644,1,10,1:2:0:0:
460,20,212811,6,0,P|443:78|428:146,1,122.500001168251,2|0,3:2|2:2,2:2:0:0:
356,47,213144,1,0,2:2:0:0:
509,237,213311,54,0,P|496:270|490:294,1,61.2500005841255,6|0,1:2|2:2,2:2:0:0:
404,351,213478,2,0,P|351:331|85:262,1,306.250002920628,2|0,3:2|2:2,2:2:0:0:
102,275,213978,5,10,1:2:0:0:
264,384,214144,2,0,B|242:299|303:227|382:308|418:186|385:115,1,306.250002920628,2|0,3:2|2:2,2:2:0:0:
407,133,214644,54,0,P|441:146|483:157,1,61.2500005841255,2|0,1:2|2:2,2:2:0:0:
296,182,214811,2,0,P|135:139|-19:105,1,306.250002920628,2|0,3:2|2:2,2:2:0:0:
0,97,215311,1,10,1:2:0:0:
126,175,215478,5,2,3:2:0:0:
245,125,215644,1,2,2:2:0:0:
362,78,215811,1,2,2:2:0:0:
165,104,215978,54,0,P|151:69|137:12,1,61.2500005841255,6|0,1:2|2:2,2:2:0:0:
51,34,216144,2,0,P|118:199|155:347,1,306.250002920628,2|0,3:2|2:2,2:2:0:0:
160,332,216644,5,10,1:2:0:0:
23,261,216811,2,0,P|110:234|336:179,1,306.250002920628,2|0,3:2|2:2,2:2:0:0:
328,194,217311,53,2,1:2:0:0:
248,326,217478,2,0,P|238:352|229:387,1,61.2500005841255,10|0,2:3|2:2,2:2:0:0:
402,313,217811,5,2,2:3:0:0:
151,183,217978,2,0,P|137:151|118:102,1,61.2500005841255,8|0,1:3|2:2,2:2:0:0:
167,64,218143,1,6,2:3:0:0:
4,366,218477,5,4,2:3:0:0:
4,366,218643,22,0,P|56:347|76:346,1,52.5000020027161,6|0,1:2|2:2,2:2:0:0:
174,384,218811,2,0,B|75:349|33:289|46:188|108:154|177:190|181:262|132:280,1,350,2|0,3:2|2:2,2:2:0:0:
144,259,219311,21,10,1:2:0:0:
299,163,219478,2,0,B|233:204|171:165|166:100|169:99|175:98|169:24|88:-13|29:43,1,350,2|0,3:2|2:2,2:2:0:0:
0,126,219978,38,0,P|25:118|50:110,1,52.5000020027161,2|0,1:2|2:2,2:2:0:0:
183,168,220144,2,0,P|148:142|134:126,1,52.5000020027161,2|0,3:2|2:2,2:2:0:0:
148,15,220311,2,0,P|126:108|105:232,1,210,2|0,2:2|2:2,2:2:0:0:
98,215,220644,1,8,1:2:0:0:
263,343,220894,21,2,2:2:0:0:
268,351,220978,2,0,P|335:361|324:272,1,183.750001752377,2|0,2:2|2:2,2:2:0:0:
331,262,221311,38,0,P|369:255|386:253,1,52.5000020027161,6|0,1:2|2:2,2:2:0:0:
512,158,221478,2,0,B|448:169|425:96|432:91|440:88|417:-8|341:-9|282:28|271:92|330:129|362:101,1,350,2|0,3:2|2:2,2:2:0:0:
346,98,221978,22,0,P|301:110|253:131,1,61.2500005841255,10|0,1:2|0:0,2:2:0:0:
196,141,222143,2,0,P|213:103|220:80,1,61.2500005841255,0|0,3:0|0:0,0:0:0:0:
198,13,222311,2,0,P|140:34|80:47,1,122.500001168251,2|0,2:2|2:2,2:2:0:0:
4,150,222644,37,2,1:2:0:0:
64,282,222811,2,0,P|152:243|107:184,1,170.625004881621,2|0,3:2|2:2,2:2:0:0:
124,202,223144,1,2,2:2:0:0:
253,363,223311,21,10,1:2:0:0:
253,363,223644,2,0,P|299:308|339:315,1,113.750003254414,2|0,2:2|2:2,2:2:0:0:
493,269,223978,38,0,P|453:258|434:254,1,52.5000020027161,6|0,1:2|2:2,2:2:0:0:
350,118,224144,2,0,B|331:96|324:38|393:2|460:40|468:137|426:197|327:232,1,350,2|0,3:2|2:2,2:2:0:0:
344,234,224644,21,10,1:2:0:0:
253,363,224811,2,0,P|253:194|149:247,1,350,2|0,3:2|2:2,2:2:0:0:
141,245,225311,38,0,P|149:273|154:300,1,52.5000020027161,2|0,1:2|2:2,2:2:0:0:
44,359,225478,2,0,P|62:327|76:313,1,52.5000020027161,2|0,3:2|2:2,2:2:0:0:
15,235,225644,2,0,P|105:294|194:390,1,210,2|0,2:2|2:2,2:2:0:0:
167,370,225978,1,8,1:2:0:0:
173,156,226228,21,2,2:2:0:0:
178,148,226310,2,0,P|245:138|234:227,1,183.750001752377,2|0,2:2|2:2,2:2:0:0:
246,227,226644,38,0,P|287:238|300:247,1,52.5000020027161,10|0,1:3|2:2,2:2:0:0:
353,362,226811,2,0,P|381:253|416:153,1,210,2|0,3:2|2:2,2:2:0:0:
483,131,227144,21,0,3:2:0:0:
492,128,227228,1,0,3:2:0:0:
500,126,227311,2,0,P|499:55|437:47,1,140,10|0,1:2|2:2,2:2:0:0:
346,125,227644,38,0,P|302:133|269:137,1,70,8|0,2:3|2:2,2:2:0:0:
512,366,227977,37,0,1:2:0:0:
467,307,228143,1,4,3:3:0:0:
400,345,228310,1,4,3:3:0:0:
400,345,228644,22,0,P|374:335|330:325,1,52.5000020027161,2|0,3:2|2:2,2:2:0:0:
92,367,228978,38,2,P|31:332|54:289,1,105.000004005432,2|0,2:2|2:2,2:1:0:0:
75,113,229310,22,0,B|85:68|53:26|-11:42|-42:65|-38:133|-32:207|74:216|78:207|78:199|150:205|172:329|172:329|152:205|216:174|220:181|227:189|323:145|303:72|283:8|247:-3|182:4|164:54|189:92,1,918.750021904707,6|0,1:2|2:2,2:2:0:0:
34,306,230644,22,0,B|93:140|181:59|343:8|494:52|519:166|504:280|381:297|316:235|346:157,1,787.500018775463,10|0,3:2|2:2,2:2:0:0:
54,109,231978,38,0,B|45:97|45:97|88:80|110:5|110:5|102:84|139:115|139:115|128:123,1,262.500006258488,2|0,1:2|2:2,2:2:0:0:
32,252,232478,2,0,B|20:260|20:260|57:290|49:369|49:369|71:294|114:277|114:277|106:266,1,262.500006258488,2|0,1:2|2:2,2:2:0:0:
80,189,232978,21,2,1:2:0:0:
440,327,233311,38,0,B|432:274|495:253|495:253|421:240|350:298|346:372,2,315.000012016297,10|0|0,3:2|2:2|2:2,2:2:0:0:
128,122,234644,22,0,B|74:65|-20:127|-26:247|89:319|238:318|282:128|267:120|253:112|298:-75|447:-77|563:-5|557:114|460:173|405:113,1,853.125020340085,6|0,1:2|2:2,2:2:0:0:
416,110,235811,1,0,1:2:0:0:
228,46,235978,38,0,B|425:17|520:135|592:286|533:424|419:449|305:434|288:311|358:239|424:263,1,787.500018775463,10|0,3:2|2:2,2:2:0:0:
128,365,237311,22,0,B|92:331|0:358|0:358|89:325|92:270,1,262.500006258488,2|0,1:2|2:2,2:2:0:0:
254,316,237811,2,0,B|255:267|345:234|345:234|253:261|217:227,1,262.500006258488,2|0,1:2|2:2,2:2:0:0:
173,295,238311,37,2,1:2:0:0:
11,27,238644,22,0,B|101:24|154:93|142:170|142:170|112:117|50:120,1,328.12500782311,10|0,3:2|2:2,2:2:0:0:
51,130,239144,1,0,1:2:0:0:
295,17,239311,5,10,3:2:0:0:
295,17,239643,2,2,P|239:45|247:95,1,105.000004005432,2|0,2:2|2:2,2:1:0:0:
478,74,239977,38,0,P|376:107|30:314,1,459.375010952354,6|0,1:2|2:2,2:2:0:0:
58,275,240644,2,0,B|27:286|-35:271|-46:186|18:130|122:159|169:225|168:342,1,393.750009387732,2|0,3:2|2:2,2:2:0:0:
425,299,241311,6,0,B|440:342|501:364|619:311|545:52|361:281|314:113|365:26,1,459.375010952354,10|0,3:2|2:2,2:2:0:0:
374,33,241978,2,0,P|320:227|302:309,1,262.500006258488,2|0,3:2|2:2,2:2:0:0:
0,26,242644,54,0,P|122:75|195:210,1,262.500006258488,2|0,1:2|2:2,2:2:0:0:
281,71,243144,2,0,P|159:120|86:255,1,262.500006258488,2|0,1:2|2:2,2:2:0:0:
176,18,243644,5,2,1:2:0:0:
445,380,243978,54,0,P|374:362|114:322,2,315.000012016297,10|0|0,3:2|2:2|2:2,2:2:0:0:
128,103,245311,6,0,B|121:7|-29:52|-47:116|-25:282|258:329|245:155|233:36|397:46|466:84|632:274|370:351|347:238,1,853.125020340085,6|0,1:2|2:2,2:2:0:0:
353,235,246478,1,0,1:2:0:0:
380,7,246644,54,0,P|284:74|125:393,1,459.375010952354,10|0,3:2|2:2,2:2:0:0:
136,380,247311,2,0,P|121:276|246:314,1,262.500006258488,2|0,3:2|2:2,2:2:0:0:
430,375,247978,6,0,B|470:308|413:239|359:292|310:200|354:148,1,262.500006258488,2|0,1:2|2:2,2:2:0:0:
464,122,248478,2,0,B|479:198|402:243|370:174|292:245|315:308,1,262.500006258488,2|0,1:2|2:2,2:2:0:0:
512,232,248978,53,2,1:2:0:0:
108,17,249311,6,0,P|142:118|198:345,1,328.12500782311,10|0,3:2|2:2,2:2:0:0:
187,340,249811,1,0,1:2:0:0:
258,154,249978,53,10,3:2:0:0:
258,154,250311,2,0,P|314:178|322:222,1,105.000004005432,2|0,2:2|2:2,2:2:0:0:
407,282,250643,38,0,B|360:232|284:231|249:315|252:316|257:317|220:399|150:397|99:349,1,367.500014019013,6|0,2:2|2:2,2:2:0:0:
1,370,253311,6,0,P|24:266|53:154,1,210.000008010865,2|2,2:2|2:2,2:2:0:0:
116,221,255144,1,2,2:2:0:0:
40,169,255644,1,2,2:2:0:0:
89,97,255978,54,0,B|130:52|198:51|230:127|227:128|223:129|256:202|318:200|364:157,1,318.499985420228,2|0,2:2|2:2,2:2:0:0:
439,115,258644,6,0,P|458:53|430:34,1,90.9999958343508,0|0,2:2|2:2,2:2:0:0:
308,101,259978,2,0,P|289:61|315:26,1,90.9999958343508,2|2,2:2|2:2,2:2:0:0:
375,69,260978,1,2,2:2:0:0:
320,176,261311,54,0,P|249:194|126:319,1,245,2|0,2:2|2:2,2:2:0:0:
76,231,263978,22,0,P|47:169|131:132,1,171.499994766236,2|0,2:2|2:2,2:2:0:0:
174,187,266644,1,2,2:2:0:0:
256,192,266686,12,0,271978,2:2:0:0:
