osu file format v14

[General]
AudioFilename: audio.mp3
AudioLeadIn: 0
PreviewTime: 44398
Countdown: 0
SampleSet: Normal
StackLeniency: 0.7
Mode: 1
LetterboxInBreaks: 0
WidescreenStoryboard: 1

[Editor]
DistanceSpacing: 1
BeatDivisor: 6
GridSize: 16
TimelineZoom: 1.4

[Metadata]
Title:Blue Bird feat. k*chan [ dj-Jo Remix ] TV Size
TitleUnicode:Blue Bird feat. k*chan [ dj-Jo Remix ] TV Size
Artist:IKIMONOGAKARI
ArtistUnicode:いきものがかり
Creator:Chromoxx
Version:Oni
Source:ナルト- 疾風伝
Tags:future bass jersey club trap experimental electronic japanese tasuke912 naruto shippuden op opening djjo kchan ブルーバード
BeatmapID:2347966
BeatmapSetID:1114337

[Difficulty]
HPDrainRate:5
CircleSize:5
OverallDifficulty:5.5
ApproachRate:5
SliderMultiplier:1.4
SliderTickRate:1

[Events]
//Background and Video events
0,0,"Mountain_Bluebird.jpg",0,60
//Break Periods
//Storyboard Layer 0 (Background)
//Storyboard Layer 1 (Fail)
//Storyboard Layer 2 (Pass)
//Storyboard Layer 3 (Foreground)
//Storyboard Layer 4 (Overlay)
//Storyboard Sound Samples

[TimingPoints]
820,394.736842105263,4,1,0,60,1,0
13204,-100,4,1,0,80,0,0
19718,-100,4,1,0,70,0,0
32349,-100,4,1,0,80,0,0
44981,-100,4,1,0,90,0,0
45030,-100,4,1,0,90,0,1
57662,-100,4,1,0,90,0,0
58056,-100,4,1,0,90,0,1
74833,-100,4,1,0,90,0,0
75178,-100,4,1,0,60,0,0
76214,-100,4,1,0,60,0,0
76362,-100,4,1,0,80,0,1
76609,-100,4,1,0,80,0,0
84454,-100,4,1,0,40,0,0

[HitObjects]
256,98,820,5,0,0:0:0:0:
256,98,1609,1,8,0:0:0:0:
256,98,2398,1,0,0:0:0:0:
273,162,3977,1,0,0:0:0:0:
273,162,4767,1,8,0:0:0:0:
273,162,5556,1,8,0:0:0:0:
268,187,7135,1,8,0:0:0:0:
268,187,7925,1,0,0:0:0:0:
268,187,8714,1,8,0:0:0:0:
268,187,10293,1,8,0:0:0:0:
268,187,11083,1,0,0:0:0:0:
268,187,11675,1,0,0:0:0:0:
256,192,11872,12,0,12859,0:0:0:0:
155,96,13056,5,8,0:0:0:0:
155,96,13254,1,4,0:0:0:0:
299,213,13648,1,0,0:0:0:0:
299,213,13846,1,8,0:0:0:0:
355,265,14043,1,8,0:0:0:0:
217,127,14438,1,0,0:0:0:0:
300,145,14635,1,8,0:0:0:0:
225,257,14833,1,8,0:0:0:0:
209,251,14931,1,8,0:0:0:0:
150,164,15030,1,0,0:0:0:0:
150,164,15227,1,0,0:0:0:0:
150,164,15425,1,8,0:0:0:0:
356,206,15622,1,0,0:0:0:0:
305,273,16017,1,8,0:0:0:0:
356,206,16214,1,8,0:0:0:0:
290,240,16412,1,4,0:0:0:0:
332,208,16806,1,0,0:0:0:0:
332,208,17004,1,8,0:0:0:0:
332,208,17201,1,0,0:0:0:0:
197,154,17300,1,8,0:0:0:0:
332,208,17398,1,0,0:0:0:0:
174,211,17596,1,0,0:0:0:0:
174,211,17793,1,8,0:0:0:0:
177,271,17991,1,4,0:0:0:0:
218,110,18385,1,0,0:0:0:0:
218,110,18583,1,8,0:0:0:0:
174,211,18780,1,4,0:0:0:0:
342,179,19767,1,0,0:0:0:0:
342,179,20162,1,8,0:0:0:0:
342,179,20359,1,0,0:0:0:0:
342,179,20754,1,0,0:0:0:0:
342,179,20951,1,0,0:0:0:0:
267,107,21148,1,8,0:0:0:0:
215,250,21543,1,0,0:0:0:0:
215,250,21741,1,8,0:0:0:0:
179,213,21938,1,0,0:0:0:0:
345,210,22333,1,0,0:0:0:0:
227,223,22530,1,8,0:0:0:0:
274,243,22727,1,8,0:0:0:0:
274,243,22826,1,8,0:0:0:0:
187,124,22925,1,0,0:0:0:0:
181,144,23319,1,8,0:0:0:0:
181,144,23517,1,0,0:0:0:0:
174,139,23912,1,0,0:0:0:0:
174,139,24109,1,0,0:0:0:0:
289,252,24306,1,8,0:0:0:0:
289,252,24504,1,0,0:0:0:0:
227,127,24898,1,8,0:0:0:0:
329,173,25096,1,0,0:0:0:0:
213,254,25293,1,8,0:0:0:0:
330,231,25392,1,0,0:0:0:0:
330,231,25589,1,0,0:0:0:0:
271,242,25688,1,8,0:0:0:0:
271,242,25885,1,0,0:0:0:0:
244,209,26083,1,8,0:0:0:0:
326,290,26477,1,0,0:0:0:0:
344,160,26675,1,8,0:0:0:0:
209,150,26773,1,8,0:0:0:0:
199,120,26872,1,0,0:0:0:0:
184,105,26971,1,0,0:0:0:0:
199,120,27168,1,0,0:0:0:0:
313,222,27366,1,0,0:0:0:0:
235,185,27464,1,8,0:0:0:0:
235,185,27662,1,0,0:0:0:0:
235,185,28056,1,8,0:0:0:0:
306,245,28254,1,0,0:0:0:0:
175,113,28352,1,0,0:0:0:0:
196,195,28451,1,8,0:0:0:0:
159,175,28550,1,8,0:0:0:0:
205,203,28747,1,8,0:0:0:0:
273,218,28944,1,8,0:0:0:0:
184,216,29043,1,0,0:0:0:0:
248,175,29241,1,8,0:0:0:0:
244,182,29635,1,0,0:0:0:0:
318,214,29833,1,8,0:0:0:0:
264,240,29931,1,8,0:0:0:0:
224,242,30030,1,0,0:0:0:0:
180,207,30129,1,0,0:0:0:0:
250,228,30326,1,0,0:0:0:0:
267,253,30523,1,0,0:0:0:0:
223,199,30622,1,8,0:0:0:0:
223,199,30819,1,0,0:0:0:0:
268,217,31017,1,0,0:0:0:0:
269,217,31214,1,12,0:0:0:0:
268,217,31609,1,12,0:0:0:0:
336,246,31806,1,0,0:0:0:0:
268,217,32004,1,12,0:0:0:0:
268,217,32398,1,4,0:0:0:0:
281,90,32793,1,8,0:0:0:0:
281,90,32859,1,8,0:0:0:0:
281,90,32925,1,8,0:0:0:0:
281,90,32991,1,8,0:0:0:0:
179,106,33188,1,0,0:0:0:0:
191,101,33385,1,0,0:0:0:0:
191,136,33583,1,8,0:0:0:0:
317,164,33714,1,8,0:0:0:0:
317,164,33846,1,8,0:0:0:0:
313,210,33977,1,0,0:0:0:0:
235,204,34372,1,8,0:0:0:0:
274,216,34569,1,0,0:0:0:0:
274,216,34635,1,0,0:0:0:0:
186,85,34701,1,0,0:0:0:0:
138,157,34767,1,0,0:0:0:0:
339,237,34964,1,8,0:0:0:0:
300,81,35162,1,0,0:0:0:0:
300,81,35260,1,0,0:0:0:0:
300,81,35359,1,0,0:0:0:0:
300,81,35458,1,0,0:0:0:0:
300,81,35556,1,8,0:0:0:0:
432,208,35754,1,8,0:0:0:0:
222,279,35852,1,8,0:0:0:0:
207,169,35951,1,0,0:0:0:0:
207,169,36017,1,0,0:0:0:0:
207,169,36083,1,0,0:0:0:0:
207,169,36148,1,0,0:0:0:0:
186,153,36346,1,8,0:0:0:0:
274,246,36543,1,8,0:0:0:0:
363,133,36741,1,0,0:0:0:0:
363,133,36872,1,0,0:0:0:0:
363,133,37004,1,0,0:0:0:0:
274,159,37135,1,8,0:0:0:0:
251,253,37530,1,0,0:0:0:0:
364,145,37727,1,8,0:0:0:0:
364,145,37793,1,8,0:0:0:0:
364,145,37859,1,8,0:0:0:0:
364,145,37925,1,8,0:0:0:0:
341,179,38122,1,0,0:0:0:0:
301,268,38319,1,8,0:0:0:0:
118,201,38418,1,0,0:0:0:0:
269,210,38517,1,8,0:0:0:0:
214,117,38616,1,8,0:0:0:0:
178,109,38714,1,0,0:0:0:0:
200,219,39109,1,8,0:0:0:0:
200,219,39504,1,0,0:0:0:0:
200,219,39800,1,0,0:0:0:0:
210,226,39898,1,8,0:0:0:0:
210,225,40096,1,0,0:0:0:0:
210,225,40293,1,0,0:0:0:0:
235,238,40688,1,8,0:0:0:0:
235,238,41083,1,0,0:0:0:0:
235,238,41379,1,0,0:0:0:0:
235,238,41477,1,8,0:0:0:0:
203,241,41675,1,0,0:0:0:0:
357,173,42069,1,12,0:0:0:0:
357,173,42267,1,4,0:0:0:0:
357,173,42464,1,4,0:0:0:0:
357,173,42662,1,12,0:0:0:0:
357,173,42859,1,12,0:0:0:0:
357,173,43056,1,4,0:0:0:0:
252,248,43254,1,12,0:0:0:0:
357,173,43648,1,12,0:0:0:0:
357,173,43846,1,12,0:0:0:0:
248,242,44043,1,12,0:0:0:0:
245,111,44241,1,12,0:0:0:0:
314,214,45030,1,4,0:0:0:0:
255,130,45227,1,8,0:0:0:0:
255,130,45326,1,8,0:0:0:0:
314,214,45425,1,0,0:0:0:0:
255,130,45622,1,0,0:0:0:0:
255,130,45721,1,0,0:0:0:0:
196,67,45819,1,8,0:0:0:0:
196,67,46017,1,0,0:0:0:0:
310,224,46116,1,8,0:0:0:0:
174,77,46313,1,8,0:0:0:0:
174,77,46412,1,0,0:0:0:0:
174,77,46609,1,8,0:0:0:0:
345,225,46806,1,0,0:0:0:0:
232,185,46905,1,0,0:0:0:0:
194,110,47102,1,8,0:0:0:0:
194,110,47300,1,8,0:0:0:0:
194,110,47398,1,0,0:0:0:0:
234,236,47596,1,0,0:0:0:0:
252,272,47694,1,8,0:0:0:0:
149,226,47793,1,0,0:0:0:0:
386,278,47991,1,0,0:0:0:0:
342,257,48188,1,12,0:0:0:0:
321,186,48385,1,0,0:0:0:0:
321,186,48484,1,0,0:0:0:0:
282,272,48583,1,8,0:0:0:0:
287,272,48780,1,8,0:0:0:0:
287,272,48879,1,8,0:0:0:0:
214,144,48977,1,0,0:0:0:0:
284,266,49175,1,8,0:0:0:0:
215,207,49273,1,0,0:0:0:0:
283,248,49471,1,0,0:0:0:0:
176,246,49569,1,8,0:0:0:0:
232,256,49767,1,0,0:0:0:0:
303,285,50162,1,8,0:0:0:0:
243,180,50359,1,8,0:0:0:0:
243,180,50458,1,8,0:0:0:0:
208,185,50556,1,0,0:0:0:0:
208,185,50754,1,0,0:0:0:0:
317,229,50852,1,8,0:0:0:0:
278,265,50951,1,0,0:0:0:0:
278,265,51148,1,8,0:0:0:0:
250,253,51346,1,4,0:0:0:0:
283,251,51543,1,8,0:0:0:0:
283,308,51642,1,0,0:0:0:0:
178,287,51741,1,8,0:0:0:0:
227,235,51938,1,0,0:0:0:0:
233,105,52037,1,8,0:0:0:0:
233,105,52135,1,0,0:0:0:0:
165,181,52333,1,8,0:0:0:0:
165,181,52431,1,0,0:0:0:0:
165,181,52629,1,0,0:0:0:0:
163,175,52727,1,8,0:0:0:0:
163,175,52925,1,0,0:0:0:0:
163,175,53122,1,8,0:0:0:0:
147,171,53221,1,8,0:0:0:0:
163,175,53418,1,0,0:0:0:0:
296,259,53616,1,0,0:0:0:0:
259,102,53714,1,8,0:0:0:0:
399,241,53912,1,0,0:0:0:0:
153,272,54010,1,0,0:0:0:0:
130,259,54109,1,8,0:0:0:0:
130,259,54306,1,0,0:0:0:0:
130,259,54504,1,12,0:0:0:0:
260,280,54701,1,0,0:0:0:0:
260,280,54800,1,8,0:0:0:0:
219,281,54898,1,0,0:0:0:0:
327,190,55096,1,8,0:0:0:0:
208,89,55194,1,0,0:0:0:0:
208,89,55293,1,8,0:0:0:0:
208,89,55491,1,8,0:0:0:0:
79,116,55589,1,0,0:0:0:0:
117,139,55787,1,0,0:0:0:0:
117,139,55885,1,8,0:0:0:0:
287,152,56083,1,4,0:0:0:0:
330,248,56477,1,8,0:0:0:0:
330,248,56675,1,0,0:0:0:0:
213,250,56872,1,12,0:0:0:0:
213,250,57168,1,12,0:0:0:0:
213,250,57464,1,12,0:0:0:0:
286,225,58056,1,4,0:0:0:0:
271,260,58451,1,8,0:0:0:0:
318,140,58648,1,0,0:0:0:0:
318,140,58714,1,0,0:0:0:0:
318,140,58780,1,0,0:0:0:0:
318,140,58846,1,0,0:0:0:0:
326,88,59043,1,0,0:0:0:0:
188,134,59241,1,8,0:0:0:0:
188,134,59372,1,8,0:0:0:0:
188,134,59504,1,8,0:0:0:0:
209,160,59635,1,0,0:0:0:0:
219,169,59734,1,0,0:0:0:0:
219,169,59833,1,0,0:0:0:0:
304,183,60030,1,8,0:0:0:0:
302,231,60227,1,0,0:0:0:0:
302,231,60326,1,0,0:0:0:0:
261,253,60425,1,8,0:0:0:0:
261,253,60523,1,8,0:0:0:0:
224,229,60622,1,0,0:0:0:0:
224,229,60819,1,8,0:0:0:0:
388,210,61214,1,0,0:0:0:0:
388,210,61313,1,0,0:0:0:0:
261,226,61412,1,0,0:0:0:0:
261,226,61609,1,8,0:0:0:0:
286,253,61806,1,0,0:0:0:0:
226,282,61905,1,0,0:0:0:0:
226,282,62004,1,8,0:0:0:0:
204,202,62201,1,0,0:0:0:0:
204,202,62596,1,8,0:0:0:0:
164,247,62694,1,8,0:0:0:0:
204,202,62793,1,8,0:0:0:0:
283,215,62991,1,8,0:0:0:0:
283,215,63089,1,8,0:0:0:0:
308,103,63188,1,0,0:0:0:0:
308,103,63254,1,0,0:0:0:0:
107,201,63319,1,0,0:0:0:0:
308,103,63385,1,0,0:0:0:0:
199,150,63583,1,8,0:0:0:0:
400,203,63780,1,8,0:0:0:0:
298,236,63977,1,4,0:0:0:0:
277,244,64372,1,8,0:0:0:0:
277,244,64569,1,0,0:0:0:0:
277,244,64635,1,0,0:0:0:0:
170,98,64701,1,0,0:0:0:0:
170,98,64767,1,0,0:0:0:0:
276,66,64964,1,0,0:0:0:0:
276,66,65162,1,8,0:0:0:0:
276,66,65260,1,8,0:0:0:0:
275,106,65359,1,0,0:0:0:0:
346,240,65556,1,0,0:0:0:0:
268,210,65754,1,8,0:0:0:0:
407,293,65852,1,8,0:0:0:0:
124,179,65951,1,0,0:0:0:0:
354,117,66050,1,8,0:0:0:0:
354,117,66148,1,0,0:0:0:0:
354,117,66247,1,0,0:0:0:0:
354,117,66346,1,8,0:0:0:0:
369,243,66543,1,0,0:0:0:0:
295,210,66741,1,8,0:0:0:0:
295,210,66872,1,8,0:0:0:0:
295,210,67004,1,8,0:0:0:0:
204,155,67135,1,0,0:0:0:0:
282,225,67530,1,8,0:0:0:0:
282,225,67727,1,0,0:0:0:0:
282,225,67826,1,0,0:0:0:0:
238,220,67925,1,8,0:0:0:0:
238,220,68122,1,8,0:0:0:0:
238,220,68221,1,8,0:0:0:0:
187,223,68319,1,0,0:0:0:0:
297,220,68517,1,8,0:0:0:0:
364,113,68912,1,4,0:0:0:0:
364,113,69109,1,4,0:0:0:0:
368,165,69306,1,8,0:0:0:0:
368,165,69372,1,8,0:0:0:0:
368,165,69438,1,8,0:0:0:0:
368,165,69504,1,8,0:0:0:0:
273,207,69701,1,0,0:0:0:0:
240,201,69898,1,8,0:0:0:0:
212,212,69997,1,8,0:0:0:0:
228,166,70096,1,8,0:0:0:0:
233,155,70293,1,4,0:0:0:0:
433,253,70688,1,8,0:0:0:0:
409,276,70885,1,0,0:0:0:0:
409,276,70984,1,0,0:0:0:0:
262,267,71083,1,8,0:0:0:0:
245,244,71280,1,8,0:0:0:0:
282,257,71379,1,8,0:0:0:0:
213,233,71477,1,0,0:0:0:0:
213,233,71675,1,8,0:0:0:0:
244,186,72069,1,0,0:0:0:0:
244,186,72168,1,0,0:0:0:0:
241,231,72267,1,8,0:0:0:0:
252,186,72464,1,8,0:0:0:0:
244,221,72662,1,8,0:0:0:0:
216,219,72760,1,8,0:0:0:0:
197,196,72859,1,0,0:0:0:0:
321,235,73056,1,8,0:0:0:0:
261,201,73254,1,4,0:0:0:0:
332,245,73648,1,4,0:0:0:0:
332,245,73846,1,4,0:0:0:0:
332,245,74043,1,12,0:0:0:0:
332,245,74438,1,4,0:0:0:0:
332,245,74635,1,12,0:0:0:0:
266,145,74833,1,4,0:0:0:0:
256,192,75227,12,8,76017,0:0:0:0:
373,236,76214,5,8,0:0:0:0:
359,218,76412,1,4,0:0:0:0:
245,237,77004,1,8,0:0:0:0:
245,237,77201,1,0,0:0:0:0:
283,281,77300,1,0,0:0:0:0:
245,237,77398,1,0,0:0:0:0:
223,133,77596,1,8,0:0:0:0:
347,147,77793,1,0,0:0:0:0:
347,147,77991,1,8,0:0:0:0:
347,147,78089,1,8,0:0:0:0:
347,147,78188,1,0,0:0:0:0:
189,186,78385,1,8,0:0:0:0:
255,239,78583,1,0,0:0:0:0:
233,230,78780,1,8,0:0:0:0:
198,77,78846,1,8,0:0:0:0:
198,77,78912,1,8,0:0:0:0:
198,77,78977,1,8,0:0:0:0:
375,213,79175,1,8,0:0:0:0:
330,232,79273,1,8,0:0:0:0:
270,221,79372,1,8,0:0:0:0:
277,217,79569,1,4,0:0:0:0:
316,231,79964,1,8,0:0:0:0:
311,227,80063,1,8,0:0:0:0:
395,223,80162,1,8,0:0:0:0:
263,268,80359,1,8,0:0:0:0:
230,257,80458,1,0,0:0:0:0:
230,257,80556,1,8,0:0:0:0:
230,257,80754,1,8,0:0:0:0:
246,230,80951,1,0,0:0:0:0:
341,251,81148,1,8,0:0:0:0:
341,251,81346,1,8,0:0:0:0:
372,192,81412,1,8,0:0:0:0:
283,145,81477,1,8,0:0:0:0:
266,137,81543,1,8,0:0:0:0:
392,261,81741,1,0,0:0:0:0:
392,261,81938,1,8,0:0:0:0:
392,261,82037,1,8,0:0:0:0:
283,214,82135,1,8,0:0:0:0:
277,208,82234,1,8,0:0:0:0:
229,205,82333,1,0,0:0:0:0:
229,205,82530,1,8,0:0:0:0:
295,111,82727,2,4,L|334:110,10,35
282,165,83912,1,4,0:0:0:0:
282,165,84109,1,4,0:0:0:0:
282,165,84306,1,12,0:0:0:0:
256,192,84504,12,0,87662,0:0:0:0:
