osu file format v14

[General]
AudioFilename: audio.mp3
AudioLeadIn: 0
PreviewTime: 44398
Countdown: 0
SampleSet: Normal
StackLeniency: 0.7
Mode: 1
LetterboxInBreaks: 0
WidescreenStoryboard: 0

[Editor]
DistanceSpacing: 1
BeatDivisor: 4
GridSize: 16
TimelineZoom: 1.4

[Metadata]
Title:Blue Bird feat. k*chan [ dj-Jo Remix ] TV Size
TitleUnicode:Blue Bird feat. k*chan [ dj-Jo Remix ] TV Size
Artist:IKIMONOGAKARI
ArtistUnicode:いきものがかり
Creator:Chromoxx
Version:Inner Oni
Source:ナルト- 疾風伝
Tags:future bass jersey club trap experimental electronic japanese tasuke912 naruto shippuden op opening djjo kchan ブルーバード
BeatmapID:2327787
BeatmapSetID:1114337

[Difficulty]
HPDrainRate:6
CircleSize:5
OverallDifficulty:7
ApproachRate:5
SliderMultiplier:1.4
SliderTickRate:1

[Events]
//Background and Video events
0,0,"Mountain_Bluebird.jpg",0,60
//Break Periods
//Storyboard Layer 0 (Background)
//Storyboard Layer 1 (Fail)
//Storyboard Layer 2 (Pass)
//Storyboard Layer 3 (Foreground)
//Storyboard Layer 4 (Overlay)
//Storyboard Sound Samples

[TimingPoints]
820,394.736842105263,4,1,0,60,1,0
13204,-100,4,1,0,80,0,0
19718,-100,4,1,0,70,0,0
32349,-100,4,1,0,80,0,0
44981,-100,4,1,0,90,0,0
45030,-66.6666666666667,4,1,0,90,0,1
57662,-66.6666666666667,4,1,0,90,0,0
58056,-66.6666666666667,4,1,0,90,0,1
74833,-66.6666666666667,4,1,0,90,0,0
75178,-66.6666666666667,4,1,0,60,0,0
76214,-100,4,1,0,60,0,0
76362,-100,4,1,0,80,0,1
76609,-100,4,1,0,80,0,0
84454,-25,4,1,0,40,0,0

[HitObjects]
244,119,820,5,0,0:0:0:0:
244,119,1609,1,8,0:0:0:0:
238,149,2398,1,0,0:0:0:0:
301,215,3977,1,0,0:0:0:0:
301,215,4767,1,8,0:0:0:0:
301,215,5556,1,8,0:0:0:0:
301,215,7135,1,8,0:0:0:0:
301,215,7925,1,0,0:0:0:0:
173,231,8714,1,8,0:0:0:0:
315,271,10293,1,8,0:0:0:0:
315,271,11083,1,0,0:0:0:0:
315,271,11675,1,0,0:0:0:0:
256,192,11872,12,0,12859,0:0:0:0:
264,171,13056,5,8,0:0:0:0:
299,243,13254,1,4,0:0:0:0:
312,253,13648,1,0,0:0:0:0:
312,253,13846,1,8,0:0:0:0:
384,139,14043,1,0,0:0:0:0:
380,142,14142,1,0,0:0:0:0:
377,149,14241,1,8,0:0:0:0:
370,158,14438,1,0,0:0:0:0:
238,216,14635,1,8,0:0:0:0:
233,157,14833,1,8,0:0:0:0:
229,106,14931,1,8,0:0:0:0:
233,141,15030,1,8,0:0:0:0:
151,223,15129,1,0,0:0:0:0:
175,73,15227,1,0,0:0:0:0:
160,178,15425,1,8,0:0:0:0:
267,208,15622,1,0,0:0:0:0:
284,201,15721,1,0,0:0:0:0:
313,277,15819,1,0,0:0:0:0:
274,217,16017,1,8,0:0:0:0:
299,210,16214,1,0,0:0:0:0:
303,204,16412,1,4,0:0:0:0:
344,215,16806,1,0,0:0:0:0:
344,215,17004,1,8,0:0:0:0:
208,114,17201,1,0,0:0:0:0:
213,247,17300,1,8,0:0:0:0:
221,198,17398,1,0,0:0:0:0:
278,248,17596,1,0,0:0:0:0:
295,267,17793,1,8,0:0:0:0:
326,287,17991,1,0,0:0:0:0:
293,109,18089,1,0,0:0:0:0:
326,287,18188,1,0,0:0:0:0:
293,109,18287,1,0,0:0:0:0:
208,190,18385,1,0,0:0:0:0:
348,186,18583,1,8,0:0:0:0:
325,235,18780,1,4,0:0:0:0:
214,250,19767,1,0,0:0:0:0:
214,250,20162,1,0,0:0:0:0:
214,250,20556,1,0,0:0:0:0:
347,184,20951,1,0,0:0:0:0:
347,184,21148,1,8,0:0:0:0:
347,184,21346,1,0,0:0:0:0:
410,228,21741,1,0,0:0:0:0:
410,228,22135,1,0,0:0:0:0:
410,228,22530,1,8,0:0:0:0:
265,165,22727,1,8,0:0:0:0:
279,250,22826,1,8,0:0:0:0:
209,134,22925,1,0,0:0:0:0:
209,134,23319,1,0,0:0:0:0:
209,134,23714,1,0,0:0:0:0:
345,132,23912,1,8,0:0:0:0:
209,134,24109,1,0,0:0:0:0:
217,206,24306,1,8,0:0:0:0:
217,206,24504,1,0,0:0:0:0:
217,206,24898,1,8,0:0:0:0:
350,215,25293,1,0,0:0:0:0:
191,113,25392,1,0,0:0:0:0:
350,215,25491,1,8,0:0:0:0:
253,118,25589,1,0,0:0:0:0:
253,118,25787,1,0,0:0:0:0:
274,217,25885,1,8,0:0:0:0:
274,188,26083,1,4,0:0:0:0:
319,76,26477,1,8,0:0:0:0:
304,159,26675,1,0,0:0:0:0:
304,159,26773,1,0,0:0:0:0:
379,112,26872,1,8,0:0:0:0:
212,90,26971,1,0,0:0:0:0:
209,223,27168,1,0,0:0:0:0:
209,223,27366,1,0,0:0:0:0:
209,223,27464,1,8,0:0:0:0:
306,195,27662,1,0,0:0:0:0:
305,182,27859,1,8,0:0:0:0:
262,204,27958,1,8,0:0:0:0:
252,184,28056,1,0,0:0:0:0:
255,105,28254,1,8,0:0:0:0:
255,105,28352,1,8,0:0:0:0:
220,109,28451,1,0,0:0:0:0:
250,213,28550,1,8,0:0:0:0:
248,210,28747,1,8,0:0:0:0:
210,275,28846,1,8,0:0:0:0:
142,117,29043,1,8,0:0:0:0:
158,203,29241,1,0,0:0:0:0:
313,142,29635,1,8,0:0:0:0:
318,246,29833,1,0,0:0:0:0:
318,246,29931,1,0,0:0:0:0:
208,113,30030,1,8,0:0:0:0:
208,113,30129,1,8,0:0:0:0:
208,113,30326,1,8,0:0:0:0:
144,131,30425,1,8,0:0:0:0:
206,199,30523,1,0,0:0:0:0:
144,131,30622,1,0,0:0:0:0:
244,228,30819,1,8,0:0:0:0:
244,205,31017,1,0,0:0:0:0:
301,238,31214,1,12,0:0:0:0:
318,242,31412,1,0,0:0:0:0:
318,242,31510,1,0,0:0:0:0:
253,134,31609,1,8,0:0:0:0:
253,134,31708,1,8,0:0:0:0:
214,103,31806,1,0,0:0:0:0:
406,173,32004,1,8,0:0:0:0:
406,173,32102,1,0,0:0:0:0:
406,173,32201,1,0,0:0:0:0:
406,173,32398,1,12,0:0:0:0:
291,265,32596,1,0,0:0:0:0:
291,265,32694,1,0,0:0:0:0:
241,171,32793,1,8,0:0:0:0:
252,168,32859,1,8,0:0:0:0:
252,168,32925,1,8,0:0:0:0:
252,168,32991,1,8,0:0:0:0:
252,168,33056,1,8,0:0:0:0:
252,168,33122,1,8,0:0:0:0:
252,168,33188,1,0,0:0:0:0:
308,214,33385,1,0,0:0:0:0:
353,143,33583,1,8,0:0:0:0:
353,143,33714,1,8,0:0:0:0:
353,143,33846,1,8,0:0:0:0:
283,114,33977,1,0,0:0:0:0:
240,107,34076,1,8,0:0:0:0:
240,107,34175,1,8,0:0:0:0:
238,97,34372,1,8,0:0:0:0:
271,208,34569,1,8,0:0:0:0:
238,97,34635,1,8,0:0:0:0:
336,187,34701,1,8,0:0:0:0:
336,187,34767,1,0,0:0:0:0:
351,120,34964,1,8,0:0:0:0:
351,120,35063,1,8,0:0:0:0:
262,120,35162,1,0,0:0:0:0:
262,120,35260,1,8,0:0:0:0:
262,120,35359,1,8,0:0:0:0:
262,120,35458,1,8,0:0:0:0:
213,179,35556,1,0,0:0:0:0:
284,250,35754,1,8,0:0:0:0:
284,250,35852,1,8,0:0:0:0:
458,131,35951,1,0,0:0:0:0:
458,131,36017,1,0,0:0:0:0:
459,159,36083,1,0,0:0:0:0:
459,159,36148,1,0,0:0:0:0:
459,159,36214,1,0,0:0:0:0:
459,159,36280,1,0,0:0:0:0:
459,159,36346,1,8,0:0:0:0:
239,50,36543,1,8,0:0:0:0:
343,68,36741,1,0,0:0:0:0:
343,68,36872,1,0,0:0:0:0:
343,68,37004,1,0,0:0:0:0:
222,134,37135,1,8,0:0:0:0:
233,176,37234,1,0,0:0:0:0:
234,181,37333,1,0,0:0:0:0:
353,217,37530,1,0,0:0:0:0:
273,221,37727,1,0,0:0:0:0:
264,256,37793,1,0,0:0:0:0:
273,221,37859,1,0,0:0:0:0:
264,256,37925,1,8,0:0:0:0:
318,179,38122,1,0,0:0:0:0:
318,179,38221,1,0,0:0:0:0:
232,143,38319,1,8,0:0:0:0:
193,127,38418,1,0,0:0:0:0:
193,127,38517,1,8,0:0:0:0:
203,204,38616,1,8,0:0:0:0:
293,264,38714,1,4,0:0:0:0:
340,122,39109,1,8,0:0:0:0:
373,169,39504,1,0,0:0:0:0:
373,169,39800,1,0,0:0:0:0:
372,184,39898,1,8,0:0:0:0:
253,149,40096,1,0,0:0:0:0:
235,98,40293,1,0,0:0:0:0:
235,98,40688,1,8,0:0:0:0:
235,98,41083,1,0,0:0:0:0:
227,126,41379,1,0,0:0:0:0:
227,126,41477,1,8,0:0:0:0:
252,172,41675,1,0,0:0:0:0:
330,253,42069,1,12,0:0:0:0:
330,253,42267,1,4,0:0:0:0:
330,253,42464,1,4,0:0:0:0:
330,253,42662,1,12,0:0:0:0:
238,214,42859,1,12,0:0:0:0:
238,214,43056,1,4,0:0:0:0:
191,142,43254,1,12,0:0:0:0:
250,205,43648,1,12,0:0:0:0:
250,205,43846,1,12,0:0:0:0:
250,205,44043,1,12,0:0:0:0:
250,205,44241,1,12,0:0:0:0:
273,120,44537,1,0,0:0:0:0:
273,120,44586,1,0,0:0:0:0:
273,120,44635,1,8,0:0:0:0:
285,133,44833,1,8,0:0:0:0:
307,217,45030,1,4,0:0:0:0:
349,180,45227,1,8,0:0:0:0:
143,158,45326,1,8,0:0:0:0:
162,158,45425,1,4,0:0:0:0:
278,73,45622,1,0,0:0:0:0:
278,73,45721,1,0,0:0:0:0:
278,73,45819,1,12,0:0:0:0:
278,73,46017,1,0,0:0:0:0:
245,116,46116,1,12,0:0:0:0:
245,116,46313,1,8,0:0:0:0:
245,116,46412,1,4,0:0:0:0:
373,232,46609,1,8,0:0:0:0:
283,187,46806,1,0,0:0:0:0:
283,187,46905,1,0,0:0:0:0:
283,187,47004,1,0,0:0:0:0:
267,221,47102,1,8,0:0:0:0:
267,221,47201,1,8,0:0:0:0:
267,221,47300,1,8,0:0:0:0:
217,251,47398,1,0,0:0:0:0:
217,251,47497,1,8,0:0:0:0:
193,85,47596,1,8,0:0:0:0:
161,164,47694,1,0,0:0:0:0:
175,181,47793,1,8,0:0:0:0:
275,120,47892,1,0,0:0:0:0:
243,223,47991,1,0,0:0:0:0:
295,245,48188,1,12,0:0:0:0:
361,221,48385,1,0,0:0:0:0:
361,221,48484,1,0,0:0:0:0:
281,221,48583,1,12,0:0:0:0:
355,211,48780,1,8,0:0:0:0:
355,211,48879,1,8,0:0:0:0:
318,145,48977,1,4,0:0:0:0:
268,285,49175,1,8,0:0:0:0:
193,192,49273,1,4,0:0:0:0:
224,193,49471,1,0,0:0:0:0:
224,193,49569,1,12,0:0:0:0:
369,189,49767,1,0,0:0:0:0:
369,189,49964,1,8,0:0:0:0:
369,189,50063,1,8,0:0:0:0:
216,174,50162,1,8,0:0:0:0:
197,166,50260,1,0,0:0:0:0:
324,196,50359,1,0,0:0:0:0:
134,203,50458,1,8,0:0:0:0:
141,189,50556,1,0,0:0:0:0:
187,68,50655,1,8,0:0:0:0:
224,229,50754,1,8,0:0:0:0:
221,219,50852,1,0,0:0:0:0:
221,212,50951,1,8,0:0:0:0:
210,227,51050,1,0,0:0:0:0:
210,227,51148,1,8,0:0:0:0:
292,142,51346,1,4,0:0:0:0:
391,187,51543,1,8,0:0:0:0:
391,187,51642,1,8,0:0:0:0:
292,142,51741,1,4,0:0:0:0:
390,191,51938,1,0,0:0:0:0:
390,192,52037,1,0,0:0:0:0:
391,187,52135,1,12,0:0:0:0:
391,187,52333,1,0,0:0:0:0:
391,187,52431,1,12,0:0:0:0:
391,187,52629,1,8,0:0:0:0:
390,191,52727,1,4,0:0:0:0:
302,172,52925,1,8,0:0:0:0:
341,261,53122,1,0,0:0:0:0:
341,261,53221,1,0,0:0:0:0:
210,221,53319,1,0,0:0:0:0:
209,209,53418,1,8,0:0:0:0:
193,267,53517,1,8,0:0:0:0:
193,267,53616,1,0,0:0:0:0:
190,243,53714,1,8,0:0:0:0:
161,122,53813,1,0,0:0:0:0:
282,195,53912,1,0,0:0:0:0:
282,195,54010,1,8,0:0:0:0:
274,176,54109,1,0,0:0:0:0:
269,172,54208,1,8,0:0:0:0:
231,151,54306,1,0,0:0:0:0:
434,233,54504,1,8,0:0:0:0:
343,249,54701,1,0,0:0:0:0:
312,85,54800,1,0,0:0:0:0:
237,34,54898,1,8,0:0:0:0:
410,151,54997,1,8,0:0:0:0:
243,53,55096,1,0,0:0:0:0:
242,53,55194,1,0,0:0:0:0:
219,109,55293,1,8,0:0:0:0:
219,109,55392,1,0,0:0:0:0:
336,135,55589,1,0,0:0:0:0:
294,162,55688,1,8,0:0:0:0:
290,170,55787,1,8,0:0:0:0:
290,171,55885,1,0,0:0:0:0:
396,238,56083,1,8,0:0:0:0:
249,196,56280,1,0,0:0:0:0:
231,222,56379,1,0,0:0:0:0:
230,235,56477,1,8,0:0:0:0:
230,235,56576,1,0,0:0:0:0:
187,214,56675,1,0,0:0:0:0:
242,214,56872,1,12,0:0:0:0:
330,185,57168,1,12,0:0:0:0:
330,185,57464,1,12,0:0:0:0:
321,192,58056,1,12,0:0:0:0:
226,270,58254,1,0,0:0:0:0:
226,270,58352,1,0,0:0:0:0:
263,119,58451,1,8,0:0:0:0:
158,176,58550,1,8,0:0:0:0:
260,209,58648,1,0,0:0:0:0:
183,61,58714,1,8,0:0:0:0:
185,111,58780,1,8,0:0:0:0:
260,209,58846,1,8,0:0:0:0:
339,130,58944,1,0,0:0:0:0:
339,130,59043,1,0,0:0:0:0:
257,221,59142,1,0,0:0:0:0:
381,242,59241,1,8,0:0:0:0:
381,242,59372,1,8,0:0:0:0:
381,242,59504,1,8,0:0:0:0:
259,193,59635,1,0,0:0:0:0:
259,193,59734,1,0,0:0:0:0:
196,55,59833,1,0,0:0:0:0:
188,161,59931,1,0,0:0:0:0:
183,159,60030,1,8,0:0:0:0:
159,214,60129,1,0,0:0:0:0:
159,214,60227,1,0,0:0:0:0:
172,231,60326,1,8,0:0:0:0:
173,221,60425,1,0,0:0:0:0:
301,167,60523,1,0,0:0:0:0:
301,167,60622,1,8,0:0:0:0:
224,64,60688,1,8,0:0:0:0:
27,142,60754,1,8,0:0:0:0:
253,148,60819,1,0,0:0:0:0:
399,265,61017,1,0,0:0:0:0:
399,265,61214,1,8,0:0:0:0:
399,265,61313,1,8,0:0:0:0:
399,265,61412,1,8,0:0:0:0:
289,232,61609,1,0,0:0:0:0:
181,101,61708,1,8,0:0:0:0:
181,101,61806,1,8,0:0:0:0:
199,227,61905,1,0,0:0:0:0:
199,227,62004,1,8,0:0:0:0:
193,220,62102,1,8,0:0:0:0:
328,185,62201,1,0,0:0:0:0:
239,243,62300,1,0,0:0:0:0:
292,117,62596,1,8,0:0:0:0:
292,117,62694,1,8,0:0:0:0:
292,117,62793,1,8,0:0:0:0:
292,117,62892,1,0,0:0:0:0:
256,255,62991,1,8,0:0:0:0:
292,117,63089,1,8,0:0:0:0:
295,150,63188,1,0,0:0:0:0:
312,178,63254,1,0,0:0:0:0:
63,221,63319,1,0,0:0:0:0:
315,66,63385,1,8,0:0:0:0:
197,106,63484,1,8,0:0:0:0:
197,106,63583,1,0,0:0:0:0:
197,106,63681,1,0,0:0:0:0:
197,106,63780,1,8,0:0:0:0:
358,270,63977,1,4,0:0:0:0:
439,227,64175,1,8,0:0:0:0:
439,227,64273,1,0,0:0:0:0:
279,229,64372,1,0,0:0:0:0:
279,229,64471,1,8,0:0:0:0:
228,112,64569,1,0,0:0:0:0:
228,112,64635,1,8,0:0:0:0:
221,173,64701,1,8,0:0:0:0:
213,162,64767,1,0,0:0:0:0:
359,208,64866,1,0,0:0:0:0:
266,321,64964,1,8,0:0:0:0:
202,205,65063,1,8,0:0:0:0:
281,71,65162,1,0,0:0:0:0:
245,115,65260,1,8,0:0:0:0:
278,214,65359,1,0,0:0:0:0:
277,214,65458,1,0,0:0:0:0:
273,203,65556,1,0,0:0:0:0:
393,133,65754,1,8,0:0:0:0:
393,138,65803,1,8,0:0:0:0:
393,138,65852,1,0,0:0:0:0:
393,138,65951,1,0,0:0:0:0:
393,138,66050,1,8,0:0:0:0:
387,187,66099,1,8,0:0:0:0:
387,187,66148,1,0,0:0:0:0:
382,288,66247,1,0,0:0:0:0:
301,122,66346,1,8,0:0:0:0:
301,122,66412,1,8,0:0:0:0:
224,133,66477,1,8,0:0:0:0:
224,133,66543,1,0,0:0:0:0:
285,259,66642,1,0,0:0:0:0:
285,259,66741,1,8,0:0:0:0:
210,204,66872,1,8,0:0:0:0:
219,234,67004,1,8,0:0:0:0:
219,234,67135,1,4,0:0:0:0:
328,211,67333,1,8,0:0:0:0:
265,142,67431,1,0,0:0:0:0:
247,159,67530,1,8,0:0:0:0:
246,158,67629,1,8,0:0:0:0:
238,167,67727,1,0,0:0:0:0:
216,159,67826,1,8,0:0:0:0:
215,160,67925,1,0,0:0:0:0:
210,161,68023,1,0,0:0:0:0:
200,229,68122,1,8,0:0:0:0:
195,220,68221,1,0,0:0:0:0:
187,209,68319,1,0,0:0:0:0:
175,204,68418,1,8,0:0:0:0:
290,277,68517,1,8,0:0:0:0:
201,70,68566,1,8,0:0:0:0:
201,70,68616,1,8,0:0:0:0:
201,70,68665,1,8,0:0:0:0:
336,205,68912,1,4,0:0:0:0:
336,205,69109,1,4,0:0:0:0:
411,186,69306,1,8,0:0:0:0:
411,186,69372,1,8,0:0:0:0:
411,186,69438,1,8,0:0:0:0:
411,186,69504,1,0,0:0:0:0:
291,128,69602,1,0,0:0:0:0:
291,128,69701,1,8,0:0:0:0:
291,128,69800,1,0,0:0:0:0:
291,128,69898,1,8,0:0:0:0:
267,242,70096,1,8,0:0:0:0:
267,242,70293,1,0,0:0:0:0:
219,62,70392,1,0,0:0:0:0:
219,62,70491,1,8,0:0:0:0:
219,62,70589,1,0,0:0:0:0:
212,65,70688,1,8,0:0:0:0:
211,67,70787,1,8,0:0:0:0:
209,70,70885,1,0,0:0:0:0:
212,70,70984,1,8,0:0:0:0:
209,70,71083,1,8,0:0:0:0:
210,70,71181,1,0,0:0:0:0:
215,71,71280,1,8,0:0:0:0:
214,70,71379,1,0,0:0:0:0:
210,72,71477,1,0,0:0:0:0:
262,195,71675,1,8,0:0:0:0:
352,96,72069,1,4,0:0:0:0:
192,32,72267,1,4,0:0:0:0:
288,96,72464,1,12,0:0:0:0:
352,288,72662,1,0,0:0:0:0:
400,176,72760,1,0,0:0:0:0:
400,176,72859,1,8,0:0:0:0:
238,189,72958,1,0,0:0:0:0:
238,189,73056,1,8,0:0:0:0:
238,189,73122,1,8,0:0:0:0:
238,189,73188,1,8,0:0:0:0:
218,80,73254,1,0,0:0:0:0:
238,189,73352,1,8,0:0:0:0:
44,208,73648,1,0,0:0:0:0:
122,193,73698,1,0,0:0:0:0:
122,193,73747,1,0,0:0:0:0:
176,216,73846,1,0,0:0:0:0:
176,216,73895,1,0,0:0:0:0:
176,216,73944,1,0,0:0:0:0:
430,172,74043,1,12,0:0:0:0:
208,88,74438,1,8,0:0:0:0:
208,88,74487,1,8,0:0:0:0:
208,88,74537,1,8,0:0:0:0:
208,88,74635,1,8,0:0:0:0:
208,88,74685,1,8,0:0:0:0:
208,88,74734,1,8,0:0:0:0:
430,172,74833,1,4,0:0:0:0:
256,192,75227,12,0,76017,0:0:0:0:
90,118,76214,5,8,0:0:0:0:
270,246,76412,5,4,0:0:0:0:
381,179,76806,1,0,0:0:0:0:
381,179,77004,1,8,0:0:0:0:
194,148,77201,1,0,0:0:0:0:
194,148,77300,1,0,0:0:0:0:
193,135,77398,1,0,0:0:0:0:
194,148,77596,1,8,0:0:0:0:
207,73,77793,1,0,0:0:0:0:
221,65,77991,1,8,0:0:0:0:
221,65,78089,1,8,0:0:0:0:
235,80,78188,1,0,0:0:0:0:
237,83,78385,1,8,0:0:0:0:
237,83,78484,1,8,0:0:0:0:
178,202,78583,1,0,0:0:0:0:
307,194,78780,1,8,0:0:0:0:
210,285,78846,1,8,0:0:0:0:
201,154,78912,1,8,0:0:0:0:
193,271,78977,1,8,0:0:0:0:
266,247,79076,1,8,0:0:0:0:
366,228,79175,1,0,0:0:0:0:
250,240,79273,1,0,0:0:0:0:
250,239,79372,1,8,0:0:0:0:
422,277,79569,1,0,0:0:0:0:
422,277,79668,1,0,0:0:0:0:
326,263,79767,1,0,0:0:0:0:
273,153,79964,1,8,0:0:0:0:
273,153,80063,1,8,0:0:0:0:
267,139,80162,1,0,0:0:0:0:
220,141,80260,1,8,0:0:0:0:
220,141,80458,1,8,0:0:0:0:
177,152,80556,1,8,0:0:0:0:
224,269,80754,1,8,0:0:0:0:
248,270,80852,1,0,0:0:0:0:
340,186,80951,1,8,0:0:0:0:
321,292,81148,1,8,0:0:0:0:
366,290,81346,1,8,0:0:0:0:
259,122,81412,1,8,0:0:0:0:
366,290,81477,1,8,0:0:0:0:
257,99,81543,1,8,0:0:0:0:
398,139,81741,1,8,0:0:0:0:
343,202,81938,1,8,0:0:0:0:
343,202,82037,1,8,0:0:0:0:
265,202,82135,1,0,0:0:0:0:
265,202,82234,1,8,0:0:0:0:
248,183,82333,1,8,0:0:0:0:
172,227,82431,1,8,0:0:0:0:
197,247,82530,1,0,0:0:0:0:
333,118,82727,2,4,L|430:124,5,70
195,186,83912,1,4,0:0:0:0:
195,186,84109,1,4,0:0:0:0:
195,186,84306,1,12,0:0:0:0:
256,192,84504,12,0,87662,0:0:0:0:
