osu file format v14

[General]
AudioFilename: audio.mp3
AudioLeadIn: 0
PreviewTime: 44339
Countdown: 0
SampleSet: Soft
StackLeniency: 0.7
Mode: 2
LetterboxInBreaks: 0
WidescreenStoryboard: 0

[Editor]
DistanceSpacing: 1.1
BeatDivisor: 4
GridSize: 32
TimelineZoom: 2.1

[Metadata]
Title:Blue Bird feat. k*chan [ dj-Jo Remix ] TV Size
TitleUnicode:Blue Bird feat. k*chan [ dj-Jo Remix ] TV Size
Artist:IKIMONOGAKARI
ArtistUnicode:いきものがかり
Creator:Ascendance
Version:Overdose
Source:ナルト- 疾風伝
Tags:future bass jersey club trap experimental electronic japanese naruto shippuden op opening djjo kchan ブルーバード jennifer jennglebells jemzuu ajamez wonjae paranoid grapes radar greaper ultima fox
BeatmapID:2450381
BeatmapSetID:1174801

[Difficulty]
HPDrainRate:7
CircleSize:4.2
OverallDifficulty:9.4
ApproachRate:9.4
SliderMultiplier:2.4
SliderTickRate:2

[Events]
//Background and Video events
0,0,"Mountain_Bluebird.jpg",0,0
//Break Periods
//Storyboard Layer 0 (Background)
//Storyboard Layer 1 (Fail)
//Storyboard Layer 2 (Pass)
//Storyboard Layer 3 (Foreground)
//Storyboard Layer 4 (Overlay)
//Storyboard Sound Samples

[TimingPoints]
820,394.736842105263,4,2,1,60,1,0
820,-125,4,2,1,60,0,0
12464,-100,4,2,1,60,0,0
13204,-100,4,2,1,80,0,0
19718,-100,4,2,1,70,0,0
32349,-100,4,2,1,80,0,0
44981,-100,4,2,1,90,0,0
45030,-80,4,2,1,90,0,1
57662,-100,4,2,1,90,0,0
58056,-90.9090909090909,4,2,1,90,0,1
74833,-100,4,2,1,90,0,0
75178,-100,4,2,1,60,0,0
76214,-100,4,2,1,60,0,0
76362,-100,4,2,1,80,0,1
76609,-100,4,2,1,80,0,0
84454,-100,4,2,1,40,0,0

[Colours]
Combo1 : 83,83,255
Combo2 : 255,255,91
Combo3 : 255,155,255
Combo4 : 255,137,81
Combo5 : 116,116,116

[HitObjects]
71,276,227,5,0,0:0:0:0:
193,276,425,1,0,0:0:0:0:
71,276,622,1,0,0:0:0:0:
345,357,820,6,0,P|452:272|336:95,1,384,2|2,0:0|0:0,0:0:0:0:
56,142,2398,1,2,0:0:0:0:
441,276,3385,5,0,0:0:0:0:
319,276,3583,1,0,0:0:0:0:
441,276,3780,1,0,0:0:0:0:
167,357,3977,6,0,P|60:272|176:95,1,384,2|0,0:0|0:0,0:0:0:0:
456,142,5555,1,2,0:0:0:0:
132,79,6543,5,0,0:0:0:0:
246,79,6741,1,2,0:0:0:0:
363,80,6938,1,2,0:0:0:0:
52,91,7135,6,0,P|17:243|218:324,1,384,2|2,0:0|0:0,0:0:0:0:
433,342,8714,1,0,0:0:0:0:
124,247,9701,2,0,L|236:224,2,96
388,247,10491,2,0,L|276:224,2,96
146,136,11280,2,0,L|352:110,1,192,0|2,0:0|0:0,0:0:0:0:
154,49,12069,2,0,L|51:30,1,96
266,323,12464,5,0,0:0:0:0:
305,315,12529,1,0,0:0:0:0:
339,295,12595,1,0,0:0:0:0:
364,264,12661,1,0,0:0:0:0:
377,226,12727,1,0,0:0:0:0:
376,187,12792,1,0,0:0:0:0:
362,150,12858,1,0,0:0:0:0:
336,120,12924,1,0,0:0:0:0:
301,101,12990,1,0,0:0:0:0:
103,84,13056,2,0,L|180:69,1,60,12|0,0:0|0:0,0:0:0:0:
426,83,13254,6,0,L|159:78,1,240,4|0,1:1|0:0,0:0:0:0:
341,195,13846,1,8,0:0:0:0:
189,313,14043,1,0,0:0:0:0:
186,253,14141,1,0,0:0:0:0:
184,193,14240,1,0,1:0:0:0:
341,195,14438,2,0,L|473:195,1,120,0|8,0:0|0:0,0:0:0:0:
168,28,14833,6,0,P|69:59|71:182,1,240
223,196,15425,1,8,0:0:0:0:
78,329,15622,1,0,0:0:0:0:
137,319,15720,1,0,0:0:0:0:
196,310,15819,1,0,1:0:0:0:
32,153,16017,2,0,L|17:273,1,120,0|8,0:0|0:0,0:0:0:0:
379,81,16412,6,0,L|94:70,1,240,4|0,1:0|0:0,0:0:0:0:
319,179,17004,2,0,L|326:114,1,60,8|0,0:0|0:0,0:0:0:0:
146,212,17201,2,0,L|138:285,1,60
327,211,17398,2,0,L|470:238,2,120,0|0|8,1:0|1:0|0:0,0:0:0:0:
261,199,17892,1,0,0:0:0:0:
28,100,17991,6,0,L|278:68,1,240,0|0,1:0|1:0,0:0:0:0:
126,201,18583,1,8,0:0:0:0:
484,284,18780,6,0,L|234:316,1,240,4|0,1:0|0:0,0:0:0:0:
111,237,19372,2,0,L|106:358,1,120
284,206,19767,6,0,L|154:184,2,120,4|2|2,3:1|0:2|3:2,0:0:0:0:
125,164,20359,2,0,L|110:292,1,120,2|0,0:2|3:0,0:0:0:0:
254,132,20754,1,2,0:2:0:0:
124,68,20951,1,2,3:2:0:0:
286,151,21148,6,0,P|365:79|269:9,1,240,2|2,0:2|0:2,0:0:0:0:
168,3,21741,1,2,3:2:0:0:
308,3,21938,2,0,L|321:139,1,120,2|0,0:2|3:0,0:0:0:0:
169,147,22333,1,2,0:2:0:0:
323,149,22530,2,0,L|338:273,1,120,2|2,3:2|0:2,0:0:0:0:
273,286,22826,1,0,0:0:0:0:
72,320,22925,5,2,3:2:0:0:
199,218,23122,2,0,L|208:353,1,120,2|2,0:2|3:2,0:0:0:0:
41,217,23517,2,0,P|24:105|151:66,1,240,2|2,0:2|0:2,0:0:0:0:
270,142,24109,2,0,L|281:13,1,120,2|2,3:2|0:2,0:0:0:0:
122,322,24504,6,0,L|98:193,1,120,2|2,3:2|0:2,0:0:0:0:
300,334,24898,1,2,3:2:0:0:
158,318,25096,2,0,L|410:298,1,240,2|2,0:2|0:2,0:0:0:0:
333,280,25589,1,0,3:0:0:0:
175,302,25688,2,0,L|169:171,1,120,2|2,3:2|0:2,0:0:0:0:
440,189,26083,6,0,L|449:61,1,120,4|2,3:1|0:2,0:0:0:0:
295,136,26477,1,2,3:2:0:0:
436,108,26675,1,2,0:2:0:0:
295,136,26872,1,0,3:0:0:0:
239,152,26970,1,0,0:0:0:0:
212,204,27069,1,2,0:0:0:0:
231,259,27168,1,0,3:0:0:0:
299,275,27267,2,0,L|327:201,3,60,2|0|2|0,0:0|3:0|3:2|0:0,0:0:0:0:
299,275,27662,6,0,L|161:250,1,120,0|2,3:0|0:2,0:0:0:0:
49,384,28056,2,0,L|195:366,1,120,2|2,3:2|0:2,0:0:0:0:
234,363,28352,1,0,3:0:0:0:
396,344,28451,2,0,L|462:334,1,60,0|0,3:0|3:0,0:0:0:0:
331,267,28648,2,0,L|199:244,1,120,2|2,0:0|0:0,0:0:0:0:
401,191,29043,1,2,3:2:0:0:
259,104,29241,6,0,L|391:87,1,120,2|0,3:2|0:0,0:0:0:0:
86,163,29635,2,0,L|69:297,1,120,2|0,3:2|0:0,0:0:0:0:
132,305,29931,1,0,0:0:0:0:
302,348,30030,2,0,L|322:278,1,60,2|0,3:2|0:0,0:0:0:0:
229,261,30227,2,0,L|210:197,1,60,2|0,0:0|3:0,0:0:0:0:
306,169,30425,2,0,L|323:94,3,60,2|0|0|0,0:0|3:0|3:0|0:0,0:0:0:0:
229,67,30819,6,0,L|196:62,1,30,0|0,3:0|0:0,0:0:0:0:
301,163,31017,2,0,L|344:159,1,30,2|0,0:0|0:0,0:0:0:0:
103,343,31214,2,0,P|36:288|107:220,1,180,4|0,3:1|3:0,0:0:0:0:
273,241,31609,1,4,3:1:0:0:
326,221,31707,1,0,3:0:0:0:
338,165,31806,1,0,3:0:0:0:
295,126,31905,1,0,0:0:0:0:
122,315,32004,1,4,3:1:0:0:
68,295,32102,1,0,0:0:0:0:
56,239,32201,1,0,3:0:0:0:
99,200,32300,1,0,0:0:0:0:
325,125,32398,6,0,L|77:100,1,240,4|0,1:1|0:0,0:0:0:0:
45,119,32859,1,0,0:0:0:0:
17,153,32925,1,0,0:0:0:0:
10,196,32991,1,0,0:0:0:0:
32,232,33056,1,0,0:0:0:0:
72,250,33122,1,0,0:0:0:0:
251,255,33188,2,0,L|396:256,1,120,8|0,0:0|1:0,0:0:0:0:
212,150,33583,2,0,L|98:150,2,80,0|0|0,1:0|1:0|1:0,0:0:0:0:
446,187,33977,6,0,L|453:145,3,40,0|0|0|0,1:0|0:0|0:0|0:0,0:0:0:0:
316,289,34372,2,0,L|442:283,1,120
159,181,34767,1,8,0:0:0:0:
307,184,34964,1,0,1:0:0:0:
159,181,35162,2,0,L|247:181,1,60,0|0,1:0|0:0,0:0:0:0:
285,184,35359,2,0,L|401:183,1,60,0|0,1:0|0:0,0:0:0:0:
96,342,35556,6,0,P|42:283|100:213,1,180,4|0,1:1|0:0,0:0:0:0:
159,220,35951,1,0,0:0:0:0:
201,206,36017,1,0,0:0:0:0:
229,172,36083,1,0,0:0:0:0:
240,130,36148,1,0,0:0:0:0:
232,86,36214,1,0,0:0:0:0:
201,54,36280,1,0,0:0:0:0:
33,30,36346,2,0,L|159:12,1,120,8|0,0:0|0:0,0:0:0:0:
299,57,36741,2,0,L|387:46,2,80,0|0|0,1:0|1:0|1:0,0:0:0:0:
110,139,37135,6,0,L|31:128,1,60,0|0,1:0|0:0,0:0:0:0:
161,247,37333,2,0,L|283:228,1,120
155,366,37727,2,0,L|231:356,1,60
427,337,37925,1,8,0:0:0:0:
261,285,38122,1,8,0:0:0:0:
427,337,38319,1,8,0:0:0:0:
155,366,38517,1,8,0:0:0:0:
450,214,38714,6,0,L|460:344,1,120,4|0,1:1|0:0,0:0:0:0:
295,181,39109,1,8,0:1:0:0:
452,122,39306,1,0,0:0:0:0:
88,68,39504,2,0,L|79:201,1,120,0|0,1:0|0:0,0:0:0:0:
144,200,39800,1,0,1:0:0:0:
390,215,39898,2,0,L|396:346,1,120,8|0,0:1|1:0,0:0:0:0:
135,298,40293,6,0,L|5:299,1,120,0|0,1:0|0:0,0:0:0:0:
199,212,40688,2,0,L|329:212,1,120,8|0,0:1|0:0,0:0:0:0:
62,188,41083,2,0,P|6:134|70:67,1,180,0|0,1:0|1:0,0:0:0:0:
296,37,41477,2,0,L|152:28,1,120,8|0,0:1|1:0,0:0:0:0:
431,94,42069,5,0,1:0:0:0:
171,166,42267,1,0,1:0:0:0:
319,194,42464,1,0,1:0:0:0:
27,258,42662,1,0,1:0:0:0:
415,169,42859,1,0,1:0:0:0:
27,258,43056,1,0,1:0:0:0:
480,258,43254,1,0,1:0:0:0:
26,64,43648,5,8,1:2:0:0:
472,129,43846,1,8,1:2:0:0:
26,64,44043,1,8,1:2:0:0:
472,129,44241,1,8,1:2:0:0:
326,196,44438,6,0,L|317:127,1,60,0|0,0:0|1:0,0:0:0:0:
349,125,44586,1,0,1:0:0:0:
491,96,44635,2,0,L|405:75,1,60,8|0,0:1|0:0,0:0:0:0:
184,200,44833,2,0,L|87:178,1,60,8|0,0:1|0:0,0:0:0:0:
409,358,45030,6,0,L|409:126,1,225,4|0,1:1|0:0,0:0:0:0:
172,293,45425,2,0,L|173:60,1,225,0|0,1:0|0:0,0:0:0:0:
420,203,45819,2,0,P|478:142|410:90,1,150,0|0,1:0|0:0,0:0:0:0:
225,42,46116,2,0,L|385:24,1,150,0|0,1:0|0:0,0:0:0:0:
185,206,46412,2,0,L|30:190,1,150,0|0,1:0|0:0,0:0:0:0:
328,108,46806,5,0,1:0:0:0:
245,145,46905,2,0,L|241:227,1,75
416,293,47102,2,0,L|491:283,2,75,0|0|0,1:0|0:0|0:0,0:0:0:0:
168,331,47398,2,0,L|348:346,1,150,0|0,1:0|0:0,0:0:0:0:
242,309,47694,1,0,1:0:0:0:
25,259,47793,2,0,L|116:250,1,75,0|0,1:0|0:0,0:0:0:0:
326,203,47991,2,0,L|231:192,1,75,0|0,1:0|0:0,0:0:0:0:
48,242,48188,5,0,1:0:0:0:
4,184,48286,1,0,0:0:0:0:
24,114,48385,1,0,0:0:0:0:
91,87,48484,1,0,0:0:0:0:
274,39,48583,2,0,L|284:123,1,75,0|0,1:0|0:0,0:0:0:0:
191,146,48780,2,0,L|179:228,1,75
394,340,48977,6,0,P|477:256|431:209,1,150,0|0,1:0|0:0,0:0:0:0:
251,168,49273,2,0,L|411:148,1,150,0|0,1:0|0:0,0:0:0:0:
196,308,49569,2,0,L|100:316,1,75,0|0,1:0|0:0,0:0:0:0:
335,361,49767,6,0,L|334:273,1,75,0|0,1:0|0:0,0:0:0:0:
234,291,49964,2,0,L|229:203,1,75
407,217,50162,2,0,L|506:210,1,75,0|0,1:0|0:0,0:0:0:0:
312,143,50359,1,0,0:0:0:0:
145,145,50458,1,0,0:0:0:0:
312,143,50556,2,0,L|481:137,1,150,0|0,1:0|0:0,0:0:0:0:
381,117,50852,1,0,1:0:0:0:
193,154,50951,2,0,L|191:57,1,75
432,279,51148,2,0,L|328:279,1,75,0|0,1:0|0:0,0:0:0:0:
101,363,51346,6,0,L|103:126,1,225,4|0,1:0|0:0,0:0:0:0:
411,363,51741,2,0,L|409:126,1,225,0|0,1:0|0:0,0:0:0:0:
158,78,52135,6,0,L|339:64,1,150,0|0,1:0|0:0,0:0:0:0:
114,154,52431,2,0,P|63:210|106:275,1,150,0|0,1:0|0:0,0:0:0:0:
271,306,52727,2,0,L|444:302,1,150,0|0,1:0|0:0,0:0:0:0:
67,359,53122,6,0,L|57:265,1,75,0|0,1:0|0:0,0:0:0:0:
136,249,53319,1,0,0:0:0:0:
331,196,53418,2,0,L|245:158,1,75,0|0,1:0|0:0,0:0:0:0:
172,180,53616,1,0,0:0:0:0:
425,185,53714,1,0,1:0:0:0:
465,159,53779,1,0,0:0:0:0:
469,110,53845,1,0,0:0:0:0:
433,79,53911,1,0,0:0:0:0:
355,65,54010,1,0,1:0:0:0:
183,94,54109,2,0,L|97:83,1,75
346,347,54306,6,0,P|421:257|373:216,1,150,0|0,1:0|1:0,0:0:0:0:
338,226,54602,1,0,0:0:0:0:
129,191,54701,2,0,L|219:173,1,75
428,120,54898,2,0,L|350:105,1,75,0|0,1:0|0:0,0:0:0:0:
71,56,55096,6,0,L|276:32,1,150,0|0,0:0|1:0,0:0:0:0:
301,25,55392,1,0,0:0:0:0:
111,141,55491,1,0,0:0:0:0:
44,168,55589,1,0,1:0:0:0:
36,239,55688,1,0,0:0:0:0:
95,280,55787,1,0,0:0:0:0:
364,236,55885,6,0,L|155:236,1,150,0|0,1:0|1:0,0:0:0:0:
131,232,56181,1,0,0:0:0:0:
213,234,56280,1,0,0:0:0:0:
295,234,56379,1,0,0:0:0:0:
135,144,56477,2,0,L|47:143,1,75,0|0,1:0|0:0,0:0:0:0:
311,83,56675,2,0,L|395:83,1,75
111,28,56872,6,0,L|111:193,1,150,8|0,1:0|0:0,0:0:0:0:
275,31,57168,6,0,L|275:196,1,150,8|0,0:1|0:0,0:0:0:0:
448,29,57464,6,0,L|448:107,1,75,8|0,0:1|0:0,0:0:0:0:
342,32,57662,2,0,P|280:94|370:140,1,180
85,329,58056,6,0,L|75:251,1,66.0000020141602,4|0,1:1|0:0,0:0:0:0:
178,251,58254,2,0,L|189:175,1,66.0000020141602
415,346,58451,2,0,L|400:170,1,132.00000402832,8|0,0:1|0:0,0:0:0:0:
313,198,58747,1,0,0:0:0:0:
106,208,58846,2,0,L|95:137,3,66.0000020141602,0|0|0|0,1:0|0:0|0:0|0:0,0:0:0:0:
317,53,59241,5,0,1:0:0:0:
128,87,59372,1,0,1:0:0:0:
317,53,59504,1,0,1:0:0:0:
41,23,59635,6,0,L|131:32,1,66.0000020141602,4|0,1:1|0:0,0:0:0:0:
305,68,59833,2,0,L|379:74,1,66.0000020141602
92,128,60030,2,0,L|182:137,1,66.0000020141602,8|0,0:1|0:0,0:0:0:0:
356,173,60228,2,0,L|430:179,1,66.0000020141602
138,238,60425,2,0,L|228:247,1,66.0000020141602,0|0,1:0|0:0,0:0:0:0:
402,283,60623,1,0,0:0:0:0:
445,286,60688,1,0,0:0:0:0:
402,283,60754,1,0,0:0:0:0:
242,358,60819,5,0,1:0:0:0:
186,328,60917,1,0,0:0:0:0:
181,265,61016,1,0,0:0:0:0:
232,227,61115,1,0,0:0:0:0:
406,215,61214,2,0,L|326:194,1,66.0000020141602,0|0,1:0|0:0,0:0:0:0:
139,192,61412,2,0,L|56:175,1,66.0000020141602
288,121,61609,6,0,L|457:102,1,132.00000402832,8|0,0:1|0:0,0:0:0:0:
233,242,61905,2,0,L|402:225,1,132.00000402832,0|0,1:0|0:0,0:0:0:0:
180,359,62201,2,0,L|255:350,1,66.0000020141602,0|0,1:0|0:0,0:0:0:0:
425,328,62398,5,0,0:0:0:0:
22,206,62596,2,0,L|101:192,1,66.0000020141602,4|0,1:1|0:0,0:0:0:0:
266,220,62793,2,0,L|270:146,1,66.0000020141602
76,287,62991,2,0,L|71:365,1,66.0000020141602,0|0,1:0|0:0,0:0:0:0:
289,314,63188,2,0,L|366:314,1,66.0000020141602,8|0,0:1|0:0,0:0:0:0:
98,106,63385,2,0,L|179:104,1,66.0000020141602
366,105,63583,1,0,0:0:0:0:
188,105,63681,1,0,0:0:0:0:
366,105,63780,1,0,0:0:0:0:
188,105,63879,1,0,0:0:0:0:
460,109,63977,6,0,P|468:208|343:234,1,198.000006042481,4|0,1:0|0:0,0:0:0:0:
172,343,64372,2,0,L|167:269,1,66.0000020141602
264,261,64569,2,0,L|273:203,2,44.0000013427735
56,236,64767,6,0,L|44:61,1,132.00000402832,8|0,0:1|1:0,0:0:0:0:
116,82,65063,1,0,0:0:0:0:
299,73,65162,2,0,L|291:160,1,66.0000020141602,0|0,1:0|0:0,0:0:0:0:
203,137,65359,2,0,L|196:217,1,66.0000020141602
328,251,65556,5,0,1:0:0:0:
49,335,65754,2,0,L|118:322,1,66.0000020141602,0|0,1:0|0:0,0:0:0:0:
342,240,65951,2,0,L|273:227,1,66.0000020141602,0|0,0:0|1:0,0:0:0:0:
47,164,66148,2,0,L|116:151,1,66.0000020141602
295,42,66346,1,8,0:1:0:0:
206,74,66444,2,0,L|215:152,1,66.0000020141602
485,276,66741,2,0,L|344:260,1,132.00000402832,0|0,1:0|0:0,0:0:0:0:
281,257,67037,1,0,0:0:0:0:
84,352,67135,5,4,1:1:0:0:
25,327,67233,1,0,0:0:0:0:
9,266,67332,1,0,0:0:0:0:
50,217,67431,1,0,0:0:0:0:
245,251,67530,1,0,1:0:0:0:
303,226,67628,1,0,0:0:0:0:
319,165,67727,1,0,0:0:0:0:
278,116,67826,1,0,0:0:0:0:
76,54,67925,6,0,L|222:33,1,132.00000402832,8|0,0:1|0:0,0:0:0:0:
388,190,68221,2,0,L|246:175,1,132.00000402832,0|0,1:0|0:0,0:0:0:0:
64,210,68517,2,0,L|15:204,2,44.0000013427735,0|0|0,1:0|0:0|0:0,0:0:0:0:
141,222,68714,5,0,0:0:0:0:
484,211,68912,5,0,1:0:0:0:
47,294,69109,1,0,1:0:0:0:
187,339,69306,2,0,L|246:330,2,44.0000013427735
47,294,69504,1,8,0:1:0:0:
159,251,69701,1,0,1:0:0:0:
470,310,69898,2,0,L|476:169,1,132.00000402832,8|0,0:1|1:0,0:0:0:0:
207,69,70293,5,4,1:1:0:0:
148,92,70391,1,0,0:0:0:0:
141,155,70490,1,0,0:0:0:0:
191,192,70589,1,0,0:0:0:0:
379,214,70688,1,0,1:0:0:0:
438,237,70786,1,0,0:0:0:0:
445,300,70885,1,0,0:0:0:0:
395,337,70984,1,0,0:0:0:0:
191,338,71083,6,0,L|45:324,1,132.00000402832,8|0,0:1|0:0,0:0:0:0:
290,240,71379,2,0,L|112:220,1,132.00000402832,0|0,1:0|0:0,0:0:0:0:
430,211,71675,2,0,L|456:128,1,66.0000020141602,0|0,1:0|0:0,0:0:0:0:
378,97,71872,5,0,0:0:0:0:
22,106,72069,6,0,L|100:93,1,66.0000020141602,0|0,1:0|1:0,0:0:0:0:
346,128,72267,1,0,1:0:0:0:
96,91,72366,2,0,L|206:71,1,66.0000020141602,0|0,0:0|1:0,0:0:0:0:
401,54,72563,1,0,1:0:0:0:
110,231,72662,6,0,L|39:221,1,66.0000020141602,8|8,0:1|0:1,0:0:0:0:
268,339,72859,2,0,L|357:329,1,66.0000020141602,0|0,1:1|1:1,0:0:0:0:
62,334,73056,1,8,0:1:0:0:
265,324,73155,1,8,0:1:0:0:
491,324,73254,5,0,1:0:0:0:
206,238,73648,2,0,L|281:225,1,66.0000020141602,0|0,1:0|0:0,0:0:0:0:
447,205,73846,2,0,L|498:193,2,44.0000013427735,8|0|0,0:1|0:0|0:0,0:0:0:0:
181,113,74043,1,0,1:0:0:0:
380,64,74438,2,0,L|384:139,1,66.0000020141602,0|0,1:0|0:0,0:0:0:0:
163,56,74635,2,0,L|84:54,1,66.0000020141602,8|0,0:1|0:0,0:0:0:0:
424,30,74833,5,0,1:0:0:0:
256,192,75030,12,8,76214,0:1:0:0:
409,90,76412,6,0,L|163:69,1,240,4|0,3:1|0:0,0:0:0:0:
332,179,77004,1,0,0:0:0:0:
185,272,77201,1,0,3:0:0:0:
182,212,77299,1,0,0:0:0:0:
180,152,77398,1,8,0:0:0:0:
332,179,77596,2,0,L|470:170,1,120,0|0,0:0|3:0,0:0:0:0:
127,346,77991,6,0,P|55:298|128:190,1,240,0|0,3:0|0:0,0:0:0:0:
255,190,78583,1,0,3:0:0:0:
106,244,78780,2,0,L|89:171,1,60
179,162,78977,2,0,L|192:102,1,60,8|0,0:0|0:0,0:0:0:0:
279,97,79175,2,0,L|408:75,1,120,0|0,3:0|0:0,0:0:0:0:
64,26,79569,6,0,L|307:40,1,240,0|0,3:0|0:0,0:0:0:0:
448,50,80162,1,0,3:0:0:0:
288,232,80359,1,0,0:0:0:0:
285,172,80457,1,0,0:0:0:0:
283,112,80556,1,8,0:0:0:0:
452,198,80754,2,0,L|460:330,1,120,0|0,3:0|0:0,0:0:0:0:
177,354,81148,6,0,P|107:290|190:190,1,240,0|0,0:0|3:0,0:0:0:0:
311,190,81741,1,0,3:0:0:0:
165,73,81938,2,0,L|157:203,1,120,0|8,0:0|0:0,0:0:0:0:
428,57,82333,1,0,3:0:0:0:
164,73,82530,1,0,3:0:0:0:
428,57,82727,6,0,P|479:129|378:211,1,240,4|0,3:1|0:0,0:0:0:0:
247,303,83319,2,0,L|236:164,1,120
391,328,83714,1,8,0:0:0:0:
82,323,83912,1,0,3:0:0:0:
367,239,84109,1,0,3:0:0:0:
26,182,84306,5,4,3:1:0:0:
256,192,84405,12,0,87662,3:0:0:0:
