osu file format v14

[General]
AudioFilename: audio.mp3
AudioLeadIn: 0
PreviewTime: 94302
Countdown: 0
SampleSet: Soft
StackLeniency: 0.7
Mode: 3
LetterboxInBreaks: 0
SpecialStyle: 0
WidescreenStoryboard: 0

[Editor]
Bookmarks: 75581
DistanceSpacing: 1
BeatDivisor: 8
GridSize: 32
TimelineZoom: 1.900001

[Metadata]
Title:THE EARTH
TitleUnicode:THE EARTH
Artist:II-L feat. amelie xoxo
ArtistUnicode:II-L feat. amelie xoxo
Creator:Ucitysm
Version:Solstice | Another
Source:osu! World Cup 2022
Tags:fa featured artist mg mappers' guild electronic japanese video game OWC Grand Finals no mod gfnm owc2022gfnm5 original rhythm ft. mukotsuu polarin olivertruck himitsuhiketsu monoseul scisso indoroid tigerinity dump chordjack rice
BeatmapID:4163449
BeatmapSetID:2002137

[Difficulty]
HPDrainRate:7.8
CircleSize:4
OverallDifficulty:7.8
ApproachRate:5
SliderMultiplier:1.4
SliderTickRate:1

[Events]
//Background and Video events
0,0,"the_earth.jpg",0,0
//Break Periods
//Storyboard Layer 0 (Background)
//Storyboard Layer 1 (Fail)
//Storyboard Layer 2 (Pass)
//Storyboard Layer 3 (Foreground)
//Storyboard Layer 4 (Overlay)
//Storyboard Sound Samples

[TimingPoints]
581,468.75,5,2,1,10,1,0
5268,-100,5,2,1,15,0,0
9956,-100,5,2,1,20,0,0
19331,-100,5,2,1,50,0,0
28706,-100,5,2,1,70,0,0
70893,-100,5,2,1,50,0,0
75581,-100,5,2,1,70,0,0
94331,-100,5,2,1,70,0,1
103706,-100,5,2,1,70,0,0
103940,-100,5,2,1,70,0,1
110737,-100,5,2,1,70,0,0
113198,468.75,5,2,1,70,1,0
115776,468.75,5,2,1,70,1,0
117768,468.75,5,2,1,70,1,0
118822,-100,5,2,1,50,0,0
119525,468.75,5,2,1,70,1,0
121282,468.75,5,2,1,70,1,0

[HitObjects]
64,192,581,5,0,0:0:0:0:
64,192,1049,1,0,0:0:0:0:
64,192,1518,1,0,0:0:0:0:
320,192,1870,1,0,0:0:0:0:
320,192,2221,1,0,0:0:0:0:
448,192,2573,1,0,0:0:0:0:
192,192,2924,1,0,0:0:0:0:
320,192,3393,1,0,0:0:0:0:
192,192,3862,1,0,0:0:0:0:
192,192,4213,1,0,0:0:0:0:
320,192,4565,1,0,0:0:0:0:
192,192,4916,1,0,0:0:0:0:
64,192,5268,1,0,0:0:0:0:
64,192,5737,1,0,0:0:0:0:
64,192,6206,1,0,0:0:0:0:
320,192,6557,1,0,0:0:0:0:
320,192,6909,1,0,0:0:0:0:
448,192,7260,1,0,0:0:0:0:
192,192,7612,1,0,0:0:0:0:
320,192,8081,1,0,0:0:0:0:
448,192,8549,1,0,0:0:0:0:
192,192,8901,1,0,0:0:0:0:
320,192,9252,1,0,0:0:0:0:
448,192,9604,1,0,0:0:0:0:
64,192,9956,1,0,0:0:0:0:
320,192,10112,1,0,0:0:0:0:
320,192,10268,1,0,0:0:0:0:
64,192,10424,1,0,0:0:0:0:
320,192,10581,1,0,0:0:0:0:
320,192,10737,1,0,0:0:0:0:
64,192,10893,1,0,0:0:0:0:
192,192,11069,1,0,0:0:0:0:
320,192,11245,1,0,0:0:0:0:
64,192,11420,1,0,0:0:0:0:
320,192,11596,1,0,0:0:0:0:
64,192,11772,1,0,0:0:0:0:
448,192,11948,1,0,0:0:0:0:
64,192,12123,1,0,0:0:0:0:
320,192,12299,1,0,0:0:0:0:
192,192,12456,1,0,0:0:0:0:
192,192,12612,1,0,0:0:0:0:
448,192,12768,1,0,0:0:0:0:
192,192,12924,1,0,0:0:0:0:
192,192,13081,1,0,0:0:0:0:
320,192,13237,1,0,0:0:0:0:
64,192,13413,1,0,0:0:0:0:
320,192,13588,1,0,0:0:0:0:
192,192,13764,1,0,0:0:0:0:
448,192,13940,1,0,0:0:0:0:
192,192,14116,1,0,0:0:0:0:
320,192,14291,1,0,0:0:0:0:
192,192,14467,1,0,0:0:0:0:
64,192,14643,1,0,0:0:0:0:
320,192,14799,1,0,0:0:0:0:
320,192,14956,1,0,0:0:0:0:
64,192,15112,1,0,0:0:0:0:
320,192,15268,1,0,0:0:0:0:
320,192,15424,1,0,0:0:0:0:
64,192,15581,1,0,0:0:0:0:
192,192,15756,1,0,0:0:0:0:
320,192,15932,1,0,0:0:0:0:
64,192,16108,1,0,0:0:0:0:
320,192,16284,1,0,0:0:0:0:
64,192,16459,1,0,0:0:0:0:
448,192,16635,1,0,0:0:0:0:
64,192,16811,1,0,0:0:0:0:
320,192,16987,1,0,0:0:0:0:
192,192,17143,1,0,0:0:0:0:
192,192,17299,1,0,0:0:0:0:
448,192,17456,1,0,0:0:0:0:
192,192,17612,1,0,0:0:0:0:
192,192,17768,1,0,0:0:0:0:
64,192,17924,1,0,0:0:0:0:
448,192,18100,1,0,0:0:0:0:
192,192,18276,1,0,0:0:0:0:
320,192,18452,1,0,0:0:0:0:
64,192,18627,1,0,0:0:0:0:
320,192,18803,1,0,0:0:0:0:
192,192,18979,1,0,0:0:0:0:
320,192,19155,1,0,0:0:0:0:
448,192,19331,5,0,0:0:0:0:
64,192,19331,1,0,0:0:0:0:
192,192,19331,1,0,0:0:0:0:
192,192,19448,1,0,0:0:0:0:
320,192,19799,1,0,0:0:0:0:
64,192,19799,1,0,0:0:0:0:
64,192,19916,1,0,0:0:0:0:
448,192,20268,1,0,0:0:0:0:
320,192,20268,1,0,0:0:0:0:
320,192,20385,1,0,0:0:0:0:
192,192,20620,1,0,0:0:0:0:
448,192,20620,1,0,0:0:0:0:
448,192,20737,1,0,0:0:0:0:
64,192,20971,1,0,0:0:0:0:
192,192,20971,1,0,0:0:0:0:
192,192,21088,1,0,0:0:0:0:
64,192,21323,1,0,0:0:0:0:
448,192,21323,1,0,0:0:0:0:
64,192,21440,1,0,0:0:0:0:
448,192,21674,1,0,0:0:0:0:
320,192,21674,1,0,0:0:0:0:
320,192,21791,1,0,0:0:0:0:
192,192,22143,1,0,0:0:0:0:
448,192,22143,1,0,0:0:0:0:
448,192,22260,1,0,0:0:0:0:
64,192,22612,1,0,0:0:0:0:
192,192,22612,1,0,0:0:0:0:
192,192,22729,1,0,0:0:0:0:
320,192,22963,1,0,0:0:0:0:
64,192,22963,1,0,0:0:0:0:
64,192,23081,1,0,0:0:0:0:
320,192,23315,1,0,0:0:0:0:
448,192,23315,1,0,0:0:0:0:
320,192,23432,1,0,0:0:0:0:
448,192,23666,1,0,0:0:0:0:
64,192,23666,1,0,0:0:0:0:
448,192,23784,1,0,0:0:0:0:
64,192,24018,1,0,0:0:0:0:
192,192,24018,1,0,0:0:0:0:
192,192,24135,1,0,0:0:0:0:
320,192,24487,1,0,0:0:0:0:
64,192,24487,1,0,0:0:0:0:
64,192,24604,1,0,0:0:0:0:
448,192,24956,1,0,0:0:0:0:
320,192,24956,1,0,0:0:0:0:
320,192,25073,1,0,0:0:0:0:
192,192,25307,1,0,0:0:0:0:
448,192,25307,1,0,0:0:0:0:
448,192,25424,1,0,0:0:0:0:
64,192,25659,1,0,0:0:0:0:
192,192,25659,1,0,0:0:0:0:
192,192,25776,1,0,0:0:0:0:
448,192,26010,1,0,0:0:0:0:
64,192,26010,1,0,0:0:0:0:
64,192,26127,1,0,0:0:0:0:
448,192,26362,1,0,0:0:0:0:
320,192,26362,1,0,0:0:0:0:
320,192,26479,1,0,0:0:0:0:
448,192,26831,1,0,0:0:0:0:
192,192,26831,1,0,0:0:0:0:
192,192,26948,1,0,0:0:0:0:
64,192,27299,1,0,0:0:0:0:
448,192,27299,1,0,0:0:0:0:
448,192,27416,1,0,0:0:0:0:
64,192,27651,1,0,0:0:0:0:
192,192,27651,1,0,0:0:0:0:
192,192,27768,1,0,0:0:0:0:
320,192,28002,1,0,0:0:0:0:
64,192,28002,1,0,0:0:0:0:
320,192,28120,1,0,0:0:0:0:
64,192,28354,1,0,0:0:0:0:
448,192,28354,1,0,0:0:0:0:
64,192,28471,1,0,0:0:0:0:
64,192,28706,1,0,0:0:0:0:
192,192,28706,1,0,0:0:0:0:
448,192,28706,1,0,0:0:0:0:
320,192,28706,1,0,0:0:0:0:
192,192,28862,1,0,0:0:0:0:
192,192,29018,1,0,0:0:0:0:
448,192,29174,1,0,0:0:0:0:
64,192,29174,1,0,0:0:0:0:
64,192,29331,1,0,0:0:0:0:
64,192,29487,1,0,0:0:0:0:
320,192,29643,1,0,0:0:0:0:
448,192,29643,1,0,0:0:0:0:
320,192,29760,1,0,0:0:0:0:
448,192,29877,1,0,0:0:0:0:
64,192,29995,1,0,0:0:0:0:
192,192,29995,1,0,0:0:0:0:
192,192,30112,1,0,0:0:0:0:
64,192,30229,1,0,0:0:0:0:
448,192,30346,1,0,0:0:0:0:
320,192,30346,1,0,0:0:0:0:
192,192,30463,1,0,0:0:0:0:
64,192,30463,1,0,0:0:0:0:
448,192,30463,1,0,0:0:0:0:
320,192,30581,1,0,0:0:0:0:
64,192,30698,1,0,0:0:0:0:
448,192,30698,1,0,0:0:0:0:
64,192,30815,1,0,0:0:0:0:
192,192,30932,1,0,0:0:0:0:
448,192,31049,1,0,0:0:0:0:
320,192,31049,1,0,0:0:0:0:
320,192,31206,1,0,0:0:0:0:
320,192,31362,1,0,0:0:0:0:
64,192,31518,1,0,0:0:0:0:
448,192,31518,1,0,0:0:0:0:
448,192,31674,1,0,0:0:0:0:
448,192,31831,1,0,0:0:0:0:
192,192,31987,1,0,0:0:0:0:
64,192,31987,1,0,0:0:0:0:
64,192,32104,1,0,0:0:0:0:
192,192,32221,1,0,0:0:0:0:
448,192,32338,1,0,0:0:0:0:
320,192,32338,1,0,0:0:0:0:
448,192,32456,1,0,0:0:0:0:
320,192,32573,1,0,0:0:0:0:
64,192,32690,1,0,0:0:0:0:
192,192,32690,1,0,0:0:0:0:
320,192,32807,1,0,0:0:0:0:
448,192,32807,1,0,0:0:0:0:
192,192,32807,1,0,0:0:0:0:
64,192,32924,1,0,0:0:0:0:
448,192,33041,1,0,0:0:0:0:
320,192,33041,1,0,0:0:0:0:
320,192,33159,1,0,0:0:0:0:
448,192,33276,1,0,0:0:0:0:
64,192,33393,1,0,0:0:0:0:
192,192,33393,1,0,0:0:0:0:
192,192,33549,1,0,0:0:0:0:
192,192,33706,1,0,0:0:0:0:
64,192,33862,1,0,0:0:0:0:
448,192,33862,1,0,0:0:0:0:
64,192,34018,1,0,0:0:0:0:
64,192,34174,1,0,0:0:0:0:
320,192,34331,1,0,0:0:0:0:
448,192,34331,1,0,0:0:0:0:
320,192,34448,1,0,0:0:0:0:
448,192,34565,1,0,0:0:0:0:
64,192,34682,1,0,0:0:0:0:
192,192,34682,1,0,0:0:0:0:
192,192,34799,1,0,0:0:0:0:
64,192,34916,1,0,0:0:0:0:
448,192,35034,1,0,0:0:0:0:
320,192,35034,1,0,0:0:0:0:
192,192,35151,1,0,0:0:0:0:
64,192,35151,1,0,0:0:0:0:
448,192,35151,1,0,0:0:0:0:
320,192,35268,1,0,0:0:0:0:
448,192,35385,1,0,0:0:0:0:
64,192,35385,1,0,0:0:0:0:
64,192,35502,1,0,0:0:0:0:
192,192,35620,1,0,0:0:0:0:
448,192,35737,1,0,0:0:0:0:
320,192,35737,1,0,0:0:0:0:
320,192,35893,1,0,0:0:0:0:
320,192,36049,1,0,0:0:0:0:
64,192,36206,1,0,0:0:0:0:
448,192,36206,1,0,0:0:0:0:
448,192,36362,1,0,0:0:0:0:
448,192,36518,1,0,0:0:0:0:
192,192,36674,1,0,0:0:0:0:
64,192,36674,1,0,0:0:0:0:
64,192,36791,1,0,0:0:0:0:
192,192,36909,1,0,0:0:0:0:
448,192,37026,1,0,0:0:0:0:
320,192,37026,1,0,0:0:0:0:
448,192,37143,1,0,0:0:0:0:
320,192,37260,1,0,0:0:0:0:
64,192,37377,1,0,0:0:0:0:
192,192,37377,1,0,0:0:0:0:
320,192,37495,1,0,0:0:0:0:
448,192,37495,1,0,0:0:0:0:
192,192,37495,1,0,0:0:0:0:
64,192,37612,1,0,0:0:0:0:
448,192,37729,1,0,0:0:0:0:
320,192,37729,1,0,0:0:0:0:
320,192,37846,1,0,0:0:0:0:
448,192,37963,1,0,0:0:0:0:
64,192,38081,1,0,0:0:0:0:
448,192,38081,1,0,0:0:0:0:
320,192,38081,1,0,0:0:0:0:
192,192,38081,1,0,0:0:0:0:
64,192,38198,1,0,0:0:0:0:
320,192,38315,1,0,0:0:0:0:
64,192,38432,1,0,0:0:0:0:
320,192,38549,1,0,0:0:0:0:
448,192,38549,1,0,0:0:0:0:
448,192,38666,1,0,0:0:0:0:
64,192,38666,1,0,0:0:0:0:
320,192,38666,1,0,0:0:0:0:
192,192,38784,1,0,0:0:0:0:
448,192,38901,1,0,0:0:0:0:
192,192,39018,1,0,0:0:0:0:
64,192,39018,1,0,0:0:0:0:
192,192,39135,1,0,0:0:0:0:
64,192,39252,1,0,0:0:0:0:
320,192,39370,1,0,0:0:0:0:
448,192,39370,1,0,0:0:0:0:
320,192,39487,1,0,0:0:0:0:
448,192,39604,1,0,0:0:0:0:
64,192,39721,1,0,0:0:0:0:
192,192,39721,1,0,0:0:0:0:
64,192,39838,1,0,0:0:0:0:
320,192,39838,1,0,0:0:0:0:
448,192,39838,1,0,0:0:0:0:
192,192,39956,1,0,0:0:0:0:
448,192,40073,1,0,0:0:0:0:
320,192,40073,1,0,0:0:0:0:
448,192,40190,1,0,0:0:0:0:
320,192,40307,1,0,0:0:0:0:
64,192,40424,1,0,0:0:0:0:
192,192,40424,1,0,0:0:0:0:
192,192,40541,1,0,0:0:0:0:
448,192,40659,1,0,0:0:0:0:
192,192,40776,1,0,0:0:0:0:
320,192,40893,1,0,0:0:0:0:
448,192,40893,1,0,0:0:0:0:
320,192,41010,1,0,0:0:0:0:
192,192,41010,1,0,0:0:0:0:
448,192,41010,1,0,0:0:0:0:
64,192,41127,1,0,0:0:0:0:
320,192,41245,1,0,0:0:0:0:
192,192,41362,1,0,0:0:0:0:
64,192,41362,1,0,0:0:0:0:
64,192,41479,1,0,0:0:0:0:
192,192,41596,1,0,0:0:0:0:
320,192,41713,1,0,0:0:0:0:
448,192,41713,1,0,0:0:0:0:
448,192,41831,1,0,0:0:0:0:
320,192,41948,1,0,0:0:0:0:
64,192,42065,1,0,0:0:0:0:
192,192,42065,1,0,0:0:0:0:
192,192,42182,1,0,0:0:0:0:
320,192,42182,1,0,0:0:0:0:
448,192,42182,1,0,0:0:0:0:
64,192,42299,1,0,0:0:0:0:
448,192,42416,1,0,0:0:0:0:
320,192,42416,1,0,0:0:0:0:
320,192,42534,1,0,0:0:0:0:
448,192,42651,1,0,0:0:0:0:
64,192,42768,1,0,0:0:0:0:
192,192,42768,1,0,0:0:0:0:
64,192,42885,1,0,0:0:0:0:
320,192,43002,1,0,0:0:0:0:
64,192,43120,1,0,0:0:0:0:
320,192,43237,1,0,0:0:0:0:
448,192,43237,1,0,0:0:0:0:
448,192,43354,1,0,0:0:0:0:
64,192,43354,1,0,0:0:0:0:
320,192,43354,1,0,0:0:0:0:
192,192,43471,1,0,0:0:0:0:
448,192,43588,1,0,0:0:0:0:
192,192,43706,1,0,0:0:0:0:
64,192,43706,1,0,0:0:0:0:
192,192,43823,1,0,0:0:0:0:
64,192,43940,1,0,0:0:0:0:
320,192,44057,1,0,0:0:0:0:
448,192,44057,1,0,0:0:0:0:
320,192,44174,1,0,0:0:0:0:
448,192,44291,1,0,0:0:0:0:
64,192,44409,1,0,0:0:0:0:
192,192,44409,1,0,0:0:0:0:
64,192,44526,1,0,0:0:0:0:
320,192,44526,1,0,0:0:0:0:
448,192,44526,1,0,0:0:0:0:
192,192,44643,1,0,0:0:0:0:
448,192,44760,1,0,0:0:0:0:
320,192,44760,1,0,0:0:0:0:
448,192,44877,1,0,0:0:0:0:
320,192,44995,1,0,0:0:0:0:
64,192,45112,1,0,0:0:0:0:
192,192,45112,1,0,0:0:0:0:
192,192,45229,1,0,0:0:0:0:
448,192,45346,1,0,0:0:0:0:
192,192,45463,1,0,0:0:0:0:
320,192,45581,1,0,0:0:0:0:
448,192,45581,1,0,0:0:0:0:
320,192,45698,1,0,0:0:0:0:
448,192,45698,1,0,0:0:0:0:
192,192,45698,1,0,0:0:0:0:
64,192,45815,1,0,0:0:0:0:
320,192,45932,1,0,0:0:0:0:
192,192,46049,1,0,0:0:0:0:
64,192,46049,1,0,0:0:0:0:
64,192,46166,1,0,0:0:0:0:
192,192,46284,1,0,0:0:0:0:
320,192,46401,1,0,0:0:0:0:
448,192,46401,1,0,0:0:0:0:
448,192,46518,1,0,0:0:0:0:
320,192,46635,1,0,0:0:0:0:
64,192,46752,1,0,0:0:0:0:
192,192,46752,1,0,0:0:0:0:
192,192,46870,1,0,0:0:0:0:
320,192,46870,1,0,0:0:0:0:
448,192,46870,1,0,0:0:0:0:
64,192,46987,1,0,0:0:0:0:
448,192,47104,1,0,0:0:0:0:
320,192,47104,1,0,0:0:0:0:
192,192,47104,1,0,0:0:0:0:
320,192,47221,1,0,0:0:0:0:
448,192,47338,1,0,0:0:0:0:
192,192,47338,1,0,0:0:0:0:
64,192,47338,1,0,0:0:0:0:
448,192,47456,1,0,0:0:0:0:
320,192,47456,1,0,0:0:0:0:
192,192,47456,1,0,0:0:0:0:
64,192,47456,1,0,0:0:0:0:
320,192,47573,1,0,0:0:0:0:
64,192,47690,1,0,0:0:0:0:
192,192,47807,1,0,0:0:0:0:
320,192,47924,1,0,0:0:0:0:
448,192,47924,1,0,0:0:0:0:
320,192,48041,1,0,0:0:0:0:
448,192,48041,1,0,0:0:0:0:
64,192,48041,1,0,0:0:0:0:
192,192,48159,1,0,0:0:0:0:
64,192,48276,1,0,0:0:0:0:
320,192,48393,1,0,0:0:0:0:
448,192,48393,1,0,0:0:0:0:
320,192,48510,1,0,0:0:0:0:
448,192,48627,1,0,0:0:0:0:
64,192,48627,1,0,0:0:0:0:
192,192,48745,1,0,0:0:0:0:
320,192,48745,1,0,0:0:0:0:
192,192,48862,1,0,0:0:0:0:
448,192,48979,1,0,0:0:0:0:
192,192,49096,1,0,0:0:0:0:
64,192,49096,1,0,0:0:0:0:
192,192,49213,1,0,0:0:0:0:
448,192,49213,1,0,0:0:0:0:
64,192,49213,1,0,0:0:0:0:
320,192,49331,1,0,0:0:0:0:
448,192,49448,1,0,0:0:0:0:
192,192,49448,1,0,0:0:0:0:
448,192,49565,1,0,0:0:0:0:
64,192,49682,1,0,0:0:0:0:
320,192,49799,1,0,0:0:0:0:
192,192,49799,1,0,0:0:0:0:
192,192,49916,1,0,0:0:0:0:
448,192,50034,1,0,0:0:0:0:
64,192,50151,1,0,0:0:0:0:
320,192,50268,1,0,0:0:0:0:
448,192,50268,1,0,0:0:0:0:
64,192,50385,1,0,0:0:0:0:
448,192,50385,1,0,0:0:0:0:
320,192,50385,1,0,0:0:0:0:
192,192,50502,1,0,0:0:0:0:
448,192,50620,1,0,0:0:0:0:
192,192,50737,1,0,0:0:0:0:
64,192,50737,1,0,0:0:0:0:
192,192,50854,1,0,0:0:0:0:
448,192,50971,1,0,0:0:0:0:
320,192,50971,1,0,0:0:0:0:
192,192,51088,1,0,0:0:0:0:
64,192,51088,1,0,0:0:0:0:
192,192,51206,1,0,0:0:0:0:
64,192,51323,1,0,0:0:0:0:
320,192,51440,1,0,0:0:0:0:
448,192,51440,1,0,0:0:0:0:
320,192,51557,1,0,0:0:0:0:
448,192,51557,1,0,0:0:0:0:
64,192,51557,1,0,0:0:0:0:
192,192,51674,1,0,0:0:0:0:
64,192,51791,1,0,0:0:0:0:
320,192,51791,1,0,0:0:0:0:
64,192,51909,1,0,0:0:0:0:
448,192,52026,1,0,0:0:0:0:
192,192,52143,1,0,0:0:0:0:
320,192,52143,1,0,0:0:0:0:
64,192,52143,1,0,0:0:0:0:
320,192,52260,1,0,0:0:0:0:
64,192,52377,1,0,0:0:0:0:
192,192,52495,1,0,0:0:0:0:
320,192,52612,1,0,0:0:0:0:
448,192,52612,1,0,0:0:0:0:
320,192,52729,1,0,0:0:0:0:
448,192,52729,1,0,0:0:0:0:
64,192,52729,1,0,0:0:0:0:
192,192,52846,1,0,0:0:0:0:
64,192,52963,1,0,0:0:0:0:
320,192,53081,1,0,0:0:0:0:
448,192,53081,1,0,0:0:0:0:
320,192,53198,1,0,0:0:0:0:
448,192,53315,1,0,0:0:0:0:
64,192,53315,1,0,0:0:0:0:
192,192,53432,1,0,0:0:0:0:
320,192,53432,1,0,0:0:0:0:
192,192,53549,1,0,0:0:0:0:
448,192,53666,1,0,0:0:0:0:
192,192,53784,1,0,0:0:0:0:
64,192,53784,1,0,0:0:0:0:
192,192,53901,1,0,0:0:0:0:
448,192,53901,1,0,0:0:0:0:
64,192,53901,1,0,0:0:0:0:
320,192,54018,1,0,0:0:0:0:
448,192,54135,1,0,0:0:0:0:
192,192,54135,1,0,0:0:0:0:
448,192,54252,1,0,0:0:0:0:
192,192,54370,1,0,0:0:0:0:
64,192,54487,1,0,0:0:0:0:
320,192,54487,1,0,0:0:0:0:
64,192,54604,1,0,0:0:0:0:
448,192,54721,1,0,0:0:0:0:
320,192,54838,1,0,0:0:0:0:
192,192,54956,1,0,0:0:0:0:
64,192,54956,1,0,0:0:0:0:
448,192,55073,1,0,0:0:0:0:
64,192,55073,1,0,0:0:0:0:
192,192,55073,1,0,0:0:0:0:
320,192,55190,1,0,0:0:0:0:
64,192,55307,1,0,0:0:0:0:
320,192,55424,1,0,0:0:0:0:
448,192,55424,1,0,0:0:0:0:
448,192,55541,1,0,0:0:0:0:
192,192,55659,1,0,0:0:0:0:
320,192,55659,1,0,0:0:0:0:
448,192,55776,1,0,0:0:0:0:
64,192,55776,1,0,0:0:0:0:
64,192,55893,1,0,0:0:0:0:
320,192,56010,1,0,0:0:0:0:
448,192,56127,1,0,0:0:0:0:
64,192,56127,1,0,0:0:0:0:
192,192,56245,1,0,0:0:0:0:
64,192,56245,1,0,0:0:0:0:
448,192,56245,1,0,0:0:0:0:
320,192,56362,1,0,0:0:0:0:
64,192,56479,1,0,0:0:0:0:
192,192,56479,1,0,0:0:0:0:
448,192,56479,1,0,0:0:0:0:
64,192,56596,1,0,0:0:0:0:
192,192,56596,1,0,0:0:0:0:
448,192,56596,1,0,0:0:0:0:
320,192,56713,1,0,0:0:0:0:
64,192,56831,1,0,0:0:0:0:
192,192,56831,1,0,0:0:0:0:
320,192,56831,1,0,0:0:0:0:
448,192,56831,1,0,0:0:0:0:
192,192,56948,1,0,0:0:0:0:
448,192,57065,1,0,0:0:0:0:
64,192,57182,1,0,0:0:0:0:
192,192,57299,1,0,0:0:0:0:
64,192,57416,1,0,0:0:0:0:
320,192,57416,1,0,0:0:0:0:
448,192,57416,1,0,0:0:0:0:
448,192,57534,1,0,0:0:0:0:
192,192,57651,1,0,0:0:0:0:
448,192,57768,1,0,0:0:0:0:
320,192,57885,1,0,0:0:0:0:
64,192,58002,1,0,0:0:0:0:
448,192,58002,1,0,0:0:0:0:
64,192,58120,1,0,0:0:0:0:
192,192,58120,1,0,0:0:0:0:
320,192,58237,1,0,0:0:0:0:
448,192,58237,1,0,0:0:0:0:
64,192,58354,1,0,0:0:0:0:
192,192,58354,1,0,0:0:0:0:
192,192,58471,1,0,0:0:0:0:
320,192,58471,1,0,0:0:0:0:
448,192,58588,1,0,0:0:0:0:
64,192,58588,1,0,0:0:0:0:
320,192,58588,1,0,0:0:0:0:
64,192,58706,1,0,0:0:0:0:
192,192,58706,1,0,0:0:0:0:
448,192,58823,1,0,0:0:0:0:
320,192,58823,1,0,0:0:0:0:
448,192,58940,1,0,0:0:0:0:
192,192,58940,1,0,0:0:0:0:
64,192,59057,1,0,0:0:0:0:
320,192,59057,1,0,0:0:0:0:
192,192,59174,1,0,0:0:0:0:
64,192,59174,1,0,0:0:0:0:
320,192,59291,1,0,0:0:0:0:
192,192,59409,1,0,0:0:0:0:
448,192,59409,1,0,0:0:0:0:
192,192,59526,1,0,0:0:0:0:
64,192,59526,1,0,0:0:0:0:
320,192,59643,1,0,0:0:0:0:
64,192,59760,1,0,0:0:0:0:
320,192,59760,1,0,0:0:0:0:
448,192,59760,1,0,0:0:0:0:
64,192,59877,1,0,0:0:0:0:
192,192,59877,1,0,0:0:0:0:
320,192,59995,1,0,0:0:0:0:
64,192,60112,1,0,0:0:0:0:
448,192,60112,1,0,0:0:0:0:
320,192,60229,1,0,0:0:0:0:
192,192,60346,1,0,0:0:0:0:
64,192,60346,1,0,0:0:0:0:
448,192,60463,1,0,0:0:0:0:
192,192,60581,1,0,0:0:0:0:
64,192,60581,1,0,0:0:0:0:
320,192,60698,1,0,0:0:0:0:
448,192,60815,1,0,0:0:0:0:
64,192,60815,1,0,0:0:0:0:
192,192,60932,1,0,0:0:0:0:
64,192,60932,1,0,0:0:0:0:
320,192,60932,1,0,0:0:0:0:
320,192,61049,1,0,0:0:0:0:
448,192,61049,1,0,0:0:0:0:
64,192,61166,1,0,0:0:0:0:
320,192,61284,1,0,0:0:0:0:
448,192,61284,1,0,0:0:0:0:
192,192,61401,1,0,0:0:0:0:
64,192,61518,1,0,0:0:0:0:
448,192,61518,1,0,0:0:0:0:
320,192,61518,1,0,0:0:0:0:
320,192,61635,1,0,0:0:0:0:
64,192,61752,1,0,0:0:0:0:
448,192,61870,1,0,0:0:0:0:
320,192,61987,1,0,0:0:0:0:
448,192,62104,1,0,0:0:0:0:
192,192,62104,1,0,0:0:0:0:
64,192,62104,1,0,0:0:0:0:
64,192,62221,1,0,0:0:0:0:
320,192,62338,1,0,0:0:0:0:
64,192,62456,1,0,0:0:0:0:
192,192,62573,1,0,0:0:0:0:
448,192,62690,1,0,0:0:0:0:
64,192,62690,1,0,0:0:0:0:
448,192,62807,1,0,0:0:0:0:
320,192,62807,1,0,0:0:0:0:
192,192,62924,1,0,0:0:0:0:
64,192,62924,1,0,0:0:0:0:
448,192,63041,1,0,0:0:0:0:
320,192,63041,1,0,0:0:0:0:
320,192,63159,1,0,0:0:0:0:
192,192,63159,1,0,0:0:0:0:
64,192,63276,1,0,0:0:0:0:
448,192,63276,1,0,0:0:0:0:
192,192,63276,1,0,0:0:0:0:
448,192,63393,1,0,0:0:0:0:
320,192,63393,1,0,0:0:0:0:
64,192,63510,1,0,0:0:0:0:
192,192,63510,1,0,0:0:0:0:
448,192,63627,1,0,0:0:0:0:
192,192,63627,1,0,0:0:0:0:
64,192,63745,1,0,0:0:0:0:
320,192,63745,1,0,0:0:0:0:
320,192,63862,1,0,0:0:0:0:
448,192,63862,1,0,0:0:0:0:
192,192,63979,1,0,0:0:0:0:
320,192,64096,1,0,0:0:0:0:
64,192,64096,1,0,0:0:0:0:
320,192,64213,1,0,0:0:0:0:
448,192,64213,1,0,0:0:0:0:
192,192,64331,1,0,0:0:0:0:
448,192,64448,1,0,0:0:0:0:
192,192,64448,1,0,0:0:0:0:
64,192,64448,1,0,0:0:0:0:
448,192,64565,1,0,0:0:0:0:
320,192,64565,1,0,0:0:0:0:
192,192,64682,1,0,0:0:0:0:
320,192,64799,1,0,0:0:0:0:
64,192,64799,1,0,0:0:0:0:
448,192,64916,1,0,0:0:0:0:
192,192,65034,1,0,0:0:0:0:
64,192,65034,1,0,0:0:0:0:
64,192,65151,1,0,0:0:0:0:
320,192,65151,1,0,0:0:0:0:
448,192,65268,1,0,0:0:0:0:
320,192,65268,1,0,0:0:0:0:
192,192,65385,1,0,0:0:0:0:
320,192,65502,1,0,0:0:0:0:
64,192,65502,1,0,0:0:0:0:
192,192,65620,1,0,0:0:0:0:
64,192,65620,1,0,0:0:0:0:
448,192,65620,1,0,0:0:0:0:
192,192,65737,1,0,0:0:0:0:
64,192,65737,1,0,0:0:0:0:
448,192,65737,1,0,0:0:0:0:
320,192,65854,1,0,0:0:0:0:
192,192,65971,1,0,0:0:0:0:
64,192,65971,1,0,0:0:0:0:
448,192,65971,1,0,0:0:0:0:
320,192,66088,1,0,0:0:0:0:
64,192,66206,1,0,0:0:0:0:
192,192,66206,1,0,0:0:0:0:
320,192,66206,1,0,0:0:0:0:
448,192,66206,1,0,0:0:0:0:
192,192,66323,1,0,0:0:0:0:
448,192,66440,1,0,0:0:0:0:
64,192,66557,1,0,0:0:0:0:
192,192,66674,1,0,0:0:0:0:
64,192,66791,1,0,0:0:0:0:
320,192,66791,1,0,0:0:0:0:
448,192,66791,1,0,0:0:0:0:
448,192,66909,1,0,0:0:0:0:
192,192,67026,1,0,0:0:0:0:
448,192,67143,1,0,0:0:0:0:
320,192,67260,1,0,0:0:0:0:
64,192,67377,1,0,0:0:0:0:
448,192,67377,1,0,0:0:0:0:
64,192,67495,1,0,0:0:0:0:
192,192,67495,1,0,0:0:0:0:
320,192,67612,1,0,0:0:0:0:
448,192,67612,1,0,0:0:0:0:
64,192,67729,1,0,0:0:0:0:
192,192,67729,1,0,0:0:0:0:
192,192,67846,1,0,0:0:0:0:
320,192,67846,1,0,0:0:0:0:
448,192,67963,1,0,0:0:0:0:
64,192,67963,1,0,0:0:0:0:
320,192,67963,1,0,0:0:0:0:
64,192,68081,1,0,0:0:0:0:
192,192,68081,1,0,0:0:0:0:
448,192,68198,1,0,0:0:0:0:
320,192,68198,1,0,0:0:0:0:
448,192,68315,1,0,0:0:0:0:
192,192,68315,1,0,0:0:0:0:
64,192,68432,1,0,0:0:0:0:
320,192,68432,1,0,0:0:0:0:
192,192,68549,1,0,0:0:0:0:
64,192,68549,1,0,0:0:0:0:
320,192,68666,1,0,0:0:0:0:
192,192,68784,1,0,0:0:0:0:
448,192,68784,1,0,0:0:0:0:
192,192,68901,1,0,0:0:0:0:
64,192,68901,1,0,0:0:0:0:
320,192,69018,1,0,0:0:0:0:
64,192,69135,1,0,0:0:0:0:
320,192,69135,1,0,0:0:0:0:
448,192,69135,1,0,0:0:0:0:
64,192,69252,1,0,0:0:0:0:
192,192,69252,1,0,0:0:0:0:
320,192,69370,1,0,0:0:0:0:
64,192,69487,1,0,0:0:0:0:
448,192,69487,1,0,0:0:0:0:
320,192,69604,1,0,0:0:0:0:
192,192,69721,1,0,0:0:0:0:
64,192,69721,1,0,0:0:0:0:
448,192,69838,1,0,0:0:0:0:
192,192,69956,1,0,0:0:0:0:
64,192,69956,1,0,0:0:0:0:
320,192,70073,1,0,0:0:0:0:
448,192,70190,1,0,0:0:0:0:
192,192,70190,1,0,0:0:0:0:
320,192,70307,1,0,0:0:0:0:
64,192,70307,1,0,0:0:0:0:
448,192,70307,1,0,0:0:0:0:
320,192,70424,1,0,0:0:0:0:
448,192,70424,1,0,0:0:0:0:
64,192,70424,1,0,0:0:0:0:
192,192,70541,1,0,0:0:0:0:
320,192,70659,1,0,0:0:0:0:
64,192,70659,1,0,0:0:0:0:
448,192,70659,1,0,0:0:0:0:
192,192,70776,1,0,0:0:0:0:
64,192,70893,1,0,0:0:0:0:
448,192,70893,1,0,0:0:0:0:
320,192,70893,1,0,0:0:0:0:
192,192,70893,1,0,0:0:0:0:
320,192,71010,1,0,0:0:0:0:
320,192,71362,1,0,0:0:0:0:
448,192,71362,1,0,0:0:0:0:
320,192,71479,1,0,0:0:0:0:
64,192,71479,1,0,0:0:0:0:
192,192,71479,1,0,0:0:0:0:
448,192,71831,1,0,0:0:0:0:
320,192,71831,1,0,0:0:0:0:
320,192,71948,1,0,0:0:0:0:
64,192,72182,1,0,0:0:0:0:
448,192,72182,1,0,0:0:0:0:
448,192,72299,1,0,0:0:0:0:
448,192,72534,1,0,0:0:0:0:
64,192,72534,1,0,0:0:0:0:
320,192,72651,1,0,0:0:0:0:
448,192,72651,1,0,0:0:0:0:
192,192,72651,1,0,0:0:0:0:
448,192,72885,1,0,0:0:0:0:
64,192,72885,1,0,0:0:0:0:
448,192,73002,1,0,0:0:0:0:
64,192,73237,1,0,0:0:0:0:
192,192,73237,1,0,0:0:0:0:
192,192,73354,1,0,0:0:0:0:
64,192,73706,1,0,0:0:0:0:
320,192,73706,1,0,0:0:0:0:
192,192,73823,1,0,0:0:0:0:
320,192,73823,1,0,0:0:0:0:
448,192,73823,1,0,0:0:0:0:
64,192,74174,1,0,0:0:0:0:
192,192,74174,1,0,0:0:0:0:
192,192,74291,1,0,0:0:0:0:
64,192,74526,1,0,0:0:0:0:
192,192,74526,1,0,0:0:0:0:
192,192,74643,1,0,0:0:0:0:
320,192,74877,1,0,0:0:0:0:
64,192,74877,1,0,0:0:0:0:
64,192,74995,1,0,0:0:0:0:
192,192,74995,1,0,0:0:0:0:
448,192,74995,1,0,0:0:0:0:
64,192,75112,1,0,0:0:0:0:
192,192,75112,1,0,0:0:0:0:
448,192,75112,1,0,0:0:0:0:
320,192,75229,1,0,0:0:0:0:
64,192,75346,1,0,0:0:0:0:
192,192,75346,1,0,0:0:0:0:
448,192,75346,1,0,0:0:0:0:
320,192,75463,1,0,0:0:0:0:
320,192,75581,5,0,0:0:0:0:
448,192,75581,1,0,0:0:0:0:
64,192,75581,1,0,0:0:0:0:
192,192,75581,1,0,0:0:0:0:
192,192,75698,1,0,0:0:0:0:
448,192,75815,1,0,0:0:0:0:
192,192,75932,1,0,0:0:0:0:
64,192,75932,1,0,0:0:0:0:
448,192,76049,1,0,0:0:0:0:
320,192,76049,1,0,0:0:0:0:
64,192,76166,1,0,0:0:0:0:
192,192,76166,1,0,0:0:0:0:
448,192,76166,1,0,0:0:0:0:
320,192,76284,1,0,0:0:0:0:
448,192,76401,1,0,0:0:0:0:
64,192,76401,1,0,0:0:0:0:
192,192,76518,1,0,0:0:0:0:
320,192,76635,1,0,0:0:0:0:
64,192,76635,1,0,0:0:0:0:
320,192,76752,1,0,0:0:0:0:
192,192,76752,1,0,0:0:0:0:
448,192,76870,1,0,0:0:0:0:
192,192,76870,1,0,0:0:0:0:
448,192,77104,1,0,0:0:0:0:
64,192,77104,1,0,0:0:0:0:
192,192,77221,1,0,0:0:0:0:
320,192,77221,1,0,0:0:0:0:
448,192,77338,1,0,0:0:0:0:
320,192,77338,1,0,0:0:0:0:
64,192,77338,1,0,0:0:0:0:
192,192,77456,1,0,0:0:0:0:
448,192,77573,1,0,0:0:0:0:
320,192,77573,1,0,0:0:0:0:
192,192,77690,1,0,0:0:0:0:
64,192,77807,1,0,0:0:0:0:
320,192,77924,1,0,0:0:0:0:
192,192,77924,1,0,0:0:0:0:
448,192,78041,1,0,0:0:0:0:
64,192,78159,1,0,0:0:0:0:
320,192,78276,1,0,0:0:0:0:
192,192,78276,1,0,0:0:0:0:
448,192,78393,1,0,0:0:0:0:
64,192,78393,1,0,0:0:0:0:
320,192,78510,1,0,0:0:0:0:
192,192,78510,1,0,0:0:0:0:
64,192,78510,1,0,0:0:0:0:
448,192,78627,1,0,0:0:0:0:
192,192,78745,1,0,0:0:0:0:
64,192,78745,1,0,0:0:0:0:
320,192,78862,1,0,0:0:0:0:
64,192,78979,1,0,0:0:0:0:
448,192,78979,1,0,0:0:0:0:
64,192,79096,1,0,0:0:0:0:
320,192,79096,1,0,0:0:0:0:
192,192,79213,1,0,0:0:0:0:
320,192,79213,1,0,0:0:0:0:
64,192,79448,1,0,0:0:0:0:
448,192,79448,1,0,0:0:0:0:
192,192,79565,1,0,0:0:0:0:
320,192,79565,1,0,0:0:0:0:
64,192,79682,1,0,0:0:0:0:
448,192,79682,1,0,0:0:0:0:
192,192,79682,1,0,0:0:0:0:
320,192,79799,1,0,0:0:0:0:
192,192,79916,1,0,0:0:0:0:
64,192,79916,1,0,0:0:0:0:
320,192,80034,1,0,0:0:0:0:
448,192,80151,1,0,0:0:0:0:
192,192,80268,1,0,0:0:0:0:
320,192,80268,1,0,0:0:0:0:
64,192,80385,1,0,0:0:0:0:
448,192,80502,1,0,0:0:0:0:
192,192,80620,1,0,0:0:0:0:
64,192,80620,1,0,0:0:0:0:
448,192,80737,1,0,0:0:0:0:
320,192,80737,1,0,0:0:0:0:
64,192,80854,1,0,0:0:0:0:
192,192,80854,1,0,0:0:0:0:
448,192,80854,1,0,0:0:0:0:
320,192,80971,1,0,0:0:0:0:
448,192,81088,1,0,0:0:0:0:
64,192,81088,1,0,0:0:0:0:
192,192,81206,1,0,0:0:0:0:
448,192,81323,1,0,0:0:0:0:
64,192,81323,1,0,0:0:0:0:
448,192,81440,1,0,0:0:0:0:
192,192,81440,1,0,0:0:0:0:
320,192,81557,1,0,0:0:0:0:
192,192,81557,1,0,0:0:0:0:
448,192,81791,1,0,0:0:0:0:
64,192,81791,1,0,0:0:0:0:
192,192,81909,1,0,0:0:0:0:
320,192,81909,1,0,0:0:0:0:
448,192,82026,1,0,0:0:0:0:
320,192,82026,1,0,0:0:0:0:
64,192,82026,1,0,0:0:0:0:
192,192,82143,1,0,0:0:0:0:
448,192,82260,1,0,0:0:0:0:
320,192,82260,1,0,0:0:0:0:
192,192,82377,1,0,0:0:0:0:
64,192,82495,1,0,0:0:0:0:
320,192,82612,1,0,0:0:0:0:
192,192,82612,1,0,0:0:0:0:
448,192,82729,1,0,0:0:0:0:
64,192,82846,1,0,0:0:0:0:
320,192,82963,1,0,0:0:0:0:
192,192,82963,1,0,0:0:0:0:
448,192,83081,1,0,0:0:0:0:
64,192,83081,1,0,0:0:0:0:
320,192,83198,1,0,0:0:0:0:
192,192,83198,1,0,0:0:0:0:
64,192,83198,1,0,0:0:0:0:
448,192,83315,1,0,0:0:0:0:
192,192,83432,1,0,0:0:0:0:
64,192,83432,1,0,0:0:0:0:
320,192,83549,1,0,0:0:0:0:
192,192,83666,1,0,0:0:0:0:
448,192,83666,1,0,0:0:0:0:
192,192,83784,1,0,0:0:0:0:
320,192,83784,1,0,0:0:0:0:
64,192,83901,1,0,0:0:0:0:
320,192,83901,1,0,0:0:0:0:
448,192,84135,1,0,0:0:0:0:
64,192,84135,1,0,0:0:0:0:
320,192,84252,1,0,0:0:0:0:
192,192,84252,1,0,0:0:0:0:
448,192,84370,1,0,0:0:0:0:
64,192,84370,1,0,0:0:0:0:
320,192,84370,1,0,0:0:0:0:
64,192,84487,1,0,0:0:0:0:
192,192,84487,1,0,0:0:0:0:
320,192,84604,1,0,0:0:0:0:
448,192,84604,1,0,0:0:0:0:
64,192,84721,1,0,0:0:0:0:
320,192,84721,1,0,0:0:0:0:
192,192,84838,1,0,0:0:0:0:
448,192,84838,1,0,0:0:0:0:
64,192,84956,5,0,0:0:0:0:
320,192,84956,1,0,0:0:0:0:
192,192,84956,1,0,0:0:0:0:
448,192,84956,1,0,0:0:0:0:
64,192,85073,1,0,0:0:0:0:
448,192,85190,1,0,0:0:0:0:
192,192,85307,1,0,0:0:0:0:
64,192,85307,1,0,0:0:0:0:
448,192,85424,1,0,0:0:0:0:
320,192,85424,1,0,0:0:0:0:
64,192,85541,1,0,0:0:0:0:
192,192,85541,1,0,0:0:0:0:
448,192,85541,1,0,0:0:0:0:
320,192,85659,1,0,0:0:0:0:
448,192,85776,1,0,0:0:0:0:
64,192,85776,1,0,0:0:0:0:
192,192,85893,1,0,0:0:0:0:
448,192,86010,1,0,0:0:0:0:
64,192,86010,1,0,0:0:0:0:
320,192,86127,1,0,0:0:0:0:
64,192,86127,1,0,0:0:0:0:
448,192,86245,1,0,0:0:0:0:
320,192,86245,1,0,0:0:0:0:
192,192,86362,1,0,0:0:0:0:
448,192,86479,1,0,0:0:0:0:
64,192,86479,1,0,0:0:0:0:
192,192,86596,1,0,0:0:0:0:
320,192,86596,1,0,0:0:0:0:
448,192,86713,1,0,0:0:0:0:
320,192,86713,1,0,0:0:0:0:
64,192,86713,1,0,0:0:0:0:
192,192,86831,1,0,0:0:0:0:
448,192,86948,1,0,0:0:0:0:
320,192,86948,1,0,0:0:0:0:
64,192,87065,1,0,0:0:0:0:
64,192,87182,1,0,0:0:0:0:
320,192,87299,1,0,0:0:0:0:
192,192,87299,1,0,0:0:0:0:
448,192,87416,1,0,0:0:0:0:
64,192,87534,1,0,0:0:0:0:
320,192,87651,1,0,0:0:0:0:
192,192,87651,1,0,0:0:0:0:
448,192,87768,1,0,0:0:0:0:
64,192,87768,1,0,0:0:0:0:
320,192,87885,1,0,0:0:0:0:
192,192,87885,1,0,0:0:0:0:
64,192,87885,1,0,0:0:0:0:
448,192,88002,1,0,0:0:0:0:
192,192,88120,1,0,0:0:0:0:
64,192,88120,1,0,0:0:0:0:
320,192,88237,1,0,0:0:0:0:
64,192,88354,1,0,0:0:0:0:
448,192,88354,1,0,0:0:0:0:
192,192,88471,1,0,0:0:0:0:
448,192,88471,1,0,0:0:0:0:
192,192,88588,1,0,0:0:0:0:
64,192,88588,1,0,0:0:0:0:
320,192,88706,1,0,0:0:0:0:
64,192,88823,1,0,0:0:0:0:
448,192,88823,1,0,0:0:0:0:
192,192,88940,1,0,0:0:0:0:
320,192,88940,1,0,0:0:0:0:
64,192,89057,1,0,0:0:0:0:
448,192,89057,1,0,0:0:0:0:
192,192,89057,1,0,0:0:0:0:
320,192,89174,1,0,0:0:0:0:
192,192,89291,1,0,0:0:0:0:
64,192,89291,1,0,0:0:0:0:
448,192,89409,1,0,0:0:0:0:
448,192,89526,1,0,0:0:0:0:
192,192,89643,1,0,0:0:0:0:
320,192,89643,1,0,0:0:0:0:
64,192,89760,1,0,0:0:0:0:
448,192,89877,1,0,0:0:0:0:
192,192,89995,1,0,0:0:0:0:
64,192,89995,1,0,0:0:0:0:
448,192,90112,1,0,0:0:0:0:
320,192,90112,1,0,0:0:0:0:
64,192,90229,1,0,0:0:0:0:
192,192,90229,1,0,0:0:0:0:
448,192,90229,1,0,0:0:0:0:
320,192,90346,1,0,0:0:0:0:
448,192,90463,1,0,0:0:0:0:
64,192,90463,1,0,0:0:0:0:
192,192,90581,1,0,0:0:0:0:
448,192,90698,1,0,0:0:0:0:
64,192,90698,1,0,0:0:0:0:
320,192,90815,1,0,0:0:0:0:
64,192,90815,1,0,0:0:0:0:
320,192,90932,1,0,0:0:0:0:
448,192,90932,1,0,0:0:0:0:
192,192,91049,1,0,0:0:0:0:
448,192,91166,1,0,0:0:0:0:
64,192,91166,1,0,0:0:0:0:
192,192,91284,1,0,0:0:0:0:
320,192,91284,1,0,0:0:0:0:
448,192,91401,1,0,0:0:0:0:
320,192,91401,1,0,0:0:0:0:
64,192,91401,1,0,0:0:0:0:
192,192,91518,1,0,0:0:0:0:
448,192,91635,1,0,0:0:0:0:
320,192,91635,1,0,0:0:0:0:
64,192,91752,1,0,0:0:0:0:
64,192,91870,1,0,0:0:0:0:
320,192,91987,1,0,0:0:0:0:
192,192,91987,1,0,0:0:0:0:
448,192,92104,1,0,0:0:0:0:
64,192,92221,1,0,0:0:0:0:
320,192,92338,1,0,0:0:0:0:
192,192,92338,1,0,0:0:0:0:
448,192,92456,1,0,0:0:0:0:
64,192,92456,1,0,0:0:0:0:
320,192,92573,1,0,0:0:0:0:
192,192,92573,1,0,0:0:0:0:
64,192,92573,1,0,0:0:0:0:
448,192,92690,1,0,0:0:0:0:
192,192,92807,1,0,0:0:0:0:
64,192,92807,1,0,0:0:0:0:
320,192,92924,1,0,0:0:0:0:
64,192,93041,1,0,0:0:0:0:
448,192,93041,1,0,0:0:0:0:
192,192,93159,5,0,0:0:0:0:
448,192,93159,1,0,0:0:0:0:
192,192,93276,1,0,0:0:0:0:
64,192,93276,1,0,0:0:0:0:
320,192,93393,1,0,0:0:0:0:
448,192,93510,1,0,0:0:0:0:
64,192,93510,1,0,0:0:0:0:
320,192,93627,1,0,0:0:0:0:
192,192,93627,1,0,0:0:0:0:
448,192,93745,1,0,0:0:0:0:
64,192,93745,1,0,0:0:0:0:
320,192,93745,1,0,0:0:0:0:
192,192,93862,1,0,0:0:0:0:
448,192,93862,1,0,0:0:0:0:
320,192,93979,1,0,0:0:0:0:
192,192,93979,1,0,0:0:0:0:
448,192,94096,1,0,0:0:0:0:
64,192,94096,1,0,0:0:0:0:
192,192,94213,1,0,0:0:0:0:
320,192,94213,1,0,0:0:0:0:
192,192,94331,1,0,0:0:0:0:
320,192,94331,1,0,0:0:0:0:
448,192,94331,1,0,0:0:0:0:
64,192,94331,1,0,0:0:0:0:
448,192,94448,1,0,0:0:0:0:
64,192,94565,1,0,0:0:0:0:
320,192,94682,1,0,0:0:0:0:
192,192,94799,1,0,0:0:0:0:
64,192,94916,1,0,0:0:0:0:
320,192,94916,1,0,0:0:0:0:
448,192,94916,1,0,0:0:0:0:
192,192,95034,1,0,0:0:0:0:
64,192,95151,1,0,0:0:0:0:
448,192,95151,1,0,0:0:0:0:
320,192,95268,1,0,0:0:0:0:
64,192,95385,1,0,0:0:0:0:
192,192,95385,1,0,0:0:0:0:
64,192,95502,1,0,0:0:0:0:
192,192,95502,1,0,0:0:0:0:
448,192,95502,1,0,0:0:0:0:
448,192,95620,1,0,0:0:0:0:
192,192,95737,1,0,0:0:0:0:
64,192,95854,1,0,0:0:0:0:
320,192,95971,1,0,0:0:0:0:
448,192,96088,1,0,0:0:0:0:
192,192,96088,1,0,0:0:0:0:
64,192,96088,1,0,0:0:0:0:
320,192,96206,1,0,0:0:0:0:
192,192,96323,1,0,0:0:0:0:
448,192,96323,1,0,0:0:0:0:
64,192,96440,1,0,0:0:0:0:
320,192,96557,1,0,0:0:0:0:
448,192,96557,1,0,0:0:0:0:
320,192,96674,1,0,0:0:0:0:
448,192,96674,1,0,0:0:0:0:
64,192,96674,1,0,0:0:0:0:
64,192,96791,1,0,0:0:0:0:
448,192,96909,1,0,0:0:0:0:
192,192,97026,1,0,0:0:0:0:
320,192,97143,1,0,0:0:0:0:
64,192,97260,1,0,0:0:0:0:
192,192,97260,1,0,0:0:0:0:
448,192,97260,1,0,0:0:0:0:
320,192,97377,1,0,0:0:0:0:
64,192,97377,1,0,0:0:0:0:
192,192,97495,1,0,0:0:0:0:
448,192,97495,1,0,0:0:0:0:
448,192,97612,1,0,0:0:0:0:
320,192,97612,1,0,0:0:0:0:
192,192,97729,1,0,0:0:0:0:
64,192,97729,1,0,0:0:0:0:
64,192,97846,1,0,0:0:0:0:
320,192,97846,1,0,0:0:0:0:
448,192,97846,1,0,0:0:0:0:
320,192,97963,1,0,0:0:0:0:
64,192,98081,1,0,0:0:0:0:
448,192,98198,1,0,0:0:0:0:
192,192,98315,1,0,0:0:0:0:
64,192,98432,1,0,0:0:0:0:
320,192,98432,1,0,0:0:0:0:
448,192,98432,1,0,0:0:0:0:
192,192,98549,1,0,0:0:0:0:
448,192,98549,1,0,0:0:0:0:
64,192,98666,1,0,0:0:0:0:
320,192,98666,1,0,0:0:0:0:
192,192,98784,1,0,0:0:0:0:
64,192,98784,1,0,0:0:0:0:
448,192,98901,1,0,0:0:0:0:
320,192,98901,1,0,0:0:0:0:
64,192,99018,1,0,0:0:0:0:
320,192,99018,1,0,0:0:0:0:
448,192,99018,1,0,0:0:0:0:
192,192,99018,1,0,0:0:0:0:
192,192,99135,1,0,0:0:0:0:
448,192,99252,1,0,0:0:0:0:
64,192,99370,1,0,0:0:0:0:
320,192,99487,1,0,0:0:0:0:
448,192,99604,1,0,0:0:0:0:
192,192,99604,1,0,0:0:0:0:
64,192,99604,1,0,0:0:0:0:
64,192,99721,1,0,0:0:0:0:
448,192,99721,1,0,0:0:0:0:
192,192,99838,1,0,0:0:0:0:
64,192,99956,1,0,0:0:0:0:
448,192,99956,1,0,0:0:0:0:
320,192,100073,1,0,0:0:0:0:
64,192,100190,1,0,0:0:0:0:
192,192,100190,1,0,0:0:0:0:
448,192,100190,1,0,0:0:0:0:
192,192,100307,1,0,0:0:0:0:
320,192,100424,1,0,0:0:0:0:
64,192,100541,1,0,0:0:0:0:
448,192,100659,1,0,0:0:0:0:
320,192,100776,1,0,0:0:0:0:
192,192,100776,1,0,0:0:0:0:
64,192,100776,1,0,0:0:0:0:
64,192,100893,1,0,0:0:0:0:
320,192,100893,1,0,0:0:0:0:
192,192,101010,1,0,0:0:0:0:
448,192,101127,1,0,0:0:0:0:
64,192,101127,1,0,0:0:0:0:
320,192,101245,1,0,0:0:0:0:
64,192,101362,1,0,0:0:0:0:
192,192,101362,1,0,0:0:0:0:
448,192,101362,1,0,0:0:0:0:
448,192,101479,1,0,0:0:0:0:
192,192,101596,1,0,0:0:0:0:
64,192,101713,1,0,0:0:0:0:
320,192,101831,1,0,0:0:0:0:
64,192,101948,1,0,0:0:0:0:
192,192,101948,1,0,0:0:0:0:
448,192,101948,1,0,0:0:0:0:
320,192,102065,1,0,0:0:0:0:
448,192,102065,1,0,0:0:0:0:
192,192,102182,1,0,0:0:0:0:
64,192,102182,1,0,0:0:0:0:
64,192,102299,1,0,0:0:0:0:
320,192,102299,1,0,0:0:0:0:
192,192,102416,1,0,0:0:0:0:
448,192,102416,1,0,0:0:0:0:
64,192,102534,1,0,0:0:0:0:
320,192,102534,1,0,0:0:0:0:
448,192,102534,1,0,0:0:0:0:
320,192,102651,1,0,0:0:0:0:
64,192,102768,1,0,0:0:0:0:
448,192,102885,1,0,0:0:0:0:
192,192,103002,1,0,0:0:0:0:
64,192,103120,1,0,0:0:0:0:
320,192,103120,1,0,0:0:0:0:
448,192,103120,1,0,0:0:0:0:
192,192,103237,1,0,0:0:0:0:
64,192,103237,1,0,0:0:0:0:
448,192,103354,1,0,0:0:0:0:
320,192,103354,1,0,0:0:0:0:
192,192,103471,1,0,0:0:0:0:
448,192,103471,1,0,0:0:0:0:
64,192,103588,1,0,0:0:0:0:
320,192,103588,1,0,0:0:0:0:
192,192,103706,1,0,0:0:0:0:
320,192,103706,1,0,0:0:0:0:
64,192,103940,1,0,0:0:0:0:
192,192,103940,1,0,0:0:0:0:
320,192,103940,1,0,0:0:0:0:
448,192,103940,1,0,0:0:0:0:
192,192,104057,1,0,0:0:0:0:
448,192,104174,1,0,0:0:0:0:
320,192,104291,1,0,0:0:0:0:
192,192,104291,1,0,0:0:0:0:
64,192,104291,1,0,0:0:0:0:
448,192,104409,1,0,0:0:0:0:
64,192,104526,1,0,0:0:0:0:
192,192,104526,1,0,0:0:0:0:
448,192,104643,1,0,0:0:0:0:
64,192,104760,1,0,0:0:0:0:
320,192,104760,1,0,0:0:0:0:
64,192,104877,1,0,0:0:0:0:
192,192,104877,1,0,0:0:0:0:
448,192,104877,1,0,0:0:0:0:
448,192,104995,1,0,0:0:0:0:
192,192,105112,1,0,0:0:0:0:
64,192,105229,1,0,0:0:0:0:
320,192,105346,1,0,0:0:0:0:
64,192,105463,1,0,0:0:0:0:
192,192,105463,1,0,0:0:0:0:
448,192,105463,1,0,0:0:0:0:
64,192,105581,1,0,0:0:0:0:
448,192,105581,1,0,0:0:0:0:
320,192,105698,1,0,0:0:0:0:
448,192,105815,1,0,0:0:0:0:
64,192,105815,1,0,0:0:0:0:
192,192,105815,1,0,0:0:0:0:
320,192,105932,1,0,0:0:0:0:
448,192,106049,1,0,0:0:0:0:
192,192,106049,1,0,0:0:0:0:
64,192,106049,1,0,0:0:0:0:
192,192,106166,1,0,0:0:0:0:
64,192,106284,1,0,0:0:0:0:
320,192,106401,1,0,0:0:0:0:
64,192,106518,1,0,0:0:0:0:
192,192,106518,1,0,0:0:0:0:
448,192,106518,1,0,0:0:0:0:
64,192,106635,1,0,0:0:0:0:
192,192,106635,1,0,0:0:0:0:
448,192,106635,1,0,0:0:0:0:
64,192,106752,1,0,0:0:0:0:
320,192,106752,1,0,0:0:0:0:
192,192,106870,1,0,0:0:0:0:
448,192,106870,1,0,0:0:0:0:
448,192,106987,1,0,0:0:0:0:
320,192,106987,1,0,0:0:0:0:
192,192,107104,1,0,0:0:0:0:
64,192,107104,1,0,0:0:0:0:
64,192,107221,1,0,0:0:0:0:
320,192,107221,1,0,0:0:0:0:
448,192,107338,1,0,0:0:0:0:
320,192,107338,1,0,0:0:0:0:
64,192,107456,1,0,0:0:0:0:
448,192,107456,1,0,0:0:0:0:
192,192,107456,1,0,0:0:0:0:
320,192,107573,1,0,0:0:0:0:
192,192,107690,1,0,0:0:0:0:
64,192,107690,1,0,0:0:0:0:
64,192,107807,1,0,0:0:0:0:
320,192,107807,1,0,0:0:0:0:
448,192,107807,1,0,0:0:0:0:
192,192,107924,1,0,0:0:0:0:
448,192,107924,1,0,0:0:0:0:
320,192,108041,1,0,0:0:0:0:
64,192,108041,1,0,0:0:0:0:
64,192,108159,1,0,0:0:0:0:
192,192,108159,1,0,0:0:0:0:
448,192,108159,1,0,0:0:0:0:
320,192,108276,1,0,0:0:0:0:
448,192,108276,1,0,0:0:0:0:
64,192,108393,1,0,0:0:0:0:
192,192,108393,1,0,0:0:0:0:
320,192,108393,1,0,0:0:0:0:
448,192,108393,1,0,0:0:0:0:
192,192,108510,1,0,0:0:0:0:
448,192,108627,1,0,0:0:0:0:
192,192,108745,1,0,0:0:0:0:
64,192,108745,1,0,0:0:0:0:
320,192,108862,1,0,0:0:0:0:
64,192,108979,1,0,0:0:0:0:
448,192,108979,1,0,0:0:0:0:
192,192,108979,1,0,0:0:0:0:
448,192,109096,1,0,0:0:0:0:
192,192,109096,1,0,0:0:0:0:
64,192,109213,1,0,0:0:0:0:
320,192,109331,1,0,0:0:0:0:
448,192,109331,1,0,0:0:0:0:
192,192,109448,1,0,0:0:0:0:
64,192,109565,1,0,0:0:0:0:
320,192,109565,1,0,0:0:0:0:
448,192,109565,1,0,0:0:0:0:
320,192,109682,1,0,0:0:0:0:
64,192,109799,1,0,0:0:0:0:
320,192,109916,1,0,0:0:0:0:
448,192,109916,1,0,0:0:0:0:
192,192,110034,1,0,0:0:0:0:
64,192,110151,1,0,0:0:0:0:
320,192,110151,1,0,0:0:0:0:
448,192,110151,1,0,0:0:0:0:
192,192,110268,1,0,0:0:0:0:
64,192,110385,1,0,0:0:0:0:
320,192,110385,1,0,0:0:0:0:
448,192,110385,1,0,0:0:0:0:
320,192,110502,1,0,0:0:0:0:
64,192,110502,1,0,0:0:0:0:
448,192,110502,1,0,0:0:0:0:
192,192,110620,1,0,0:0:0:0:
64,192,110620,1,0,0:0:0:0:
320,192,110737,1,0,0:0:0:0:
448,192,110737,1,0,0:0:0:0:
192,192,110795,1,0,0:0:0:0:
448,192,110854,1,0,0:0:0:0:
64,192,110913,1,0,0:0:0:0:
64,192,111088,1,0,0:0:0:0:
320,192,111147,1,0,0:0:0:0:
192,192,111206,1,0,0:0:0:0:
448,192,111323,1,0,0:0:0:0:
320,192,111323,1,0,0:0:0:0:
64,192,111381,1,0,0:0:0:0:
320,192,111440,1,0,0:0:0:0:
192,192,111557,1,0,0:0:0:0:
448,192,111616,1,0,0:0:0:0:
192,192,111674,1,0,0:0:0:0:
64,192,111733,1,0,0:0:0:0:
448,192,111909,1,0,0:0:0:0:
192,192,111967,1,0,0:0:0:0:
320,192,112026,1,0,0:0:0:0:
64,192,112143,1,0,0:0:0:0:
448,192,112202,1,0,0:0:0:0:
64,192,112260,1,0,0:0:0:0:
192,192,112319,1,0,0:0:0:0:
448,192,112495,1,0,0:0:0:0:
320,192,112495,1,0,0:0:0:0:
192,192,112553,1,0,0:0:0:0:
320,192,112612,1,0,0:0:0:0:
64,192,112670,1,0,0:0:0:0:
448,192,112846,1,0,0:0:0:0:
64,192,112846,1,0,0:0:0:0:
192,192,112905,1,0,0:0:0:0:
448,192,112963,1,0,0:0:0:0:
320,192,113022,1,0,0:0:0:0:
192,192,113198,1,0,0:0:0:0:
64,192,113198,1,0,0:0:0:0:
448,192,113256,1,0,0:0:0:0:
64,192,113315,1,0,0:0:0:0:
320,192,113432,1,0,0:0:0:0:
192,192,113490,1,0,0:0:0:0:
448,192,113549,1,0,0:0:0:0:
64,192,113666,1,0,0:0:0:0:
192,192,113666,1,0,0:0:0:0:
320,192,113725,1,0,0:0:0:0:
192,192,113783,1,0,0:0:0:0:
448,192,113842,1,0,0:0:0:0:
320,192,114018,1,0,0:0:0:0:
192,192,114076,1,0,0:0:0:0:
448,192,114135,1,0,0:0:0:0:
64,192,114252,1,0,0:0:0:0:
448,192,114311,1,0,0:0:0:0:
192,192,114369,1,0,0:0:0:0:
320,192,114487,1,0,0:0:0:0:
64,192,114545,1,0,0:0:0:0:
320,192,114604,1,0,0:0:0:0:
192,192,114662,1,0,0:0:0:0:
448,192,114838,1,0,0:0:0:0:
320,192,114838,1,0,0:0:0:0:
192,192,114897,1,0,0:0:0:0:
448,192,114955,1,0,0:0:0:0:
64,192,115014,1,0,0:0:0:0:
64,192,115190,1,0,0:0:0:0:
192,192,115190,1,0,0:0:0:0:
320,192,115248,1,0,0:0:0:0:
192,192,115307,1,0,0:0:0:0:
448,192,115424,1,0,0:0:0:0:
320,192,115424,1,0,0:0:0:0:
64,192,115483,1,0,0:0:0:0:
448,192,115541,1,0,0:0:0:0:
192,192,115600,1,0,0:0:0:0:
64,192,115776,1,0,0:0:0:0:
192,192,115776,1,0,0:0:0:0:
448,192,115834,1,0,0:0:0:0:
192,192,115893,1,0,0:0:0:0:
448,192,116010,1,0,0:0:0:0:
320,192,116010,1,0,0:0:0:0:
64,192,116068,1,0,0:0:0:0:
320,192,116127,1,0,0:0:0:0:
192,192,116244,1,0,0:0:0:0:
448,192,116303,1,0,0:0:0:0:
192,192,116361,1,0,0:0:0:0:
64,192,116420,1,0,0:0:0:0:
448,192,116596,1,0,0:0:0:0:
64,192,116654,1,0,0:0:0:0:
448,192,116713,1,0,0:0:0:0:
320,192,116772,1,0,0:0:0:0:
448,192,116947,1,0,0:0:0:0:
192,192,117006,1,0,0:0:0:0:
320,192,117065,1,0,0:0:0:0:
64,192,117182,1,0,0:0:0:0:
192,192,117182,1,0,0:0:0:0:
448,192,117240,1,0,0:0:0:0:
64,192,117299,1,0,0:0:0:0:
448,192,117416,1,0,0:0:0:0:
320,192,117416,1,0,0:0:0:0:
192,192,117475,1,0,0:0:0:0:
320,192,117533,1,0,0:0:0:0:
64,192,117592,1,0,0:0:0:0:
448,192,117768,1,0,0:0:0:0:
192,192,117768,1,0,0:0:0:0:
64,192,117826,1,0,0:0:0:0:
320,192,117885,1,0,0:0:0:0:
192,192,118002,1,0,0:0:0:0:
448,192,118060,1,0,0:0:0:0:
192,192,118119,1,0,0:0:0:0:
320,192,118178,1,0,0:0:0:0:
64,192,118353,1,0,0:0:0:0:
192,192,118353,1,0,0:0:0:0:
448,192,118412,1,0,0:0:0:0:
64,192,118471,1,0,0:0:0:0:
320,192,118529,1,0,0:0:0:0:
448,192,118705,1,0,0:0:0:0:
320,192,118705,1,0,0:0:0:0:
64,192,118764,1,0,0:0:0:0:
320,192,118822,1,0,0:0:0:0:
192,192,118939,1,0,0:0:0:0:
64,192,119057,1,0,0:0:0:0:
192,192,119174,1,0,0:0:0:0:
320,192,119291,1,0,0:0:0:0:
448,192,119408,1,0,0:0:0:0:
64,192,119525,1,0,0:0:0:0:
192,192,119525,1,0,0:0:0:0:
320,192,119583,1,0,0:0:0:0:
64,192,119642,1,0,0:0:0:0:
448,192,119700,1,0,0:0:0:0:
320,192,119876,1,0,0:0:0:0:
192,192,119935,1,0,0:0:0:0:
320,192,119993,1,0,0:0:0:0:
448,192,120110,1,0,0:0:0:0:
64,192,120169,1,0,0:0:0:0:
448,192,120228,1,0,0:0:0:0:
192,192,120286,1,0,0:0:0:0:
192,192,120462,1,0,0:0:0:0:
448,192,120462,1,0,0:0:0:0:
64,192,120521,1,0,0:0:0:0:
320,192,120579,1,0,0:0:0:0:
64,192,120696,1,0,0:0:0:0:
192,192,120696,1,0,0:0:0:0:
448,192,120755,1,0,0:0:0:0:
192,192,120814,1,0,0:0:0:0:
320,192,120872,1,0,0:0:0:0:
448,192,121048,1,0,0:0:0:0:
64,192,121048,1,0,0:0:0:0:
320,192,121048,1,0,0:0:0:0:
192,192,121107,1,0,0:0:0:0:
64,192,121282,1,0,0:0:0:0:
320,192,121282,1,0,0:0:0:0:
448,192,121282,1,0,0:0:0:0:
192,192,121282,1,0,0:0:0:0:
