osu file format v14

[General]
AudioFilename: audio.mp3
AudioLeadIn: 0
PreviewTime: 94332
Countdown: 0
SampleSet: Soft
StackLeniency: 0
Mode: 0
LetterboxInBreaks: 0
WidescreenStoryboard: 1

[Editor]
DistanceSpacing: 1.2
BeatDivisor: 8
GridSize: 8
TimelineZoom: 4.599998

[Metadata]
Title:THE EARTH
TitleUnicode:THE EARTH
Artist:II-L feat. amelie xoxo
ArtistUnicode:II-L feat. amelie xoxo
Creator:Ryuusei Aika
Version:Reywateil's Extra Terrae
Source:osu! World Cup 2022
Tags:Arsalan Pigeons Nachmark O_K_U O K U DT Best Mod KogumaX Reywateil Yooh DeviousPanda tekkito Von Lycaon enri kieg ft. owc2022gfnm5 fa featured artist electronic japanese stand worldcup grand final rhythm video game
BeatmapID:3902320
BeatmapSetID:1889101

[Difficulty]
HPDrainRate:5
CircleSize:4
OverallDifficulty:9
ApproachRate:9.2
SliderMultiplier:2.6
SliderTickRate:0.5

[Events]
//Background and Video events
0,0,"bg2.jpg",0,0
//Break Periods
//Storyboard Layer 0 (Background)
//Storyboard Layer 1 (Fail)
//Storyboard Layer 2 (Pass)
//Storyboard Layer 3 (Foreground)
//Storyboard Layer 4 (Overlay)
//Storyboard Sound Samples

[TimingPoints]
582,468.75,5,2,22,30,1,0
9957,-500,5,2,22,30,0,0
16988,-333.333333333333,5,2,22,40,0,0
18277,-333.333333333333,5,2,22,50,0,0
18628,-100,5,2,22,55,0,0
18980,-100,5,2,22,60,0,0
19332,-500,5,2,22,70,0,0
20621,-62.5,5,2,22,70,0,0
20855,-62.5,5,2,44,5,0,0
20972,-62.5,5,2,22,70,0,0
21206,-62.5,5,2,44,5,0,0
21324,-58.8235294117647,5,2,22,70,0,0
21558,-58.8235294117647,5,2,44,5,0,0
21675,-500,5,2,22,70,0,0
22964,-62.5,5,2,22,70,0,0
23199,-62.5,5,2,44,5,0,0
23316,-62.5,5,2,22,70,0,0
23550,-62.5,5,2,44,5,0,0
23667,-62.5,5,2,22,70,0,0
23902,-62.5,5,2,44,5,0,0
24019,-500,5,2,22,70,0,0
25308,-62.5,5,2,22,70,0,0
25542,-62.5,5,2,44,5,0,0
25660,-62.5,5,2,22,70,0,0
25894,-62.5,5,2,44,5,0,0
26011,-58.8235294117647,5,2,22,70,0,0
26246,-58.8235294117647,5,2,44,5,0,0
26363,-200,5,2,22,70,0,0
26597,-62.5,5,2,44,5,0,0
26832,-62.5,5,2,22,70,0,0
27066,-62.5,5,2,44,5,0,0
27300,-55.5555555555556,5,2,22,70,0,0
27535,-57.1428571428571,5,2,44,5,0,0
27652,-62.5,5,2,22,70,0,0
27886,-62.5,5,2,44,5,0,0
28003,-62.5,5,2,22,70,0,0
28238,-62.5,5,2,44,5,0,0
28355,-57.1428571428571,5,2,22,70,0,0
28589,-57.1428571428571,5,2,44,5,0,0
28707,-100,5,2,22,90,0,0
38082,-100,5,2,22,95,0,0
39722,-66.6666666666667,5,2,22,95,0,0
39957,-66.6666666666667,5,2,22,95,0,0
40074,-58.8235294117647,5,2,22,95,0,0
40308,-100,5,2,22,95,0,0
42066,-66.6666666666667,5,2,22,95,0,0
42417,-58.8235294117647,5,2,22,95,0,0
42769,-100,5,2,22,95,0,0
44410,-66.6666666666667,5,2,22,95,0,0
44761,-58.8235294117647,5,2,22,95,0,0
45113,-100,5,2,22,95,0,0
46285,-66.6666666666667,5,2,22,95,0,0
46753,-58.8235294117647,5,2,22,95,0,0
47105,-50,5,2,22,100,0,0
47457,-66.6666666666667,5,2,22,80,0,0
52144,-76.9230769230769,5,2,22,80,0,0
56832,-66.6666666666667,5,2,22,85,0,0
65738,-45.4545454545455,5,2,22,85,0,0
66207,-66.6666666666667,5,2,22,85,0,0
70425,-45.4545454545455,5,2,22,85,0,0
70894,-100,5,2,22,70,0,0
75582,-66.6666666666667,5,2,22,75,0,0
84371,-66.6666666666667,5,2,22,70,0,0
84664,-66.6666666666667,5,2,44,5,0,0
84722,-66.6666666666667,5,2,22,70,0,0
84781,-66.6666666666667,5,2,44,5,0,0
84839,-66.6666666666667,5,2,22,70,0,0
84898,-66.6666666666667,5,2,44,5,0,0
84957,-45.4545454545455,5,2,22,80,0,0
85718,-45.4545454545455,5,2,44,5,0,0
85777,-58.8235294117647,5,2,22,80,0,0
85894,-45.4545454545455,5,2,22,80,0,0
88062,-45.4545454545455,5,2,44,5,0,0
88121,-58.8235294117647,5,2,22,80,0,0
88238,-45.4545454545455,5,2,22,80,0,0
90406,-45.4545454545455,5,2,44,5,0,0
90464,-58.8235294117647,5,2,22,80,0,0
90582,-45.4545454545455,5,2,22,80,0,0
92749,-45.4545454545455,5,2,44,5,0,0
92808,-58.8235294117647,5,2,22,80,0,0
92925,-45.4545454545455,5,2,22,80,0,0
94039,-45.4545454545455,5,2,44,5,0,0
94097,-45.4545454545455,5,2,22,80,0,0
94156,-45.4545454545455,5,2,44,5,0,0
94214,-45.4545454545455,5,2,22,80,0,0
94273,-45.4545454545455,5,2,44,5,0,0
94332,-40,5,2,22,85,0,1
96265,-40,5,2,44,5,0,1
96324,-40,5,2,22,85,0,1
97437,-40,5,2,44,5,0,1
97496,-40,5,2,22,85,0,1
97554,-40,5,2,44,5,0,1
97613,-40,5,2,22,85,0,1
97671,-40,5,2,44,5,0,1
97730,-40,5,2,22,85,0,1
98609,-40,5,2,44,5,0,1
98667,-40,5,2,22,85,0,1
98726,-40,5,2,44,5,0,1
98785,-40,5,2,22,85,0,1
98843,-40,5,2,44,5,0,1
98902,-40,5,2,22,85,0,1
101070,-40,5,2,44,5,0,1
101128,-40,5,2,22,85,0,1
102124,-40,5,2,44,5,0,1
102183,-40,5,2,22,85,0,1
102242,-40,5,2,44,5,0,1
102300,-40,5,2,22,85,0,1
102359,-40,5,2,44,5,0,1
102417,-40,5,2,22,85,0,1
102535,-47.6190476190476,5,2,22,85,0,1
103296,-47.6190476190476,5,2,44,5,0,1
103355,-47.6190476190476,5,2,22,85,0,1
103414,-47.6190476190476,5,2,44,5,0,1
103472,-47.6190476190476,5,2,22,85,0,1
103531,-47.6190476190476,5,2,44,5,0,1
103589,-47.6190476190476,5,2,22,85,0,1
103707,-83.3333333333333,5,2,22,60,0,0
103882,-83.3333333333333,5,2,44,5,0,0
103941,-40,5,2,22,85,0,1
106812,-40,5,2,44,5,0,1
106870,-40,5,2,22,85,0,1
106929,-40,5,2,44,5,0,1
106988,-40,5,2,22,85,0,1
107046,-40,5,2,44,5,0,1
107105,-40,5,2,22,85,0,1
107398,-40,5,2,44,5,0,1
107457,-40,5,2,22,85,0,1
107984,-40,5,2,44,5,0,1
108042,-40,5,2,22,85,0,1
108101,-40,5,2,44,5,0,1
108160,-40,5,2,22,85,0,1
108218,-40,5,2,44,5,0,1
108277,-40,5,2,22,85,0,1
110152,-37.037037037037,5,2,22,85,0,1
110738,468.75,5,2,22,91,1,0
110738,-71.4285714285714,5,2,22,91,0,0
111909,-66.6666666666667,5,2,22,92,0,0
113198,468.75,5,2,22,93,1,0
113198,-62.5,5,2,22,93,0,0
114252,-58.8235294117647,5,2,22,94,0,0
115424,-55.5555555555556,5,2,22,95,0,0
115776,468.75,5,2,22,95,1,0
115776,-66.6666666666667,5,2,22,95,0,0
116596,-62.5,5,2,22,96,0,0
117768,468.75,5,2,22,97,1,0
117768,-58.8235294117647,5,2,22,97,0,0
118939,-58.8235294117647,5,2,22,80,0,0
119525,468.75,5,2,22,98,1,0
119525,-55.5555555555556,5,2,22,98,0,0
120110,-55.5555555555556,5,2,22,99,0,0
120228,-55.5555555555556,5,2,22,99,0,0
120696,-55.5555555555556,5,2,22,99,0,0
120814,-62.5,5,2,22,99,0,0
121048,-83.3333333333333,5,2,22,99,0,0
121282,468.75,5,2,22,100,1,0
121282,-1000,5,2,22,100,0,0
121574,-1000,5,2,22,10,0,0

[Colours]
Combo1 : 159,240,49
Combo2 : 7,157,248
Combo3 : 253,214,132

[HitObjects]
21,342,9957,6,0,B|32:346|32:346|44:390,2,52
16,332,11246,2,0,L|93:312,1,78
96,301,12300,2,0,B|85:297|85:297|73:253,2,52
105,309,13589,2,0,L|182:289,1,78
264,271,14644,6,0,B|268:260|268:260|312:248,2,52
255,265,15933,2,0,L|235:188,1,78
228,180,16988,2,0,B|222:195|222:195|160:212,2,77.999997619629
273,85,18277,1,0,0:0:0:0:
284,74,18628,1,0,0:0:0:0:
288,89,18980,1,2,0:0:0:0:
250,216,19332,6,0,L|261:166,2,52,4|4|4,3:0|3:0|3:0,0:0:0:0:
347,208,20621,6,0,B|341:113|341:113|237:72,1,208,8|0,3:0|0:0,0:0:0:0:
164,175,20972,2,0,B|171:271|171:271|275:312,1,208,8|0,3:0|0:0,0:0:0:0:
347,209,21324,2,0,B|312:229|312:229|203:150|203:150|164:175,1,221.000004215241,8|0,3:0|0:0,0:0:0:0:
250,216,21675,6,0,L|261:166,2,52,4|4|4,3:0|3:0|3:0,0:0:0:0:
39,50,22964,6,0,B|77:3|77:3|118:6|118:6|158:128,1,208,8|0,3:0|0:0,0:0:0:0:
151,107,23316,2,0,B|176:67|176:67|294:50|294:50|335:-10,1,208,8|0,3:0|0:0,0:0:0:0:
318,16,23667,2,0,B|363:90|363:90|429:101|429:101|487:55,1,208,8|0,3:0|0:0,0:0:0:0:
261,166,24019,6,0,L|250:216,2,52,4|4|4,3:0|3:0|3:0,0:0:0:0:
266,87,25308,6,0,B|336:81|336:81|353:218,1,208,8|0,3:0|0:0,0:0:0:0:
245,296,25660,2,0,B|176:303|176:303|159:166,1,208,8|0,3:0|0:0,0:0:0:0:
266,87,26011,2,0,B|259:166|259:166|266:178|266:178|245:211|245:211|254:220|254:220|243:320,1,221.000004215241,8|0,3:0|0:0,0:0:0:0:
245,306,26363,6,0,L|238:370,1,65,4|0,3:0|0:0,0:0:0:0:
169,181,26832,2,0,B|189:191|189:191|247:403,1,208,4|0,3:0|0:0,0:0:0:0:
343,169,27300,2,0,B|321:176|321:176|234:377,1,233.999992858887,12|0,3:0|0:0,0:0:0:0:
71,380,27652,6,0,B|26:340|26:340|69:292|69:292|167:327,1,208,8|0,3:0|0:0,0:0:0:0:
147,320,28003,2,0,B|188:332|188:332|315:306|315:306|360:314,1,208,8|0,3:0|0:0,0:0:0:0:
350,312,28355,2,0,B|385:376|385:376|431:381|431:381|482:253,1,227.500002169609,12|0,3:0|0:0,0:0:0:0:
418,165,28707,5,4,3:2:0:0:
418,217,28863,1,0,3:0:0:0:
462,191,29019,1,0,3:0:0:0:
402,190,29175,1,4,3:0:0:0:
447,216,29331,1,0,3:0:0:0:
447,165,29487,1,0,3:0:0:0:
382,54,29644,5,4,3:0:0:0:
382,78,29761,1,0,3:0:0:0:
392,60,29878,1,0,3:0:0:0:
371,72,29995,1,8,3:0:0:0:
392,72,30113,1,0,3:0:0:0:
371,60,30230,1,0,3:0:0:0:
382,54,30347,1,8,3:0:0:0:
382,78,30464,1,8,3:2:0:0:
392,60,30581,1,0,3:0:0:0:
371,72,30698,1,10,3:0:0:0:
392,72,30816,1,0,3:0:0:0:
371,60,30933,1,0,3:0:0:0:
247,0,31050,5,8,3:0:0:0:
247,32,31206,1,0,3:0:0:0:
275,16,31363,1,0,3:0:0:0:
236,16,31519,1,8,3:0:0:0:
265,32,31675,1,0,3:0:0:0:
265,0,31832,1,0,3:0:0:0:
130,54,31988,5,8,3:0:0:0:
130,78,32105,1,0,3:0:0:0:
120,60,32222,1,0,3:0:0:0:
141,72,32339,1,8,3:0:0:0:
120,72,32457,1,0,3:0:0:0:
141,60,32574,1,0,3:0:0:0:
130,54,32691,1,10,3:0:0:0:
130,78,32808,1,8,3:2:0:0:
120,60,32925,1,0,3:0:0:0:
141,72,33042,1,8,3:0:0:0:
120,72,33160,1,0,3:0:0:0:
141,60,33277,1,0,3:0:0:0:
94,165,33394,5,4,3:0:0:0:
94,217,33550,1,0,3:0:0:0:
50,191,33706,1,0,3:0:0:0:
110,190,33862,1,4,3:0:0:0:
65,216,34018,1,0,3:0:0:0:
65,165,34174,1,0,3:0:0:0:
130,330,34332,5,4,3:0:0:0:
130,306,34449,1,0,3:0:0:0:
120,324,34566,1,0,3:0:0:0:
141,312,34683,1,8,3:0:0:0:
120,312,34801,1,0,3:0:0:0:
141,324,34918,1,0,3:0:0:0:
130,330,35035,1,8,3:0:0:0:
130,306,35152,1,8,3:2:0:0:
120,324,35269,1,0,3:0:0:0:
141,312,35386,1,10,3:0:0:0:
120,312,35504,1,0,3:0:0:0:
141,324,35621,1,0,3:0:0:0:
247,384,35738,5,8,3:0:0:0:
247,352,35894,1,0,3:0:0:0:
275,368,36050,1,0,3:0:0:0:
236,368,36206,1,8,3:0:0:0:
265,352,36362,1,0,3:0:0:0:
265,384,36518,1,0,3:0:0:0:
382,330,36675,5,10,3:0:0:0:
382,306,36792,1,0,3:0:0:0:
392,324,36909,1,0,3:0:0:0:
371,312,37026,1,8,3:0:0:0:
392,312,37144,1,0,3:0:0:0:
371,324,37261,1,0,3:0:0:0:
382,330,37378,1,8,3:0:0:0:
382,306,37495,1,8,3:2:0:0:
392,324,37612,1,0,3:0:0:0:
371,312,37729,1,10,3:0:0:0:
392,312,37847,1,0,3:0:0:0:
371,324,37964,1,0,3:0:0:0:
481,297,38082,5,4,3:2:0:0:
469,266,38199,1,0,3:2:0:0:
447,241,38316,1,0,3:2:0:0:
416,229,38433,1,0,3:2:0:0:
347,192,38550,5,4,3:0:0:0:
423,178,38667,1,8,3:2:0:0:
453,105,38785,1,0,3:0:0:0:
424,32,38902,1,0,3:0:0:0:
358,74,39019,5,4,3:0:0:0:
338,76,39136,1,0,3:0:0:0:
318,79,39253,1,0,3:0:0:0:
298,81,39371,6,0,L|222:89,2,65,8|0|0,3:0|3:0|3:0,0:0:0:0:
312,98,39722,2,0,L|209:68,2,97.50000371933,8|8|0,3:0|3:2|3:0,0:0:0:0:
318,66,40074,2,0,L|189:115,2,110.50000210762,10|0|0,3:0|3:0|3:0,0:0:0:0:
293,198,40425,5,8,3:0:0:0:
260,193,40542,1,0,3:0:0:0:
227,188,40660,1,0,3:0:0:0:
194,183,40777,1,0,3:0:0:0:
148,246,40894,5,10,3:0:0:0:
115,176,41011,1,8,3:2:0:0:
82,106,41128,1,0,3:0:0:0:
49,36,41246,1,0,3:0:0:0:
117,0,41363,5,8,3:0:0:0:
111,19,41480,1,0,3:0:0:0:
106,39,41597,1,0,3:0:0:0:
100,58,41714,6,0,B|77:69|77:69|32:110,2,65,8|0|0,3:0|3:0|3:0,0:0:0:0:
54,67,42066,2,0,B|35:94|35:94|11:169,2,97.50000371933,10|8|0,3:0|3:2|3:0,0:0:0:0:
4,94,42417,2,0,B|1:127|1:127|18:204,2,110.50000210762,8|0|0,3:0|3:0|3:0,0:0:0:0:
111,211,42769,5,4,3:0:0:0:
105,242,42886,1,0,3:0:0:0:
90,271,43003,1,0,3:0:0:0:
60,286,43121,1,0,3:0:0:0:
0,336,43238,5,4,3:0:0:0:
75,317,43355,1,8,3:2:0:0:
152,326,43472,1,0,3:0:0:0:
220,363,43589,1,0,3:0:0:0:
270,302,43707,5,4,3:0:0:0:
260,284,43824,1,0,3:0:0:0:
254,265,43941,1,0,3:0:0:0:
254,245,44058,6,0,L|181:263,2,65,8|0|0,3:0|3:0|3:0,0:0:0:0:
270,263,44410,2,0,L|168:233,2,97.50000371933,8|8|0,3:0|3:2|3:0,0:0:0:0:
276,229,44761,2,0,L|170:287,2,110.50000210762,10|0|0,3:0|3:0|3:0,0:0:0:0:
385,168,45113,5,4,3:0:0:0:
416,176,45230,1,0,3:0:0:0:
447,184,45347,1,0,3:0:0:0:
478,192,45464,1,0,3:0:0:0:
353,203,45582,5,8,3:0:0:0:
405,188,45699,1,8,3:2:0:0:
458,175,45816,1,0,3:0:0:0:
511,161,45933,1,0,3:0:0:0:
486,80,46050,5,10,3:0:0:0:
413,59,46167,1,0,3:0:0:0:
338,40,46285,1,0,3:0:0:0:
264,21,46402,6,0,B|286:40|286:40|312:129,2,97.50000371933,8|0|0,3:0|3:0|3:0,0:0:0:0:
110,68,46753,2,0,B|88:87|88:87|65:165,2,110.50000210762,8|8|0,3:0|3:2|3:0,0:0:0:0:
217,220,47105,6,0,B|244:192|244:192|254:144,1,65,10|0,3:2|0:0,0:0:0:0:
206,208,47222,2,0,B|168:198|168:198|121:213,1,65,10|0,3:0|0:0,0:0:0:0:
201,223,47339,2,0,B|211:260|211:260|248:293,1,65,8|0,3:2|0:0,0:0:0:0:
134,363,47457,6,0,B|74:381|74:381|40:375|40:375|68:348,39,97.50000371933,4|0|0|0|2|8|0|0|2|0|0|2|0|0|2|8|0|2|0|0|2|0|0|0|2|8|0|0|2|0|0|2|0|0|2|8|0|2|0|0,3:2|0:0|0:0|0:0|0:0|0:1|0:0|0:0|0:0|0:0|0:0|0:0|0:0|0:0|0:0|0:1|0:0|0:0|0:0|0:0|0:0|0:0|0:0|0:0|0:0|0:1|0:0|0:0|0:0|0:0|0:0|0:0|0:0|0:0|0:0|0:1|0:0|0:0|0:0|0:0,0:0:0:0:
65,296,52144,6,0,L|314:360,1,253.499988395691,4|0,3:0|3:0,0:0:0:0:
400,301,52613,1,2,3:2:0:0:
385,299,52730,2,0,B|339:291|339:291|126:358,1,253.499988395691,8|2,3:2|3:2,0:0:0:0:
450,370,53316,1,4,3:0:0:0:
376,384,53433,2,0,B|345:362|345:362|300:215,1,168.999992263794,2|0,3:2|3:0,0:0:0:0:
365,106,53785,1,2,3:2:0:0:
441,118,53902,2,0,L|414:268,1,84.4999961318971,8|0,3:2|3:0,0:0:0:0:
350,22,54136,2,0,L|376:172,1,84.4999961318971,2|0,3:2|3:0,0:0:0:0:
512,203,54488,6,0,B|495:179|495:179|225:117,1,253.499988395691,4|0,3:0|3:0,0:0:0:0:
188,62,54957,1,2,3:2:0:0:
193,79,55074,2,0,B|209:82|209:82|257:206|257:206|304:255,1,168.999992263794,8|0,3:2|3:0,0:0:0:0:
198,270,55425,2,0,B|214:267|214:267|262:143|262:143|309:94,1,168.999992263794,2|4,3:2|3:0,0:0:0:0:
483,193,55777,1,2,3:2:0:0:
408,204,55894,2,0,B|393:189|393:189|368:97,1,84.4999961318971,0|0,3:0|3:0,0:0:0:0:
387,121,56128,1,2,3:2:0:0:
496,54,56246,1,8,3:2:0:0:
500,71,56480,5,10,3:2:0:0:
352,55,56597,1,8,3:2:0:0:
3,15,56832,5,4,3:2:0:0:
61,82,56949,2,0,B|69:114|69:114|22:246|22:246|35:295,1,195.00000743866,0|0,3:0|0:0,0:0:0:0:
32,279,57300,1,0,3:0:0:0:
69,75,57417,2,0,L|147:331,1,195.00000743866,8|0,3:1|2:0,0:0:0:0:
308,314,57769,1,0,2:0:0:0:
293,317,57886,2,0,L|201:284,1,97.50000371933,0|4,3:0|3:0,0:0:0:0:
124,384,58121,5,2,3:2:0:0:
189,207,58238,1,2,3:2:0:0:
265,191,58355,1,2,3:2:0:0:
130,155,58472,2,0,L|221:122,1,97.50000371933,2|10,3:2|3:2,0:0:0:0:
403,22,58707,1,2,3:2:0:0:
328,7,58824,2,0,L|286:139,1,97.50000371933,2|2,3:2|3:2,0:0:0:0:
413,14,59058,5,2,3:2:0:0:
478,212,59175,2,0,L|520:344,1,97.50000371933,4|0,3:0|3:0,0:0:0:0:
406,187,59410,1,2,3:2:0:0:
364,351,59527,1,2,3:2:0:0:
272,369,59761,1,10,3:2:0:0:
364,351,59878,1,2,3:2:0:0:
368,337,60113,1,2,3:2:0:0:
40,287,60347,1,4,3:0:0:0:
0,116,60582,1,2,3:2:0:0:
10,107,60816,1,2,3:2:0:0:
50,278,60934,1,10,3:2:0:0:
135,298,61050,1,2,3:2:0:0:
447,220,61285,1,2,3:2:0:0:
251,87,61519,5,4,3:0:0:0:
171,181,61636,2,0,B|151:171|151:171|99:28|99:28|108:10,1,195.00000743866,0|0,3:0|0:0,0:0:0:0:
116,0,61988,1,0,3:0:0:0:
181,184,62105,2,0,L|254:3,1,195.00000743866,8|0,3:1|2:0,0:0:0:0:
368,128,62457,1,0,2:0:0:0:
370,142,62574,2,0,L|260:169,1,97.50000371933,0|4,3:0|3:0,0:0:0:0:
211,289,62808,5,2,3:2:0:0:
391,362,62925,1,2,3:2:0:0:
451,312,63042,1,2,3:2:0:0:
382,370,63160,1,2,3:2:0:0:
201,298,63277,2,0,B|235:320|235:320|257:393,1,97.50000371933,10|2,3:2|3:2,0:0:0:0:
77,320,63511,2,0,B|111:298|111:298|133:225,1,97.50000371933,2|2,3:2|3:2,0:0:0:0:
135,383,63746,5,2,3:2:0:0:
41,247,63863,1,4,3:0:0:0:
70,152,64097,1,2,3:3:0:0:
41,247,64214,1,2,3:2:0:0:
169,60,64449,1,10,3:2:0:0:
202,211,64566,2,0,L|341:181,1,97.50000371933,2|0,3:0|3:0,0:0:0:0:
391,37,64800,2,0,L|329:139,1,97.50000371933,2|0,3:2|3:0,0:0:0:0:
199,227,65035,1,4,3:0:0:0:
275,243,65152,1,0,3:0:0:0:
351,261,65269,1,2,3:0:0:0:
512,384,65503,1,2,3:2:0:0:
483,311,65621,1,8,3:2:0:0:
512,187,65738,2,0,B|485:210|485:210|352:173,1,143.000004364014,8|0,3:2|3:0,0:0:0:0:
156,369,65972,2,0,B|129:346|129:346|-4:383,1,143.000004364014,8|0,3:2|0:0,0:0:0:0:
311,277,66207,5,4,3:2:0:0:
210,202,66324,2,0,B|246:373|246:373|264:384,1,195.00000743866,0|0,3:0|0:0,0:0:0:0:
276,381,66675,1,0,3:0:0:0:
222,192,66792,2,0,B|141:202|141:202|112:183|112:183|-28:163,1,195.00000743866,8|0,3:1|0:0,0:0:0:0:
181,7,67144,1,0,0:0:0:0:
188,18,67261,2,0,L|157:139,1,97.50000371933,0|4,3:0|3:0,0:0:0:0:
0,248,67496,5,2,3:2:0:0:
87,94,67613,1,2,3:2:0:0:
44,29,67730,1,2,3:2:0:0:
163,112,67847,2,0,L|302:80,1,97.50000371933,2|10,3:2|3:2,0:0:0:0:
439,179,68082,1,2,3:2:0:0:
374,224,68199,2,0,L|297:134,1,97.50000371933,2|2,3:2|3:2,0:0:0:0:
449,173,68433,5,2,3:2:0:0:
405,364,68550,1,4,3:0:0:0:
329,384,68784,1,0,3:0:0:0:
405,364,68902,1,0,3:0:0:0:
445,297,69136,1,10,3:2:0:0:
405,364,69253,1,0,3:0:0:0:
437,286,69488,1,0,3:0:0:0:
121,250,69722,1,4,3:0:0:0:
28,360,69957,1,0,3:0:0:0:
116,241,70191,1,0,3:0:0:0:
67,181,70308,1,10,3:2:0:0:
108,9,70425,2,0,B|88:14|88:14|23:91|23:91|-12:103,1,143.000004364014,10|0,3:2|0:0,0:0:0:0:
195,254,70660,2,0,B|216:262|216:262|281:339|281:339|301:344,1,143.000004364014,10|0,3:2|3:0,0:0:0:0:
67,181,70894,6,0,L|-3:200,1,65,4|2,3:2|0:0,0:0:0:0:
512,71,71363,1,4,3:0:0:0:
509,81,71480,2,0,B|272:34|272:34|235:55|235:55|159:56,1,325,10|0,0:0|0:0,0:0:0:0:
309,10,72183,1,4,3:0:0:0:
320,14,72300,2,0,L|293:89,2,65,2|2|4,0:0|0:0|3:0,0:0:0:0:
398,32,72652,1,10,0:2:0:0:
407,25,72769,2,0,B|412:7|412:7|431:10|431:10|461:150|461:150|430:206,1,195
448,174,73238,5,4,3:0:0:0:
171,192,73472,1,2,0:3:0:0:
169,205,73589,1,2,0:0:0:0:
164,194,73824,1,8,0:2:0:0:
175,202,73941,1,2,0:3:0:0:
264,155,74175,1,4,3:0:0:0:
74,240,74410,1,2,0:0:0:0:
264,155,74644,1,2,0:3:0:0:
432,367,74878,1,4,3:0:0:0:
435,352,74996,1,10,0:0:0:0:
512,376,75113,1,10,0:0:0:0:
172,306,75347,1,10,0:0:0:0:
16,384,75582,6,0,B|28:364|28:364|-9:143,1,195.00000743866,4|0,3:2|0:0,0:0:0:0:
95,251,75933,1,4,3:0:0:0:
101,286,76050,1,2,0:3:0:0:
172,306,76167,2,0,L|190:191,1,97.50000371933,8|0,0:0|0:0,0:0:0:0:
296,367,76402,2,0,L|278:252,1,97.50000371933,4|0,3:0|0:0,0:0:0:0:
95,251,76636,1,4,3:0:0:0:
101,286,76753,1,4,3:0:0:0:
172,306,76871,1,0,3:0:0:0:
172,306,77105,1,4,3:0:0:0:
101,286,77223,1,0,3:0:0:0:
120,149,77339,2,0,L|104:52,1,97.50000371933,8|0,0:2|0:0,0:0:0:0:
355,223,77574,2,0,L|370:126,1,97.50000371933,4|0,3:0|0:0,0:0:0:0:
344,221,77925,6,0,B|300:69|300:69|328:-2,1,195.00000743866,4|0,3:0|0:0,0:0:0:0:
397,125,78277,1,4,3:0:0:0:
424,131,78394,1,2,0:3:0:0:
427,260,78511,2,0,L|412:385,1,97.50000371933,8|0,0:0|0:0,0:0:0:0:
501,143,78745,2,0,L|516:268,1,97.50000371933,4|0,3:0|0:0,0:0:0:0:
397,125,78980,1,4,3:0:0:0:
424,131,79097,1,4,3:0:0:0:
501,143,79214,1,0,3:0:0:0:
501,143,79449,1,4,3:0:0:0:
424,131,79566,1,0,3:0:0:0:
393,0,79683,2,0,B|385:9|385:9|218:33|218:33|195:81,1,195.00000743866,8|0,0:2|3:2,0:0:0:0:
197,44,80269,6,0,L|176:262,1,195.00000743866,4|0,3:0|0:0,0:0:0:0:
107,121,80621,1,4,3:0:0:0:
100,91,80738,1,2,0:3:0:0:
25,91,80855,2,0,B|40:171|40:171|76:190,1,97.50000371933,8|0,0:2|0:0,0:0:0:0:
275,213,81089,2,0,B|260:293|260:293|224:312,1,97.50000371933,4|0,3:0|0:0,0:0:0:0:
107,121,81324,1,4,3:0:0:0:
100,91,81441,1,4,3:0:0:0:
25,91,81558,1,0,3:0:0:0:
25,91,81792,1,4,3:0:0:0:
100,91,81909,1,0,3:0:0:0:
136,246,82026,2,0,B|121:326|121:326|85:345,1,97.50000371933,8|0,0:0|0:0,0:0:0:0:
403,297,82261,2,0,B|418:377|418:377|454:396,1,97.50000371933,0|0,3:2|0:0,0:0:0:0:
415,294,82613,6,0,B|439:157|439:157|448:152|448:152|471:91,1,195.00000743866,4|0,3:0|0:0,0:0:0:0:
352,189,82964,1,4,3:0:0:0:
313,182,83082,1,2,0:3:0:0:
297,95,83199,2,0,L|276:0,1,97.50000371933,8|0,0:2|0:0,0:0:0:0:
56,139,83433,2,0,L|76:43,1,97.50000371933,4|0,3:0|0:0,0:0:0:0:
352,189,83667,1,4,3:0:0:0:
313,182,83785,1,4,3:0:0:0:
235,171,83902,1,0,3:0:0:0:
359,180,84136,1,4,3:0:0:0:
292,216,84253,1,0,3:0:0:0:
217,205,84371,1,8,0:0:0:0:
151,249,84488,1,0,3:0:0:0:
76,238,84605,2,0,L|134:214,1,48.750001859665,2|0,3:2|0:0,0:0:0:0:
177,271,84722,2,0,L|168:333,1,48.750001859665,0|0,3:2|0:0,0:0:0:0:
97,341,84839,2,0,L|47:302,1,48.750001859665,2|0,3:2|0:0,0:0:0:0:
0,258,84957,6,0,L|321:340,1,286.000008728028,6|0,3:2|3:0,0:0:0:0:
346,384,85308,2,0,B|434:302|434:302|470:288,1,143.000004364014,4|2,3:0|3:0,0:0:0:0:
482,384,85542,2,0,B|450:356|450:356|409:159,1,214.500006546021,10|0,3:0|3:0,0:0:0:0:
413,176,85777,2,0,B|422:189|422:189|395:288,1,110.50000210762,4|0,3:0|3:0,0:0:0:0:
286,308,86011,1,4,3:0:0:0:
271,228,86128,1,4,3:0:0:0:
244,83,86246,2,0,B|268:111|268:111|476:159|476:159|512:153,1,286.000008728028,2|4,3:2|3:0,0:0:0:0:
365,17,86597,1,2,3:2:0:0:
362,32,86714,2,0,B|334:139|334:139|284:168,1,143.000004364014,10|0,3:2|0:0,0:0:0:0:
97,96,86949,2,0,L|264:70,1,143.000004364014,4|0,3:0|3:0,0:0:0:0:
90,0,87183,5,0,3:0:0:0:
89,12,87300,2,0,L|25:308,1,286.000008728028,4|0,3:0|3:0,0:0:0:0:
63,371,87652,2,0,B|84:353|84:353|260:308,1,143.000004364014,4|2,3:0|3:2,0:0:0:0:
282,379,87886,2,0,B|125:318|125:318|99:227,1,214.500006546021,10|0,3:2|3:0,0:0:0:0:
114,263,88121,2,0,B|118:250|118:250|238:221,1,110.50000210762,4|0,3:0|3:0,0:0:0:0:
357,302,88355,1,4,3:0:0:0:
431,290,88472,1,4,3:0:0:0:
425,141,88589,2,0,B|396:162|396:162|198:124|198:124|158:154,1,286.000008728028,2|4,3:2|3:0,0:0:0:0:
307,233,88941,1,0,3:0:0:0:
304,221,89058,2,0,B|258:64,1,143.000004364014,10|0,3:2|0:0,0:0:0:0:
438,146,89292,2,0,B|478:283,1,143.000004364014,4|0,3:0|3:0,0:0:0:0:
332,336,89527,5,0,3:0:0:0:
320,334,89644,2,0,L|380:-9,1,286.000008728028,2|0,3:0|3:0,0:0:0:0:
241,0,89996,1,4,3:0:0:0:
93,61,90113,1,2,3:2:0:0:
19,49,90230,2,0,B|43:75|43:75|92:279,1,214.500006546021,10|0,3:2|3:0,0:0:0:0:
96,252,90464,2,0,B|74:340|74:340|82:377,1,110.50000210762,4|0,3:0|3:0,0:0:0:0:
37,337,90699,1,4,3:0:0:0:
6,263,90816,1,4,3:0:0:0:
167,203,90933,2,0,B|186:252|186:252|417:372,1,286.000008728028,2|4,3:2|3:0,0:0:0:0:
278,250,91285,1,0,3:0:0:0:
280,262,91402,2,0,B|188:307|188:307|164:340,1,143.000004364014,10|0,3:2|0:0,0:0:0:0:
35,144,91636,2,0,L|170:193,1,143.000004364014,4|0,3:0|3:0,0:0:0:0:
1,67,91871,5,0,3:0:0:0:
12,63,91988,2,0,B|108:28|108:28|166:45|166:45|288:28,1,286.000008728028,4|0,3:0|3:0,0:0:0:0:
496,58,92339,1,4,3:0:0:0:
362,91,92457,1,2,3:2:0:0:
312,34,92574,2,0,L|370:272,1,214.500006546021,8|0,3:2|3:0,0:0:0:0:
377,243,92808,2,0,B|360:323|360:323|330:353,1,110.50000210762,4|0,3:0|3:0,0:0:0:0:
393,357,93042,1,4,3:0:0:0:
469,348,93160,1,4,3:0:0:0:
512,226,93277,1,0,3:0:0:0:
377,365,93511,1,4,3:0:0:0:
308,319,93628,1,2,3:2:0:0:
223,324,93746,1,8,0:0:0:0:
160,270,93863,1,2,3:2:0:0:
77,273,93980,2,0,L|129:224,1,71.5000021820069,4|0,3:0|0:0,0:0:0:0:
208,255,94097,2,0,L|223:324,1,71.5000021820069,2|0,3:2|0:0,0:0:0:0:
158,377,94214,2,0,L|89:355,1,71.5000021820069,4|0,3:0|0:0,0:0:0:0:
0,281,94332,6,0,B|19:255|19:255|432:173|432:173|463:115,1,487.5,4|0,3:2|0:0,0:0:0:0:
287,85,94800,1,0,0:0:0:0:
308,163,94917,2,0,L|501:199,1,162.5,10|0,0:2|0:0,0:0:0:0:
470,205,95152,2,0,L|310:175,1,162.5,2|0,0:0|0:0,0:0:0:0:
206,3,95386,1,2,0:0:0:0:
182,177,95503,2,0,B|32:150|32:150|8:107|8:107|125:41|125:41|157:67|157:67|211:205,1,487.5,4|0,3:0|0:0,0:0:0:0:
169,350,95972,5,0,0:0:0:0:
97,313,96089,2,0,B|127:280|127:280|349:217,1,243.75,10|0,0:2|0:0,0:0:0:0:
317,211,96324,2,0,B|347:244|347:244|483:282,1,162.5,2|0,0:0|0:0,0:0:0:0:
487,366,96558,1,2,0:0:0:0:
512,214,96675,2,0,B|422:234|422:234|277:382|277:382|67:352|67:352|8:198,1,650,4|0,3:0|0:0,0:0:0:0:
82,96,97261,5,10,0:2:0:0:
98,101,97378,2,0,B|122:127|122:127|84:187,1,81.25,2|0,0:0|0:0,0:0:0:0:
75,109,97496,2,0,B|40:116|40:116|8:53,1,81.25,2|0,0:2|0:0,0:0:0:0:
79,85,97613,2,0,B|89:51|89:51|160:54,1,81.25,2|0,0:0|0:0,0:0:0:0:
82,96,97730,1,2,0:0:0:0:
0,139,97847,2,0,L|512:73,1,487.5,4|0,3:0|0:0,0:0:0:0:
490,65,98316,1,0,0:0:0:0:
405,44,98433,1,10,0:2:0:0:
401,59,98550,2,0,B|383:71|383:71|359:189,1,81.25,2|0,0:0|0:0,0:0:0:0:
380,139,98667,2,0,B|362:151|362:151|338:269,1,81.25,2|0,0:0|0:0,0:0:0:0:
279,239,98785,2,0,B|291:221|291:221|409:197,1,81.25,2|0,0:0|0:0,0:0:0:0:
358,217,98902,1,2,0:0:0:0:
512,303,99019,6,0,B|482:322|482:322|-10:210,1,487.5,4|0,3:2|0:0,0:0:0:0:
0,382,99488,1,0,0:0:0:0:
74,359,99605,2,0,B|115:337|115:337|162:54,1,325,10|0,0:0|0:0,0:0:0:0:
12,116,99957,2,0,B|28:95|28:95|160:62,1,162.5,2|0,0:0|0:0,0:0:0:0:
0,15,100191,1,4,3:0:0:0:
0,0,100308,2,0,L|485:107,1,487.5
487,97,100777,5,10,0:2:0:0:
367,0,100894,2,0,B|385:24|385:24|451:293,1,243.75,2|0,0:0|0:0,0:0:0:0:
447,236,101128,2,0,B|429:252|429:252|400:351|400:351|340:361,1,162.5
501,381,101363,1,4,0:3:0:0:
512,384,101480,2,0,B|490:341|490:341|16:235|16:235|6:200|6:200|103:135,1,650,0|8,0:0|0:2,0:0:0:0:
209,80,102066,6,0,B|215:64|215:64|142:17,1,81.25,2|0,0:0|0:0,0:0:0:0:
155,33,102183,2,0,B|138:35|138:35|133:122,1,81.25,2|0,0:0|0:0,0:0:0:0:
141,103,102300,2,0,B|151:116|151:116|229:76,1,81.25,2|0,0:0|0:0,0:0:0:0:
169,72,102417,1,2,0:0:0:0:
56,81,102535,2,0,B|239:125|239:125|268:163|268:163|452:136|452:136|510:20,1,545.999983337403,4|0,3:0|0:0,0:0:0:0:
471,162,103121,1,8,0:0:0:0:
476,145,103238,2,0,B|493:151|493:151|506:199,1,68.2499979171754,2|0,0:0|0:0,0:0:0:0:
485,179,103355,2,0,B|471:190|471:190|422:177,1,68.2499979171754,2|0,0:0|0:0,0:0:0:0:
451,169,103472,2,0,B|447:151|447:151|483:115,1,68.2499979171754,2|0,0:0|0:0,0:0:0:0:
471,162,103589,1,2,0:0:0:0:
445,296,103707,5,4,3:0:0:0:
445,296,103941,6,0,B|456:299|456:299|470:375,1,81.25,4|0,3:2|0:0,0:0:0:0:
164,384,104175,1,0,0:0:0:0:
238,354,104292,2,0,L|256:192,1,162.5,10|0,0:2|0:0,0:0:0:0:
268,195,104527,2,0,L|249:356,1,162.5,2|0,0:0|0:0,0:0:0:0:
84,380,104761,1,2,0:0:0:0:
11,214,104878,2,0,B|-11:167|-11:167|11:5|11:5|186:130|186:130|178:186|178:186|20:227,1,650,4|0,3:0|0:0,0:0:0:0:
21,237,105464,5,8,0:2:0:0:
154,152,105582,2,0,B|274:172|274:172|332:142,1,162.5,2|0,0:0|0:0,0:0:0:0:
337,232,105816,2,0,B|457:252|457:252|515:222,1,162.5,10|0,0:2|0:0,0:0:0:0:
490,111,106050,2,0,B|245:233|245:233|192:328|192:328|64:380,1,487.5,4|0,3:0|0:0,0:0:0:0:
25,338,106519,5,8,0:2:0:0:
212,348,106636,1,8,0:2:0:0:
227,340,106753,2,0,B|243:308|243:308|191:260,1,81.25,2|0,0:0|0:0,0:0:0:0:
202,338,106871,2,0,B|166:340|166:340|151:409,1,81.25,2|0,0:0|0:0,0:0:0:0:
212,360,106988,2,0,B|230:390|230:390|298:368,1,81.25,4|0,3:0|0:0,0:0:0:0:
212,348,107105,1,2,0:0:0:0:
331,315,107222,2,0,B|352:301|352:301|403:63,1,243.75,2|0,0:0|0:0,0:0:0:0:
390,79,107457,2,0,B|370:116|370:116|449:361|449:361|511:382,1,325,8|4,0:2|3:0,0:0:0:0:
509,300,107808,1,8,0:2:0:0:
478,187,107925,2,0,B|469:174|469:174|371:147,1,81.25,2|0,0:0|0:0,0:0:0:0:
400,167,108042,2,0,B|385:173|385:173|287:148,1,81.25,4|0,3:0|0:0,0:0:0:0:
291,229,108160,2,0,B|303:220|303:220|331:121,1,81.25,10|0,0:2|0:0,0:0:0:0:
316,147,108277,1,2,0:0:0:0:
512,52,108394,6,0,B|487:36|487:36|25:104,1,487.5,4|4,3:2|3:0,0:0:0:0:
115,0,108863,1,0,0:0:0:0:
178,49,108980,2,0,B|118:316|118:316|45:370,1,325,10|0,0:2|0:0,0:0:0:0:
62,205,109332,2,0,B|78:231|78:231|229:274,1,162.5,4|0,3:0|0:0,0:0:0:0:
0,384,109566,2,0,B|299:364|299:364|322:300|322:300|458:242|458:242|483:254|483:254|514:372,1,650,4|4,3:0|3:0,0:0:0:0:
385,377,110152,2,0,B|347:251|347:251|265:186,1,175.500000669479,10|0,0:2|0:0,0:0:0:0:
512,0,110386,2,0,B|474:126|474:126|392:191,1,175.500000669479,10|8,0:2|0:2,0:0:0:0:
132,82,110621,5,4,3:0:0:0:
60,66,110738,2,0,L|44:-6,2,45.4999986114502,4|0|0,3:2|3:0|0:0,0:0:0:0:
50,88,111089,2,0,L|69:-1,1,90.9999972229005,12|0,3:0|3:0,0:0:0:0:
212,109,111323,2,0,L|230:19,1,90.9999972229005,8|0,3:2|3:0,0:0:0:0:
60,66,111558,1,12,3:0:0:0:
55,43,111616,1,0,3:0:0:0:
50,21,111675,1,12,3:0:0:0:
425,179,111909,6,0,L|376:186,2,48.750001859665,12|0|0,3:0|3:0|3:0,0:0:0:0:
385,87,112144,2,0,L|415:279,1,195.00000743866,12|0,3:0|0:0,0:0:0:0:
377,187,112495,1,8,3:2:0:0:
401,184,112554,1,0,0:0:0:0:
425,179,112613,1,12,3:0:0:0:
302,149,112847,2,0,L|294:197,1,48.750001859665,12|0,1:3|3:0,0:0:0:0:
512,175,112964,2,0,L|504:223,1,48.750001859665,0|0,3:0|0:0,0:0:0:0:
168,384,113198,6,0,L|152:312,2,52,12|0|0,3:0|3:0|3:0,0:0:0:0:
57,345,113432,2,0,L|34:243,1,104,12|0,3:0|3:0,0:0:0:0:
168,384,113666,1,8,3:2:0:0:
162,358,113725,1,0,3:0:0:0:
156,333,113783,1,0,3:0:0:0:
38,343,114018,2,0,L|60:241,1,104,12|0,3:0|3:0,0:0:0:0:
203,238,114252,2,0,L|230:116,1,110.50000210762,12|0,3:0|3:0,0:0:0:0:
125,191,114487,1,12,3:0:0:0:
131,165,114546,1,0,3:0:0:0:
137,140,114604,1,0,3:0:0:0:
403,4,114838,5,2,1:0:0:0:
422,78,114955,2,0,L|493:97,2,55.2500010538101,0|0|0,3:0|0:0|0:0,0:0:0:0:
230,27,115190,2,0,L|336:55,1,110.50000210762,8|0,0:0|3:0,0:0:0:0:
422,78,115424,1,2,1:0:0:0:
448,85,115483,1,0,3:0:0:0:
475,92,115541,1,0,3:0:0:0:
303,351,115776,6,0,L|223:364,2,48.750001859665,4|0|0,3:2|3:0|3:0,0:0:0:0:
512,321,116010,2,0,L|463:328,2,48.750001859665,12|0|0,3:0|3:0|3:0,0:0:0:0:
303,351,116244,1,12,3:0:0:0:
278,355,116303,1,0,3:0:0:0:
254,359,116361,1,0,3:0:0:0:
512,321,116596,1,12,3:0:0:0:
487,325,116655,1,0,3:0:0:0:
463,329,116713,1,0,3:0:0:0:
327,369,116947,2,0,L|192:347,1,104,12|0,3:0|3:0,0:0:0:0:
356,214,117182,2,0,L|221:192,1,104,8|0,3:2|0:0,0:0:0:0:
171,290,117416,2,0,L|90:303,1,52,12|0,1:3|3:0,0:0:0:0:
144,135,117533,2,0,L|63:148,1,52,0|0,3:0|0:0,0:0:0:0:
199,0,117768,6,0,L|169:78,2,55.2500010538101,12|0|0,3:0|3:0|3:0,0:0:0:0:
336,128,118002,1,12,3:0:0:0:
414,118,118119,2,0,L|453:14,1,110.50000210762,12|0,3:0|0:0,0:0:0:0:
179,51,118353,1,8,3:2:0:0:
188,25,118412,1,0,0:0:0:0:
198,0,118471,1,12,3:0:0:0:
355,179,118705,6,0,L|335:127,2,55.2500010538101,12|0|0,3:0|3:0|3:0,0:0:0:0:
455,282,118939,5,2,0:0:0:0:
380,256,119057,5,2,0:0:0:0:
304,311,119174,5,2,0:0:0:0:
226,237,119291,5,2,0:0:0:0:
157,364,119408,5,2,0:0:0:0:
122,204,119525,6,0,L|39:217,1,58.4999982147217,8|0,3:2|3:0,0:0:0:0:
115,193,119642,2,0,B|-21:214,1,116.999996429443,0|0,3:0|0:0,0:0:0:0:
73,81,119876,2,0,L|189:99,1,116.999996429443,12|2,3:0|3:0,0:0:0:0:
390,204,120110,6,0,L|472:217,1,58.4999982147217,8|0,3:2|3:0,0:0:0:0:
397,193,120228,2,0,B|533:214,1,116.999996429443,0|0,3:0|0:0,0:0:0:0:
438,80,120461,2,0,L|322:98,1,116.999996429443,12|2,3:0|3:0,0:0:0:0:
202,0,120696,6,0,L|213:59,1,58.4999982147217,12|0,3:0|3:0,0:0:0:0:
310,91,120814,2,0,L|289:192,1,104,0|0,3:0|0:0,0:0:0:0:
216,240,121048,2,0,B|233:248|233:248|266:333,1,77.999997619629,8|0,3:2|0:0,0:0:0:0:
296,368,121282,6,0,L|289:383,1,16.25,6|0,3:1|0:0,0:0:0:0:
