osu file format v14

[General]
AudioFilename: audio.mp3
AudioLeadIn: 0
PreviewTime: 80629
Countdown: 0
SampleSet: Soft
StackLeniency: 0.7
Mode: 2
LetterboxInBreaks: 0
WidescreenStoryboard: 1

[Editor]
Bookmarks: 12865,24159,35453,46747,58041,69335,74982,75100,75247,75379,75512,75629,75732,75865,75997,76129,76218,76306,76394,76512,76615,76747,76865,77012,77144,77276,77394,77497,77629,77718,77806,77894,77982,78100,78203,78335,78468,78600,78688,78776,78865,78982,79085,79218,79335,79438,79570,79659,79747,79835,79923,80041,80320,80453,80541,80629,80762,80894,80982,81026,81159,81276,81335,81394,81512,81644,81688,81776,81865,81953,82041,82159,82276,82394,82526,82659,82747,82791,82923,83041,83100,83159,83276,83365,83453,83541,83629,83747,83806,83865,83982,84115,84159,84247,84335,84423,84512,84629,84747,84865,84982,85100,85218,85306,85394,85482,85570,85703,85835,85923,85968,86100,86188,86276,86409,86541,86629,86673,86806,86923,86982,87041,87159,87276,87335,87423,87512,87600,87688,87806,87923,88041,88173,88306,88394,88438,88570,88688,88747,88806,88923,89012,89100,89188,89276,89394,89453,89512,89629,89747,89806,89894,89982,90070,90159,90276,90394,90512,90629,90747,90865,90953,91041,91129,91218,91335,91615,91747,91835,91923,92041,92188,92276,92453,92570,92629,92688,92806,92938,92982,93070,93159,93247,93335,93453,93570,93688,93806,93953,94041,94085,94218,94335,94394,94453,94570,94659,94747,94835,94923,95041,95100,95159,95276,95394,95453,95541,95629,95718,95806,95923,96041,96159,96276,96394,96512,96600,96688,96776,96865,96982,97129,97218,97262,97394,97482,97526,97570,97688,97835,97923,97968,98100,98218,98276,98335,98453,98585,98629,98718,98806,98894,98982,99100,99218,99335,99453,99600,99688,99732,99865,99982,100041,100100,100218,100306,100394,100482,100570,100688,100747,100806,100923,101056,101100,101188,101276,101365,101453,101570,101688,101806,101923,102041,102159,102247,102335,102423,102468,102512,102644,102909,103041,103129,103218,103482,103747,103982,104232,104453,104629,104865,105100,105335,105379,105629,105865,106041,106218,106453,106703,106923,107100,107335,107570,107806,107982,108159,108423,108688,108865,109129,109394,109629,109879,110100,110276,110512,110747,111026,111276,111512,111688,111865,112100,112350,112570,112747,112982,113218,113453,113629,113806,114070,114335,114512
DistanceSpacing: 0.6
BeatDivisor: 8
GridSize: 8
TimelineZoom: 4.099998

[Metadata]
Title:VANGUARD-3
TitleUnicode:VANGUARD-3
Artist:II-L
ArtistUnicode:II-L
Creator:Unlucky_w
Version:Salad
Source:
Tags:featured artist fa electronic footwork psytrance instrumental mappers' guild mg mpg iil footcore juke
BeatmapID:4464552
BeatmapSetID:2124277

[Difficulty]
HPDrainRate:3
CircleSize:2.8
OverallDifficulty:7
ApproachRate:7
SliderMultiplier:1.8
SliderTickRate:2

[Events]
//Background and Video events
0,0,"random.jpg",0,0
//Break Periods
//Storyboard Layer 0 (Background)
//Storyboard Layer 1 (Fail)
//Storyboard Layer 2 (Pass)
//Storyboard Layer 3 (Foreground)
//Storyboard Layer 4 (Overlay)
//Storyboard Sound Samples

[TimingPoints]
1571,352.941176470588,4,2,1,85,1,0
69423,-100,4,2,1,45,0,0
69512,-100,4,2,1,45,0,0
74629,-100,4,2,1,85,0,0
80629,-100,4,2,1,85,0,1
103218,-100,4,2,1,85,0,0

[Colours]
Combo1 : 230,79,251
Combo2 : 138,24,231
Combo3 : 33,222,218

[HitObjects]
151,109,1571,5,8,0:0:0:0:
72,165,2365,1,8,0:0:0:0:
151,226,3159,1,8,0:0:0:0:
233,165,3953,1,8,0:0:0:0:
321,212,4747,1,8,0:0:0:0:
233,165,5541,1,8,0:0:0:0:
323,213,6335,1,8,0:0:0:0:
411,167,6600,1,8,0:0:0:0:
443,211,6776,1,8,0:0:0:0:
410,255,6953,1,8,0:0:0:0:
179,212,7218,5,8,0:0:0:0:
295,161,8012,1,12,0:3:0:0:
364,206,8806,1,8,0:0:0:0:
248,248,9600,1,12,0:3:0:0:
174,210,10394,5,8,0:0:0:0:
290,246,11188,1,12,0:3:0:0:
212,214,11982,1,8,0:0:0:0:
125,108,12247,1,8,0:0:0:0:
79,162,12423,1,12,0:3:0:0:
124,217,12600,1,12,0:3:0:0:
357,171,12865,5,12,0:0:0:0:
424,236,13129,1,8,0:0:0:0:
357,171,13394,1,8,0:0:0:0:
243,312,13659,1,8,0:0:0:0:
251,249,13923,1,8,0:0:0:0:
328,216,14188,1,8,0:0:0:0:
121,65,14453,5,8,0:0:0:0:
109,131,14718,1,8,0:0:0:0:
184,166,14982,1,12,0:3:0:0:
296,321,15247,1,8,0:0:0:0:
378,302,15512,1,8,0:0:0:0:
367,229,15776,1,8,0:0:0:0:
156,64,16041,5,8,0:0:0:0:
89,129,16306,1,8,0:0:0:0:
156,64,16570,1,8,0:0:0:0:
264,148,16835,1,8,0:0:0:0:
252,219,17100,1,8,0:0:0:0:
172,250,17365,1,8,0:0:0:0:
385,322,17629,1,8,0:0:0:0:
398,240,17894,1,8,0:0:0:0:
315,152,18247,1,12,0:3:0:0:
103,114,18512,5,14,0:0:0:0:
35,177,18776,1,10,0:0:0:0:
103,114,19041,1,10,0:0:0:0:
215,303,19306,1,10,0:0:0:0:
148,239,19570,1,10,0:0:0:0:
215,303,19835,1,10,0:0:0:0:
426,214,20100,5,10,0:0:0:0:
409,130,20365,1,10,0:0:0:0:
326,109,20629,1,14,0:3:0:0:
209,248,20894,1,10,0:0:0:0:
277,196,21159,1,10,0:0:0:0:
352,249,21423,1,10,0:0:0:0:
141,321,21688,5,10,0:0:0:0:
130,245,21953,1,10,0:0:0:0:
206,211,22218,1,10,0:0:0:0:
319,67,22482,1,10,0:0:0:0:
239,95,22747,1,10,0:0:0:0:
225,177,23012,1,10,0:0:0:0:
446,317,23276,5,10,0:0:0:0:
467,258,23541,1,2,0:0:0:0:
439,200,23718,1,14,0:3:0:0:
358,181,23894,1,14,0:3:0:0:
143,146,24159,5,14,0:0:0:0:
82,230,24512,1,12,0:3:0:0:
326,301,24865,1,10,0:0:0:0:
177,186,25218,1,14,0:3:0:0:
161,300,25570,5,8,0:0:0:0:
442,86,25923,1,14,0:3:0:0:
372,188,26276,1,10,0:0:0:0:
94,102,26629,1,12,0:3:0:0:
169,209,26982,5,10,0:0:0:0:
328,290,27335,1,14,0:3:0:0:
401,181,27688,1,8,0:0:0:0:
131,104,28041,1,14,0:3:0:0:
117,214,28394,5,10,0:0:0:0:
398,328,28747,1,12,0:3:0:0:
466,230,29100,1,10,0:0:0:0:
320,168,29453,1,12,0:3:0:0:
69,305,29806,5,12,0:0:0:0:
58,198,30159,1,8,0:0:0:0:
336,98,30512,1,14,0:3:0:0:
202,165,30865,1,10,0:0:0:0:
188,284,31218,5,8,0:0:0:0:
327,231,31570,1,10,0:0:0:0:
54,86,31923,1,14,0:3:0:0:
69,184,32276,1,8,0:0:0:0:
135,215,32453,1,10,0:0:0:0:
247,258,32718,5,10,0:0:0:0:
316,188,32982,1,10,0:0:0:0:
245,108,33247,1,10,0:0:0:0:
174,194,33512,1,10,0:0:0:0:
392,338,33776,5,14,0:3:0:0:
455,267,34041,1,10,0:0:0:0:
389,192,34306,1,10,0:0:0:0:
175,317,34570,1,10,0:0:0:0:
132,258,34835,1,2,0:0:0:0:
172,192,35012,1,14,0:3:0:0:
253,168,35188,1,14,0:3:0:0:
468,59,35453,5,14,0:0:0:0:
483,226,35982,1,10,0:0:0:0:
131,316,36512,1,10,0:0:0:0:
224,170,37041,1,10,0:0:0:0:
407,313,37570,5,14,0:3:0:0:
58,83,38100,1,10,0:0:0:0:
157,182,38629,1,10,0:0:0:0:
58,80,39159,1,10,0:0:0:0:
398,61,39688,5,10,0:0:0:0:
230,148,40218,1,10,0:0:0:0:
399,241,40659,1,10,0:0:0:0:
333,220,40835,1,10,0:0:0:0:
113,291,41100,5,10,0:0:0:0:
42,159,41629,1,10,0:0:0:0:
380,284,42159,1,10,0:0:0:0:
276,156,42688,1,10,0:0:0:0:
91,116,43218,5,14,0:3:0:0:
160,217,43747,1,10,0:0:0:0:
492,295,44276,1,10,0:0:0:0:
476,178,44806,1,10,0:0:0:0:
144,103,45335,5,10,0:0:0:0:
311,171,45865,1,10,0:0:0:0:
141,244,46306,1,14,0:3:0:0:
205,266,46482,1,14,0:3:0:0:
425,257,46747,5,14,0:0:0:0:
443,174,47144,1,10,0:0:0:0:
303,79,47541,1,10,0:0:0:0:
221,105,47938,1,10,0:0:0:0:
465,319,48335,5,10,0:0:0:0:
379,304,48732,1,10,0:0:0:0:
241,209,49129,1,10,0:0:0:0:
324,189,49526,1,10,0:0:0:0:
71,315,49923,5,10,0:0:0:0:
72,199,50320,1,10,0:0:0:0:
298,171,50718,1,10,0:0:0:0:
317,71,51115,1,10,0:0:0:0:
52,315,51512,1,10,0:0:0:0:
26,271,51776,1,10,0:0:0:0:
55,215,51953,1,10,0:0:0:0:
131,192,52129,1,10,0:0:0:0:
339,118,52394,5,14,0:0:0:0:
351,200,52791,1,10,0:0:0:0:
197,282,53188,1,10,0:0:0:0:
282,306,53585,1,10,0:0:0:0:
41,82,53982,5,10,0:0:0:0:
122,109,54379,1,10,0:0:0:0:
283,215,54776,1,10,0:0:0:0:
197,244,55173,1,10,0:0:0:0:
442,318,55570,5,10,0:0:0:0:
441,216,55968,1,10,0:0:0:0:
196,66,56365,1,10,0:0:0:0:
180,175,56762,1,10,0:0:0:0:
426,66,57159,1,10,0:0:0:0:
469,129,57423,1,10,0:0:0:0:
433,177,57600,1,10,0:0:0:0:
365,195,57776,1,10,0:0:0:0:
152,309,58041,5,14,0:0:0:0:
74,276,58394,1,8,0:3:0:0:
296,311,58747,1,8,0:0:0:0:
347,206,59100,1,8,0:3:0:0:
130,79,59453,5,8,0:0:0:0:
129,124,59806,1,8,0:3:0:0:
356,99,60159,1,8,0:0:0:0:
316,189,60512,1,8,0:3:0:0:
94,334,60865,5,8,0:0:0:0:
221,295,61218,1,14,0:3:0:0:
145,192,61570,1,8,0:0:0:0:
370,69,61923,1,12,0:3:0:0:
415,168,62276,5,8,0:0:0:0:
191,316,62629,1,12,0:3:0:0:
115,297,62982,1,8,0:0:0:0:
329,244,63335,1,12,0:3:0:0:
372,198,63512,1,14,0:3:0:0:
218,86,63688,5,14,0:0:0:0:
120,119,64041,1,12,0:3:0:0:
417,279,64394,1,12,0:3:0:0:
327,252,64747,1,14,0:3:0:0:
62,299,65100,5,12,0:3:0:0:
49,225,65453,1,12,0:3:0:0:
327,75,65806,1,12,0:3:0:0:
413,103,66159,1,12,0:3:0:0:
421,171,66335,1,8,0:0:0:0:
252,278,66512,5,12,0:3:0:0:
153,260,66865,1,10,0:3:0:0:
100,170,67218,1,8,0:3:0:0:
156,74,67570,1,8,0:3:0:0:
244,47,67923,5,8,0:3:0:0:
332,74,68276,1,8,0:3:0:0:
402,135,68629,1,10,0:3:0:0:
368,194,68894,1,10,0:0:0:0:
290,223,69070,1,10,0:0:0:0:
74,235,69335,5,12,0:0:0:0:
256,192,69688,12,0,70394,0:0:0:0:
256,192,70747,12,0,71806,0:0:0:0:
256,192,72159,12,0,73218,0:0:0:0:
256,192,73570,12,0,74629,0:0:0:0:
116,68,74982,5,10,0:0:0:0:
199,145,75512,1,0,0:0:0:0:
66,212,75997,1,0,0:0:0:0:
363,315,76394,1,10,0:0:0:0:
273,209,76865,1,0,0:0:0:0:
136,161,77394,1,0,0:0:0:0:
427,53,77806,5,10,0:0:0:0:
339,161,78203,1,0,0:0:0:0:
481,236,78688,1,0,0:0:0:0:
150,327,79218,1,10,0:0:0:0:
243,285,79659,1,0,0:0:0:0:
45,105,79923,1,12,0:3:0:0:
81,190,80188,1,0,0:0:0:0:
174,221,80453,1,12,0:3:0:0:
353,254,80629,5,14,0:0:0:0:
426,205,80894,1,10,0:0:0:0:
352,152,81159,1,10,0:0:0:0:
242,242,81394,1,10,0:0:0:0:
174,171,81644,1,10,0:0:0:0:
243,94,81865,1,10,0:0:0:0:
416,308,82041,5,10,0:0:0:0:
399,227,82276,1,10,0:0:0:0:
311,206,82526,1,10,0:0:0:0:
210,326,82791,1,10,0:0:0:0:
123,299,83041,1,10,0:0:0:0:
110,180,83276,1,10,0:0:0:0:
284,79,83453,5,10,0:0:0:0:
280,154,83629,1,10,0:0:0:0:
197,199,83865,1,10,0:0:0:0:
302,305,84115,1,10,0:0:0:0:
400,270,84335,1,10,0:0:0:0:
443,205,84512,1,10,0:0:0:0:
398,130,84747,1,10,0:0:0:0:
169,67,84982,5,10,0:0:0:0:
127,130,85218,1,10,0:0:0:0:
166,187,85394,1,10,0:0:0:0:
254,206,85570,1,14,0:3:0:0:
325,256,85835,1,10,0:0:0:0:
254,304,86100,1,10,0:0:0:0:
85,283,86276,5,14,0:0:0:0:
98,218,86541,1,10,0:0:0:0:
182,190,86806,1,10,0:0:0:0:
276,54,87041,1,10,0:0:0:0:
212,96,87276,1,10,0:0:0:0:
137,132,87512,1,10,0:0:0:0:
311,305,87688,5,10,0:0:0:0:
394,272,87923,1,10,0:0:0:0:
406,193,88173,1,10,0:0:0:0:
303,140,88438,1,10,0:0:0:0:
379,96,88688,1,10,0:0:0:0:
457,54,88923,1,10,0:0:0:0:
282,328,89100,5,10,0:0:0:0:
213,276,89276,1,10,0:0:0:0:
277,211,89512,1,10,0:0:0:0:
394,68,89747,1,10,0:0:0:0:
446,143,89982,1,10,0:0:0:0:
393,221,90159,1,10,0:0:0:0:
306,244,90394,1,10,0:0:0:0:
78,86,90629,5,10,0:0:0:0:
86,161,90865,1,10,0:0:0:0:
168,202,91041,1,10,0:0:0:0:
255,81,91218,1,14,0:3:0:0:
188,140,91482,1,2,0:0:0:0:
111,176,91747,1,14,0:3:0:0:
289,315,91923,5,14,0:0:0:0:
370,266,92276,1,12,0:3:0:0:
288,218,92629,1,8,0:0:0:0:
176,93,92982,1,14,0:3:0:0:
101,125,93159,1,2,0:0:0:0:
273,313,93335,5,10,0:0:0:0:
346,254,93688,1,12,0:3:0:0:
268,180,94041,1,8,0:0:0:0:
361,75,94394,1,14,0:3:0:0:
446,101,94570,1,2,0:0:0:0:
274,315,94747,5,10,0:0:0:0:
198,265,95100,1,14,0:3:0:0:
279,200,95453,1,10,0:0:0:0:
365,263,95806,1,14,0:3:0:0:
101,81,96159,5,10,0:0:0:0:
88,167,96512,1,14,0:3:0:0:
176,211,96865,1,10,0:0:0:0:
79,270,97218,1,12,0:3:0:0:
150,244,97394,1,10,0:3:0:0:
309,299,97570,5,14,0:0:0:0:
389,256,97923,1,8,0:0:0:0:
146,222,98276,1,12,0:3:0:0:
69,203,98629,1,8,0:0:0:0:
59,137,98806,1,2,0:0:0:0:
227,64,98982,5,10,0:0:0:0:
307,96,99335,1,8,0:0:0:0:
59,306,99688,1,14,0:3:0:0:
75,245,100041,1,8,0:0:0:0:
361,80,100394,5,10,0:0:0:0:
463,120,100806,1,2,0:0:0:0:
440,193,101056,1,2,0:0:0:0:
362,238,101453,1,2,0:0:0:0:
261,264,101806,5,2,0:0:0:0:
357,297,102159,1,2,0:0:0:0:
83,89,102512,1,14,0:3:0:0:
62,170,102776,1,2,0:0:0:0:
139,202,103041,1,14,0:3:0:0:
313,85,103218,5,12,0:0:0:0:
409,111,103747,1,8,0:0:0:0:
417,205,104232,1,8,0:0:0:0:
96,340,104629,5,8,0:0:0:0:
35,270,105100,1,8,0:0:0:0:
108,189,105629,1,8,0:0:0:0:
428,317,106041,5,8,0:0:0:0:
469,240,106453,1,8,0:0:0:0:
422,157,106923,1,8,0:0:0:0:
329,131,107335,1,8,0:0:0:0:
128,326,107570,5,8,0:0:0:0:
80,246,107982,1,8,0:0:0:0:
128,169,108423,1,8,0:0:0:0:
209,152,108688,1,8,0:0:0:0:
381,316,108865,5,12,0:0:0:0:
440,249,109394,1,8,0:0:0:0:
377,176,109879,1,8,0:0:0:0:
101,313,110276,5,8,0:0:0:0:
42,234,110747,1,8,0:0:0:0:
110,150,111276,1,8,0:0:0:0:
434,49,111688,5,8,0:0:0:0:
398,113,112100,1,8,0:0:0:0:
321,160,112570,1,8,0:0:0:0:
232,188,112982,1,8,0:0:0:0:
424,308,113218,5,8,0:0:0:0:
458,242,113629,1,8,0:0:0:0:
419,162,114070,1,8,0:0:0:0:
342,143,114335,1,8,0:0:0:0:
178,111,114512,5,10,0:0:0:0:
