osu file format v14

[General]
AudioFilename: audio.mp3
AudioLeadIn: 0
PreviewTime: 80629
Countdown: 0
SampleSet: Soft
StackLeniency: 0.7
Mode: 2
LetterboxInBreaks: 0
WidescreenStoryboard: 1

[Editor]
Bookmarks: 12865,24159,35453,46747,58041,69335,74982,75100,75247,75379,75512,75629,75732,75865,75997,76129,76218,76306,76394,76512,76615,76747,76865,77012,77144,77276,77394,77497,77629,77718,77806,77894,77982,78100,78203,78335,78468,78600,78688,78776,78865,78982,79085,79218,79335,79438,79570,79659,79747,79835,79923,80041,80320,80453,80541,80629,80762,80894,80982,81026,81159,81276,81335,81394,81512,81644,81688,81776,81865,81953,82041,82159,82276,82394,82526,82659,82747,82791,82923,83041,83100,83159,83276,83365,83453,83541,83629,83747,83806,83865,83982,84115,84159,84247,84335,84423,84512,84629,84747,84865,84982,85100,85218,85306,85394,85482,85570,85703,85835,85923,85968,86100,86188,86276,86409,86541,86629,86673,86806,86923,86982,87041,87159,87276,87335,87423,87512,87600,87688,87806,87923,88041,88173,88306,88394,88438,88570,88688,88747,88806,88923,89012,89100,89188,89276,89394,89453,89512,89629,89747,89806,89894,89982,90070,90159,90276,90394,90512,90629,90747,90865,90953,91041,91129,91218,91335,91615,91747,91835,91923,92041,92188,92276,92453,92570,92629,92688,92806,92938,92982,93070,93159,93247,93335,93453,93570,93688,93806,93953,94041,94085,94218,94335,94394,94453,94570,94659,94747,94835,94923,95041,95100,95159,95276,95394,95453,95541,95629,95718,95806,95923,96041,96159,96276,96394,96512,96600,96688,96776,96865,96982,97129,97218,97262,97394,97482,97526,97570,97688,97835,97923,97968,98100,98218,98276,98335,98453,98585,98629,98718,98806,98894,98982,99100,99218,99335,99453,99600,99688,99732,99865,99982,100041,100100,100218,100306,100394,100482,100570,100688,100747,100806,100923,101056,101100,101188,101276,101365,101453,101570,101688,101806,101923,102041,102159,102247,102335,102423,102468,102512,102644,102909,103041,103129,103218,103482,103747,103982,104232,104453,104629,104865,105100,105335,105379,105629,105865,106041,106218,106453,106703,106923,107100,107335,107570,107806,107982,108159,108423,108688,108865,109129,109394,109629,109879,110100,110276,110512,110747,111026,111276,111512,111688,111865,112100,112350,112570,112747,112982,113218,113453,113629,113806,114070,114335,114512
DistanceSpacing: 0.6
BeatDivisor: 8
GridSize: 8
TimelineZoom: 4.099998

[Metadata]
Title:VANGUARD-3
TitleUnicode:VANGUARD-3
Artist:II-L
ArtistUnicode:II-L
Creator:Unlucky_w
Version:Platter
Source:
Tags:featured artist fa electronic footwork psytrance instrumental mappers' guild mg mpg iil footcore juke
BeatmapID:4464550
BeatmapSetID:2124277

[Difficulty]
HPDrainRate:4
CircleSize:3.4
OverallDifficulty:8
ApproachRate:8
SliderMultiplier:1.9
SliderTickRate:2

[Events]
//Background and Video events
0,0,"random.jpg",0,0
//Break Periods
//Storyboard Layer 0 (Background)
//Storyboard Layer 1 (Fail)
//Storyboard Layer 2 (Pass)
//Storyboard Layer 3 (Foreground)
//Storyboard Layer 4 (Overlay)
//Storyboard Sound Samples

[TimingPoints]
1571,352.941176470588,4,2,1,85,1,0
69423,-100,4,2,1,45,0,0
69512,-100,4,2,1,45,0,0
74629,-100,4,2,1,85,0,0
80629,-100,4,2,1,85,0,1
103218,-100,4,2,1,85,0,0

[Colours]
Combo1 : 230,79,251
Combo2 : 138,24,231
Combo3 : 33,222,218

[HitObjects]
199,80,1571,5,8,0:0:0:0:
120,142,1835,1,8,0:0:0:0:
198,201,2100,1,8,0:0:0:0:
418,96,2365,1,8,0:0:0:0:
430,185,2629,1,8,0:0:0:0:
329,229,2894,1,8,0:0:0:0:
107,325,3159,5,8,0:0:0:0:
221,295,3423,1,8,0:0:0:0:
330,259,3688,1,8,0:0:0:0:
108,74,3953,1,8,0:0:0:0:
51,148,4218,1,8,0:0:0:0:
103,228,4482,1,8,0:0:0:0:
318,69,4747,5,8,0:0:0:0:
251,133,5012,1,8,0:0:0:0:
176,201,5276,1,8,0:0:0:0:
393,311,5541,1,8,0:0:0:0:
321,247,5806,1,8,0:0:0:0:
392,170,6070,1,8,0:0:0:0:
163,83,6335,5,8,0:0:0:0:
272,128,6600,1,8,0:0:0:0:
279,205,6776,1,8,0:0:0:0:
121,244,6953,1,8,0:0:0:0:
337,55,7218,5,8,0:0:0:0:
425,107,7482,1,8,0:0:0:0:
337,155,7747,1,8,0:0:0:0:
203,115,7923,1,8,0:3:0:0:
152,110,8012,1,12,0:3:0:0:
70,182,8276,1,8,0:0:0:0:
151,249,8541,1,8,0:0:0:0:
297,332,8718,1,0,0:0:0:0:
307,281,8806,5,8,0:0:0:0:
213,209,9070,1,8,0:0:0:0:
397,141,9335,1,12,0:3:0:0:
208,69,9600,1,12,0:3:0:0:
293,112,9865,1,8,0:0:0:0:
380,152,10129,1,8,0:0:0:0:
237,322,10306,1,0,0:0:0:0:
227,270,10394,5,8,0:0:0:0:
329,207,10659,1,8,0:0:0:0:
279,191,10747,1,8,0:3:0:0:
162,138,10923,1,8,0:0:0:0:
337,66,11188,1,12,0:3:0:0:
428,128,11453,1,8,0:0:0:0:
339,192,11718,1,8,0:0:0:0:
193,316,11894,1,0,0:0:0:0:
142,298,11982,5,8,0:0:0:0:
233,241,12159,1,8,0:3:0:0:
249,201,12247,1,8,0:0:0:0:
194,152,12423,1,12,0:3:0:0:
104,181,12600,1,12,0:3:0:0:
440,281,12865,5,12,0:0:0:0:
395,195,13041,1,0,0:0:0:0:
344,183,13129,1,8,0:0:0:0:
436,86,13394,1,8,0:0:0:0:
269,312,13570,5,8,0:3:0:0:
320,294,13659,1,8,0:0:0:0:
234,208,13923,1,8,0:0:0:0:
352,101,14188,1,8,0:0:0:0:
185,66,14365,5,0,0:0:0:0:
134,84,14453,1,8,0:0:0:0:
44,167,14718,1,8,0:0:0:0:
243,293,14982,1,12,0:3:0:0:
298,200,15159,5,0,0:0:0:0:
248,187,15247,1,8,0:0:0:0:
157,67,15512,1,8,0:0:0:0:
246,158,15776,1,8,0:0:0:0:
407,301,15953,5,0,0:0:0:0:
458,286,16041,1,8,0:0:0:0:
368,209,16306,1,8,0:0:0:0:
459,133,16570,1,8,0:0:0:0:
295,56,16747,5,0,0:0:0:0:
245,72,16835,1,8,0:0:0:0:
332,156,17100,1,8,0:0:0:0:
239,228,17365,1,8,0:0:0:0:
400,289,17541,5,0,0:0:0:0:
451,293,17629,1,8,0:0:0:0:
351,246,17806,1,8,0:3:0:0:
340,200,17894,1,8,0:0:0:0:
401,148,18070,1,12,0:3:0:0:
486,201,18247,1,12,0:3:0:0:
135,120,18512,5,14,0:0:0:0:
191,211,18688,1,2,0:0:0:0:
139,232,18776,1,10,0:0:0:0:
228,171,19041,1,10,0:0:0:0:
397,324,19218,5,10,0:3:0:0:
448,304,19306,1,10,0:0:0:0:
368,231,19570,1,10,0:0:0:0:
449,156,19835,1,10,0:0:0:0:
284,51,20012,5,2,0:0:0:0:
336,68,20100,1,10,0:0:0:0:
426,161,20365,1,10,0:0:0:0:
228,301,20629,1,14,0:3:0:0:
284,222,20806,5,2,0:0:0:0:
234,206,20894,1,10,0:0:0:0:
145,124,21159,1,10,0:0:0:0:
256,42,21423,1,10,0:0:0:0:
93,300,21600,5,2,0:0:0:0:
144,313,21688,1,10,0:0:0:0:
56,210,21953,1,10,0:0:0:0:
150,129,22218,1,10,0:0:0:0:
311,199,22394,5,2,0:0:0:0:
260,216,22482,1,10,0:0:0:0:
350,286,22747,1,10,0:0:0:0:
235,112,23012,1,10,0:0:0:0:
395,57,23187,5,2,0:0:0:0:
448,69,23276,1,10,0:0:0:0:
267,231,23541,1,2,0:0:0:0:
297,197,23629,1,2,0:0:0:0:
353,181,23718,1,14,0:3:0:0:
431,253,23894,1,14,0:3:0:0:
362,277,23982,1,10,0:0:0:0:
114,320,24159,5,14,0:0:0:0:
54,221,24423,1,2,0:0:0:0:
112,194,24512,1,12,0:3:0:0:
208,174,24688,1,2,0:0:0:0:
370,332,24865,5,10,0:0:0:0:
426,315,24953,1,10,0:3:0:0:
229,277,25218,1,14,0:3:0:0:
321,137,25482,1,2,0:0:0:0:
263,119,25570,5,8,0:0:0:0:
165,133,25747,1,2,0:0:0:0:
328,175,25923,1,14,0:3:0:0:
385,194,26012,1,2,0:0:0:0:
404,276,26276,1,10,0:0:0:0:
254,332,26453,5,2,0:0:0:0:
208,312,26541,1,10,0:3:0:0:
254,290,26629,1,12,0:3:0:0:
348,200,26806,1,2,0:0:0:0:
444,238,26982,1,10,0:0:0:0:
452,291,27070,1,2,0:0:0:0:
305,67,27247,5,2,0:0:0:0:
254,84,27335,1,14,0:3:0:0:
345,171,27600,1,2,0:0:0:0:
352,222,27688,1,8,0:0:0:0:
256,247,27865,1,2,0:0:0:0:
110,179,28041,5,14,0:3:0:0:
160,198,28129,1,10,0:3:0:0:
250,315,28394,1,10,0:0:0:0:
157,138,28659,1,2,0:0:0:0:
212,108,28747,5,12,0:3:0:0:
364,97,28923,1,2,0:0:0:0:
282,206,29100,1,10,0:0:0:0:
273,162,29188,1,10,0:3:0:0:
420,187,29453,1,12,0:3:0:0:
473,224,29541,1,10,0:0:0:0:
421,258,29629,1,2,0:0:0:0:
171,227,29806,5,12,0:0:0:0:
112,159,30071,1,2,0:0:0:0:
171,131,30159,1,8,0:0:0:0:
265,107,30335,1,2,0:0:0:0:
430,89,30512,5,14,0:3:0:0:
380,106,30600,1,10,0:3:0:0:
282,210,30865,1,10,0:0:0:0:
372,307,31129,1,2,0:0:0:0:
379,257,31218,5,8,0:0:0:0:
174,317,31394,1,2,0:0:0:0:
270,261,31570,1,10,0:0:0:0:
259,216,31659,1,2,0:0:0:0:
61,89,31923,1,14,0:3:0:0:
206,131,32100,5,2,0:0:0:0:
257,119,32188,1,10,0:3:0:0:
206,131,32276,1,8,0:0:0:0:
125,203,32453,1,10,0:0:0:0:
203,270,32718,1,10,0:0:0:0:
345,100,32894,5,2,0:0:0:0:
396,110,32982,1,10,0:0:0:0:
311,184,33247,1,10,0:0:0:0:
403,269,33512,1,10,0:0:0:0:
256,328,33688,5,2,0:0:0:0:
205,316,33776,1,14,0:3:0:0:
309,218,34041,1,10,0:0:0:0:
399,321,34306,1,10,0:0:0:0:
248,95,34482,5,2,0:0:0:0:
193,111,34570,1,10,0:0:0:0:
321,271,34747,1,10,0:3:0:0:
283,238,34835,1,2,0:0:0:0:
229,220,34923,1,2,0:0:0:0:
146,152,35188,1,14,0:3:0:0:
218,131,35276,1,10,0:0:0:0:
459,95,35453,5,14,0:0:0:0:
468,206,35718,1,0,0:0:0:0:
266,318,35982,1,10,0:0:0:0:
254,219,36247,1,0,0:0:0:0:
52,102,36512,5,10,0:0:0:0:
110,133,36776,1,0,0:0:0:0:
319,101,37041,1,10,0:0:0:0:
259,134,37306,1,0,0:0:0:0:
462,309,37570,5,14,0:3:0:0:
397,289,37835,1,0,0:0:0:0:
190,298,38100,1,10,0:0:0:0:
130,271,38365,1,0,0:0:0:0:
336,68,38629,5,10,0:0:0:0:
397,87,38894,1,0,0:0:0:0:
187,149,39159,1,10,0:0:0:0:
248,169,39423,1,0,0:0:0:0:
455,336,39688,5,10,0:0:0:0:
466,206,39953,1,0,0:0:0:0:
252,262,40218,1,10,0:0:0:0:
325,244,40482,1,2,0:0:0:0:
167,72,40659,1,10,0:0:0:0:
99,156,40835,1,10,0:0:0:0:
165,177,40923,1,2,0:0:0:0:
405,105,41100,5,10,0:0:0:0:
465,122,41365,1,0,0:0:0:0:
258,212,41629,1,10,0:0:0:0:
317,230,41894,1,8,0:3:0:0:
108,345,42159,5,10,0:0:0:0:
41,329,42423,1,0,0:0:0:0:
261,62,42688,1,10,0:0:0:0:
323,77,42953,1,0,0:0:0:0:
106,133,43218,5,14,0:3:0:0:
190,155,43482,1,8,0:3:0:0:
413,322,43747,1,10,0:0:0:0:
345,308,44012,1,0,0:0:0:0:
133,314,44276,5,10,0:0:0:0:
121,190,44541,1,0,0:0:0:0:
333,48,44806,1,10,0:0:0:0:
402,68,45070,1,8,0:3:0:0:
174,272,45335,1,10,0:0:0:0:
102,255,45600,1,0,0:0:0:0:
317,118,45865,5,10,0:0:0:0:
379,163,46129,1,2,0:0:0:0:
347,200,46218,1,2,0:0:0:0:
288,221,46306,1,14,0:3:0:0:
209,171,46482,1,14,0:3:0:0:
137,149,46570,1,2,0:0:0:0:
411,305,46747,5,14,0:0:0:0:
476,203,47012,1,0,0:0:0:0:
403,183,47144,1,10,0:0:0:0:
323,304,47409,1,0,0:0:0:0:
250,276,47541,1,10,0:0:0:0:
442,123,47806,1,0,0:0:0:0:
366,96,47938,1,10,0:0:0:0:
289,232,48203,1,0,0:0:0:0:
366,209,48335,5,10,0:0:0:0:
177,314,48600,1,0,0:0:0:0:
256,289,48732,1,10,0:0:0:0:
165,174,48997,1,0,0:0:0:0:
85,153,49129,1,10,0:0:0:0:
274,330,49394,1,0,0:0:0:0:
192,312,49526,1,10,0:0:0:0:
282,208,49791,1,0,0:0:0:0:
361,187,49923,5,10,0:0:0:0:
168,76,50188,1,0,0:0:0:0:
245,97,50320,1,10,0:0:0:0:
322,263,50585,1,0,0:0:0:0:
241,290,50718,1,10,0:0:0:0:
441,100,50982,1,0,0:0:0:0:
359,81,51115,1,10,0:0:0:0:
300,164,51379,1,0,0:0:0:0:
430,194,51512,5,10,0:0:0:0:
435,325,51776,1,10,0:0:0:0:
400,290,51865,1,2,0:0:0:0:
344,267,51953,1,10,0:0:0:0:
423,170,52129,1,10,0:0:0:0:
354,148,52218,1,2,0:0:0:0:
114,306,52394,5,14,0:0:0:0:
48,204,52659,1,0,0:0:0:0:
122,184,52791,1,10,0:0:0:0:
202,305,53056,1,0,0:0:0:0:
275,277,53188,1,10,0:0:0:0:
83,124,53453,1,0,0:0:0:0:
159,97,53585,1,10,0:0:0:0:
236,233,53850,1,0,0:0:0:0:
159,210,53982,5,10,0:0:0:0:
348,315,54247,1,0,0:0:0:0:
269,290,54379,1,10,0:0:0:0:
360,175,54644,1,0,0:0:0:0:
440,154,54776,1,10,0:0:0:0:
251,331,55041,1,0,0:0:0:0:
333,313,55173,1,10,0:0:0:0:
411,210,55438,1,0,0:0:0:0:
332,189,55570,5,10,0:0:0:0:
130,77,55835,1,0,0:0:0:0:
207,98,55967,1,10,0:0:0:0:
279,260,56232,1,0,0:0:0:0:
360,287,56365,1,10,0:0:0:0:
165,101,56629,1,0,0:0:0:0:
247,82,56762,1,10,0:0:0:0:
328,172,57026,1,0,0:0:0:0:
198,197,57159,5,10,0:0:0:0:
190,323,57423,1,10,0:0:0:0:
230,283,57511,1,2,0:0:0:0:
299,261,57600,1,10,0:0:0:0:
225,145,57776,1,10,0:0:0:0:
155,124,57865,1,14,0:3:0:0:
417,74,58041,5,14,0:0:0:0:
461,152,58173,1,0,0:0:0:0:
421,224,58306,1,0,0:0:0:0:
306,249,58394,1,8,0:3:0:0:
144,94,58747,5,8,0:0:0:0:
110,141,58835,1,2,0:0:0:0:
141,194,58968,1,0,0:0:0:0:
262,212,59100,1,8,0:3:0:0:
427,316,59453,5,8,0:0:0:0:
399,255,59629,1,2,0:0:0:0:
253,233,59806,1,8,0:3:0:0:
101,133,60159,1,8,0:0:0:0:
82,193,60291,1,0,0:0:0:0:
127,243,60423,1,2,0:0:0:0:
228,256,60512,1,8,0:3:0:0:
362,300,60865,5,8,0:0:0:0:
451,236,61041,1,0,0:0:0:0:
292,199,61218,1,14,0:3:0:0:
284,113,61394,1,0,0:0:0:0:
201,319,61570,1,8,0:0:0:0:
209,223,61747,1,0,0:0:0:0:
366,86,61923,1,12,0:3:0:0:
449,110,62100,1,0,0:0:0:0:
355,135,62276,5,8,0:0:0:0:
340,206,62453,1,0,0:0:0:0:
185,322,62629,1,12,0:3:0:0:
101,301,62806,1,2,0:0:0:0:
196,272,62982,1,8,0:0:0:0:
210,191,63159,1,2,0:0:0:0:
369,82,63335,1,12,0:3:0:0:
419,116,63423,1,2,0:0:0:0:
371,145,63512,1,14,0:3:0:0:
125,303,63688,5,14,0:0:0:0:
112,220,63865,1,0,0:0:0:0:
268,68,64041,1,12,0:3:0:0:
350,91,64218,1,0,0:0:0:0:
187,153,64394,1,12,0:3:0:0:
269,175,64570,1,0,0:0:0:0:
426,308,64747,1,14,0:3:0:0:
434,227,64923,1,0,0:0:0:0:
269,309,65100,5,12,0:3:0:0:
185,288,65276,1,2,0:0:0:0:
347,198,65453,1,12,0:3:0:0:
264,174,65629,1,0,0:0:0:0:
100,76,65806,1,12,0:3:0:0:
88,155,65982,1,0,0:0:0:0:
250,310,66159,1,12,0:3:0:0:
166,283,66335,1,8,0:0:0:0:
323,50,66512,5,12,0:3:0:0:
361,107,66688,1,0,0:0:0:0:
326,166,66865,1,10,0:3:0:0:
237,181,67041,1,0,0:0:0:0:
149,126,67218,1,8,0:3:0:0:
108,178,67394,1,0,0:0:0:0:
145,235,67570,1,8,0:3:0:0:
230,254,67747,1,0,0:0:0:0:
306,309,67923,5,8,0:3:0:0:
392,276,68100,1,0,0:0:0:0:
426,217,68276,1,8,0:3:0:0:
263,150,68453,1,2,0:0:0:0:
201,165,68718,1,10,0:3:0:0:
220,208,68806,1,2,0:0:0:0:
263,240,68894,1,10,0:0:0:0:
362,265,69070,1,10,0:0:0:0:
434,249,69159,1,14,0:3:0:0:
146,80,69335,5,12,0:0:0:0:
256,192,69512,12,0,70570,0:0:0:0:
256,192,70747,12,0,71982,0:0:0:0:
256,192,72159,12,0,73394,0:0:0:0:
256,192,73570,12,0,74629,0:0:0:0:
286,56,74982,5,10,0:0:0:0:
342,125,75247,1,0,0:0:0:0:
294,200,75512,1,0,0:0:0:0:
205,238,75732,1,0,0:0:0:0:
97,253,75997,1,0,0:0:0:0:
159,268,76129,1,0,0:0:0:0:
394,322,76394,5,10,0:0:0:0:
441,269,76615,1,0,0:0:0:0:
391,215,76865,1,0,0:0:0:0:
307,192,77144,1,0,0:0:0:0:
384,147,77394,1,0,0:0:0:0:
461,109,77629,1,0,0:0:0:0:
309,49,77806,5,10,0:0:0:0:
224,69,77982,1,0,0:0:0:0:
174,125,78203,1,0,0:0:0:0:
224,183,78468,1,0,0:0:0:0:
312,192,78688,1,0,0:0:0:0:
383,247,78865,1,0,0:0:0:0:
313,302,79085,1,0,0:0:0:0:
191,285,79218,5,10,0:0:0:0:
120,252,79438,1,0,0:0:0:0:
94,189,79659,1,0,0:0:0:0:
429,61,79923,1,12,0:3:0:0:
479,305,80188,1,0,0:0:0:0:
467,257,80276,1,0,0:0:0:0:
367,232,80453,1,12,0:3:0:0:
126,315,80629,5,14,0:0:0:0:
205,183,80894,1,10,0:0:0:0:
351,57,81159,1,10,0:0:0:0:
359,158,81394,1,10,0:0:0:0:
131,326,81644,1,10,0:0:0:0:
47,297,81865,1,10,0:0:0:0:
301,320,82041,5,10,0:0:0:0:
381,287,82276,1,10,0:0:0:0:
238,230,82526,1,10,0:0:0:0:
213,133,82791,1,10,0:0:0:0:
441,322,83041,1,10,0:0:0:0:
459,230,83276,1,10,0:0:0:0:
194,319,83453,5,10,0:0:0:0:
102,295,83629,1,10,0:0:0:0:
245,237,83865,1,10,0:0:0:0:
336,202,84115,1,10,0:0:0:0:
143,59,84335,1,10,0:0:0:0:
227,91,84512,1,10,0:0:0:0:
103,127,84747,1,10,0:0:0:0:
430,319,84982,5,10,0:0:0:0:
478,235,85218,1,10,0:0:0:0:
417,155,85394,1,10,0:0:0:0:
246,131,85570,1,14,0:3:0:0:
201,161,85835,1,10,0:0:0:0:
325,191,86100,1,10,0:0:0:0:
69,326,86276,5,14,0:0:0:0:
57,240,86541,1,10,0:0:0:0:
187,165,86806,1,10,0:0:0:0:
119,137,87041,1,10,0:0:0:0:
331,151,87276,1,10,0:0:0:0:
344,248,87512,1,10,0:0:0:0:
79,118,87688,5,10,0:0:0:0:
64,228,87923,1,10,0:0:0:0:
205,254,88173,1,10,0:0:0:0:
300,213,88438,1,10,0:0:0:0:
50,108,88688,1,10,0:0:0:0:
143,133,88923,1,10,0:0:0:0:
414,333,89100,5,10,0:0:0:0:
424,251,89276,1,10,0:0:0:0:
310,143,89512,1,10,0:0:0:0:
387,167,89747,1,10,0:0:0:0:
174,326,89982,1,10,0:0:0:0:
237,252,90159,1,10,0:0:0:0:
377,226,90394,1,10,0:0:0:0:
55,326,90629,5,10,0:0:0:0:
43,252,90865,1,10,0:0:0:0:
130,172,91041,1,10,0:0:0:0:
403,71,91218,1,14,0:3:0:0:
472,141,91482,1,2,0:0:0:0:
462,197,91570,1,0,0:0:0:0:
364,230,91747,1,14,0:3:0:0:
115,313,91923,5,14,0:0:0:0:
47,266,92188,1,2,0:0:0:0:
176,167,92276,1,12,0:3:0:0:
189,80,92453,1,2,0:0:0:0:
109,80,92629,1,8,0:0:0:0:
163,84,92806,1,2,0:0:0:0:
343,299,92982,1,14,0:3:0:0:
431,262,93159,1,2,0:0:0:0:
182,254,93335,5,10,0:0:0:0:
93,235,93570,1,2,0:0:0:0:
210,189,93688,1,12,0:3:0:0:
276,162,93806,1,2,0:0:0:0:
84,86,94085,1,2,0:0:0:0:
306,324,94394,1,14,0:3:0:0:
197,288,94570,1,2,0:0:0:0:
440,71,94747,5,10,0:0:0:0:
472,157,94923,1,2,0:0:0:0:
309,173,95100,1,14,0:3:0:0:
403,201,95276,1,2,0:0:0:0:
246,320,95453,1,10,0:0:0:0:
153,284,95629,1,2,0:0:0:0:
399,276,95806,1,14,0:3:0:0:
415,202,96041,1,2,0:0:0:0:
286,78,96159,5,10,0:0:0:0:
214,111,96394,1,2,0:0:0:0:
333,140,96512,1,14,0:3:0:0:
364,187,96600,1,2,0:0:0:0:
335,236,96776,1,2,0:0:0:0:
267,260,96865,1,10,0:0:0:0:
388,292,97129,1,2,0:0:0:0:
460,305,97218,1,12,0:3:0:0:
368,172,97394,1,10,0:3:0:0:
111,110,97570,5,14,0:0:0:0:
62,226,97923,1,8,0:0:0:0:
168,188,98100,1,2,0:0:0:0:
410,78,98276,1,12,0:3:0:0:
441,166,98453,1,2,0:0:0:0:
285,318,98629,1,8,0:0:0:0:
391,285,98806,1,2,0:0:0:0:
115,69,98982,5,10,0:0:0:0:
55,140,99335,1,8,0:0:0:0:
143,174,99453,1,2,0:0:0:0:
466,93,99688,5,14,0:3:0:0:
477,180,99865,1,2,0:0:0:0:
301,271,100041,1,8,0:0:0:0:
410,301,100218,1,2,0:0:0:0:
144,67,100394,5,10,0:0:0:0:
92,136,100570,1,2,0:0:0:0:
128,173,100688,1,2,0:0:0:0:
200,192,100806,1,2,0:0:0:0:
413,63,101056,1,2,0:0:0:0:
298,112,101276,1,2,0:0:0:0:
287,166,101365,1,2,0:0:0:0:
367,182,101453,5,2,0:0:0:0:
392,234,101570,1,2,0:0:0:0:
368,275,101688,1,2,0:0:0:0:
292,304,101806,1,2,0:0:0:0:
227,294,101923,1,2,0:0:0:0:
327,268,102159,1,2,0:0:0:0:
437,240,102335,1,2,0:0:0:0:
176,71,102512,1,14,0:3:0:0:
95,131,102776,1,2,0:0:0:0:
85,184,102865,1,0,0:0:0:0:
182,219,103041,1,14,0:3:0:0:
424,286,103218,5,12,0:0:0:0:
437,201,103482,1,8,0:0:0:0:
346,168,103747,1,8,0:0:0:0:
334,78,103982,1,8,0:0:0:0:
120,311,104232,1,8,0:0:0:0:
108,225,104453,1,8,0:0:0:0:
284,285,104629,5,8,0:0:0:0:
290,196,104865,1,8,0:0:0:0:
375,52,105100,1,8,0:0:0:0:
392,134,105379,1,8,0:0:0:0:
177,316,105629,1,8,0:0:0:0:
267,274,105865,1,8,0:0:0:0:
79,75,106041,5,8,0:0:0:0:
63,183,106218,1,8,0:0:0:0:
161,129,106453,1,8,0:0:0:0:
172,220,106703,1,8,0:0:0:0:
387,326,106923,1,8,0:0:0:0:
446,255,107100,1,8,0:0:0:0:
383,178,107335,1,8,0:0:0:0:
170,67,107570,5,8,0:0:0:0:
157,161,107806,1,8,0:0:0:0:
242,176,107982,1,8,0:0:0:0:
257,264,108159,1,12,0:3:0:0:
70,333,108423,1,8,0:0:0:0:
134,209,108688,1,8,0:0:0:0:
390,38,108865,5,12,0:0:0:0:
403,131,109129,1,8,0:0:0:0:
317,161,109394,1,8,0:0:0:0:
306,246,109629,1,8,0:0:0:0:
85,331,109879,1,8,0:0:0:0:
73,224,110100,1,8,0:0:0:0:
230,85,110276,5,8,0:0:0:0:
238,173,110512,1,8,0:0:0:0:
157,325,110747,1,8,0:0:0:0:
141,236,111026,1,8,0:0:0:0:
359,237,111276,1,8,0:0:0:0:
264,199,111512,1,8,0:0:0:0:
419,57,111688,5,8,0:0:0:0:
432,144,111865,1,8,0:0:0:0:
363,308,112100,1,8,0:0:0:0:
344,217,112350,1,8,0:0:0:0:
151,80,112570,1,8,0:0:0:0:
93,167,112747,1,8,0:0:0:0:
153,248,112982,1,8,0:0:0:0:
370,334,113218,5,8,0:0:0:0:
382,239,113453,1,8,0:0:0:0:
292,212,113629,1,8,0:0:0:0:
278,113,113806,1,8,0:0:0:0:
481,42,114070,1,8,0:0:0:0:
420,110,114335,1,8,0:0:0:0:
153,112,114512,5,10,0:0:0:0:
