osu file format v14

[General]
AudioFilename: audio.mp3
AudioLeadIn: 0
PreviewTime: 91750
Countdown: 0
SampleSet: Soft
StackLeniency: 0.7
Mode: 3
LetterboxInBreaks: 0
SpecialStyle: 0
WidescreenStoryboard: 0

[Editor]
Bookmarks: 1574,12868,18515,24162,29809,35456,41103,46750,52397,58044,63691,69338,74985,80632,91926,103221,114515
DistanceSpacing: 0.6
BeatDivisor: 4
GridSize: 16
TimelineZoom: 2.2

[Metadata]
Title:VANGUARD-3
TitleUnicode:VANGUARD-3
Artist:II-L
ArtistUnicode:II-L
Creator:Irone OSU
Version:PIONEERING
Source:
Tags:Scott Webb mappers' guild mg fa featured artist psy footcore electronic juke footwork psytrance instrumental IIL VANGUARD3 Project
BeatmapID:3054621
BeatmapSetID:1490200

[Difficulty]
HPDrainRate:8.5
CircleSize:4
OverallDifficulty:8.5
ApproachRate:5
SliderMultiplier:1.4
SliderTickRate:1

[Events]
//Background and Video events
0,0,"scott-webb-isp5-i3Mx2k-unsplash.jpg",0,0
//Break Periods
//Storyboard Layer 0 (Background)
//Storyboard Layer 1 (Fail)
//Storyboard Layer 2 (Pass)
//Storyboard Layer 3 (Foreground)
//Storyboard Layer 4 (Overlay)
//Storyboard Sound Samples

[TimingPoints]
1574,352.941176470588,4,2,1,76,1,0
80632,-100,4,2,1,76,0,1
103221,-100,4,2,1,76,0,0

[HitObjects]
64,192,1574,5,2,0:0:0:0:
448,192,1574,1,0,0:0:0:0:
448,192,1838,1,2,0:0:0:0:
448,192,2103,1,2,0:0:0:0:
320,192,2368,1,2,0:0:0:0:
320,192,2632,1,2,0:0:0:0:
320,192,2897,1,2,0:0:0:0:
192,192,3162,1,2,0:0:0:0:
192,192,3426,1,2,0:0:0:0:
192,192,3691,1,2,0:0:0:0:
64,192,3956,1,2,0:0:0:0:
64,192,4221,1,2,0:0:0:0:
64,192,4485,1,2,0:0:0:0:
192,192,4750,1,2,0:0:0:0:
192,192,5015,1,2,0:0:0:0:
192,192,5279,1,2,0:0:0:0:
320,192,5544,1,2,0:0:0:0:
320,192,5809,1,2,0:0:0:0:
320,192,6073,1,2,0:0:0:0:
448,192,6338,1,2,0:0:0:0:
448,192,6603,1,2,0:0:0:0:
320,192,6779,1,2,0:0:0:0:
448,192,6956,1,2,0:0:0:0:
64,192,7221,1,2,0:0:0:0:
192,192,7221,1,0,0:0:0:0:
448,192,7485,1,2,0:0:0:0:
448,192,7750,1,2,0:0:0:0:
64,192,7926,1,8,0:0:0:0:
192,192,7926,1,0,0:0:0:0:
320,192,8015,1,8,0:0:0:0:
448,192,8015,1,2,0:0:0:0:
320,192,8279,1,2,0:0:0:0:
320,192,8544,1,2,0:0:0:0:
192,192,8809,1,2,0:0:0:0:
192,192,9073,1,2,0:0:0:0:
64,192,9338,1,2,0:0:0:0:
192,192,9338,1,8,0:0:0:0:
64,192,9603,1,8,0:0:0:0:
192,192,9603,1,2,0:0:0:0:
64,192,9868,1,2,0:0:0:0:
64,192,10132,1,2,0:0:0:0:
192,192,10397,1,2,0:0:0:0:
192,192,10662,1,2,0:0:0:0:
320,192,10750,1,8,0:0:0:0:
448,192,10750,1,0,0:0:0:0:
192,192,10926,1,2,0:0:0:0:
320,192,11191,1,8,0:0:0:0:
448,192,11191,1,2,0:0:0:0:
320,192,11456,1,2,0:0:0:0:
320,192,11721,1,2,0:0:0:0:
448,192,11985,1,2,0:0:0:0:
64,192,12162,1,8,0:0:0:0:
192,192,12162,1,0,0:0:0:0:
448,192,12250,1,2,0:0:0:0:
64,192,12426,1,8,0:0:0:0:
192,192,12426,1,2,0:0:0:0:
320,192,12515,1,0,0:0:0:0:
64,192,12603,1,2,0:0:0:0:
192,192,12603,1,8,0:0:0:0:
448,192,12691,1,0,0:0:0:0:
64,192,12779,1,8,0:0:0:0:
320,192,12779,1,0,0:0:0:0:
192,192,12868,1,4,0:0:0:0:
448,192,12868,1,2,0:0:0:0:
320,192,13044,1,0,0:0:0:0:
64,192,13132,1,2,0:0:0:0:
192,192,13132,1,0,0:0:0:0:
448,192,13309,1,0,0:0:0:0:
64,192,13397,1,2,0:0:0:0:
192,192,13397,1,0,0:0:0:0:
64,192,13573,1,8,0:0:0:0:
448,192,13573,1,0,0:0:0:0:
192,192,13662,1,2,0:0:0:0:
320,192,13662,1,0,0:0:0:0:
192,192,13838,1,0,0:0:0:0:
320,192,13926,1,2,0:0:0:0:
448,192,13926,1,0,0:0:0:0:
64,192,14103,1,0,0:0:0:0:
320,192,14191,1,2,0:0:0:0:
448,192,14191,1,0,0:0:0:0:
320,192,14368,1,0,0:0:0:0:
64,192,14456,1,2,0:0:0:0:
448,192,14456,1,0,0:0:0:0:
192,192,14632,1,0,0:0:0:0:
64,192,14721,1,2,0:0:0:0:
320,192,14721,1,0,0:0:0:0:
448,192,14897,1,0,0:0:0:0:
64,192,14985,1,8,0:0:0:0:
320,192,14985,1,2,0:0:0:0:
64,192,15162,1,0,0:0:0:0:
320,192,15250,1,2,0:0:0:0:
448,192,15250,1,0,0:0:0:0:
320,192,15426,1,0,0:0:0:0:
64,192,15515,1,2,0:0:0:0:
448,192,15515,1,0,0:0:0:0:
192,192,15691,1,0,0:0:0:0:
64,192,15779,1,2,0:0:0:0:
448,192,15779,1,0,0:0:0:0:
320,192,15956,1,0,0:0:0:0:
64,192,16044,1,2,0:0:0:0:
192,192,16044,1,0,0:0:0:0:
448,192,16221,1,0,0:0:0:0:
64,192,16309,1,2,0:0:0:0:
192,192,16309,1,0,0:0:0:0:
320,192,16397,1,8,0:0:0:0:
448,192,16397,1,0,0:0:0:0:
64,192,16485,1,0,0:0:0:0:
192,192,16573,1,2,0:0:0:0:
320,192,16573,1,0,0:0:0:0:
448,192,16750,1,0,0:0:0:0:
64,192,16838,1,2,0:0:0:0:
320,192,16838,1,0,0:0:0:0:
64,192,17015,1,0,0:0:0:0:
320,192,17103,1,2,0:0:0:0:
448,192,17103,1,0,0:0:0:0:
192,192,17279,1,0,0:0:0:0:
320,192,17368,1,2,0:0:0:0:
448,192,17368,1,0,0:0:0:0:
320,192,17544,1,0,0:0:0:0:
64,192,17632,1,2,0:0:0:0:
192,192,17632,1,0,0:0:0:0:
192,192,17809,1,8,0:0:0:0:
448,192,17809,1,0,0:0:0:0:
64,192,17897,1,2,0:0:0:0:
320,192,17897,1,0,0:0:0:0:
448,192,17985,1,0,0:0:0:0:
64,192,18073,1,8,0:0:0:0:
192,192,18073,1,2,0:0:0:0:
64,192,18250,1,2,0:0:0:0:
320,192,18250,1,8,0:0:0:0:
448,192,18338,1,0,0:0:0:0:
64,192,18426,1,8,0:0:0:0:
192,192,18426,1,0,0:0:0:0:
320,192,18515,1,2,0:0:0:0:
448,192,18515,1,4,0:0:0:0:
64,192,18691,1,0,0:0:0:0:
320,192,18779,1,2,0:0:0:0:
448,192,18779,1,0,0:0:0:0:
448,192,18956,1,0,0:0:0:0:
192,192,19044,1,2,0:0:0:0:
320,192,19044,1,0,0:0:0:0:
64,192,19221,1,8,0:0:0:0:
320,192,19221,1,0,0:0:0:0:
192,192,19309,1,2,0:0:0:0:
448,192,19309,1,0,0:0:0:0:
64,192,19485,1,0,0:0:0:0:
192,192,19573,1,2,0:0:0:0:
320,192,19573,1,0,0:0:0:0:
448,192,19750,1,0,0:0:0:0:
192,192,19838,1,2,0:0:0:0:
320,192,19838,1,0,0:0:0:0:
64,192,20015,1,0,0:0:0:0:
320,192,20103,1,2,0:0:0:0:
448,192,20103,1,0,0:0:0:0:
192,192,20279,1,0,0:0:0:0:
64,192,20368,1,2,0:0:0:0:
320,192,20368,1,0,0:0:0:0:
448,192,20544,1,0,0:0:0:0:
64,192,20632,1,8,0:0:0:0:
192,192,20632,1,2,0:0:0:0:
192,192,20809,1,0,0:0:0:0:
320,192,20897,1,2,0:0:0:0:
448,192,20897,1,0,0:0:0:0:
64,192,21073,1,0,0:0:0:0:
192,192,21162,1,2,0:0:0:0:
320,192,21162,1,0,0:0:0:0:
64,192,21338,1,0,0:0:0:0:
320,192,21426,1,2,0:0:0:0:
448,192,21426,1,0,0:0:0:0:
320,192,21603,1,0,0:0:0:0:
64,192,21691,1,2,0:0:0:0:
448,192,21691,1,0,0:0:0:0:
320,192,21868,1,0,0:0:0:0:
64,192,21956,1,2,0:0:0:0:
192,192,21956,1,0,0:0:0:0:
320,192,22044,1,8,0:0:0:0:
448,192,22044,1,0,0:0:0:0:
64,192,22132,1,0,0:0:0:0:
192,192,22221,1,2,0:0:0:0:
448,192,22221,1,0,0:0:0:0:
320,192,22397,1,0,0:0:0:0:
64,192,22485,1,2,0:0:0:0:
448,192,22485,1,0,0:0:0:0:
64,192,22662,1,0,0:0:0:0:
192,192,22750,1,2,0:0:0:0:
448,192,22750,1,0,0:0:0:0:
192,192,22926,1,0,0:0:0:0:
64,192,23015,1,2,0:0:0:0:
320,192,23015,1,0,0:0:0:0:
192,192,23191,1,0,0:0:0:0:
320,192,23279,1,2,0:0:0:0:
448,192,23279,1,0,0:0:0:0:
64,192,23456,1,8,0:0:0:0:
192,192,23456,1,0,0:0:0:0:
320,192,23544,1,2,0:0:0:0:
448,192,23588,1,2,0:0:0:0:
192,192,23632,1,2,0:0:0:0:
64,192,23676,1,2,0:0:0:0:
320,192,23721,1,8,0:0:0:0:
448,192,23721,1,2,0:0:0:0:
320,192,23897,1,8,0:0:0:0:
448,192,23897,1,2,0:0:0:0:
192,192,23985,1,2,0:0:0:0:
320,192,24073,1,2,0:0:0:0:
448,192,24073,1,8,0:0:0:0:
64,192,24162,1,2,0:0:0:0:
192,192,24162,1,4,0:0:0:0:
320,192,24338,1,0,0:0:0:0:
64,192,24426,1,0,0:0:0:0:
192,192,24515,1,8,0:0:0:0:
448,192,24515,1,2,0:0:0:0:
64,192,24603,1,0,0:0:0:0:
320,192,24691,1,0,0:0:0:0:
320,192,24868,1,2,0:0:0:0:
448,192,24868,1,0,0:0:0:0:
64,192,24956,1,8,0:0:0:0:
192,192,24956,1,0,0:0:0:0:
320,192,25132,1,0,0:0:0:0:
192,192,25221,1,2,0:0:0:0:
448,192,25221,1,8,0:0:0:0:
448,192,25397,1,0,0:0:0:0:
192,192,25485,1,0,0:0:0:0:
64,192,25573,1,2,0:0:0:0:
320,192,25573,1,0,0:0:0:0:
192,192,25662,1,0,0:0:0:0:
448,192,25750,1,0,0:0:0:0:
192,192,25926,1,8,0:0:0:0:
320,192,25926,1,2,0:0:0:0:
64,192,26015,1,0,0:0:0:0:
320,192,26191,1,0,0:0:0:0:
192,192,26279,1,2,0:0:0:0:
64,192,26279,1,0,0:0:0:0:
320,192,26456,1,0,0:0:0:0:
64,192,26544,1,8,0:0:0:0:
448,192,26544,1,0,0:0:0:0:
192,192,26632,1,8,0:0:0:0:
320,192,26632,1,2,0:0:0:0:
64,192,26721,1,0,0:0:0:0:
320,192,26809,1,0,0:0:0:0:
64,192,26985,1,2,0:0:0:0:
192,192,26985,1,0,0:0:0:0:
448,192,27073,1,0,0:0:0:0:
320,192,27250,1,0,0:0:0:0:
192,192,27338,1,8,0:0:0:0:
448,192,27338,1,2,0:0:0:0:
64,192,27515,1,0,0:0:0:0:
320,192,27603,1,0,0:0:0:0:
192,192,27691,1,2,0:0:0:0:
448,192,27691,1,0,0:0:0:0:
320,192,27779,1,0,0:0:0:0:
64,192,27868,1,0,0:0:0:0:
192,192,28044,1,8,0:0:0:0:
448,192,28044,1,2,0:0:0:0:
64,192,28132,1,8,0:0:0:0:
320,192,28132,1,0,0:0:0:0:
192,192,28309,1,0,0:0:0:0:
320,192,28397,1,2,0:0:0:0:
448,192,28397,1,0,0:0:0:0:
192,192,28573,1,0,0:0:0:0:
64,192,28662,1,0,0:0:0:0:
192,192,28750,1,8,0:0:0:0:
448,192,28750,1,2,0:0:0:0:
320,192,28838,1,0,0:0:0:0:
64,192,28926,1,0,0:0:0:0:
192,192,29015,1,8,0:0:0:0:
320,192,29015,1,0,0:0:0:0:
64,192,29103,1,2,0:0:0:0:
448,192,29103,1,0,0:0:0:0:
192,192,29191,1,8,0:0:0:0:
320,192,29191,1,0,0:0:0:0:
448,192,29279,1,0,0:0:0:0:
64,192,29368,1,0,0:0:0:0:
320,192,29456,1,8,0:0:0:0:
448,192,29456,1,2,0:0:0:0:
64,192,29544,1,2,0:0:0:0:
192,192,29544,1,0,0:0:0:0:
320,192,29632,1,0,0:0:0:0:
64,192,29721,1,8,0:0:0:0:
448,192,29721,1,2,0:0:0:0:
192,192,29809,1,4,0:0:0:0:
320,192,29809,1,2,0:0:0:0:
448,192,29985,1,0,0:0:0:0:
448,192,30073,1,0,0:0:0:0:
192,192,30162,1,2,0:0:0:0:
320,192,30162,1,0,0:0:0:0:
64,192,30250,1,0,0:0:0:0:
320,192,30338,1,0,0:0:0:0:
64,192,30515,1,8,0:0:0:0:
192,192,30515,1,2,0:0:0:0:
320,192,30603,1,8,0:0:0:0:
448,192,30603,1,0,0:0:0:0:
448,192,30779,1,0,0:0:0:0:
64,192,30868,1,2,0:0:0:0:
320,192,30868,1,0,0:0:0:0:
192,192,31044,1,0,0:0:0:0:
192,192,31132,1,0,0:0:0:0:
64,192,31221,1,2,0:0:0:0:
448,192,31221,1,0,0:0:0:0:
320,192,31309,1,0,0:0:0:0:
192,192,31397,1,0,0:0:0:0:
320,192,31573,1,2,0:0:0:0:
448,192,31573,1,0,0:0:0:0:
64,192,31662,1,0,0:0:0:0:
192,192,31838,1,0,0:0:0:0:
64,192,31926,1,2,0:0:0:0:
448,192,31926,1,8,0:0:0:0:
320,192,32103,1,0,0:0:0:0:
192,192,32191,1,8,0:0:0:0:
320,192,32191,1,0,0:0:0:0:
64,192,32279,1,2,0:0:0:0:
448,192,32279,1,0,0:0:0:0:
192,192,32368,1,0,0:0:0:0:
320,192,32456,1,2,0:0:0:0:
448,192,32456,1,0,0:0:0:0:
64,192,32632,1,0,0:0:0:0:
320,192,32721,1,2,0:0:0:0:
448,192,32721,1,0,0:0:0:0:
320,192,32897,1,0,0:0:0:0:
192,192,32985,1,2,0:0:0:0:
448,192,32985,1,0,0:0:0:0:
64,192,33162,1,0,0:0:0:0:
192,192,33250,1,2,0:0:0:0:
448,192,33250,1,0,0:0:0:0:
64,192,33338,1,8,0:0:0:0:
320,192,33338,1,0,0:0:0:0:
448,192,33426,1,0,0:0:0:0:
64,192,33515,1,2,0:0:0:0:
192,192,33515,1,0,0:0:0:0:
320,192,33691,1,0,0:0:0:0:
64,192,33779,1,8,0:0:0:0:
448,192,33779,1,2,0:0:0:0:
320,192,33956,1,0,0:0:0:0:
64,192,34044,1,2,0:0:0:0:
192,192,34044,1,0,0:0:0:0:
192,192,34221,1,0,0:0:0:0:
64,192,34309,1,2,0:0:0:0:
320,192,34309,1,0,0:0:0:0:
320,192,34485,1,0,0:0:0:0:
64,192,34573,1,2,0:0:0:0:
448,192,34573,1,0,0:0:0:0:
320,192,34750,1,8,0:0:0:0:
448,192,34750,1,0,0:0:0:0:
192,192,34838,1,2,0:0:0:0:
64,192,34882,1,2,0:0:0:0:
320,192,34926,1,2,0:0:0:0:
192,192,34971,1,2,0:0:0:0:
64,192,35015,1,8,0:0:0:0:
448,192,35015,1,2,0:0:0:0:
192,192,35191,1,8,0:0:0:0:
320,192,35191,1,2,0:0:0:0:
448,192,35279,1,2,0:0:0:0:
192,192,35368,1,2,0:0:0:0:
320,192,35368,1,8,0:0:0:0:
64,192,35456,1,4,0:0:0:0:
448,192,35456,1,2,0:0:0:0:
448,192,35985,1,2,0:0:0:0:
192,192,36162,1,8,0:0:0:0:
320,192,36515,1,2,0:0:0:0:
192,192,37044,1,2,0:0:0:0:
64,192,37573,1,10,0:0:0:0:
192,192,38103,1,2,0:0:0:0:
320,192,38632,1,2,0:0:0:0:
192,192,38985,1,8,0:0:0:0:
448,192,39162,1,2,0:0:0:0:
320,192,39691,1,2,0:0:0:0:
192,192,40221,1,2,0:0:0:0:
448,192,40397,1,8,0:0:0:0:
64,192,40662,1,2,0:0:0:0:
192,192,40838,1,2,0:0:0:0:
448,192,41015,1,2,0:0:0:0:
192,192,41103,1,2,0:0:0:0:
64,192,41279,1,0,0:0:0:0:
320,192,41368,1,0,0:0:0:0:
448,192,41544,1,0,0:0:0:0:
64,192,41632,1,2,0:0:0:0:
192,192,41809,1,8,0:0:0:0:
320,192,41897,1,8,0:0:0:0:
64,192,42073,1,0,0:0:0:0:
320,192,42162,1,2,0:0:0:0:
448,192,42338,1,0,0:0:0:0:
192,192,42426,1,0,0:0:0:0:
192,192,42603,1,0,0:0:0:0:
320,192,42691,1,2,0:0:0:0:
320,192,42868,1,0,0:0:0:0:
64,192,42956,1,0,0:0:0:0:
64,192,43132,1,0,0:0:0:0:
192,192,43221,1,10,0:0:0:0:
192,192,43397,1,0,0:0:0:0:
448,192,43485,1,8,0:0:0:0:
320,192,43662,1,0,0:0:0:0:
64,192,43750,1,2,0:0:0:0:
64,192,43926,1,0,0:0:0:0:
192,192,44015,1,0,0:0:0:0:
192,192,44191,1,0,0:0:0:0:
320,192,44279,1,2,0:0:0:0:
64,192,44456,1,0,0:0:0:0:
448,192,44544,1,0,0:0:0:0:
320,192,44632,1,8,0:0:0:0:
64,192,44721,1,0,0:0:0:0:
320,192,44809,1,2,0:0:0:0:
192,192,44985,1,0,0:0:0:0:
448,192,45073,1,8,0:0:0:0:
192,192,45250,1,0,0:0:0:0:
64,192,45338,1,2,0:0:0:0:
192,192,45515,1,0,0:0:0:0:
448,192,45603,1,0,0:0:0:0:
64,192,45779,1,0,0:0:0:0:
448,192,45868,1,2,0:0:0:0:
192,192,46044,1,8,0:0:0:0:
320,192,46132,1,0,0:0:0:0:
192,192,46221,1,0,0:0:0:0:
448,192,46309,1,10,0:0:0:0:
192,192,46485,1,10,0:0:0:0:
64,192,46573,1,2,0:0:0:0:
448,192,46662,1,10,0:0:0:0:
192,192,46750,1,4,0:0:0:0:
320,192,46750,1,2,0:0:0:0:
64,192,46882,1,0,0:0:0:0:
192,192,47015,1,0,0:0:0:0:
320,192,47147,1,2,0:0:0:0:
64,192,47279,1,0,0:0:0:0:
320,192,47412,1,0,0:0:0:0:
448,192,47456,1,8,0:0:0:0:
64,192,47544,1,2,0:0:0:0:
192,192,47676,1,0,0:0:0:0:
320,192,47809,1,0,0:0:0:0:
448,192,47941,1,2,0:0:0:0:
64,192,48073,1,0,0:0:0:0:
320,192,48206,1,0,0:0:0:0:
448,192,48338,1,2,0:0:0:0:
192,192,48471,1,0,0:0:0:0:
64,192,48603,1,0,0:0:0:0:
320,192,48735,1,2,0:0:0:0:
192,192,48868,1,8,0:0:0:0:
448,192,49000,1,0,0:0:0:0:
320,192,49132,1,2,0:0:0:0:
192,192,49265,1,0,0:0:0:0:
64,192,49397,1,0,0:0:0:0:
320,192,49529,1,2,0:0:0:0:
192,192,49662,1,0,0:0:0:0:
448,192,49794,1,0,0:0:0:0:
320,192,49926,1,2,0:0:0:0:
64,192,50059,1,0,0:0:0:0:
320,192,50191,1,0,0:0:0:0:
448,192,50279,1,8,0:0:0:0:
192,192,50323,1,2,0:0:0:0:
64,192,50456,1,0,0:0:0:0:
320,192,50588,1,0,0:0:0:0:
448,192,50721,1,2,0:0:0:0:
192,192,50853,1,0,0:0:0:0:
448,192,50985,1,0,0:0:0:0:
64,192,51118,1,2,0:0:0:0:
320,192,51250,1,0,0:0:0:0:
192,192,51382,1,0,0:0:0:0:
448,192,51515,1,2,0:0:0:0:
192,192,51647,1,0,0:0:0:0:
320,192,51691,1,8,0:0:0:0:
64,192,51779,1,2,0:0:0:0:
192,192,51868,1,0,0:0:0:0:
448,192,51956,1,2,0:0:0:0:
320,192,52132,1,2,0:0:0:0:
64,192,52221,1,2,0:0:0:0:
320,192,52309,1,2,0:0:0:0:
192,192,52397,1,2,0:0:0:0:
448,192,52397,1,4,0:0:0:0:
64,192,52529,1,0,0:0:0:0:
64,192,52662,1,0,0:0:0:0:
320,192,52794,1,2,0:0:0:0:
64,192,52926,1,0,0:0:0:0:
320,192,53059,1,0,0:0:0:0:
448,192,53103,1,8,0:0:0:0:
192,192,53191,1,2,0:0:0:0:
192,192,53323,1,0,0:0:0:0:
320,192,53456,1,0,0:0:0:0:
192,192,53588,1,2,0:0:0:0:
64,192,53721,1,0,0:0:0:0:
320,192,53853,1,0,0:0:0:0:
320,192,53985,1,2,0:0:0:0:
64,192,54118,1,0,0:0:0:0:
192,192,54250,1,0,0:0:0:0:
192,192,54382,1,2,0:0:0:0:
320,192,54515,1,8,0:0:0:0:
448,192,54647,1,0,0:0:0:0:
448,192,54779,1,2,0:0:0:0:
64,192,54912,1,0,0:0:0:0:
320,192,55044,1,0,0:0:0:0:
320,192,55176,1,2,0:0:0:0:
64,192,55309,1,0,0:0:0:0:
64,192,55441,1,0,0:0:0:0:
320,192,55573,1,2,0:0:0:0:
192,192,55706,1,0,0:0:0:0:
192,192,55838,1,0,0:0:0:0:
448,192,55926,1,8,0:0:0:0:
64,192,55971,1,2,0:0:0:0:
320,192,56103,1,0,0:0:0:0:
192,192,56235,1,0,0:0:0:0:
448,192,56368,1,2,0:0:0:0:
448,192,56500,1,0,0:0:0:0:
64,192,56632,1,0,0:0:0:0:
320,192,56765,1,2,0:0:0:0:
320,192,56897,1,0,0:0:0:0:
192,192,57029,1,0,0:0:0:0:
448,192,57162,1,2,0:0:0:0:
192,192,57294,1,0,0:0:0:0:
320,192,57338,1,0,0:0:0:0:
64,192,57426,1,8,0:0:0:0:
192,192,57515,1,0,0:0:0:0:
448,192,57603,1,2,0:0:0:0:
64,192,57691,1,8,0:0:0:0:
320,192,57779,1,2,0:0:0:0:
64,192,57868,1,8,0:0:0:0:
320,192,57956,1,2,0:0:0:0:
192,192,58044,1,2,0:0:0:0:
448,192,58044,1,4,0:0:0:0:
64,192,58176,1,0,0:0:0:0:
192,192,58309,1,0,0:0:0:0:
448,192,58397,1,8,0:0:0:0:
320,192,58441,1,0,0:0:0:0:
64,192,58573,1,0,0:0:0:0:
320,192,58706,1,0,0:0:0:0:
192,192,58750,1,2,0:0:0:0:
448,192,58838,1,0,0:0:0:0:
64,192,58971,1,0,0:0:0:0:
320,192,59103,1,8,0:0:0:0:
192,192,59235,1,0,0:0:0:0:
448,192,59279,1,0,0:0:0:0:
64,192,59368,1,0,0:0:0:0:
320,192,59456,1,2,0:0:0:0:
192,192,59500,1,0,0:0:0:0:
448,192,59632,1,0,0:0:0:0:
64,192,59765,1,0,0:0:0:0:
320,192,59809,1,8,0:0:0:0:
448,192,59897,1,0,0:0:0:0:
192,192,59985,1,0,0:0:0:0:
320,192,60029,1,0,0:0:0:0:
64,192,60162,1,2,0:0:0:0:
320,192,60294,1,0,0:0:0:0:
448,192,60338,1,0,0:0:0:0:
192,192,60426,1,0,0:0:0:0:
64,192,60515,1,8,0:0:0:0:
448,192,60559,1,0,0:0:0:0:
320,192,60691,1,0,0:0:0:0:
192,192,60823,1,0,0:0:0:0:
64,192,60868,1,2,0:0:0:0:
448,192,60956,1,0,0:0:0:0:
320,192,61044,1,0,0:0:0:0:
64,192,61088,1,0,0:0:0:0:
320,192,61221,1,10,0:0:0:0:
192,192,61353,1,0,0:0:0:0:
448,192,61397,1,0,0:0:0:0:
320,192,61485,1,0,0:0:0:0:
192,192,61573,1,2,0:0:0:0:
64,192,61618,1,0,0:0:0:0:
320,192,61750,1,0,0:0:0:0:
192,192,61882,1,0,0:0:0:0:
320,192,61926,1,10,0:0:0:0:
448,192,62015,1,0,0:0:0:0:
192,192,62103,1,0,0:0:0:0:
64,192,62147,1,0,0:0:0:0:
320,192,62279,1,2,0:0:0:0:
192,192,62412,1,0,0:0:0:0:
320,192,62456,1,0,0:0:0:0:
448,192,62544,1,0,0:0:0:0:
192,192,62632,1,10,0:0:0:0:
64,192,62676,1,0,0:0:0:0:
320,192,62809,1,0,0:0:0:0:
64,192,62941,1,0,0:0:0:0:
320,192,62985,1,2,0:0:0:0:
448,192,63073,1,0,0:0:0:0:
192,192,63162,1,0,0:0:0:0:
320,192,63250,1,0,0:0:0:0:
64,192,63338,1,2,0:0:0:0:
448,192,63338,1,8,0:0:0:0:
320,192,63426,1,0,0:0:0:0:
64,192,63515,1,8,0:0:0:0:
192,192,63515,1,2,0:0:0:0:
448,192,63603,1,0,0:0:0:0:
64,192,63691,1,6,0:0:0:0:
320,192,63691,1,8,0:0:0:0:
192,192,63823,1,0,0:0:0:0:
320,192,63868,1,0,0:0:0:0:
448,192,63956,1,0,0:0:0:0:
64,192,64044,1,8,0:0:0:0:
192,192,64044,1,2,0:0:0:0:
320,192,64088,1,0,0:0:0:0:
192,192,64221,1,0,0:0:0:0:
320,192,64353,1,0,0:0:0:0:
64,192,64397,1,2,0:0:0:0:
448,192,64397,1,8,0:0:0:0:
192,192,64485,1,0,0:0:0:0:
320,192,64573,1,0,0:0:0:0:
64,192,64618,1,0,0:0:0:0:
192,192,64750,1,8,0:0:0:0:
320,192,64750,1,2,0:0:0:0:
448,192,64882,1,0,0:0:0:0:
64,192,64926,1,0,0:0:0:0:
320,192,65015,1,0,0:0:0:0:
64,192,65103,1,8,0:0:0:0:
448,192,65103,1,2,0:0:0:0:
192,192,65147,1,0,0:0:0:0:
320,192,65279,1,0,0:0:0:0:
192,192,65412,1,0,0:0:0:0:
320,192,65456,1,2,0:0:0:0:
448,192,65456,1,8,0:0:0:0:
64,192,65544,1,0,0:0:0:0:
320,192,65632,1,0,0:0:0:0:
192,192,65676,1,0,0:0:0:0:
64,192,65809,1,8,0:0:0:0:
448,192,65809,1,2,0:0:0:0:
192,192,65941,1,0,0:0:0:0:
320,192,65985,1,0,0:0:0:0:
64,192,66073,1,0,0:0:0:0:
320,192,66162,1,2,0:0:0:0:
448,192,66162,1,8,0:0:0:0:
192,192,66206,1,0,0:0:0:0:
64,192,66338,1,2,0:0:0:0:
320,192,66338,1,0,0:0:0:0:
448,192,66471,1,0,0:0:0:0:
64,192,66515,1,8,0:0:0:0:
192,192,66515,1,2,0:0:0:0:
320,192,66603,1,0,0:0:0:0:
192,192,66691,1,0,0:0:0:0:
448,192,66735,1,0,0:0:0:0:
320,192,66868,1,8,0:0:0:0:
64,192,67000,1,0,0:0:0:0:
448,192,67044,1,0,0:0:0:0:
320,192,67132,1,0,0:0:0:0:
64,192,67221,1,8,0:0:0:0:
192,192,67265,1,0,0:0:0:0:
320,192,67397,1,0,0:0:0:0:
192,192,67529,1,0,0:0:0:0:
448,192,67573,1,8,0:0:0:0:
320,192,67662,1,0,0:0:0:0:
64,192,67750,1,0,0:0:0:0:
192,192,67794,1,0,0:0:0:0:
320,192,67926,1,8,0:0:0:0:
448,192,68059,1,0,0:0:0:0:
64,192,68103,1,0,0:0:0:0:
192,192,68191,1,0,0:0:0:0:
448,192,68279,1,8,0:0:0:0:
64,192,68323,1,0,0:0:0:0:
192,192,68456,1,0,0:0:0:0:
448,192,68588,1,0,0:0:0:0:
320,192,68632,1,8,0:0:0:0:
64,192,68721,1,8,0:0:0:0:
192,192,68809,1,0,0:0:0:0:
320,192,68897,1,2,0:0:0:0:
448,192,68897,1,0,0:0:0:0:
192,192,68985,1,8,0:0:0:0:
448,192,69073,1,2,0:0:0:0:
64,192,69162,1,8,0:0:0:0:
320,192,69162,1,2,0:0:0:0:
448,192,69250,1,2,0:0:0:0:
64,192,69338,1,4,0:0:0:0:
192,192,69338,1,2,0:0:0:0:
320,192,70750,1,0,0:0:0:0:
192,192,72162,1,0,0:0:0:0:
64,192,73573,1,0,0:0:0:0:
448,192,74632,1,0,0:0:0:0:
192,192,74985,1,2,0:0:0:0:
320,192,74985,1,0,0:0:0:0:
64,192,75118,1,0,0:0:0:0:
192,192,75250,1,0,0:0:0:0:
320,192,75382,1,0,0:0:0:0:
448,192,75515,1,0,0:0:0:0:
64,192,75632,1,0,0:0:0:0:
192,192,75750,1,0,0:0:0:0:
320,192,75868,1,0,0:0:0:0:
448,192,76000,1,0,0:0:0:0:
64,192,76132,1,0,0:0:0:0:
192,192,76221,1,0,0:0:0:0:
320,192,76309,1,0,0:0:0:0:
448,192,76397,1,0,0:0:0:0:
64,192,76515,1,0,0:0:0:0:
192,192,76632,1,0,0:0:0:0:
320,192,76750,1,0,0:0:0:0:
448,192,76882,1,0,0:0:0:0:
64,192,77015,1,0,0:0:0:0:
192,192,77147,1,0,0:0:0:0:
320,192,77279,1,0,0:0:0:0:
448,192,77397,1,0,0:0:0:0:
64,192,77515,1,0,0:0:0:0:
192,192,77632,1,0,0:0:0:0:
320,192,77721,1,0,0:0:0:0:
448,192,77809,1,0,0:0:0:0:
64,192,77897,1,0,0:0:0:0:
192,192,77985,1,0,0:0:0:0:
320,192,78103,1,0,0:0:0:0:
448,192,78221,1,0,0:0:0:0:
64,192,78338,1,0,0:0:0:0:
192,192,78471,1,0,0:0:0:0:
320,192,78603,1,0,0:0:0:0:
448,192,78691,1,0,0:0:0:0:
64,192,78779,1,0,0:0:0:0:
192,192,78868,1,0,0:0:0:0:
320,192,78985,1,0,0:0:0:0:
448,192,79103,1,0,0:0:0:0:
64,192,79221,1,0,0:0:0:0:
320,192,79338,1,0,0:0:0:0:
192,192,79456,1,0,0:0:0:0:
320,192,79573,1,0,0:0:0:0:
448,192,79662,1,0,0:0:0:0:
64,192,79750,1,0,0:0:0:0:
192,192,79838,1,0,0:0:0:0:
320,192,79926,1,8,0:0:0:0:
448,192,79926,1,2,0:0:0:0:
64,192,80059,1,0,0:0:0:0:
192,192,80191,1,10,0:0:0:0:
320,192,80221,1,2,0:0:0:0:
448,192,80250,1,2,0:0:0:0:
64,192,80279,1,2,0:0:0:0:
192,192,80301,1,2,0:0:0:0:
320,192,80323,1,2,0:0:0:0:
320,192,80456,1,8,0:0:0:0:
448,192,80456,1,2,0:0:0:0:
64,192,80544,1,8,0:0:0:0:
192,192,80544,1,2,0:0:0:0:
320,192,80632,1,2,0:0:0:0:
448,192,80632,1,4,0:0:0:0:
192,192,80765,1,0,0:0:0:0:
64,192,80897,1,2,0:0:0:0:
320,192,80897,1,0,0:0:0:0:
448,192,80985,1,0,0:0:0:0:
192,192,81029,1,0,0:0:0:0:
64,192,81162,1,2,0:0:0:0:
320,192,81162,1,0,0:0:0:0:
448,192,81294,1,0,0:0:0:0:
64,192,81338,1,8,0:0:0:0:
192,192,81338,1,0,0:0:0:0:
320,192,81382,1,2,0:0:0:0:
448,192,81382,1,0,0:0:0:0:
192,192,81515,1,0,0:0:0:0:
320,192,81647,1,2,0:0:0:0:
448,192,81647,1,0,0:0:0:0:
64,192,81691,1,0,0:0:0:0:
192,192,81779,1,0,0:0:0:0:
320,192,81868,1,2,0:0:0:0:
448,192,81868,1,0,0:0:0:0:
192,192,81956,1,0,0:0:0:0:
64,192,82044,1,2,0:0:0:0:
448,192,82044,1,0,0:0:0:0:
320,192,82162,1,0,0:0:0:0:
64,192,82279,1,2,0:0:0:0:
192,192,82279,1,0,0:0:0:0:
448,192,82397,1,0,0:0:0:0:
64,192,82529,1,2,0:0:0:0:
192,192,82529,1,0,0:0:0:0:
320,192,82662,1,0,0:0:0:0:
64,192,82750,1,8,0:0:0:0:
448,192,82750,1,0,0:0:0:0:
192,192,82794,1,2,0:0:0:0:
320,192,82794,1,0,0:0:0:0:
64,192,82926,1,0,0:0:0:0:
192,192,83059,1,2,0:0:0:0:
448,192,83059,1,0,0:0:0:0:
320,192,83103,1,0,0:0:0:0:
64,192,83147,1,0,0:0:0:0:
192,192,83279,1,2,0:0:0:0:
448,192,83279,1,0,0:0:0:0:
320,192,83368,1,0,0:0:0:0:
64,192,83456,1,2,0:0:0:0:
192,192,83456,1,0,0:0:0:0:
448,192,83544,1,0,0:0:0:0:
64,192,83632,1,2,0:0:0:0:
320,192,83632,1,0,0:0:0:0:
192,192,83750,1,0,0:0:0:0:
320,192,83809,1,0,0:0:0:0:
64,192,83868,1,2,0:0:0:0:
448,192,83868,1,0,0:0:0:0:
192,192,83985,1,0,0:0:0:0:
320,192,84118,1,2,0:0:0:0:
448,192,84118,1,0,0:0:0:0:
64,192,84162,1,8,0:0:0:0:
192,192,84162,1,0,0:0:0:0:
320,192,84250,1,0,0:0:0:0:
192,192,84338,1,2,0:0:0:0:
448,192,84338,1,0,0:0:0:0:
64,192,84426,1,0,0:0:0:0:
320,192,84515,1,2,0:0:0:0:
448,192,84515,1,0,0:0:0:0:
192,192,84632,1,0,0:0:0:0:
64,192,84750,1,2,0:0:0:0:
448,192,84750,1,0,0:0:0:0:
320,192,84868,1,0,0:0:0:0:
64,192,84985,1,2,0:0:0:0:
192,192,84985,1,0,0:0:0:0:
448,192,85103,1,0,0:0:0:0:
64,192,85221,1,2,0:0:0:0:
320,192,85221,1,0,0:0:0:0:
192,192,85309,1,0,0:0:0:0:
320,192,85397,1,2,0:0:0:0:
448,192,85397,1,0,0:0:0:0:
192,192,85485,1,0,0:0:0:0:
64,192,85573,1,2,0:0:0:0:
448,192,85573,1,8,0:0:0:0:
320,192,85706,1,0,0:0:0:0:
64,192,85838,1,2,0:0:0:0:
192,192,85838,1,0,0:0:0:0:
448,192,85926,1,0,0:0:0:0:
192,192,85971,1,0,0:0:0:0:
64,192,86103,1,2,0:0:0:0:
320,192,86103,1,0,0:0:0:0:
448,192,86191,1,0,0:0:0:0:
64,192,86279,1,4,0:0:0:0:
192,192,86279,1,2,0:0:0:0:
320,192,86412,1,0,0:0:0:0:
64,192,86544,1,2,0:0:0:0:
448,192,86544,1,0,0:0:0:0:
192,192,86632,1,0,0:0:0:0:
320,192,86676,1,0,0:0:0:0:
64,192,86809,1,2,0:0:0:0:
192,192,86809,1,0,0:0:0:0:
320,192,86926,1,0,0:0:0:0:
192,192,86985,1,8,0:0:0:0:
448,192,86985,1,0,0:0:0:0:
64,192,87029,1,2,0:0:0:0:
320,192,87029,1,0,0:0:0:0:
192,192,87162,1,0,0:0:0:0:
64,192,87294,1,2,0:0:0:0:
320,192,87294,1,0,0:0:0:0:
448,192,87338,1,0,0:0:0:0:
192,192,87426,1,0,0:0:0:0:
64,192,87515,1,2,0:0:0:0:
448,192,87515,1,0,0:0:0:0:
320,192,87603,1,0,0:0:0:0:
64,192,87691,1,2,0:0:0:0:
192,192,87691,1,0,0:0:0:0:
448,192,87809,1,0,0:0:0:0:
192,192,87926,1,2,0:0:0:0:
320,192,87926,1,0,0:0:0:0:
64,192,88044,1,0,0:0:0:0:
320,192,88176,1,2,0:0:0:0:
448,192,88176,1,0,0:0:0:0:
192,192,88309,1,0,0:0:0:0:
64,192,88397,1,8,0:0:0:0:
448,192,88397,1,0,0:0:0:0:
192,192,88441,1,2,0:0:0:0:
320,192,88441,1,0,0:0:0:0:
448,192,88573,1,0,0:0:0:0:
64,192,88706,1,2,0:0:0:0:
320,192,88706,1,0,0:0:0:0:
192,192,88750,1,0,0:0:0:0:
448,192,88794,1,0,0:0:0:0:
64,192,88926,1,2,0:0:0:0:
320,192,88926,1,0,0:0:0:0:
192,192,89015,1,0,0:0:0:0:
320,192,89103,1,2,0:0:0:0:
448,192,89103,1,0,0:0:0:0:
64,192,89191,1,0,0:0:0:0:
192,192,89279,1,2,0:0:0:0:
448,192,89279,1,0,0:0:0:0:
320,192,89397,1,0,0:0:0:0:
192,192,89456,1,0,0:0:0:0:
64,192,89515,1,2,0:0:0:0:
448,192,89515,1,0,0:0:0:0:
320,192,89632,1,0,0:0:0:0:
64,192,89765,1,2,0:0:0:0:
192,192,89765,1,0,0:0:0:0:
320,192,89809,1,8,0:0:0:0:
448,192,89809,1,0,0:0:0:0:
192,192,89897,1,0,0:0:0:0:
64,192,89985,1,2,0:0:0:0:
320,192,89985,1,0,0:0:0:0:
448,192,90073,1,0,0:0:0:0:
64,192,90162,1,2,0:0:0:0:
192,192,90162,1,0,0:0:0:0:
320,192,90279,1,0,0:0:0:0:
64,192,90397,1,2,0:0:0:0:
448,192,90397,1,0,0:0:0:0:
192,192,90515,1,0,0:0:0:0:
320,192,90632,1,2,0:0:0:0:
448,192,90632,1,0,0:0:0:0:
64,192,90750,1,0,0:0:0:0:
192,192,90868,1,2,0:0:0:0:
448,192,90868,1,0,0:0:0:0:
320,192,90956,1,0,0:0:0:0:
64,192,91044,1,2,0:0:0:0:
192,192,91044,1,0,0:0:0:0:
320,192,91132,1,0,0:0:0:0:
64,192,91221,1,2,0:0:0:0:
448,192,91221,1,8,0:0:0:0:
192,192,91353,1,0,0:0:0:0:
448,192,91485,1,10,0:0:0:0:
320,192,91515,1,2,0:0:0:0:
64,192,91544,1,2,0:0:0:0:
192,192,91573,1,2,0:0:0:0:
448,192,91596,1,2,0:0:0:0:
320,192,91618,1,2,0:0:0:0:
64,192,91750,1,2,0:0:0:0:
192,192,91750,1,8,0:0:0:0:
320,192,91838,1,2,0:0:0:0:
448,192,91838,1,8,0:0:0:0:
64,192,91926,1,4,0:0:0:0:
448,192,91926,1,2,0:0:0:0:
192,192,92059,1,0,0:0:0:0:
320,192,92191,1,0,0:0:0:0:
64,192,92279,1,2,0:0:0:0:
192,192,92279,1,8,0:0:0:0:
448,192,92338,1,0,0:0:0:0:
192,192,92456,1,0,0:0:0:0:
320,192,92573,1,0,0:0:0:0:
64,192,92632,1,2,0:0:0:0:
448,192,92632,1,0,0:0:0:0:
320,192,92691,1,0,0:0:0:0:
192,192,92809,1,0,0:0:0:0:
64,192,92941,1,0,0:0:0:0:
192,192,92985,1,8,0:0:0:0:
448,192,92985,1,2,0:0:0:0:
320,192,93073,1,0,0:0:0:0:
448,192,93162,1,0,0:0:0:0:
192,192,93250,1,0,0:0:0:0:
64,192,93338,1,2,0:0:0:0:
320,192,93338,1,0,0:0:0:0:
448,192,93456,1,0,0:0:0:0:
64,192,93573,1,0,0:0:0:0:
320,192,93691,1,2,0:0:0:0:
448,192,93691,1,8,0:0:0:0:
64,192,93823,1,0,0:0:0:0:
320,192,93956,1,0,0:0:0:0:
192,192,94044,1,2,0:0:0:0:
448,192,94044,1,0,0:0:0:0:
64,192,94088,1,0,0:0:0:0:
192,192,94221,1,0,0:0:0:0:
320,192,94338,1,0,0:0:0:0:
64,192,94397,1,8,0:0:0:0:
192,192,94397,1,2,0:0:0:0:
448,192,94456,1,0,0:0:0:0:
192,192,94573,1,0,0:0:0:0:
320,192,94662,1,0,0:0:0:0:
64,192,94750,1,2,0:0:0:0:
448,192,94750,1,0,0:0:0:0:
320,192,94838,1,0,0:0:0:0:
192,192,94926,1,0,0:0:0:0:
448,192,95044,1,0,0:0:0:0:
64,192,95103,1,8,0:0:0:0:
192,192,95103,1,2,0:0:0:0:
320,192,95162,1,0,0:0:0:0:
64,192,95279,1,0,0:0:0:0:
320,192,95412,1,0,0:0:0:0:
64,192,95456,1,2,0:0:0:0:
448,192,95456,1,0,0:0:0:0:
192,192,95544,1,0,0:0:0:0:
320,192,95632,1,0,0:0:0:0:
64,192,95721,1,0,0:0:0:0:
320,192,95809,1,8,0:0:0:0:
448,192,95809,1,2,0:0:0:0:
192,192,95926,1,0,0:0:0:0:
320,192,96044,1,0,0:0:0:0:
64,192,96162,1,2,0:0:0:0:
448,192,96162,1,0,0:0:0:0:
320,192,96279,1,0,0:0:0:0:
192,192,96397,1,0,0:0:0:0:
320,192,96515,1,2,0:0:0:0:
448,192,96515,1,8,0:0:0:0:
64,192,96603,1,0,0:0:0:0:
192,192,96691,1,0,0:0:0:0:
448,192,96779,1,0,0:0:0:0:
192,192,96868,1,2,0:0:0:0:
320,192,96868,1,0,0:0:0:0:
64,192,97000,1,0,0:0:0:0:
320,192,97132,1,0,0:0:0:0:
64,192,97221,1,8,0:0:0:0:
192,192,97221,1,2,0:0:0:0:
448,192,97265,1,0,0:0:0:0:
320,192,97397,1,0,0:0:0:0:
448,192,97485,1,0,0:0:0:0:
192,192,97573,1,2,0:0:0:0:
320,192,97573,1,4,0:0:0:0:
64,192,97706,1,0,0:0:0:0:
192,192,97838,1,0,0:0:0:0:
64,192,97926,1,2,0:0:0:0:
448,192,97926,1,0,0:0:0:0:
320,192,97971,1,0,0:0:0:0:
192,192,98103,1,0,0:0:0:0:
320,192,98221,1,0,0:0:0:0:
64,192,98279,1,2,0:0:0:0:
448,192,98279,1,8,0:0:0:0:
192,192,98338,1,0,0:0:0:0:
320,192,98456,1,0,0:0:0:0:
448,192,98588,1,0,0:0:0:0:
64,192,98632,1,2,0:0:0:0:
192,192,98632,1,0,0:0:0:0:
320,192,98721,1,0,0:0:0:0:
448,192,98809,1,0,0:0:0:0:
64,192,98897,1,0,0:0:0:0:
192,192,98985,1,2,0:0:0:0:
320,192,98985,1,0,0:0:0:0:
448,192,99103,1,0,0:0:0:0:
192,192,99221,1,0,0:0:0:0:
64,192,99338,1,2,0:0:0:0:
448,192,99338,1,0,0:0:0:0:
192,192,99471,1,0,0:0:0:0:
320,192,99603,1,0,0:0:0:0:
64,192,99691,1,8,0:0:0:0:
448,192,99691,1,2,0:0:0:0:
192,192,99735,1,0,0:0:0:0:
320,192,99868,1,0,0:0:0:0:
192,192,99985,1,0,0:0:0:0:
64,192,100044,1,2,0:0:0:0:
448,192,100044,1,0,0:0:0:0:
320,192,100103,1,0,0:0:0:0:
192,192,100221,1,0,0:0:0:0:
320,192,100309,1,0,0:0:0:0:
192,192,100397,1,2,0:0:0:0:
448,192,100397,1,0,0:0:0:0:
64,192,100485,1,0,0:0:0:0:
320,192,100573,1,0,0:0:0:0:
448,192,100691,1,0,0:0:0:0:
64,192,100750,1,0,0:0:0:0:
192,192,100809,1,0,0:0:0:0:
320,192,100926,1,0,0:0:0:0:
64,192,101059,1,0,0:0:0:0:
448,192,101103,1,0,0:0:0:0:
320,192,101191,1,0,0:0:0:0:
192,192,101279,1,0,0:0:0:0:
64,192,101368,1,0,0:0:0:0:
448,192,101456,1,0,0:0:0:0:
192,192,101573,1,0,0:0:0:0:
320,192,101691,1,0,0:0:0:0:
448,192,101809,1,0,0:0:0:0:
192,192,101926,1,0,0:0:0:0:
320,192,102044,1,0,0:0:0:0:
64,192,102162,1,0,0:0:0:0:
320,192,102250,1,0,0:0:0:0:
192,192,102338,1,0,0:0:0:0:
448,192,102426,1,0,0:0:0:0:
192,192,102515,1,2,0:0:0:0:
320,192,102515,1,8,0:0:0:0:
64,192,102647,1,0,0:0:0:0:
320,192,102779,1,10,0:0:0:0:
448,192,102809,1,2,0:0:0:0:
64,192,102838,1,2,0:0:0:0:
192,192,102868,1,2,0:0:0:0:
320,192,102890,1,2,0:0:0:0:
448,192,102912,1,2,0:0:0:0:
192,192,103044,1,2,0:0:0:0:
320,192,103044,1,8,0:0:0:0:
64,192,103132,1,2,0:0:0:0:
448,192,103132,1,8,0:0:0:0:
192,192,103221,1,4,0:0:0:0:
320,192,103221,1,2,0:0:0:0:
64,192,103485,1,2,0:0:0:0:
64,192,103750,1,2,0:0:0:0:
64,192,103985,1,2,0:0:0:0:
64,192,104235,1,2,0:0:0:0:
64,192,104456,1,2,0:0:0:0:
448,192,104632,1,2,0:0:0:0:
448,192,104868,1,2,0:0:0:0:
448,192,105118,1,2,0:0:0:0:
64,192,105338,1,8,0:0:0:0:
192,192,105338,1,0,0:0:0:0:
448,192,105382,1,2,0:0:0:0:
448,192,105632,1,2,0:0:0:0:
448,192,105868,1,2,0:0:0:0:
192,192,106044,1,2,0:0:0:0:
192,192,106221,1,2,0:0:0:0:
192,192,106456,1,2,0:0:0:0:
192,192,106706,1,2,0:0:0:0:
192,192,106926,1,2,0:0:0:0:
192,192,107103,1,2,0:0:0:0:
192,192,107338,1,2,0:0:0:0:
320,192,107573,1,2,0:0:0:0:
320,192,107809,1,2,0:0:0:0:
320,192,107985,1,2,0:0:0:0:
64,192,108162,1,8,0:0:0:0:
192,192,108162,1,2,0:0:0:0:
320,192,108426,1,2,0:0:0:0:
448,192,108691,1,2,0:0:0:0:
64,192,108868,1,4,0:0:0:0:
320,192,108868,1,2,0:0:0:0:
64,192,109132,1,2,0:0:0:0:
64,192,109397,1,2,0:0:0:0:
64,192,109632,1,2,0:0:0:0:
64,192,109882,1,2,0:0:0:0:
64,192,110103,1,2,0:0:0:0:
448,192,110279,1,2,0:0:0:0:
448,192,110515,1,2,0:0:0:0:
448,192,110765,1,2,0:0:0:0:
448,192,111029,1,2,0:0:0:0:
448,192,111279,1,2,0:0:0:0:
448,192,111515,1,2,0:0:0:0:
192,192,111691,1,2,0:0:0:0:
192,192,111868,1,2,0:0:0:0:
192,192,112103,1,2,0:0:0:0:
192,192,112353,1,2,0:0:0:0:
192,192,112573,1,2,0:0:0:0:
192,192,112750,1,2,0:0:0:0:
192,192,112985,1,2,0:0:0:0:
320,192,113221,1,2,0:0:0:0:
320,192,113456,1,2,0:0:0:0:
320,192,113632,1,2,0:0:0:0:
320,192,113809,1,2,0:0:0:0:
320,192,114073,1,2,0:0:0:0:
448,192,114338,1,2,0:0:0:0:
64,192,114515,1,2,0:0:0:0:
