osu file format v14

[General]
AudioFilename: audio.mp3
AudioLeadIn: 0
PreviewTime: 80477
Countdown: 0
SampleSet: Normal
StackLeniency: 0.7
Mode: 3
LetterboxInBreaks: 0
SpecialStyle: 0
WidescreenStoryboard: 1

[Editor]
Bookmarks: 12713,24007,35301,46595,57889,69183,80477,91771,103066,114360,125654,136948,148242
DistanceSpacing: 0.1
BeatDivisor: 6
GridSize: 32
TimelineZoom: 2.399999

[Metadata]
Title:Unidentified Frequency Op.3 (Type-Triangle)
TitleUnicode:Unidentified Frequency Op.3 (Type-Triangle)
Artist:II-L
ArtistUnicode:II-L
Creator:-mint-
Version:Hard
Source:Expert Global Taiko Showdown 2021
Tags:egts gf grand finals bespoke gts sound team iil polyrhythmic microtonal psytrance juke footwork delta ufo aliens poca_p0ca electronic instrumental
BeatmapID:3333163
BeatmapSetID:1632950

[Difficulty]
HPDrainRate:7.7
CircleSize:4
OverallDifficulty:7.7
ApproachRate:10
SliderMultiplier:1.8
SliderTickRate:1

[Events]
//Background and Video events
0,0,"bg.png",0,0
//Break Periods
//Storyboard Layer 0 (Background)
//Storyboard Layer 1 (Fail)
//Storyboard Layer 2 (Pass)
//Storyboard Layer 3 (Foreground)
//Storyboard Layer 4 (Overlay)
//Storyboard Sound Samples

[TimingPoints]
1419,352.941176470588,4,1,1,30,1,0
24007,-100,4,1,1,40,0,0
57889,-100,4,1,1,30,0,0
80477,-100,4,1,1,40,0,0
114360,-100,4,1,1,20,0,0
120007,-100,4,1,1,30,0,0
125654,-100,4,1,1,40,0,0
148242,-100,4,1,1,30,0,0

[HitObjects]
266,192,1419,5,0,0:0:0:0:
266,192,1683,1,0,0:0:0:0:
138,192,1948,1,0,0:0:0:0:
138,192,2183,1,0,0:0:0:0:
138,192,2418,1,0,0:0:0:0:
64,192,2654,1,0,0:0:0:0:
64,192,2918,1,0,0:0:0:0:
320,192,3183,1,0,0:0:0:0:
320,192,3418,1,0,0:0:0:0:
320,192,3654,1,0,0:0:0:0:
394,192,3889,1,0,0:0:0:0:
394,192,4154,1,0,0:0:0:0:
64,192,4418,1,0,0:0:0:0:
64,192,4654,1,0,0:0:0:0:
192,192,4889,1,0,0:0:0:0:
320,192,5124,1,0,0:0:0:0:
266,192,5360,1,0,0:0:0:0:
10,192,5595,1,0,0:0:0:0:
138,192,5830,1,0,0:0:0:0:
138,192,6095,1,0,0:0:0:0:
394,192,6360,1,0,0:0:0:0:
394,192,6595,1,0,0:0:0:0:
394,192,6830,1,0,0:0:0:0:
266,192,7066,1,0,0:0:0:0:
266,192,7330,1,0,0:0:0:0:
192,192,7595,1,0,0:0:0:0:
448,192,7771,1,0,0:0:0:0:
138,192,7830,1,0,0:0:0:0:
138,192,8066,1,0,0:0:0:0:
10,192,8301,1,0,0:0:0:0:
10,192,8566,1,0,0:0:0:0:
320,192,8830,1,0,0:0:0:0:
320,192,9066,1,0,0:0:0:0:
64,192,9183,1,0,0:0:0:0:
320,192,9301,1,0,0:0:0:0:
394,192,9536,1,0,0:0:0:0:
394,192,9801,1,0,0:0:0:0:
64,192,10066,1,0,0:0:0:0:
64,192,10301,1,0,0:0:0:0:
192,192,10536,1,0,0:0:0:0:
448,192,10595,1,0,0:0:0:0:
320,192,10771,1,0,0:0:0:0:
266,192,11007,1,0,0:0:0:0:
10,192,11242,1,0,0:0:0:0:
138,192,11477,1,0,0:0:0:0:
138,192,11742,1,0,0:0:0:0:
64,192,12007,1,0,0:0:0:0:
448,192,12007,1,0,0:0:0:0:
64,192,12242,1,0,0:0:0:0:
448,192,12242,1,0,0:0:0:0:
448,192,12477,1,0,0:0:0:0:
64,192,12477,1,0,0:0:0:0:
266,192,12713,1,0,0:0:0:0:
394,192,12713,1,0,0:0:0:0:
64,192,12889,1,0,0:0:0:0:
266,192,12977,1,0,0:0:0:0:
394,192,12977,1,0,0:0:0:0:
64,192,13066,1,0,0:0:0:0:
394,192,13242,1,0,0:0:0:0:
138,192,13242,1,0,0:0:0:0:
394,192,13477,1,0,0:0:0:0:
138,192,13477,1,0,0:0:0:0:
394,192,13713,1,0,0:0:0:0:
138,192,13713,1,0,0:0:0:0:
192,192,13948,1,0,0:0:0:0:
64,192,13948,1,0,0:0:0:0:
448,192,14124,1,0,0:0:0:0:
192,192,14213,1,0,0:0:0:0:
64,192,14213,1,0,0:0:0:0:
448,192,14301,1,0,0:0:0:0:
320,192,14477,1,0,0:0:0:0:
10,192,14477,1,0,0:0:0:0:
320,192,14713,1,0,0:0:0:0:
10,192,14713,1,0,0:0:0:0:
320,192,14948,1,0,0:0:0:0:
10,192,14948,1,0,0:0:0:0:
394,192,15183,1,0,0:0:0:0:
320,192,15183,1,0,0:0:0:0:
192,192,15360,1,0,0:0:0:0:
394,192,15448,1,0,0:0:0:0:
320,192,15448,1,0,0:0:0:0:
192,192,15536,1,0,0:0:0:0:
64,192,15713,1,0,0:0:0:0:
394,192,15713,1,0,0:0:0:0:
64,192,15948,1,0,0:0:0:0:
394,192,15948,1,0,0:0:0:0:
192,192,16183,1,0,0:0:0:0:
448,192,16183,1,0,0:0:0:0:
320,192,16418,1,0,0:0:0:0:
192,192,16418,1,0,0:0:0:0:
266,192,16654,1,0,0:0:0:0:
138,192,16654,1,0,0:0:0:0:
266,192,16889,1,0,0:0:0:0:
10,192,16889,1,0,0:0:0:0:
10,192,17124,1,0,0:0:0:0:
138,192,17124,1,0,0:0:0:0:
320,192,17301,1,0,0:0:0:0:
10,192,17389,1,0,0:0:0:0:
138,192,17389,1,0,0:0:0:0:
320,192,17477,1,0,0:0:0:0:
394,192,17654,1,0,0:0:0:0:
10,192,17654,1,0,0:0:0:0:
394,192,17889,1,0,0:0:0:0:
10,192,17889,1,0,0:0:0:0:
394,192,18124,1,0,0:0:0:0:
10,192,18124,1,0,0:0:0:0:
266,192,18360,1,0,0:0:0:0:
394,192,18360,1,0,0:0:0:0:
64,192,18536,1,0,0:0:0:0:
266,192,18624,1,0,0:0:0:0:
394,192,18624,1,0,0:0:0:0:
64,192,18713,1,0,0:0:0:0:
192,192,18889,1,0,0:0:0:0:
394,192,18889,1,0,0:0:0:0:
394,192,19124,1,0,0:0:0:0:
138,192,19124,1,0,0:0:0:0:
394,192,19360,1,0,0:0:0:0:
138,192,19360,1,0,0:0:0:0:
192,192,19595,1,0,0:0:0:0:
10,192,19595,1,0,0:0:0:0:
448,192,19771,1,0,0:0:0:0:
192,192,19860,1,0,0:0:0:0:
10,192,19860,1,0,0:0:0:0:
448,192,19948,1,0,0:0:0:0:
10,192,20124,1,0,0:0:0:0:
320,192,20124,1,0,0:0:0:0:
10,192,20360,1,0,0:0:0:0:
320,192,20360,1,0,0:0:0:0:
10,192,20595,1,0,0:0:0:0:
320,192,20595,1,0,0:0:0:0:
394,192,20830,1,0,0:0:0:0:
320,192,20830,1,0,0:0:0:0:
192,192,21007,1,0,0:0:0:0:
394,192,21095,1,0,0:0:0:0:
320,192,21095,1,0,0:0:0:0:
192,192,21183,1,0,0:0:0:0:
64,192,21360,1,0,0:0:0:0:
394,192,21360,1,0,0:0:0:0:
64,192,21595,1,0,0:0:0:0:
394,192,21595,1,0,0:0:0:0:
192,192,21830,1,0,0:0:0:0:
448,192,21830,1,0,0:0:0:0:
320,192,22066,1,0,0:0:0:0:
192,192,22066,1,0,0:0:0:0:
266,192,22301,1,0,0:0:0:0:
138,192,22301,1,0,0:0:0:0:
266,192,22536,1,0,0:0:0:0:
10,192,22536,1,0,0:0:0:0:
10,192,22771,1,0,0:0:0:0:
138,192,22771,1,0,0:0:0:0:
320,192,22948,1,0,0:0:0:0:
10,192,23036,1,0,0:0:0:0:
138,192,23036,1,0,0:0:0:0:
320,192,23124,1,0,0:0:0:0:
64,192,23301,1,0,0:0:0:0:
448,192,23301,1,0,0:0:0:0:
64,192,23536,1,0,0:0:0:0:
448,192,23536,1,0,0:0:0:0:
448,192,23771,1,0,0:0:0:0:
64,192,23771,1,0,0:0:0:0:
320,192,24007,1,0,0:0:0:0:
448,192,24007,1,0,0:0:0:0:
64,192,24183,1,0,0:0:0:0:
266,192,24271,1,0,0:0:0:0:
394,192,24271,1,0,0:0:0:0:
64,192,24360,1,0,0:0:0:0:
394,192,24536,1,0,0:0:0:0:
138,192,24536,1,0,0:0:0:0:
394,192,24771,1,0,0:0:0:0:
138,192,24771,1,0,0:0:0:0:
394,192,25007,1,0,0:0:0:0:
138,192,25007,1,0,0:0:0:0:
192,192,25242,1,0,0:0:0:0:
64,192,25242,1,0,0:0:0:0:
448,192,25418,1,0,0:0:0:0:
192,192,25507,1,0,0:0:0:0:
64,192,25507,1,0,0:0:0:0:
448,192,25595,1,0,0:0:0:0:
320,192,25771,1,0,0:0:0:0:
10,192,25771,1,0,0:0:0:0:
320,192,26007,1,0,0:0:0:0:
10,192,26007,1,0,0:0:0:0:
320,192,26242,1,0,0:0:0:0:
10,192,26242,1,0,0:0:0:0:
394,192,26477,1,0,0:0:0:0:
320,192,26477,1,0,0:0:0:0:
192,192,26654,1,0,0:0:0:0:
394,192,26742,1,0,0:0:0:0:
320,192,26742,1,0,0:0:0:0:
192,192,26830,1,0,0:0:0:0:
64,192,27007,1,0,0:0:0:0:
394,192,27007,1,0,0:0:0:0:
64,192,27242,1,0,0:0:0:0:
394,192,27242,1,0,0:0:0:0:
192,192,27477,1,0,0:0:0:0:
448,192,27477,1,0,0:0:0:0:
320,192,27713,1,0,0:0:0:0:
192,192,27713,1,0,0:0:0:0:
266,192,27948,1,0,0:0:0:0:
138,192,27948,1,0,0:0:0:0:
266,192,28183,1,0,0:0:0:0:
10,192,28183,1,0,0:0:0:0:
10,192,28418,1,0,0:0:0:0:
138,192,28418,1,0,0:0:0:0:
320,192,28595,1,0,0:0:0:0:
10,192,28683,1,0,0:0:0:0:
138,192,28683,1,0,0:0:0:0:
320,192,28771,1,0,0:0:0:0:
394,192,28948,1,0,0:0:0:0:
10,192,28948,1,0,0:0:0:0:
394,192,29183,1,0,0:0:0:0:
10,192,29183,1,0,0:0:0:0:
394,192,29418,1,0,0:0:0:0:
10,192,29418,1,0,0:0:0:0:
320,192,29654,1,0,0:0:0:0:
448,192,29654,1,0,0:0:0:0:
64,192,29830,1,0,0:0:0:0:
266,192,29918,1,0,0:0:0:0:
394,192,29918,1,0,0:0:0:0:
64,192,30007,1,0,0:0:0:0:
394,192,30183,1,0,0:0:0:0:
138,192,30183,1,0,0:0:0:0:
394,192,30418,1,0,0:0:0:0:
138,192,30418,1,0,0:0:0:0:
394,192,30654,1,0,0:0:0:0:
138,192,30654,1,0,0:0:0:0:
192,192,30889,1,0,0:0:0:0:
64,192,30889,1,0,0:0:0:0:
448,192,31066,1,0,0:0:0:0:
192,192,31154,1,0,0:0:0:0:
64,192,31154,1,0,0:0:0:0:
448,192,31242,1,0,0:0:0:0:
320,192,31418,1,0,0:0:0:0:
10,192,31418,1,0,0:0:0:0:
320,192,31654,1,0,0:0:0:0:
10,192,31654,1,0,0:0:0:0:
320,192,31889,1,0,0:0:0:0:
10,192,31889,1,0,0:0:0:0:
394,192,32124,1,0,0:0:0:0:
320,192,32124,1,0,0:0:0:0:
192,192,32301,1,0,0:0:0:0:
394,192,32389,1,0,0:0:0:0:
320,192,32389,1,0,0:0:0:0:
192,192,32477,1,0,0:0:0:0:
64,192,32654,1,0,0:0:0:0:
394,192,32654,1,0,0:0:0:0:
64,192,32889,1,0,0:0:0:0:
394,192,32889,1,0,0:0:0:0:
192,192,33124,1,0,0:0:0:0:
448,192,33124,1,0,0:0:0:0:
320,192,33360,1,0,0:0:0:0:
192,192,33360,1,0,0:0:0:0:
266,192,33595,1,0,0:0:0:0:
138,192,33595,1,0,0:0:0:0:
266,192,33830,1,0,0:0:0:0:
10,192,33830,1,0,0:0:0:0:
10,192,34066,1,0,0:0:0:0:
138,192,34066,1,0,0:0:0:0:
320,192,34242,1,0,0:0:0:0:
10,192,34330,1,0,0:0:0:0:
138,192,34330,1,0,0:0:0:0:
320,192,34418,1,0,0:0:0:0:
394,192,34595,1,0,0:0:0:0:
64,192,34595,1,0,0:0:0:0:
394,192,34830,1,0,0:0:0:0:
10,192,34830,1,0,0:0:0:0:
394,192,35066,1,0,0:0:0:0:
10,192,35066,1,0,0:0:0:0:
320,192,35301,1,0,0:0:0:0:
448,192,35301,1,0,0:0:0:0:
192,192,35389,1,0,0:0:0:0:
266,192,35566,1,0,0:0:0:0:
394,192,35566,1,0,0:0:0:0:
192,192,35654,1,0,0:0:0:0:
192,192,35830,1,0,0:0:0:0:
448,192,35830,1,0,0:0:0:0:
64,192,35909,1,0,0:0:0:0:
192,192,36066,1,0,0:0:0:0:
448,192,36066,1,0,0:0:0:0:
64,192,36144,1,0,0:0:0:0:
192,192,36301,1,0,0:0:0:0:
448,192,36301,1,0,0:0:0:0:
64,192,36379,1,0,0:0:0:0:
192,192,36536,1,0,0:0:0:0:
64,192,36536,1,0,0:0:0:0:
320,192,36624,1,0,0:0:0:0:
192,192,36801,1,0,0:0:0:0:
64,192,36801,1,0,0:0:0:0:
320,192,36889,1,0,0:0:0:0:
320,192,37066,1,0,0:0:0:0:
10,192,37066,1,0,0:0:0:0:
448,192,37144,1,0,0:0:0:0:
320,192,37301,1,0,0:0:0:0:
10,192,37301,1,0,0:0:0:0:
448,192,37379,1,0,0:0:0:0:
320,192,37536,1,0,0:0:0:0:
10,192,37536,1,0,0:0:0:0:
448,192,37615,1,0,0:0:0:0:
394,192,37771,1,0,0:0:0:0:
320,192,37771,1,0,0:0:0:0:
64,192,37860,1,0,0:0:0:0:
394,192,38036,1,0,0:0:0:0:
320,192,38036,1,0,0:0:0:0:
64,192,38124,1,0,0:0:0:0:
64,192,38301,1,0,0:0:0:0:
394,192,38301,1,0,0:0:0:0:
192,192,38379,1,0,0:0:0:0:
64,192,38536,1,0,0:0:0:0:
394,192,38536,1,0,0:0:0:0:
192,192,38615,1,0,0:0:0:0:
192,192,38771,1,0,0:0:0:0:
448,192,38771,1,0,0:0:0:0:
64,192,38850,1,0,0:0:0:0:
192,192,39007,1,0,0:0:0:0:
320,192,39007,1,0,0:0:0:0:
64,192,39085,1,0,0:0:0:0:
192,192,39242,1,0,0:0:0:0:
320,192,39242,1,0,0:0:0:0:
64,192,39320,1,0,0:0:0:0:
320,192,39477,1,0,0:0:0:0:
64,192,39477,1,0,0:0:0:0:
448,192,39556,1,0,0:0:0:0:
10,192,39713,1,0,0:0:0:0:
138,192,39713,1,0,0:0:0:0:
448,192,39801,1,0,0:0:0:0:
10,192,39977,1,0,0:0:0:0:
138,192,39977,1,0,0:0:0:0:
448,192,40066,1,0,0:0:0:0:
394,192,40242,1,0,0:0:0:0:
64,192,40242,1,0,0:0:0:0:
192,192,40320,1,0,0:0:0:0:
394,192,40477,1,0,0:0:0:0:
10,192,40477,1,0,0:0:0:0:
192,192,40556,1,0,0:0:0:0:
394,192,40713,1,0,0:0:0:0:
10,192,40713,1,0,0:0:0:0:
192,192,40791,1,0,0:0:0:0:
320,192,40948,1,0,0:0:0:0:
448,192,40948,1,0,0:0:0:0:
192,192,41036,1,0,0:0:0:0:
266,192,41213,1,0,0:0:0:0:
394,192,41213,1,0,0:0:0:0:
192,192,41301,1,0,0:0:0:0:
192,192,41477,1,0,0:0:0:0:
448,192,41477,1,0,0:0:0:0:
64,192,41556,1,0,0:0:0:0:
192,192,41713,1,0,0:0:0:0:
448,192,41713,1,0,0:0:0:0:
64,192,41791,1,0,0:0:0:0:
192,192,41948,1,0,0:0:0:0:
448,192,41948,1,0,0:0:0:0:
64,192,42026,1,0,0:0:0:0:
192,192,42183,1,0,0:0:0:0:
64,192,42183,1,0,0:0:0:0:
320,192,42271,1,0,0:0:0:0:
192,192,42448,1,0,0:0:0:0:
64,192,42448,1,0,0:0:0:0:
320,192,42536,1,0,0:0:0:0:
320,192,42713,1,0,0:0:0:0:
10,192,42713,1,0,0:0:0:0:
448,192,42791,1,0,0:0:0:0:
320,192,42948,1,0,0:0:0:0:
10,192,42948,1,0,0:0:0:0:
448,192,43026,1,0,0:0:0:0:
320,192,43183,1,0,0:0:0:0:
10,192,43183,1,0,0:0:0:0:
448,192,43262,1,0,0:0:0:0:
394,192,43418,1,0,0:0:0:0:
320,192,43418,1,0,0:0:0:0:
64,192,43507,1,0,0:0:0:0:
394,192,43683,1,0,0:0:0:0:
320,192,43683,1,0,0:0:0:0:
64,192,43771,1,0,0:0:0:0:
64,192,43948,1,0,0:0:0:0:
394,192,43948,1,0,0:0:0:0:
192,192,44026,1,0,0:0:0:0:
64,192,44183,1,0,0:0:0:0:
394,192,44183,1,0,0:0:0:0:
192,192,44262,1,0,0:0:0:0:
192,192,44418,1,0,0:0:0:0:
448,192,44418,1,0,0:0:0:0:
64,192,44497,1,0,0:0:0:0:
192,192,44654,1,0,0:0:0:0:
320,192,44654,1,0,0:0:0:0:
64,192,44732,1,0,0:0:0:0:
192,192,44889,1,0,0:0:0:0:
320,192,44889,1,0,0:0:0:0:
64,192,44968,1,0,0:0:0:0:
320,192,45124,1,0,0:0:0:0:
64,192,45124,1,0,0:0:0:0:
448,192,45203,1,0,0:0:0:0:
10,192,45360,1,0,0:0:0:0:
138,192,45360,1,0,0:0:0:0:
448,192,45448,1,0,0:0:0:0:
10,192,45624,1,0,0:0:0:0:
138,192,45624,1,0,0:0:0:0:
448,192,45713,1,0,0:0:0:0:
394,192,45889,1,0,0:0:0:0:
64,192,45889,1,0,0:0:0:0:
192,192,45968,1,0,0:0:0:0:
394,192,46124,1,0,0:0:0:0:
10,192,46124,1,0,0:0:0:0:
320,192,46203,1,0,0:0:0:0:
394,192,46360,1,0,0:0:0:0:
10,192,46360,1,0,0:0:0:0:
192,192,46438,1,0,0:0:0:0:
448,192,46595,1,0,0:0:0:0:
320,192,46595,1,0,0:0:0:0:
192,192,46683,1,0,0:0:0:0:
266,192,46860,1,0,0:0:0:0:
192,192,46948,1,0,0:0:0:0:
192,192,47124,1,0,0:0:0:0:
64,192,47203,1,0,0:0:0:0:
448,192,47301,1,0,0:0:0:0:
192,192,47360,1,0,0:0:0:0:
64,192,47438,1,0,0:0:0:0:
192,192,47595,1,0,0:0:0:0:
64,192,47673,1,0,0:0:0:0:
64,192,47830,1,0,0:0:0:0:
320,192,47918,1,0,0:0:0:0:
64,192,48095,1,0,0:0:0:0:
320,192,48183,1,0,0:0:0:0:
320,192,48360,1,0,0:0:0:0:
448,192,48438,1,0,0:0:0:0:
320,192,48595,1,0,0:0:0:0:
448,192,48673,1,0,0:0:0:0:
64,192,48713,1,0,0:0:0:0:
320,192,48830,1,0,0:0:0:0:
448,192,48909,1,0,0:0:0:0:
394,192,49066,1,0,0:0:0:0:
64,192,49154,1,0,0:0:0:0:
394,192,49330,1,0,0:0:0:0:
64,192,49418,1,0,0:0:0:0:
64,192,49595,1,0,0:0:0:0:
192,192,49673,1,0,0:0:0:0:
64,192,49830,1,0,0:0:0:0:
192,192,49909,1,0,0:0:0:0:
192,192,50066,1,0,0:0:0:0:
448,192,50144,1,0,0:0:0:0:
320,192,50301,1,0,0:0:0:0:
64,192,50379,1,0,0:0:0:0:
320,192,50536,1,0,0:0:0:0:
64,192,50615,1,0,0:0:0:0:
64,192,50771,1,0,0:0:0:0:
448,192,50850,1,0,0:0:0:0:
138,192,51007,1,0,0:0:0:0:
320,192,51095,1,0,0:0:0:0:
138,192,51271,1,0,0:0:0:0:
320,192,51360,1,0,0:0:0:0:
64,192,51536,1,0,0:0:0:0:
394,192,51536,1,0,0:0:0:0:
192,192,51615,1,0,0:0:0:0:
394,192,51771,1,0,0:0:0:0:
192,192,51850,1,0,0:0:0:0:
394,192,52007,1,0,0:0:0:0:
192,192,52085,1,0,0:0:0:0:
320,192,52242,1,0,0:0:0:0:
192,192,52330,1,0,0:0:0:0:
266,192,52507,1,0,0:0:0:0:
192,192,52595,1,0,0:0:0:0:
192,192,52771,1,0,0:0:0:0:
64,192,52850,1,0,0:0:0:0:
448,192,52948,1,0,0:0:0:0:
192,192,53007,1,0,0:0:0:0:
64,192,53085,1,0,0:0:0:0:
192,192,53242,1,0,0:0:0:0:
64,192,53320,1,0,0:0:0:0:
64,192,53477,1,0,0:0:0:0:
320,192,53566,1,0,0:0:0:0:
64,192,53742,1,0,0:0:0:0:
320,192,53830,1,0,0:0:0:0:
320,192,54007,1,0,0:0:0:0:
448,192,54085,1,0,0:0:0:0:
320,192,54242,1,0,0:0:0:0:
448,192,54320,1,0,0:0:0:0:
10,192,54360,1,0,0:0:0:0:
320,192,54477,1,0,0:0:0:0:
448,192,54556,1,0,0:0:0:0:
394,192,54713,1,0,0:0:0:0:
64,192,54801,1,0,0:0:0:0:
394,192,54977,1,0,0:0:0:0:
64,192,55066,1,0,0:0:0:0:
64,192,55242,1,0,0:0:0:0:
192,192,55320,1,0,0:0:0:0:
64,192,55477,1,0,0:0:0:0:
192,192,55556,1,0,0:0:0:0:
192,192,55713,1,0,0:0:0:0:
448,192,55791,1,0,0:0:0:0:
320,192,55948,1,0,0:0:0:0:
64,192,56026,1,0,0:0:0:0:
320,192,56183,1,0,0:0:0:0:
64,192,56262,1,0,0:0:0:0:
64,192,56418,1,0,0:0:0:0:
448,192,56497,1,0,0:0:0:0:
138,192,56654,1,0,0:0:0:0:
320,192,56742,1,0,0:0:0:0:
138,192,56918,1,0,0:0:0:0:
320,192,57007,1,0,0:0:0:0:
394,192,57183,1,0,0:0:0:0:
64,192,57183,1,0,0:0:0:0:
192,192,57262,1,0,0:0:0:0:
394,192,57418,1,0,0:0:0:0:
10,192,57418,1,0,0:0:0:0:
320,192,57497,1,0,0:0:0:0:
394,192,57654,1,0,0:0:0:0:
10,192,57654,1,0,0:0:0:0:
192,192,57732,1,0,0:0:0:0:
266,192,57889,5,0,0:0:0:0:
394,192,57889,1,0,0:0:0:0:
266,192,58154,1,0,0:0:0:0:
394,192,58154,1,0,0:0:0:0:
394,192,58418,1,0,0:0:0:0:
138,192,58418,1,0,0:0:0:0:
320,192,58595,1,0,0:0:0:0:
394,192,58654,1,0,0:0:0:0:
138,192,58654,1,0,0:0:0:0:
394,192,58889,1,0,0:0:0:0:
138,192,58889,1,0,0:0:0:0:
192,192,59124,1,0,0:0:0:0:
64,192,59124,1,0,0:0:0:0:
192,192,59389,1,0,0:0:0:0:
64,192,59389,1,0,0:0:0:0:
320,192,59654,1,0,0:0:0:0:
10,192,59654,1,0,0:0:0:0:
320,192,59889,1,0,0:0:0:0:
10,192,59889,1,0,0:0:0:0:
192,192,60007,1,0,0:0:0:0:
320,192,60124,1,0,0:0:0:0:
10,192,60124,1,0,0:0:0:0:
394,192,60360,1,0,0:0:0:0:
320,192,60360,1,0,0:0:0:0:
394,192,60624,1,0,0:0:0:0:
320,192,60624,1,0,0:0:0:0:
64,192,60889,1,0,0:0:0:0:
394,192,60889,1,0,0:0:0:0:
64,192,61124,1,0,0:0:0:0:
394,192,61124,1,0,0:0:0:0:
192,192,61360,1,0,0:0:0:0:
448,192,61360,1,0,0:0:0:0:
320,192,61418,1,0,0:0:0:0:
320,192,61595,1,0,0:0:0:0:
192,192,61595,1,0,0:0:0:0:
266,192,61830,1,0,0:0:0:0:
138,192,61830,1,0,0:0:0:0:
266,192,62066,1,0,0:0:0:0:
10,192,62066,1,0,0:0:0:0:
10,192,62301,1,0,0:0:0:0:
138,192,62301,1,0,0:0:0:0:
10,192,62566,1,0,0:0:0:0:
138,192,62566,1,0,0:0:0:0:
394,192,62830,1,0,0:0:0:0:
10,192,62830,1,0,0:0:0:0:
394,192,63066,1,0,0:0:0:0:
10,192,63066,1,0,0:0:0:0:
394,192,63301,1,0,0:0:0:0:
10,192,63301,1,0,0:0:0:0:
266,192,63536,5,0,0:0:0:0:
394,192,63536,1,0,0:0:0:0:
266,192,63801,1,0,0:0:0:0:
394,192,63801,1,0,0:0:0:0:
394,192,64066,1,0,0:0:0:0:
138,192,64066,1,0,0:0:0:0:
320,192,64242,1,0,0:0:0:0:
394,192,64301,1,0,0:0:0:0:
138,192,64301,1,0,0:0:0:0:
394,192,64536,1,0,0:0:0:0:
138,192,64536,1,0,0:0:0:0:
10,192,64771,1,0,0:0:0:0:
192,192,64771,1,0,0:0:0:0:
10,192,65036,1,0,0:0:0:0:
192,192,65036,1,0,0:0:0:0:
320,192,65301,1,0,0:0:0:0:
10,192,65301,1,0,0:0:0:0:
320,192,65536,1,0,0:0:0:0:
10,192,65536,1,0,0:0:0:0:
192,192,65654,1,0,0:0:0:0:
320,192,65771,1,0,0:0:0:0:
10,192,65771,1,0,0:0:0:0:
394,192,66007,1,0,0:0:0:0:
320,192,66007,1,0,0:0:0:0:
394,192,66271,1,0,0:0:0:0:
320,192,66271,1,0,0:0:0:0:
64,192,66536,1,0,0:0:0:0:
394,192,66536,1,0,0:0:0:0:
64,192,66771,1,0,0:0:0:0:
394,192,66771,1,0,0:0:0:0:
192,192,67007,1,0,0:0:0:0:
448,192,67007,1,0,0:0:0:0:
320,192,67066,1,0,0:0:0:0:
320,192,67242,1,0,0:0:0:0:
192,192,67242,1,0,0:0:0:0:
266,192,67477,1,0,0:0:0:0:
138,192,67477,1,0,0:0:0:0:
266,192,67713,1,0,0:0:0:0:
10,192,67713,1,0,0:0:0:0:
10,192,67948,1,0,0:0:0:0:
138,192,67948,1,0,0:0:0:0:
10,192,68213,1,0,0:0:0:0:
138,192,68213,1,0,0:0:0:0:
394,192,68477,1,0,0:0:0:0:
10,192,68477,1,0,0:0:0:0:
192,192,68556,1,0,0:0:0:0:
320,192,68634,1,0,0:0:0:0:
394,192,68713,1,0,0:0:0:0:
192,192,68771,1,0,0:0:0:0:
320,192,68830,1,0,0:0:0:0:
64,192,68889,1,0,0:0:0:0:
448,192,68948,1,0,0:0:0:0:
192,192,69026,1,0,0:0:0:0:
266,192,69183,5,0,0:0:0:0:
64,192,69183,1,0,0:0:0:0:
448,192,69271,1,0,0:0:0:0:
266,192,69448,1,0,0:0:0:0:
448,192,69536,1,0,0:0:0:0:
394,192,69713,1,0,0:0:0:0:
192,192,69791,1,0,0:0:0:0:
64,192,69889,1,0,0:0:0:0:
320,192,69889,1,0,0:0:0:0:
448,192,69948,1,0,0:0:0:0:
192,192,70026,1,0,0:0:0:0:
448,192,70183,1,0,0:0:0:0:
192,192,70262,1,0,0:0:0:0:
192,192,70418,1,0,0:0:0:0:
64,192,70507,1,0,0:0:0:0:
192,192,70683,1,0,0:0:0:0:
64,192,70771,1,0,0:0:0:0:
10,192,70948,1,0,0:0:0:0:
320,192,71026,1,0,0:0:0:0:
10,192,71183,1,0,0:0:0:0:
320,192,71262,1,0,0:0:0:0:
192,192,71301,1,0,0:0:0:0:
10,192,71418,1,0,0:0:0:0:
320,192,71497,1,0,0:0:0:0:
320,192,71654,1,0,0:0:0:0:
448,192,71742,1,0,0:0:0:0:
320,192,71918,1,0,0:0:0:0:
448,192,72007,1,0,0:0:0:0:
64,192,72183,1,0,0:0:0:0:
448,192,72262,1,0,0:0:0:0:
64,192,72418,1,0,0:0:0:0:
448,192,72497,1,0,0:0:0:0:
448,192,72654,1,0,0:0:0:0:
192,192,72732,1,0,0:0:0:0:
192,192,72889,1,0,0:0:0:0:
320,192,72968,1,0,0:0:0:0:
138,192,73124,1,0,0:0:0:0:
266,192,73203,1,0,0:0:0:0:
320,192,73360,1,0,0:0:0:0:
64,192,73438,1,0,0:0:0:0:
138,192,73595,1,0,0:0:0:0:
10,192,73683,1,0,0:0:0:0:
138,192,73860,1,0,0:0:0:0:
10,192,73948,1,0,0:0:0:0:
64,192,74124,1,0,0:0:0:0:
192,192,74124,1,0,0:0:0:0:
448,192,74203,1,0,0:0:0:0:
64,192,74360,1,0,0:0:0:0:
448,192,74438,1,0,0:0:0:0:
64,192,74595,1,0,0:0:0:0:
448,192,74673,1,0,0:0:0:0:
266,192,74830,5,0,0:0:0:0:
64,192,74830,1,0,0:0:0:0:
448,192,74918,1,0,0:0:0:0:
266,192,75095,1,0,0:0:0:0:
448,192,75183,1,0,0:0:0:0:
394,192,75360,1,0,0:0:0:0:
192,192,75438,1,0,0:0:0:0:
64,192,75536,1,0,0:0:0:0:
320,192,75536,1,0,0:0:0:0:
448,192,75595,1,0,0:0:0:0:
192,192,75673,1,0,0:0:0:0:
448,192,75830,1,0,0:0:0:0:
192,192,75909,1,0,0:0:0:0:
192,192,76066,1,0,0:0:0:0:
64,192,76154,1,0,0:0:0:0:
192,192,76330,1,0,0:0:0:0:
64,192,76418,1,0,0:0:0:0:
10,192,76595,1,0,0:0:0:0:
320,192,76673,1,0,0:0:0:0:
10,192,76830,1,0,0:0:0:0:
320,192,76909,1,0,0:0:0:0:
192,192,76948,1,0,0:0:0:0:
10,192,77066,1,0,0:0:0:0:
320,192,77144,1,0,0:0:0:0:
320,192,77301,1,0,0:0:0:0:
448,192,77389,1,0,0:0:0:0:
320,192,77566,1,0,0:0:0:0:
448,192,77654,1,0,0:0:0:0:
64,192,77830,1,0,0:0:0:0:
448,192,77909,1,0,0:0:0:0:
64,192,78066,1,0,0:0:0:0:
448,192,78144,1,0,0:0:0:0:
448,192,78301,1,0,0:0:0:0:
192,192,78379,1,0,0:0:0:0:
192,192,78536,1,0,0:0:0:0:
320,192,78615,1,0,0:0:0:0:
138,192,78771,1,0,0:0:0:0:
266,192,78850,1,0,0:0:0:0:
320,192,79007,1,0,0:0:0:0:
64,192,79085,1,0,0:0:0:0:
138,192,79242,1,0,0:0:0:0:
10,192,79330,1,0,0:0:0:0:
138,192,79507,1,0,0:0:0:0:
10,192,79595,1,0,0:0:0:0:
64,192,79771,1,0,0:0:0:0:
192,192,79771,1,0,0:0:0:0:
448,192,79850,1,0,0:0:0:0:
64,192,80007,1,0,0:0:0:0:
192,192,80007,1,0,0:0:0:0:
448,192,80085,1,0,0:0:0:0:
64,192,80242,1,0,0:0:0:0:
192,192,80242,1,0,0:0:0:0:
448,192,80320,5,0,0:0:0:0:
266,192,80477,5,0,0:0:0:0:
64,192,80477,1,0,0:0:0:0:
192,192,80654,1,0,0:0:0:0:
266,192,80742,1,0,0:0:0:0:
64,192,80830,1,0,0:0:0:0:
448,192,80830,1,0,0:0:0:0:
138,192,81007,1,0,0:0:0:0:
64,192,81164,1,0,0:0:0:0:
138,192,81242,1,0,0:0:0:0:
320,192,81320,1,0,0:0:0:0:
138,192,81477,1,0,0:0:0:0:
320,192,81536,1,0,0:0:0:0:
64,192,81536,1,0,0:0:0:0:
448,192,81634,1,0,0:0:0:0:
64,192,81713,1,0,0:0:0:0:
448,192,81889,1,0,0:0:0:0:
64,192,81977,1,0,0:0:0:0:
192,192,82066,1,0,0:0:0:0:
320,192,82242,1,0,0:0:0:0:
448,192,82242,1,0,0:0:0:0:
64,192,82418,1,0,0:0:0:0:
320,192,82477,1,0,0:0:0:0:
448,192,82556,1,0,0:0:0:0:
320,192,82713,1,0,0:0:0:0:
64,192,82869,1,0,0:0:0:0:
394,192,82948,1,0,0:0:0:0:
192,192,82948,1,0,0:0:0:0:
64,192,83124,1,0,0:0:0:0:
394,192,83213,1,0,0:0:0:0:
192,192,83301,1,0,0:0:0:0:
64,192,83477,1,0,0:0:0:0:
448,192,83634,1,0,0:0:0:0:
64,192,83713,1,0,0:0:0:0:
320,192,83791,1,0,0:0:0:0:
192,192,83948,1,0,0:0:0:0:
64,192,84105,1,0,0:0:0:0:
320,192,84183,1,0,0:0:0:0:
448,192,84340,1,0,0:0:0:0:
266,192,84418,1,0,0:0:0:0:
192,192,84497,1,0,0:0:0:0:
10,192,84654,1,0,0:0:0:0:
320,192,84811,1,0,0:0:0:0:
138,192,84889,1,0,0:0:0:0:
320,192,85066,1,0,0:0:0:0:
448,192,85066,1,0,0:0:0:0:
138,192,85154,1,0,0:0:0:0:
64,192,85242,1,0,0:0:0:0:
394,192,85418,1,0,0:0:0:0:
192,192,85575,1,0,0:0:0:0:
394,192,85654,1,0,0:0:0:0:
64,192,85654,1,0,0:0:0:0:
320,192,85771,5,0,0:0:0:0:
192,192,85771,1,0,0:0:0:0:
394,192,85889,5,0,0:0:0:0:
64,192,85889,1,0,0:0:0:0:
192,192,86046,1,0,0:0:0:0:
266,192,86124,5,0,0:0:0:0:
64,192,86124,1,0,0:0:0:0:
192,192,86301,1,0,0:0:0:0:
266,192,86389,1,0,0:0:0:0:
64,192,86477,1,0,0:0:0:0:
448,192,86477,1,0,0:0:0:0:
138,192,86654,1,0,0:0:0:0:
64,192,86811,1,0,0:0:0:0:
138,192,86889,1,0,0:0:0:0:
320,192,86968,1,0,0:0:0:0:
138,192,87124,1,0,0:0:0:0:
320,192,87183,1,0,0:0:0:0:
64,192,87183,1,0,0:0:0:0:
448,192,87281,1,0,0:0:0:0:
64,192,87360,1,0,0:0:0:0:
448,192,87536,1,0,0:0:0:0:
64,192,87624,1,0,0:0:0:0:
192,192,87713,1,0,0:0:0:0:
320,192,87889,1,0,0:0:0:0:
448,192,87889,1,0,0:0:0:0:
64,192,88066,1,0,0:0:0:0:
320,192,88124,1,0,0:0:0:0:
448,192,88203,1,0,0:0:0:0:
320,192,88360,1,0,0:0:0:0:
64,192,88517,1,0,0:0:0:0:
394,192,88595,1,0,0:0:0:0:
192,192,88595,1,0,0:0:0:0:
64,192,88771,1,0,0:0:0:0:
394,192,88860,1,0,0:0:0:0:
192,192,88948,1,0,0:0:0:0:
64,192,89124,1,0,0:0:0:0:
448,192,89281,1,0,0:0:0:0:
64,192,89360,1,0,0:0:0:0:
320,192,89438,1,0,0:0:0:0:
192,192,89595,1,0,0:0:0:0:
64,192,89752,1,0,0:0:0:0:
320,192,89830,1,0,0:0:0:0:
448,192,89987,1,0,0:0:0:0:
266,192,90066,1,0,0:0:0:0:
192,192,90144,1,0,0:0:0:0:
10,192,90301,1,0,0:0:0:0:
320,192,90458,1,0,0:0:0:0:
138,192,90536,1,0,0:0:0:0:
320,192,90713,1,0,0:0:0:0:
448,192,90713,1,0,0:0:0:0:
138,192,90801,1,0,0:0:0:0:
64,192,90889,1,0,0:0:0:0:
394,192,91066,1,0,0:0:0:0:
192,192,91222,1,0,0:0:0:0:
394,192,91301,1,0,0:0:0:0:
64,192,91301,1,0,0:0:0:0:
320,192,91418,5,0,0:0:0:0:
192,192,91418,1,0,0:0:0:0:
394,192,91536,5,0,0:0:0:0:
64,192,91536,1,0,0:0:0:0:
192,192,91693,1,0,0:0:0:0:
266,192,91771,5,0,0:0:0:0:
64,192,91771,1,0,0:0:0:0:
448,192,91860,1,0,0:0:0:0:
192,192,91948,1,0,0:0:0:0:
266,192,92036,1,0,0:0:0:0:
448,192,92124,1,0,0:0:0:0:
64,192,92213,1,0,0:0:0:0:
394,192,92301,1,0,0:0:0:0:
192,192,92379,1,0,0:0:0:0:
320,192,92458,1,0,0:0:0:0:
448,192,92536,1,0,0:0:0:0:
192,192,92615,1,0,0:0:0:0:
64,192,92693,1,0,0:0:0:0:
448,192,92771,1,0,0:0:0:0:
192,192,92850,1,0,0:0:0:0:
320,192,92928,1,0,0:0:0:0:
192,192,93007,1,0,0:0:0:0:
64,192,93095,1,0,0:0:0:0:
320,192,93183,1,0,0:0:0:0:
192,192,93271,1,0,0:0:0:0:
64,192,93360,1,0,0:0:0:0:
448,192,93448,1,0,0:0:0:0:
10,192,93536,1,0,0:0:0:0:
320,192,93615,1,0,0:0:0:0:
192,192,93693,1,0,0:0:0:0:
10,192,93771,1,0,0:0:0:0:
320,192,93850,1,0,0:0:0:0:
192,192,93889,1,0,0:0:0:0:
448,192,93928,1,0,0:0:0:0:
10,192,94007,1,0,0:0:0:0:
320,192,94085,1,0,0:0:0:0:
192,192,94164,1,0,0:0:0:0:
320,192,94242,1,0,0:0:0:0:
448,192,94330,1,0,0:0:0:0:
64,192,94418,1,0,0:0:0:0:
320,192,94507,1,0,0:0:0:0:
448,192,94595,1,0,0:0:0:0:
192,192,94683,1,0,0:0:0:0:
64,192,94771,1,0,0:0:0:0:
448,192,94850,1,0,0:0:0:0:
320,192,94928,1,0,0:0:0:0:
64,192,95007,1,0,0:0:0:0:
448,192,95085,1,0,0:0:0:0:
320,192,95164,1,0,0:0:0:0:
448,192,95242,1,0,0:0:0:0:
192,192,95320,1,0,0:0:0:0:
64,192,95399,1,0,0:0:0:0:
192,192,95477,1,0,0:0:0:0:
320,192,95556,1,0,0:0:0:0:
448,192,95634,1,0,0:0:0:0:
138,192,95713,1,0,0:0:0:0:
266,192,95791,1,0,0:0:0:0:
448,192,95869,1,0,0:0:0:0:
320,192,95948,1,0,0:0:0:0:
64,192,96026,1,0,0:0:0:0:
320,192,96105,1,0,0:0:0:0:
138,192,96183,1,0,0:0:0:0:
10,192,96271,1,0,0:0:0:0:
448,192,96360,1,0,0:0:0:0:
138,192,96448,1,0,0:0:0:0:
10,192,96536,1,0,0:0:0:0:
320,192,96624,1,0,0:0:0:0:
64,192,96713,1,0,0:0:0:0:
192,192,96713,1,0,0:0:0:0:
448,192,96791,1,0,0:0:0:0:
192,192,96869,1,0,0:0:0:0:
64,192,96948,1,0,0:0:0:0:
448,192,97026,1,0,0:0:0:0:
192,192,97066,1,0,0:0:0:0:
320,192,97105,1,0,0:0:0:0:
64,192,97183,1,0,0:0:0:0:
448,192,97262,1,0,0:0:0:0:
192,192,97340,1,0,0:0:0:0:
266,192,97418,5,0,0:0:0:0:
64,192,97418,1,0,0:0:0:0:
448,192,97507,1,0,0:0:0:0:
192,192,97595,1,0,0:0:0:0:
266,192,97683,1,0,0:0:0:0:
448,192,97771,1,0,0:0:0:0:
64,192,97860,1,0,0:0:0:0:
394,192,97948,1,0,0:0:0:0:
192,192,98026,1,0,0:0:0:0:
320,192,98105,1,0,0:0:0:0:
448,192,98183,1,0,0:0:0:0:
192,192,98262,1,0,0:0:0:0:
64,192,98340,1,0,0:0:0:0:
448,192,98418,1,0,0:0:0:0:
192,192,98497,1,0,0:0:0:0:
320,192,98575,1,0,0:0:0:0:
192,192,98654,1,0,0:0:0:0:
64,192,98742,1,0,0:0:0:0:
320,192,98830,1,0,0:0:0:0:
192,192,98918,1,0,0:0:0:0:
64,192,99007,1,0,0:0:0:0:
448,192,99095,1,0,0:0:0:0:
10,192,99183,1,0,0:0:0:0:
320,192,99262,1,0,0:0:0:0:
192,192,99340,1,0,0:0:0:0:
10,192,99418,1,0,0:0:0:0:
320,192,99497,1,0,0:0:0:0:
192,192,99536,1,0,0:0:0:0:
448,192,99575,1,0,0:0:0:0:
10,192,99654,1,0,0:0:0:0:
320,192,99732,1,0,0:0:0:0:
192,192,99811,1,0,0:0:0:0:
320,192,99889,1,0,0:0:0:0:
448,192,99977,1,0,0:0:0:0:
64,192,100066,1,0,0:0:0:0:
320,192,100154,1,0,0:0:0:0:
448,192,100242,1,0,0:0:0:0:
192,192,100330,1,0,0:0:0:0:
64,192,100418,1,0,0:0:0:0:
448,192,100497,1,0,0:0:0:0:
320,192,100575,1,0,0:0:0:0:
64,192,100654,1,0,0:0:0:0:
448,192,100732,1,0,0:0:0:0:
320,192,100811,1,0,0:0:0:0:
448,192,100889,1,0,0:0:0:0:
192,192,100968,1,0,0:0:0:0:
64,192,101046,1,0,0:0:0:0:
192,192,101124,1,0,0:0:0:0:
320,192,101203,1,0,0:0:0:0:
448,192,101281,1,0,0:0:0:0:
138,192,101360,1,0,0:0:0:0:
266,192,101438,1,0,0:0:0:0:
448,192,101517,1,0,0:0:0:0:
320,192,101595,1,0,0:0:0:0:
64,192,101673,1,0,0:0:0:0:
320,192,101752,1,0,0:0:0:0:
138,192,101830,1,0,0:0:0:0:
10,192,101918,1,0,0:0:0:0:
448,192,102007,1,0,0:0:0:0:
138,192,102095,1,0,0:0:0:0:
10,192,102183,1,0,0:0:0:0:
320,192,102271,1,0,0:0:0:0:
64,192,102360,1,0,0:0:0:0:
192,192,102360,1,0,0:0:0:0:
448,192,102438,1,0,0:0:0:0:
192,192,102517,1,0,0:0:0:0:
64,192,102595,1,0,0:0:0:0:
320,192,102595,1,0,0:0:0:0:
448,192,102713,5,0,0:0:0:0:
64,192,102830,1,0,0:0:0:0:
192,192,102830,1,0,0:0:0:0:
448,192,102909,1,0,0:0:0:0:
192,192,102987,1,0,0:0:0:0:
266,192,103066,5,0,0:0:0:0:
64,192,103066,1,0,0:0:0:0:
448,192,103154,1,0,0:0:0:0:
266,192,103330,1,0,0:0:0:0:
448,192,103418,1,0,0:0:0:0:
394,192,103595,1,0,0:0:0:0:
192,192,103673,1,0,0:0:0:0:
448,192,103830,1,0,0:0:0:0:
192,192,103909,1,0,0:0:0:0:
448,192,104066,1,0,0:0:0:0:
192,192,104144,1,0,0:0:0:0:
192,192,104301,1,0,0:0:0:0:
64,192,104389,1,0,0:0:0:0:
192,192,104566,1,0,0:0:0:0:
64,192,104654,1,0,0:0:0:0:
10,192,104830,1,0,0:0:0:0:
320,192,104909,1,0,0:0:0:0:
10,192,105066,1,0,0:0:0:0:
320,192,105144,1,0,0:0:0:0:
192,192,105183,1,0,0:0:0:0:
10,192,105301,1,0,0:0:0:0:
320,192,105379,1,0,0:0:0:0:
192,192,105418,1,0,0:0:0:0:
320,192,105536,1,0,0:0:0:0:
448,192,105624,1,0,0:0:0:0:
64,192,105654,1,0,0:0:0:0:
320,192,105801,1,0,0:0:0:0:
448,192,105889,1,0,0:0:0:0:
192,192,105889,1,0,0:0:0:0:
64,192,106066,1,0,0:0:0:0:
448,192,106144,1,0,0:0:0:0:
320,192,106242,1,0,0:0:0:0:
64,192,106301,1,0,0:0:0:0:
448,192,106379,1,0,0:0:0:0:
448,192,106536,1,0,0:0:0:0:
192,192,106615,1,0,0:0:0:0:
192,192,106771,1,0,0:0:0:0:
320,192,106850,1,0,0:0:0:0:
448,192,106948,1,0,0:0:0:0:
138,192,107007,1,0,0:0:0:0:
266,192,107085,1,0,0:0:0:0:
320,192,107242,1,0,0:0:0:0:
64,192,107320,1,0,0:0:0:0:
138,192,107477,1,0,0:0:0:0:
10,192,107566,1,0,0:0:0:0:
448,192,107654,1,0,0:0:0:0:
138,192,107742,1,0,0:0:0:0:
10,192,107830,1,0,0:0:0:0:
64,192,108007,1,0,0:0:0:0:
192,192,108007,1,0,0:0:0:0:
448,192,108085,1,0,0:0:0:0:
64,192,108242,1,0,0:0:0:0:
448,192,108320,1,0,0:0:0:0:
192,192,108360,1,0,0:0:0:0:
64,192,108477,1,0,0:0:0:0:
448,192,108556,1,0,0:0:0:0:
266,192,108713,5,0,0:0:0:0:
64,192,108713,1,0,0:0:0:0:
448,192,108801,1,0,0:0:0:0:
266,192,108977,1,0,0:0:0:0:
448,192,109066,1,0,0:0:0:0:
394,192,109242,1,0,0:0:0:0:
192,192,109320,1,0,0:0:0:0:
64,192,109418,1,0,0:0:0:0:
320,192,109418,1,0,0:0:0:0:
448,192,109477,1,0,0:0:0:0:
192,192,109556,1,0,0:0:0:0:
448,192,109713,1,0,0:0:0:0:
192,192,109791,1,0,0:0:0:0:
192,192,109948,1,0,0:0:0:0:
64,192,110036,1,0,0:0:0:0:
320,192,110124,1,0,0:0:0:0:
192,192,110213,1,0,0:0:0:0:
64,192,110301,1,0,0:0:0:0:
10,192,110477,1,0,0:0:0:0:
320,192,110556,1,0,0:0:0:0:
10,192,110713,1,0,0:0:0:0:
320,192,110791,1,0,0:0:0:0:
192,192,110830,1,0,0:0:0:0:
10,192,110948,1,0,0:0:0:0:
320,192,111026,1,0,0:0:0:0:
320,192,111183,1,0,0:0:0:0:
448,192,111271,1,0,0:0:0:0:
320,192,111448,1,0,0:0:0:0:
448,192,111536,1,0,0:0:0:0:
64,192,111713,1,0,0:0:0:0:
448,192,111791,1,0,0:0:0:0:
64,192,111948,1,0,0:0:0:0:
448,192,112026,1,0,0:0:0:0:
448,192,112183,1,0,0:0:0:0:
192,192,112262,1,0,0:0:0:0:
192,192,112418,1,0,0:0:0:0:
320,192,112497,1,0,0:0:0:0:
138,192,112654,1,0,0:0:0:0:
266,192,112732,1,0,0:0:0:0:
320,192,112889,1,0,0:0:0:0:
64,192,112968,1,0,0:0:0:0:
138,192,113124,1,0,0:0:0:0:
10,192,113213,1,0,0:0:0:0:
138,192,113389,1,0,0:0:0:0:
10,192,113477,1,0,0:0:0:0:
64,192,113654,1,0,0:0:0:0:
192,192,113654,1,0,0:0:0:0:
448,192,113732,1,0,0:0:0:0:
64,192,113889,1,0,0:0:0:0:
320,192,113889,1,0,0:0:0:0:
448,192,114007,5,0,0:0:0:0:
64,192,114124,1,0,0:0:0:0:
192,192,114124,1,0,0:0:0:0:
448,192,114203,5,0,0:0:0:0:
320,192,114360,1,0,0:0:0:0:
64,192,114360,1,0,0:0:0:0:
448,192,114624,5,0,0:0:0:0:
138,192,114889,1,0,0:0:0:0:
320,192,115124,1,0,0:0:0:0:
138,192,115360,1,0,0:0:0:0:
64,192,115595,1,0,0:0:0:0:
192,192,115860,1,0,0:0:0:0:
320,192,116124,1,0,0:0:0:0:
64,192,116360,1,0,0:0:0:0:
320,192,116595,1,0,0:0:0:0:
394,192,116830,1,0,0:0:0:0:
320,192,117095,1,0,0:0:0:0:
64,192,117360,1,0,0:0:0:0:
448,192,117595,1,0,0:0:0:0:
192,192,117830,1,0,0:0:0:0:
320,192,118066,1,0,0:0:0:0:
192,192,118301,1,0,0:0:0:0:
10,192,118536,1,0,0:0:0:0:
138,192,118771,1,0,0:0:0:0:
64,192,119036,1,0,0:0:0:0:
394,192,119301,1,0,0:0:0:0:
320,192,119536,1,0,0:0:0:0:
394,192,119771,1,0,0:0:0:0:
320,192,120007,1,0,0:0:0:0:
64,192,120007,1,0,0:0:0:0:
266,192,120271,5,0,0:0:0:0:
138,192,120536,1,0,0:0:0:0:
138,192,120771,1,0,0:0:0:0:
138,192,121007,1,0,0:0:0:0:
64,192,121242,1,0,0:0:0:0:
64,192,121507,1,0,0:0:0:0:
320,192,121771,1,0,0:0:0:0:
320,192,122007,1,0,0:0:0:0:
320,192,122242,1,0,0:0:0:0:
394,192,122477,1,0,0:0:0:0:
394,192,122742,1,0,0:0:0:0:
64,192,123007,1,0,0:0:0:0:
64,192,123242,1,0,0:0:0:0:
192,192,123477,1,0,0:0:0:0:
320,192,123713,1,0,0:0:0:0:
266,192,123948,1,0,0:0:0:0:
10,192,124183,1,0,0:0:0:0:
138,192,124418,1,0,0:0:0:0:
138,192,124683,1,0,0:0:0:0:
394,192,124948,1,0,0:0:0:0:
10,192,124948,1,0,0:0:0:0:
192,192,125026,1,0,0:0:0:0:
320,192,125105,1,0,0:0:0:0:
394,192,125183,1,0,0:0:0:0:
192,192,125242,1,0,0:0:0:0:
320,192,125301,1,0,0:0:0:0:
64,192,125360,1,0,0:0:0:0:
448,192,125418,1,0,0:0:0:0:
192,192,125497,1,0,0:0:0:0:
320,192,125654,1,0,0:0:0:0:
448,192,125654,1,0,0:0:0:0:
192,192,125742,1,0,0:0:0:0:
266,192,125918,1,0,0:0:0:0:
394,192,125918,1,0,0:0:0:0:
192,192,126007,1,0,0:0:0:0:
192,192,126183,1,0,0:0:0:0:
448,192,126183,1,0,0:0:0:0:
64,192,126262,1,0,0:0:0:0:
192,192,126418,1,0,0:0:0:0:
448,192,126418,1,0,0:0:0:0:
64,192,126497,1,0,0:0:0:0:
192,192,126654,1,0,0:0:0:0:
448,192,126654,1,0,0:0:0:0:
64,192,126732,1,0,0:0:0:0:
192,192,126889,1,0,0:0:0:0:
64,192,126889,1,0,0:0:0:0:
320,192,126977,1,0,0:0:0:0:
192,192,127154,1,0,0:0:0:0:
64,192,127154,1,0,0:0:0:0:
320,192,127242,1,0,0:0:0:0:
320,192,127418,1,0,0:0:0:0:
10,192,127418,1,0,0:0:0:0:
448,192,127497,1,0,0:0:0:0:
320,192,127654,1,0,0:0:0:0:
10,192,127654,1,0,0:0:0:0:
448,192,127732,1,0,0:0:0:0:
320,192,127889,1,0,0:0:0:0:
10,192,127889,1,0,0:0:0:0:
448,192,127968,1,0,0:0:0:0:
394,192,128124,1,0,0:0:0:0:
320,192,128124,1,0,0:0:0:0:
64,192,128213,1,0,0:0:0:0:
394,192,128389,1,0,0:0:0:0:
320,192,128389,1,0,0:0:0:0:
64,192,128477,1,0,0:0:0:0:
64,192,128654,1,0,0:0:0:0:
394,192,128654,1,0,0:0:0:0:
192,192,128732,1,0,0:0:0:0:
64,192,128889,1,0,0:0:0:0:
394,192,128889,1,0,0:0:0:0:
192,192,128968,1,0,0:0:0:0:
192,192,129124,1,0,0:0:0:0:
448,192,129124,1,0,0:0:0:0:
64,192,129203,1,0,0:0:0:0:
192,192,129360,1,0,0:0:0:0:
320,192,129360,1,0,0:0:0:0:
64,192,129438,1,0,0:0:0:0:
192,192,129595,1,0,0:0:0:0:
320,192,129595,1,0,0:0:0:0:
64,192,129673,1,0,0:0:0:0:
320,192,129830,1,0,0:0:0:0:
64,192,129830,1,0,0:0:0:0:
448,192,129909,1,0,0:0:0:0:
10,192,130066,1,0,0:0:0:0:
138,192,130066,1,0,0:0:0:0:
448,192,130154,1,0,0:0:0:0:
10,192,130330,1,0,0:0:0:0:
138,192,130330,1,0,0:0:0:0:
448,192,130418,1,0,0:0:0:0:
394,192,130595,1,0,0:0:0:0:
64,192,130595,1,0,0:0:0:0:
192,192,130673,1,0,0:0:0:0:
394,192,130830,1,0,0:0:0:0:
10,192,130830,1,0,0:0:0:0:
192,192,130909,1,0,0:0:0:0:
394,192,131066,1,0,0:0:0:0:
10,192,131066,1,0,0:0:0:0:
192,192,131144,1,0,0:0:0:0:
320,192,131301,1,0,0:0:0:0:
448,192,131301,1,0,0:0:0:0:
64,192,131477,1,0,0:0:0:0:
266,192,131566,1,0,0:0:0:0:
394,192,131566,1,0,0:0:0:0:
64,192,131654,1,0,0:0:0:0:
192,192,131830,1,0,0:0:0:0:
448,192,131830,1,0,0:0:0:0:
320,192,131987,1,0,0:0:0:0:
192,192,132066,1,0,0:0:0:0:
448,192,132066,1,0,0:0:0:0:
320,192,132144,1,0,0:0:0:0:
192,192,132301,1,0,0:0:0:0:
448,192,132301,1,0,0:0:0:0:
448,192,132458,1,0,0:0:0:0:
192,192,132536,1,0,0:0:0:0:
64,192,132536,1,0,0:0:0:0:
448,192,132713,1,0,0:0:0:0:
192,192,132801,1,0,0:0:0:0:
64,192,132801,1,0,0:0:0:0:
448,192,132889,1,0,0:0:0:0:
320,192,133066,1,0,0:0:0:0:
10,192,133066,1,0,0:0:0:0:
192,192,133222,1,0,0:0:0:0:
320,192,133301,1,0,0:0:0:0:
10,192,133301,1,0,0:0:0:0:
192,192,133379,1,0,0:0:0:0:
320,192,133536,1,0,0:0:0:0:
10,192,133536,1,0,0:0:0:0:
64,192,133693,1,0,0:0:0:0:
394,192,133771,1,0,0:0:0:0:
320,192,133771,1,0,0:0:0:0:
192,192,133948,1,0,0:0:0:0:
394,192,134036,1,0,0:0:0:0:
320,192,134036,1,0,0:0:0:0:
192,192,134124,1,0,0:0:0:0:
64,192,134301,1,0,0:0:0:0:
394,192,134301,1,0,0:0:0:0:
320,192,134458,1,0,0:0:0:0:
64,192,134536,1,0,0:0:0:0:
394,192,134536,1,0,0:0:0:0:
320,192,134615,1,0,0:0:0:0:
192,192,134771,1,0,0:0:0:0:
448,192,134771,1,0,0:0:0:0:
448,192,134928,1,0,0:0:0:0:
192,192,135007,1,0,0:0:0:0:
320,192,135007,1,0,0:0:0:0:
448,192,135164,1,0,0:0:0:0:
192,192,135242,1,0,0:0:0:0:
320,192,135242,1,0,0:0:0:0:
448,192,135320,1,0,0:0:0:0:
320,192,135477,1,0,0:0:0:0:
64,192,135477,1,0,0:0:0:0:
320,192,135634,1,0,0:0:0:0:
10,192,135713,1,0,0:0:0:0:
138,192,135713,1,0,0:0:0:0:
320,192,135889,1,0,0:0:0:0:
10,192,135977,1,0,0:0:0:0:
138,192,135977,1,0,0:0:0:0:
320,192,136066,1,0,0:0:0:0:
394,192,136242,1,0,0:0:0:0:
64,192,136242,1,0,0:0:0:0:
192,192,136399,1,0,0:0:0:0:
10,192,136477,1,0,0:0:0:0:
394,192,136477,1,0,0:0:0:0:
192,192,136556,1,0,0:0:0:0:
394,192,136713,1,0,0:0:0:0:
10,192,136713,1,0,0:0:0:0:
64,192,136869,1,0,0:0:0:0:
320,192,136948,1,0,0:0:0:0:
448,192,136948,1,0,0:0:0:0:
192,192,137036,1,0,0:0:0:0:
64,192,137124,1,0,0:0:0:0:
266,192,137213,1,0,0:0:0:0:
394,192,137213,1,0,0:0:0:0:
64,192,137301,1,0,0:0:0:0:
320,192,137389,1,0,0:0:0:0:
394,192,137477,1,0,0:0:0:0:
138,192,137477,1,0,0:0:0:0:
320,192,137556,1,0,0:0:0:0:
64,192,137634,1,0,0:0:0:0:
394,192,137713,1,0,0:0:0:0:
138,192,137713,1,0,0:0:0:0:
64,192,137791,1,0,0:0:0:0:
320,192,137869,1,0,0:0:0:0:
394,192,137948,1,0,0:0:0:0:
138,192,137948,1,0,0:0:0:0:
64,192,138026,1,0,0:0:0:0:
448,192,138105,1,0,0:0:0:0:
192,192,138183,1,0,0:0:0:0:
64,192,138183,1,0,0:0:0:0:
320,192,138271,1,0,0:0:0:0:
448,192,138360,1,0,0:0:0:0:
192,192,138448,1,0,0:0:0:0:
64,192,138448,1,0,0:0:0:0:
448,192,138536,1,0,0:0:0:0:
192,192,138624,1,0,0:0:0:0:
320,192,138713,1,0,0:0:0:0:
10,192,138713,1,0,0:0:0:0:
192,192,138791,1,0,0:0:0:0:
448,192,138869,1,0,0:0:0:0:
320,192,138948,1,0,0:0:0:0:
10,192,138948,1,0,0:0:0:0:
448,192,139026,1,0,0:0:0:0:
192,192,139105,1,0,0:0:0:0:
320,192,139183,1,0,0:0:0:0:
10,192,139183,1,0,0:0:0:0:
448,192,139262,1,0,0:0:0:0:
192,192,139340,1,0,0:0:0:0:
394,192,139418,1,0,0:0:0:0:
320,192,139418,1,0,0:0:0:0:
64,192,139507,1,0,0:0:0:0:
192,192,139595,1,0,0:0:0:0:
394,192,139683,1,0,0:0:0:0:
320,192,139683,1,0,0:0:0:0:
192,192,139771,1,0,0:0:0:0:
320,192,139860,1,0,0:0:0:0:
64,192,139948,1,0,0:0:0:0:
394,192,139948,1,0,0:0:0:0:
192,192,140026,1,0,0:0:0:0:
320,192,140105,1,0,0:0:0:0:
64,192,140183,1,0,0:0:0:0:
394,192,140183,1,0,0:0:0:0:
192,192,140262,1,0,0:0:0:0:
320,192,140340,1,0,0:0:0:0:
192,192,140418,1,0,0:0:0:0:
448,192,140418,1,0,0:0:0:0:
64,192,140497,1,0,0:0:0:0:
448,192,140575,1,0,0:0:0:0:
320,192,140654,1,0,0:0:0:0:
192,192,140654,1,0,0:0:0:0:
64,192,140732,1,0,0:0:0:0:
448,192,140811,1,0,0:0:0:0:
266,192,140889,1,0,0:0:0:0:
138,192,140889,1,0,0:0:0:0:
64,192,140968,1,0,0:0:0:0:
192,192,141046,1,0,0:0:0:0:
266,192,141124,1,0,0:0:0:0:
10,192,141124,1,0,0:0:0:0:
448,192,141203,1,0,0:0:0:0:
320,192,141281,1,0,0:0:0:0:
10,192,141360,1,0,0:0:0:0:
138,192,141360,1,0,0:0:0:0:
448,192,141448,1,0,0:0:0:0:
320,192,141536,1,0,0:0:0:0:
10,192,141624,1,0,0:0:0:0:
138,192,141624,1,0,0:0:0:0:
320,192,141713,1,0,0:0:0:0:
192,192,141801,1,0,0:0:0:0:
394,192,141889,1,0,0:0:0:0:
10,192,141889,1,0,0:0:0:0:
192,192,141968,1,0,0:0:0:0:
320,192,142046,1,0,0:0:0:0:
394,192,142124,1,0,0:0:0:0:
10,192,142124,1,0,0:0:0:0:
192,192,142203,1,0,0:0:0:0:
320,192,142281,1,0,0:0:0:0:
394,192,142360,1,0,0:0:0:0:
10,192,142360,1,0,0:0:0:0:
192,192,142438,1,0,0:0:0:0:
64,192,142517,1,0,0:0:0:0:
320,192,142595,1,0,0:0:0:0:
448,192,142595,1,0,0:0:0:0:
192,192,142683,1,0,0:0:0:0:
266,192,142860,1,0,0:0:0:0:
394,192,142860,1,0,0:0:0:0:
192,192,142948,1,0,0:0:0:0:
192,192,143124,1,0,0:0:0:0:
448,192,143124,1,0,0:0:0:0:
64,192,143203,1,0,0:0:0:0:
192,192,143360,1,0,0:0:0:0:
448,192,143360,1,0,0:0:0:0:
64,192,143438,1,0,0:0:0:0:
192,192,143595,1,0,0:0:0:0:
448,192,143595,1,0,0:0:0:0:
64,192,143673,1,0,0:0:0:0:
192,192,143830,1,0,0:0:0:0:
64,192,143830,1,0,0:0:0:0:
320,192,143918,1,0,0:0:0:0:
192,192,144095,1,0,0:0:0:0:
64,192,144095,1,0,0:0:0:0:
320,192,144183,1,0,0:0:0:0:
320,192,144360,1,0,0:0:0:0:
10,192,144360,1,0,0:0:0:0:
448,192,144438,1,0,0:0:0:0:
320,192,144595,1,0,0:0:0:0:
10,192,144595,1,0,0:0:0:0:
448,192,144673,1,0,0:0:0:0:
320,192,144830,1,0,0:0:0:0:
10,192,144830,1,0,0:0:0:0:
448,192,144909,1,0,0:0:0:0:
394,192,145066,1,0,0:0:0:0:
320,192,145066,1,0,0:0:0:0:
64,192,145154,1,0,0:0:0:0:
394,192,145330,1,0,0:0:0:0:
320,192,145330,1,0,0:0:0:0:
64,192,145418,1,0,0:0:0:0:
64,192,145595,1,0,0:0:0:0:
394,192,145595,1,0,0:0:0:0:
192,192,145673,1,0,0:0:0:0:
64,192,145830,1,0,0:0:0:0:
394,192,145830,1,0,0:0:0:0:
192,192,145909,1,0,0:0:0:0:
192,192,146066,1,0,0:0:0:0:
448,192,146066,1,0,0:0:0:0:
64,192,146144,1,0,0:0:0:0:
192,192,146301,1,0,0:0:0:0:
320,192,146301,1,0,0:0:0:0:
64,192,146379,1,0,0:0:0:0:
192,192,146536,1,0,0:0:0:0:
320,192,146536,1,0,0:0:0:0:
64,192,146615,1,0,0:0:0:0:
320,192,146771,1,0,0:0:0:0:
64,192,146771,1,0,0:0:0:0:
448,192,146850,1,0,0:0:0:0:
10,192,147007,1,0,0:0:0:0:
138,192,147007,1,0,0:0:0:0:
448,192,147095,1,0,0:0:0:0:
10,192,147271,1,0,0:0:0:0:
138,192,147271,1,0,0:0:0:0:
448,192,147360,1,0,0:0:0:0:
394,192,147536,1,0,0:0:0:0:
64,192,147536,1,0,0:0:0:0:
192,192,147615,1,0,0:0:0:0:
394,192,147771,1,0,0:0:0:0:
10,192,147771,1,0,0:0:0:0:
320,192,147850,1,0,0:0:0:0:
394,192,148007,1,0,0:0:0:0:
10,192,148007,1,0,0:0:0:0:
192,192,148085,1,0,0:0:0:0:
266,192,148242,5,0,0:0:0:0:
394,192,148242,1,0,0:0:0:0:
266,192,148507,1,0,0:0:0:0:
394,192,148507,1,0,0:0:0:0:
394,192,148771,1,0,0:0:0:0:
138,192,148771,1,0,0:0:0:0:
394,192,149007,1,0,0:0:0:0:
138,192,149007,1,0,0:0:0:0:
394,192,149242,1,0,0:0:0:0:
138,192,149242,1,0,0:0:0:0:
192,192,149477,1,0,0:0:0:0:
64,192,149477,1,0,0:0:0:0:
192,192,149742,1,0,0:0:0:0:
64,192,149742,1,0,0:0:0:0:
320,192,150007,1,0,0:0:0:0:
10,192,150007,1,0,0:0:0:0:
320,192,150242,1,0,0:0:0:0:
10,192,150242,1,0,0:0:0:0:
192,192,150360,1,0,0:0:0:0:
320,192,150477,1,0,0:0:0:0:
10,192,150477,1,0,0:0:0:0:
394,192,150713,1,0,0:0:0:0:
320,192,150713,1,0,0:0:0:0:
394,192,150977,1,0,0:0:0:0:
320,192,150977,1,0,0:0:0:0:
64,192,151242,1,0,0:0:0:0:
394,192,151242,1,0,0:0:0:0:
64,192,151477,1,0,0:0:0:0:
394,192,151477,1,0,0:0:0:0:
192,192,151713,1,0,0:0:0:0:
448,192,151713,1,0,0:0:0:0:
320,192,151948,1,0,0:0:0:0:
192,192,151948,1,0,0:0:0:0:
266,192,152183,1,0,0:0:0:0:
138,192,152183,1,0,0:0:0:0:
266,192,152418,1,0,0:0:0:0:
10,192,152418,1,0,0:0:0:0:
10,192,152654,1,0,0:0:0:0:
138,192,152654,1,0,0:0:0:0:
10,192,152918,1,0,0:0:0:0:
138,192,152918,1,0,0:0:0:0:
394,192,153183,1,0,0:0:0:0:
10,192,153183,1,0,0:0:0:0:
394,192,153418,1,0,0:0:0:0:
10,192,153418,1,0,0:0:0:0:
394,192,153654,1,0,0:0:0:0:
10,192,153654,1,0,0:0:0:0:
266,192,153889,5,0,0:0:0:0:
394,192,153889,1,0,0:0:0:0:
394,192,154154,1,0,0:0:0:0:
266,192,154154,1,0,0:0:0:0:
138,192,154418,1,0,0:0:0:0:
394,192,154418,1,0,0:0:0:0:
138,192,154654,1,0,0:0:0:0:
394,192,154654,1,0,0:0:0:0:
138,192,154889,1,0,0:0:0:0:
394,192,154889,1,0,0:0:0:0:
64,192,155124,1,0,0:0:0:0:
192,192,155124,1,0,0:0:0:0:
64,192,155389,1,0,0:0:0:0:
192,192,155389,1,0,0:0:0:0:
10,192,155654,1,0,0:0:0:0:
320,192,155654,1,0,0:0:0:0:
10,192,155889,1,0,0:0:0:0:
320,192,155889,1,0,0:0:0:0:
10,192,156124,1,0,0:0:0:0:
320,192,156124,1,0,0:0:0:0:
320,192,156360,1,0,0:0:0:0:
394,192,156360,1,0,0:0:0:0:
320,192,156624,1,0,0:0:0:0:
394,192,156624,1,0,0:0:0:0:
394,192,156889,1,0,0:0:0:0:
64,192,156889,1,0,0:0:0:0:
394,192,157124,1,0,0:0:0:0:
64,192,157124,1,0,0:0:0:0:
448,192,157360,1,0,0:0:0:0:
192,192,157360,1,0,0:0:0:0:
192,192,157595,1,0,0:0:0:0:
320,192,157595,1,0,0:0:0:0:
138,192,157830,1,0,0:0:0:0:
266,192,157830,1,0,0:0:0:0:
10,192,158066,1,0,0:0:0:0:
266,192,158066,1,0,0:0:0:0:
138,192,158301,1,0,0:0:0:0:
10,192,158301,1,0,0:0:0:0:
138,192,158566,1,0,0:0:0:0:
10,192,158566,1,0,0:0:0:0:
10,192,158830,1,0,0:0:0:0:
394,192,158830,1,0,0:0:0:0:
10,192,159066,1,0,0:0:0:0:
394,192,159066,1,0,0:0:0:0:
10,192,159301,1,0,0:0:0:0:
394,192,159301,1,0,0:0:0:0:
266,192,159536,5,0,0:0:0:0:
448,192,159536,1,0,0:0:0:0:
266,192,159801,1,0,0:0:0:0:
138,192,160066,1,0,0:0:0:0:
138,192,160301,1,0,0:0:0:0:
138,192,160536,1,0,0:0:0:0:
64,192,160771,1,0,0:0:0:0:
64,192,161036,1,0,0:0:0:0:
320,192,161301,1,0,0:0:0:0:
320,192,161536,1,0,0:0:0:0:
320,192,161771,1,0,0:0:0:0:
394,192,162007,1,0,0:0:0:0:
394,192,162271,1,0,0:0:0:0:
64,192,162536,1,0,0:0:0:0:
64,192,162771,1,0,0:0:0:0:
192,192,163007,1,0,0:0:0:0:
320,192,163242,1,0,0:0:0:0:
266,192,163477,1,0,0:0:0:0:
10,192,163713,1,0,0:0:0:0:
138,192,163948,1,0,0:0:0:0:
138,192,164213,1,0,0:0:0:0:
394,192,164477,1,0,0:0:0:0:
394,192,164713,1,0,0:0:0:0:
394,192,164948,1,0,0:0:0:0:
266,192,165183,5,0,0:0:0:0:
266,192,165448,1,0,0:0:0:0:
138,192,165713,1,0,0:0:0:0:
138,192,165948,1,0,0:0:0:0:
138,192,166183,1,0,0:0:0:0:
64,192,166418,1,0,0:0:0:0:
64,192,166683,1,0,0:0:0:0:
320,192,166948,1,0,0:0:0:0:
320,192,167183,1,0,0:0:0:0:
320,192,167418,1,0,0:0:0:0:
394,192,167654,1,0,0:0:0:0:
394,192,167918,1,0,0:0:0:0:
64,192,168183,1,0,0:0:0:0:
64,192,168418,1,0,0:0:0:0:
192,192,168654,1,0,0:0:0:0:
320,192,168889,1,0,0:0:0:0:
266,192,169124,1,0,0:0:0:0:
10,192,169360,1,0,0:0:0:0:
138,192,169595,1,0,0:0:0:0:
138,192,169860,1,0,0:0:0:0:
394,192,170124,1,0,0:0:0:0:
394,192,170360,1,0,0:0:0:0:
394,192,170595,1,0,0:0:0:0:
320,192,170830,1,0,0:0:0:0:
