osu file format v14

[General]
AudioFilename: audio.mp3
AudioLeadIn: 0
PreviewTime: 182143
Countdown: 0
SampleSet: Soft
StackLeniency: 0.7
Mode: 3
LetterboxInBreaks: 0
SpecialStyle: 0
WidescreenStoryboard: 0

[Editor]
DistanceSpacing: 1
BeatDivisor: 5
GridSize: 32
TimelineZoom: 2.3

[Metadata]
Title:Asteroid Field of DECAPLETS
TitleUnicode:Asteroid Field of DECAPLETS
Artist:II-L
ArtistUnicode:II-L
Creator:FLeVI
Version:Wanderer
Source:Intermediate Global Taiko Showdown 2021
Tags:osu! fa featured artist mappers' guild mg juke footwork psytrance instrumental electronic igts finger control rhythm space BespokE : GTS 2021 Sound Team POCARI SWEAT poca_p0ca poca p0ca
BeatmapID:4001615
BeatmapSetID:1936097

[Difficulty]
HPDrainRate:8.5
CircleSize:4
OverallDifficulty:8
ApproachRate:5
SliderMultiplier:1.4
SliderTickRate:1

[Events]
//Background and Video events
0,0,"bg.jpg",0,0
//Break Periods
//Storyboard Layer 0 (Background)
//Storyboard Layer 1 (Fail)
//Storyboard Layer 2 (Pass)
//Storyboard Layer 3 (Foreground)
//Storyboard Layer 4 (Overlay)
//Storyboard Sound Samples

[TimingPoints]
1438,352.941176470588,4,2,1,30,1,0

[HitObjects]
448,192,1438,5,0,0:0:0:0:
64,192,1438,1,0,0:0:0:0:
320,192,1438,1,0,0:0:0:0:
192,192,1614,1,0,0:0:0:0:
448,192,1790,1,0,0:0:0:0:
320,192,1967,1,0,0:0:0:0:
192,192,2320,1,0,0:0:0:0:
64,192,2496,1,0,0:0:0:0:
320,192,2673,1,0,0:0:0:0:
64,192,3026,1,0,0:0:0:0:
320,192,3202,1,0,0:0:0:0:
192,192,3379,1,0,0:0:0:0:
64,192,3732,1,0,0:0:0:0:
192,192,3908,1,0,0:0:0:0:
448,192,3908,1,0,0:0:0:0:
448,192,4085,1,0,0:0:0:0:
320,192,4085,1,0,0:0:0:0:
64,192,4085,1,0,0:0:0:0:
192,192,4437,1,0,0:0:0:0:
448,192,4614,1,0,0:0:0:0:
64,192,4790,1,0,0:0:0:0:
320,192,4896,1,0,0:0:0:0:
64,192,4967,1,0,0:0:0:0:
448,192,5143,1,0,0:0:0:0:
192,192,5320,1,0,0:0:0:0:
320,192,5496,1,0,0:0:0:0:
448,192,5540,1,0,0:0:0:0:
192,192,5849,1,0,0:0:0:0:
64,192,6026,1,0,0:0:0:0:
448,192,6202,1,0,0:0:0:0:
192,192,6379,1,0,0:0:0:0:
320,192,6555,1,0,0:0:0:0:
64,192,6732,1,0,0:0:0:0:
192,192,6908,1,0,0:0:0:0:
320,192,6908,1,0,0:0:0:0:
448,192,6908,1,0,0:0:0:0:
64,192,7261,1,0,0:0:0:0:
320,192,7437,1,0,0:0:0:0:
192,192,7614,1,0,0:0:0:0:
320,192,7790,1,0,0:0:0:0:
448,192,7967,1,0,0:0:0:0:
192,192,8143,1,0,0:0:0:0:
64,192,8320,1,0,0:0:0:0:
192,192,8673,1,0,0:0:0:0:
320,192,8849,1,0,0:0:0:0:
448,192,9026,1,0,0:0:0:0:
192,192,9158,1,0,0:0:0:0:
448,192,9202,1,0,0:0:0:0:
64,192,9379,1,0,0:0:0:0:
192,192,9555,1,0,0:0:0:0:
320,192,9555,1,0,0:0:0:0:
448,192,9732,1,0,0:0:0:0:
192,192,9732,1,0,0:0:0:0:
64,192,9732,1,0,0:0:0:0:
320,192,10085,1,0,0:0:0:0:
192,192,10261,1,0,0:0:0:0:
64,192,10437,1,0,0:0:0:0:
448,192,10614,1,0,0:0:0:0:
192,192,10790,1,0,0:0:0:0:
320,192,10967,1,0,0:0:0:0:
448,192,11143,1,0,0:0:0:0:
64,192,11320,1,0,0:0:0:0:
192,192,11496,1,0,0:0:0:0:
448,192,11673,1,0,0:0:0:0:
64,192,11849,1,0,0:0:0:0:
448,192,12026,1,0,0:0:0:0:
64,192,12202,1,0,0:0:0:0:
448,192,12379,1,0,0:0:0:0:
320,192,12449,1,0,0:0:0:0:
64,192,12732,1,0,0:0:0:0:
192,192,12732,1,0,0:0:0:0:
320,192,12732,1,0,0:0:0:0:
448,192,12732,1,0,0:0:0:0:
64,192,13437,1,0,0:0:0:0:
448,192,15202,1,0,0:0:0:0:
192,192,15202,1,0,0:0:0:0:
320,192,15379,1,0,0:0:0:0:
448,192,15379,1,0,0:0:0:0:
64,192,15379,1,0,0:0:0:0:
192,192,16261,1,0,0:0:0:0:
192,192,18202,1,0,0:0:0:0:
64,192,18202,1,0,0:0:0:0:
320,192,18202,1,0,0:0:0:0:
448,192,19085,1,0,0:0:0:0:
320,192,20849,1,0,0:0:0:0:
448,192,20849,1,0,0:0:0:0:
448,192,21026,1,0,0:0:0:0:
64,192,21026,1,0,0:0:0:0:
192,192,21026,1,0,0:0:0:0:
320,192,21908,1,0,0:0:0:0:
320,192,23320,5,0,0:0:0:0:
320,192,23743,1,0,0:0:0:0:
320,192,23885,1,0,0:0:0:0:
448,192,24026,5,0,0:0:0:0:
192,192,24026,1,0,0:0:0:0:
320,192,24026,1,0,0:0:0:0:
64,192,24026,1,0,0:0:0:0:
192,192,24308,1,0,0:0:0:0:
64,192,24308,1,0,0:0:0:0:
192,192,24626,1,0,0:0:0:0:
64,192,24626,1,0,0:0:0:0:
192,192,24943,1,0,0:0:0:0:
64,192,24943,1,0,0:0:0:0:
192,192,25226,1,0,0:0:0:0:
64,192,25226,1,0,0:0:0:0:
192,192,25579,1,0,0:0:0:0:
64,192,25579,1,0,0:0:0:0:
192,192,25896,1,0,0:0:0:0:
64,192,25896,1,0,0:0:0:0:
192,192,26179,1,0,0:0:0:0:
64,192,26179,1,0,0:0:0:0:
320,192,26496,1,0,0:0:0:0:
192,192,26496,1,0,0:0:0:0:
320,192,26673,1,0,0:0:0:0:
448,192,26673,1,0,0:0:0:0:
320,192,27026,1,0,0:0:0:0:
448,192,27026,1,0,0:0:0:0:
320,192,27343,1,0,0:0:0:0:
448,192,27343,1,0,0:0:0:0:
320,192,27626,1,0,0:0:0:0:
448,192,27626,1,0,0:0:0:0:
320,192,27979,1,0,0:0:0:0:
448,192,27979,1,0,0:0:0:0:
320,192,28261,1,0,0:0:0:0:
448,192,28261,1,0,0:0:0:0:
320,192,28579,1,0,0:0:0:0:
448,192,28579,1,0,0:0:0:0:
320,192,28932,1,0,0:0:0:0:
448,192,28932,1,0,0:0:0:0:
320,192,29214,1,0,0:0:0:0:
448,192,29214,1,0,0:0:0:0:
64,192,29496,1,0,0:0:0:0:
320,192,29496,1,0,0:0:0:0:
320,192,29849,1,0,0:0:0:0:
64,192,29849,1,0,0:0:0:0:
320,192,30132,1,0,0:0:0:0:
64,192,30132,1,0,0:0:0:0:
320,192,30449,1,0,0:0:0:0:
64,192,30449,1,0,0:0:0:0:
320,192,30767,1,0,0:0:0:0:
64,192,30767,1,0,0:0:0:0:
320,192,31049,1,0,0:0:0:0:
64,192,31049,1,0,0:0:0:0:
320,192,31402,1,0,0:0:0:0:
64,192,31402,1,0,0:0:0:0:
320,192,31720,1,0,0:0:0:0:
64,192,31720,1,0,0:0:0:0:
320,192,32002,1,0,0:0:0:0:
64,192,32002,1,0,0:0:0:0:
64,192,32143,1,0,0:0:0:0:
448,192,32143,1,0,0:0:0:0:
192,192,32320,1,0,0:0:0:0:
448,192,32320,1,0,0:0:0:0:
192,192,32673,1,0,0:0:0:0:
448,192,32673,1,0,0:0:0:0:
192,192,33026,1,0,0:0:0:0:
448,192,33026,1,0,0:0:0:0:
192,192,33308,1,0,0:0:0:0:
448,192,33308,1,0,0:0:0:0:
192,192,33626,1,0,0:0:0:0:
448,192,33626,1,0,0:0:0:0:
192,192,33943,1,0,0:0:0:0:
448,192,33943,1,0,0:0:0:0:
192,192,34226,1,0,0:0:0:0:
448,192,34226,1,0,0:0:0:0:
192,192,34579,1,0,0:0:0:0:
448,192,34579,1,0,0:0:0:0:
448,192,34896,1,0,0:0:0:0:
192,192,34896,1,0,0:0:0:0:
320,192,35037,1,0,0:0:0:0:
448,192,35037,1,0,0:0:0:0:
448,192,35320,5,0,0:0:0:0:
320,192,35320,1,0,0:0:0:0:
192,192,35320,1,0,0:0:0:0:
64,192,35320,1,0,0:0:0:0:
192,192,35602,1,0,0:0:0:0:
64,192,35602,1,0,0:0:0:0:
192,192,35920,1,0,0:0:0:0:
64,192,35920,1,0,0:0:0:0:
448,192,36026,1,0,0:0:0:0:
192,192,36237,1,0,0:0:0:0:
64,192,36237,1,0,0:0:0:0:
192,192,36520,1,0,0:0:0:0:
64,192,36520,1,0,0:0:0:0:
192,192,36873,1,0,0:0:0:0:
64,192,36873,1,0,0:0:0:0:
192,192,37190,1,0,0:0:0:0:
64,192,37190,1,0,0:0:0:0:
192,192,37473,1,0,0:0:0:0:
64,192,37473,1,0,0:0:0:0:
320,192,37790,1,0,0:0:0:0:
192,192,37790,1,0,0:0:0:0:
320,192,37967,1,0,0:0:0:0:
448,192,37967,1,0,0:0:0:0:
320,192,38320,1,0,0:0:0:0:
448,192,38320,1,0,0:0:0:0:
320,192,38637,1,0,0:0:0:0:
448,192,38637,1,0,0:0:0:0:
64,192,38849,1,0,0:0:0:0:
320,192,38920,1,0,0:0:0:0:
448,192,38920,1,0,0:0:0:0:
320,192,39273,1,0,0:0:0:0:
448,192,39273,1,0,0:0:0:0:
320,192,39555,1,0,0:0:0:0:
448,192,39555,1,0,0:0:0:0:
320,192,39873,1,0,0:0:0:0:
448,192,39873,1,0,0:0:0:0:
320,192,40226,1,0,0:0:0:0:
448,192,40226,1,0,0:0:0:0:
320,192,40508,1,0,0:0:0:0:
448,192,40508,1,0,0:0:0:0:
64,192,40790,1,0,0:0:0:0:
320,192,40790,1,0,0:0:0:0:
320,192,41143,1,0,0:0:0:0:
64,192,41143,1,0,0:0:0:0:
320,192,41426,1,0,0:0:0:0:
64,192,41426,1,0,0:0:0:0:
448,192,41673,1,0,0:0:0:0:
320,192,41743,1,0,0:0:0:0:
64,192,41743,1,0,0:0:0:0:
320,192,42061,1,0,0:0:0:0:
64,192,42061,1,0,0:0:0:0:
320,192,42343,1,0,0:0:0:0:
64,192,42343,1,0,0:0:0:0:
320,192,42696,1,0,0:0:0:0:
64,192,42696,1,0,0:0:0:0:
320,192,43014,1,0,0:0:0:0:
64,192,43014,1,0,0:0:0:0:
320,192,43296,1,0,0:0:0:0:
64,192,43296,1,0,0:0:0:0:
64,192,43437,1,0,0:0:0:0:
448,192,43437,1,0,0:0:0:0:
192,192,43614,1,0,0:0:0:0:
448,192,43614,1,0,0:0:0:0:
192,192,43967,1,0,0:0:0:0:
448,192,43967,1,0,0:0:0:0:
192,192,44320,1,0,0:0:0:0:
448,192,44320,1,0,0:0:0:0:
64,192,44496,1,0,0:0:0:0:
192,192,44602,1,0,0:0:0:0:
448,192,44602,1,0,0:0:0:0:
192,192,44920,1,0,0:0:0:0:
448,192,44920,1,0,0:0:0:0:
192,192,45237,1,0,0:0:0:0:
448,192,45237,1,0,0:0:0:0:
192,192,45520,1,0,0:0:0:0:
448,192,45520,1,0,0:0:0:0:
192,192,45873,1,0,0:0:0:0:
448,192,45873,1,0,0:0:0:0:
448,192,46190,1,0,0:0:0:0:
192,192,46190,1,0,0:0:0:0:
448,192,46332,1,0,0:0:0:0:
320,192,46332,1,0,0:0:0:0:
448,192,46614,5,0,0:0:0:0:
192,192,46614,1,0,0:0:0:0:
320,192,46614,1,0,0:0:0:0:
64,192,46614,1,0,0:0:0:0:
320,192,46755,1,0,0:0:0:0:
192,192,46896,1,0,0:0:0:0:
64,192,46896,1,0,0:0:0:0:
320,192,47037,1,0,0:0:0:0:
192,192,47214,1,0,0:0:0:0:
64,192,47214,1,0,0:0:0:0:
448,192,47320,1,0,0:0:0:0:
320,192,47390,1,0,0:0:0:0:
192,192,47532,1,0,0:0:0:0:
64,192,47532,1,0,0:0:0:0:
320,192,47673,1,0,0:0:0:0:
192,192,47814,1,0,0:0:0:0:
64,192,47814,1,0,0:0:0:0:
320,192,47990,1,0,0:0:0:0:
192,192,48167,1,0,0:0:0:0:
64,192,48167,1,0,0:0:0:0:
320,192,48343,1,0,0:0:0:0:
64,192,48485,1,0,0:0:0:0:
192,192,48485,1,0,0:0:0:0:
320,192,48626,1,0,0:0:0:0:
192,192,48767,1,0,0:0:0:0:
64,192,48767,1,0,0:0:0:0:
320,192,48908,1,0,0:0:0:0:
320,192,49085,1,0,0:0:0:0:
192,192,49085,1,0,0:0:0:0:
320,192,49261,1,0,0:0:0:0:
448,192,49261,1,0,0:0:0:0:
320,192,49614,1,0,0:0:0:0:
448,192,49614,1,0,0:0:0:0:
192,192,49790,1,0,0:0:0:0:
320,192,49932,1,0,0:0:0:0:
448,192,49932,1,0,0:0:0:0:
192,192,50073,1,0,0:0:0:0:
64,192,50143,1,0,0:0:0:0:
320,192,50214,1,0,0:0:0:0:
448,192,50214,1,0,0:0:0:0:
192,192,50390,1,0,0:0:0:0:
320,192,50567,1,0,0:0:0:0:
448,192,50567,1,0,0:0:0:0:
192,192,50708,1,0,0:0:0:0:
320,192,50849,1,0,0:0:0:0:
448,192,50849,1,0,0:0:0:0:
192,192,50990,1,0,0:0:0:0:
320,192,51167,1,0,0:0:0:0:
448,192,51167,1,0,0:0:0:0:
192,192,51343,1,0,0:0:0:0:
320,192,51520,1,0,0:0:0:0:
448,192,51520,1,0,0:0:0:0:
192,192,51661,1,0,0:0:0:0:
320,192,51802,1,0,0:0:0:0:
448,192,51802,1,0,0:0:0:0:
192,192,51943,1,0,0:0:0:0:
64,192,52085,1,0,0:0:0:0:
320,192,52085,1,0,0:0:0:0:
320,192,52437,1,0,0:0:0:0:
64,192,52437,1,0,0:0:0:0:
192,192,52579,1,0,0:0:0:0:
320,192,52720,1,0,0:0:0:0:
64,192,52720,1,0,0:0:0:0:
192,192,52861,1,0,0:0:0:0:
448,192,52967,1,0,0:0:0:0:
320,192,53037,1,0,0:0:0:0:
64,192,53037,1,0,0:0:0:0:
192,192,53214,1,0,0:0:0:0:
320,192,53355,1,0,0:0:0:0:
64,192,53355,1,0,0:0:0:0:
192,192,53496,1,0,0:0:0:0:
320,192,53637,1,0,0:0:0:0:
64,192,53637,1,0,0:0:0:0:
192,192,53814,1,0,0:0:0:0:
320,192,53990,1,0,0:0:0:0:
64,192,53990,1,0,0:0:0:0:
192,192,54167,1,0,0:0:0:0:
320,192,54308,1,0,0:0:0:0:
64,192,54308,1,0,0:0:0:0:
192,192,54449,1,0,0:0:0:0:
320,192,54590,1,0,0:0:0:0:
64,192,54590,1,0,0:0:0:0:
64,192,54732,1,0,0:0:0:0:
448,192,54732,1,0,0:0:0:0:
192,192,54908,1,0,0:0:0:0:
448,192,54908,1,0,0:0:0:0:
192,192,55261,1,0,0:0:0:0:
448,192,55261,1,0,0:0:0:0:
320,192,55437,1,0,0:0:0:0:
192,192,55614,1,0,0:0:0:0:
448,192,55614,1,0,0:0:0:0:
320,192,55755,1,0,0:0:0:0:
64,192,55790,1,0,0:0:0:0:
192,192,55896,1,0,0:0:0:0:
448,192,55896,1,0,0:0:0:0:
320,192,56037,1,0,0:0:0:0:
192,192,56214,1,0,0:0:0:0:
448,192,56214,1,0,0:0:0:0:
320,192,56390,1,0,0:0:0:0:
448,192,56532,1,0,0:0:0:0:
192,192,56532,1,0,0:0:0:0:
320,192,56673,1,0,0:0:0:0:
192,192,56814,1,0,0:0:0:0:
448,192,56814,1,0,0:0:0:0:
320,192,56990,1,0,0:0:0:0:
192,192,57167,1,0,0:0:0:0:
448,192,57167,1,0,0:0:0:0:
320,192,57343,1,0,0:0:0:0:
448,192,57485,1,0,0:0:0:0:
192,192,57485,1,0,0:0:0:0:
448,192,57626,1,0,0:0:0:0:
64,192,57626,1,0,0:0:0:0:
320,192,57767,1,0,0:0:0:0:
448,192,57908,5,0,0:0:0:0:
320,192,57908,1,0,0:0:0:0:
192,192,57908,1,0,0:0:0:0:
64,192,57908,1,0,0:0:0:0:
64,192,58049,1,0,0:0:0:0:
192,192,58190,1,0,0:0:0:0:
64,192,58190,1,0,0:0:0:0:
64,192,58332,1,0,0:0:0:0:
192,192,58508,1,0,0:0:0:0:
64,192,58508,1,0,0:0:0:0:
448,192,58614,1,0,0:0:0:0:
64,192,58685,1,0,0:0:0:0:
192,192,58826,1,0,0:0:0:0:
64,192,58826,1,0,0:0:0:0:
64,192,58967,1,0,0:0:0:0:
192,192,59108,1,0,0:0:0:0:
64,192,59108,1,0,0:0:0:0:
64,192,59285,1,0,0:0:0:0:
192,192,59461,1,0,0:0:0:0:
64,192,59461,1,0,0:0:0:0:
64,192,59637,1,0,0:0:0:0:
192,192,59779,1,0,0:0:0:0:
64,192,59779,1,0,0:0:0:0:
64,192,59920,1,0,0:0:0:0:
448,192,60026,1,0,0:0:0:0:
192,192,60061,1,0,0:0:0:0:
64,192,60061,1,0,0:0:0:0:
64,192,60202,1,0,0:0:0:0:
192,192,60379,1,0,0:0:0:0:
320,192,60379,1,0,0:0:0:0:
320,192,60555,1,0,0:0:0:0:
448,192,60555,1,0,0:0:0:0:
320,192,60908,1,0,0:0:0:0:
448,192,60908,1,0,0:0:0:0:
448,192,61085,1,0,0:0:0:0:
320,192,61226,1,0,0:0:0:0:
448,192,61226,1,0,0:0:0:0:
448,192,61367,1,0,0:0:0:0:
64,192,61437,1,0,0:0:0:0:
320,192,61508,1,0,0:0:0:0:
448,192,61508,1,0,0:0:0:0:
448,192,61685,1,0,0:0:0:0:
320,192,61861,1,0,0:0:0:0:
448,192,61861,1,0,0:0:0:0:
448,192,62002,1,0,0:0:0:0:
320,192,62143,1,0,0:0:0:0:
448,192,62143,1,0,0:0:0:0:
448,192,62285,1,0,0:0:0:0:
320,192,62461,1,0,0:0:0:0:
448,192,62461,1,0,0:0:0:0:
448,192,62637,1,0,0:0:0:0:
320,192,62814,1,0,0:0:0:0:
448,192,62814,1,0,0:0:0:0:
64,192,62849,1,0,0:0:0:0:
448,192,62955,1,0,0:0:0:0:
320,192,63096,1,0,0:0:0:0:
448,192,63096,1,0,0:0:0:0:
448,192,63237,1,0,0:0:0:0:
64,192,63379,1,0,0:0:0:0:
320,192,63379,1,0,0:0:0:0:
320,192,63732,1,0,0:0:0:0:
64,192,63732,1,0,0:0:0:0:
320,192,63873,1,0,0:0:0:0:
320,192,64014,1,0,0:0:0:0:
64,192,64014,1,0,0:0:0:0:
320,192,64155,1,0,0:0:0:0:
448,192,64261,1,0,0:0:0:0:
320,192,64332,1,0,0:0:0:0:
64,192,64332,1,0,0:0:0:0:
320,192,64508,1,0,0:0:0:0:
320,192,64649,1,0,0:0:0:0:
64,192,64649,1,0,0:0:0:0:
320,192,64790,1,0,0:0:0:0:
64,192,64932,1,0,0:0:0:0:
320,192,64932,1,0,0:0:0:0:
320,192,65108,1,0,0:0:0:0:
64,192,65285,1,0,0:0:0:0:
320,192,65285,1,0,0:0:0:0:
320,192,65461,1,0,0:0:0:0:
320,192,65602,1,0,0:0:0:0:
64,192,65602,1,0,0:0:0:0:
448,192,65673,1,0,0:0:0:0:
320,192,65743,1,0,0:0:0:0:
64,192,65885,1,0,0:0:0:0:
320,192,65885,1,0,0:0:0:0:
64,192,66026,1,0,0:0:0:0:
448,192,66026,1,0,0:0:0:0:
192,192,66202,1,0,0:0:0:0:
448,192,66202,1,0,0:0:0:0:
192,192,66555,1,0,0:0:0:0:
448,192,66555,1,0,0:0:0:0:
192,192,66732,1,0,0:0:0:0:
192,192,66908,1,0,0:0:0:0:
448,192,66908,1,0,0:0:0:0:
192,192,67049,1,0,0:0:0:0:
64,192,67085,1,0,0:0:0:0:
192,192,67190,1,0,0:0:0:0:
448,192,67190,1,0,0:0:0:0:
192,192,67332,1,0,0:0:0:0:
192,192,67508,1,0,0:0:0:0:
448,192,67508,1,0,0:0:0:0:
192,192,67685,1,0,0:0:0:0:
448,192,67826,1,0,0:0:0:0:
192,192,67826,1,0,0:0:0:0:
192,192,67967,1,0,0:0:0:0:
192,192,68108,1,0,0:0:0:0:
448,192,68108,1,0,0:0:0:0:
192,192,68285,1,0,0:0:0:0:
192,192,68461,1,0,0:0:0:0:
448,192,68461,1,0,0:0:0:0:
64,192,68496,1,0,0:0:0:0:
192,192,68637,1,0,0:0:0:0:
448,192,68779,1,0,0:0:0:0:
192,192,68779,1,0,0:0:0:0:
448,192,68920,1,0,0:0:0:0:
320,192,68920,1,0,0:0:0:0:
64,192,68920,1,0,0:0:0:0:
320,192,69061,1,0,0:0:0:0:
448,192,69061,1,0,0:0:0:0:
448,192,69202,5,0,0:0:0:0:
192,192,69202,1,0,0:0:0:0:
320,192,69202,1,0,0:0:0:0:
64,192,69202,1,0,0:0:0:0:
64,192,69343,1,0,0:0:0:0:
320,192,69379,1,0,0:0:0:0:
64,192,69485,1,0,0:0:0:0:
192,192,69485,1,0,0:0:0:0:
64,192,69626,1,0,0:0:0:0:
320,192,69732,1,0,0:0:0:0:
192,192,69802,1,0,0:0:0:0:
64,192,69802,1,0,0:0:0:0:
448,192,69908,1,0,0:0:0:0:
64,192,69979,1,0,0:0:0:0:
320,192,70085,1,0,0:0:0:0:
192,192,70120,1,0,0:0:0:0:
64,192,70120,1,0,0:0:0:0:
64,192,70261,1,0,0:0:0:0:
192,192,70402,1,0,0:0:0:0:
64,192,70402,1,0,0:0:0:0:
320,192,70437,1,0,0:0:0:0:
64,192,70579,1,0,0:0:0:0:
192,192,70755,1,0,0:0:0:0:
64,192,70755,1,0,0:0:0:0:
320,192,70790,1,0,0:0:0:0:
64,192,70932,1,0,0:0:0:0:
64,192,71073,1,0,0:0:0:0:
192,192,71073,1,0,0:0:0:0:
320,192,71143,1,0,0:0:0:0:
64,192,71214,1,0,0:0:0:0:
448,192,71320,1,0,0:0:0:0:
192,192,71355,1,0,0:0:0:0:
64,192,71355,1,0,0:0:0:0:
64,192,71496,1,0,0:0:0:0:
192,192,71673,1,0,0:0:0:0:
320,192,71673,1,0,0:0:0:0:
320,192,71849,1,0,0:0:0:0:
448,192,71849,1,0,0:0:0:0:
192,192,71849,1,0,0:0:0:0:
64,192,71849,1,0,0:0:0:0:
320,192,72202,1,0,0:0:0:0:
448,192,72202,1,0,0:0:0:0:
448,192,72379,1,0,0:0:0:0:
320,192,72520,1,0,0:0:0:0:
448,192,72520,1,0,0:0:0:0:
192,192,72555,1,0,0:0:0:0:
448,192,72661,1,0,0:0:0:0:
64,192,72732,1,0,0:0:0:0:
320,192,72802,1,0,0:0:0:0:
448,192,72802,1,0,0:0:0:0:
192,192,72908,1,0,0:0:0:0:
448,192,72979,1,0,0:0:0:0:
320,192,73155,1,0,0:0:0:0:
448,192,73155,1,0,0:0:0:0:
192,192,73261,1,0,0:0:0:0:
448,192,73296,1,0,0:0:0:0:
320,192,73437,1,0,0:0:0:0:
448,192,73437,1,0,0:0:0:0:
448,192,73579,1,0,0:0:0:0:
192,192,73614,1,0,0:0:0:0:
320,192,73755,1,0,0:0:0:0:
448,192,73755,1,0,0:0:0:0:
448,192,73932,1,0,0:0:0:0:
192,192,73967,1,0,0:0:0:0:
320,192,74108,1,0,0:0:0:0:
448,192,74108,1,0,0:0:0:0:
64,192,74143,1,0,0:0:0:0:
448,192,74249,1,0,0:0:0:0:
192,192,74320,1,0,0:0:0:0:
320,192,74390,1,0,0:0:0:0:
448,192,74390,1,0,0:0:0:0:
448,192,74532,1,0,0:0:0:0:
64,192,74673,1,0,0:0:0:0:
320,192,74673,1,0,0:0:0:0:
192,192,74673,1,0,0:0:0:0:
448,192,74673,1,0,0:0:0:0:
320,192,75026,1,0,0:0:0:0:
64,192,75026,1,0,0:0:0:0:
320,192,75167,1,0,0:0:0:0:
320,192,75308,1,0,0:0:0:0:
64,192,75308,1,0,0:0:0:0:
192,192,75379,1,0,0:0:0:0:
320,192,75449,1,0,0:0:0:0:
448,192,75555,1,0,0:0:0:0:
64,192,75626,1,0,0:0:0:0:
320,192,75626,1,0,0:0:0:0:
192,192,75732,1,0,0:0:0:0:
320,192,75802,1,0,0:0:0:0:
320,192,75943,1,0,0:0:0:0:
64,192,75943,1,0,0:0:0:0:
320,192,76085,1,0,0:0:0:0:
64,192,76226,1,0,0:0:0:0:
320,192,76226,1,0,0:0:0:0:
320,192,76402,1,0,0:0:0:0:
192,192,76437,1,0,0:0:0:0:
64,192,76579,1,0,0:0:0:0:
320,192,76579,1,0,0:0:0:0:
320,192,76755,1,0,0:0:0:0:
192,192,76790,1,0,0:0:0:0:
320,192,76896,1,0,0:0:0:0:
64,192,76896,1,0,0:0:0:0:
448,192,76967,1,0,0:0:0:0:
320,192,77037,1,0,0:0:0:0:
192,192,77143,1,0,0:0:0:0:
64,192,77179,1,0,0:0:0:0:
320,192,77179,1,0,0:0:0:0:
64,192,77320,1,0,0:0:0:0:
448,192,77320,1,0,0:0:0:0:
192,192,77496,1,0,0:0:0:0:
448,192,77496,1,0,0:0:0:0:
320,192,77496,1,0,0:0:0:0:
64,192,77496,1,0,0:0:0:0:
192,192,77849,1,0,0:0:0:0:
448,192,77849,1,0,0:0:0:0:
192,192,78026,1,0,0:0:0:0:
192,192,78202,1,0,0:0:0:0:
448,192,78202,1,0,0:0:0:0:
192,192,78343,1,0,0:0:0:0:
64,192,78379,1,0,0:0:0:0:
192,192,78485,1,0,0:0:0:0:
448,192,78485,1,0,0:0:0:0:
320,192,78555,1,0,0:0:0:0:
192,192,78626,1,0,0:0:0:0:
192,192,78802,1,0,0:0:0:0:
448,192,78802,1,0,0:0:0:0:
320,192,78908,1,0,0:0:0:0:
192,192,78979,1,0,0:0:0:0:
192,192,79120,1,0,0:0:0:0:
448,192,79120,1,0,0:0:0:0:
192,192,79261,1,0,0:0:0:0:
192,192,79402,1,0,0:0:0:0:
448,192,79402,1,0,0:0:0:0:
192,192,79579,1,0,0:0:0:0:
320,192,79614,1,0,0:0:0:0:
192,192,79755,1,0,0:0:0:0:
448,192,79755,1,0,0:0:0:0:
64,192,79790,1,0,0:0:0:0:
192,192,79932,1,0,0:0:0:0:
320,192,79967,1,0,0:0:0:0:
192,192,80073,1,0,0:0:0:0:
448,192,80073,1,0,0:0:0:0:
448,192,80214,1,0,0:0:0:0:
320,192,80214,1,0,0:0:0:0:
64,192,80214,1,0,0:0:0:0:
192,192,80320,1,0,0:0:0:0:
448,192,80355,1,0,0:0:0:0:
448,192,80496,5,0,0:0:0:0:
320,192,80496,1,0,0:0:0:0:
192,192,80496,1,0,0:0:0:0:
64,192,80496,1,0,0:0:0:0:
64,192,80637,1,0,0:0:0:0:
320,192,80673,1,0,0:0:0:0:
64,192,80779,1,0,0:0:0:0:
192,192,80779,1,0,0:0:0:0:
64,192,80920,1,0,0:0:0:0:
320,192,81026,1,0,0:0:0:0:
192,192,81096,1,0,0:0:0:0:
64,192,81096,1,0,0:0:0:0:
448,192,81202,1,0,0:0:0:0:
64,192,81273,1,0,0:0:0:0:
320,192,81379,1,0,0:0:0:0:
192,192,81414,1,0,0:0:0:0:
64,192,81414,1,0,0:0:0:0:
64,192,81555,1,0,0:0:0:0:
192,192,81696,1,0,0:0:0:0:
64,192,81696,1,0,0:0:0:0:
320,192,81732,1,0,0:0:0:0:
64,192,81873,1,0,0:0:0:0:
192,192,82049,1,0,0:0:0:0:
64,192,82049,1,0,0:0:0:0:
320,192,82085,1,0,0:0:0:0:
64,192,82226,1,0,0:0:0:0:
64,192,82367,1,0,0:0:0:0:
192,192,82367,1,0,0:0:0:0:
320,192,82437,1,0,0:0:0:0:
64,192,82508,1,0,0:0:0:0:
448,192,82614,1,0,0:0:0:0:
192,192,82649,1,0,0:0:0:0:
64,192,82649,1,0,0:0:0:0:
64,192,82790,1,0,0:0:0:0:
192,192,82967,1,0,0:0:0:0:
320,192,82967,1,0,0:0:0:0:
320,192,83143,1,0,0:0:0:0:
448,192,83143,1,0,0:0:0:0:
192,192,83143,1,0,0:0:0:0:
64,192,83143,1,0,0:0:0:0:
320,192,83496,1,0,0:0:0:0:
448,192,83496,1,0,0:0:0:0:
448,192,83673,1,0,0:0:0:0:
320,192,83814,1,0,0:0:0:0:
448,192,83814,1,0,0:0:0:0:
192,192,83849,1,0,0:0:0:0:
448,192,83955,1,0,0:0:0:0:
64,192,84026,1,0,0:0:0:0:
320,192,84096,1,0,0:0:0:0:
448,192,84096,1,0,0:0:0:0:
192,192,84202,1,0,0:0:0:0:
448,192,84273,1,0,0:0:0:0:
320,192,84449,1,0,0:0:0:0:
448,192,84449,1,0,0:0:0:0:
192,192,84555,1,0,0:0:0:0:
448,192,84590,1,0,0:0:0:0:
320,192,84732,1,0,0:0:0:0:
448,192,84732,1,0,0:0:0:0:
448,192,84873,1,0,0:0:0:0:
192,192,84908,1,0,0:0:0:0:
320,192,85049,1,0,0:0:0:0:
448,192,85049,1,0,0:0:0:0:
448,192,85226,1,0,0:0:0:0:
192,192,85261,1,0,0:0:0:0:
320,192,85402,1,0,0:0:0:0:
448,192,85402,1,0,0:0:0:0:
64,192,85437,1,0,0:0:0:0:
448,192,85543,1,0,0:0:0:0:
192,192,85614,1,0,0:0:0:0:
448,192,85685,1,0,0:0:0:0:
320,192,85685,1,0,0:0:0:0:
448,192,85826,1,0,0:0:0:0:
64,192,85967,1,0,0:0:0:0:
320,192,85967,1,0,0:0:0:0:
192,192,85967,1,0,0:0:0:0:
448,192,85967,1,0,0:0:0:0:
320,192,86320,1,0,0:0:0:0:
64,192,86320,1,0,0:0:0:0:
320,192,86461,1,0,0:0:0:0:
320,192,86602,1,0,0:0:0:0:
64,192,86602,1,0,0:0:0:0:
192,192,86673,1,0,0:0:0:0:
320,192,86743,1,0,0:0:0:0:
448,192,86849,1,0,0:0:0:0:
64,192,86920,1,0,0:0:0:0:
320,192,86920,1,0,0:0:0:0:
192,192,87026,1,0,0:0:0:0:
320,192,87096,1,0,0:0:0:0:
320,192,87237,1,0,0:0:0:0:
64,192,87237,1,0,0:0:0:0:
320,192,87379,1,0,0:0:0:0:
64,192,87520,1,0,0:0:0:0:
320,192,87520,1,0,0:0:0:0:
320,192,87696,1,0,0:0:0:0:
192,192,87732,1,0,0:0:0:0:
64,192,87873,1,0,0:0:0:0:
320,192,87873,1,0,0:0:0:0:
320,192,88049,1,0,0:0:0:0:
192,192,88085,1,0,0:0:0:0:
320,192,88190,1,0,0:0:0:0:
64,192,88190,1,0,0:0:0:0:
448,192,88261,1,0,0:0:0:0:
320,192,88332,1,0,0:0:0:0:
192,192,88437,1,0,0:0:0:0:
64,192,88473,1,0,0:0:0:0:
320,192,88473,1,0,0:0:0:0:
64,192,88614,1,0,0:0:0:0:
448,192,88614,1,0,0:0:0:0:
192,192,88790,1,0,0:0:0:0:
448,192,88790,1,0,0:0:0:0:
320,192,88790,1,0,0:0:0:0:
64,192,88790,1,0,0:0:0:0:
192,192,89143,1,0,0:0:0:0:
448,192,89143,1,0,0:0:0:0:
192,192,89320,1,0,0:0:0:0:
192,192,89496,1,0,0:0:0:0:
448,192,89496,1,0,0:0:0:0:
192,192,89637,1,0,0:0:0:0:
64,192,89673,1,0,0:0:0:0:
448,192,89779,1,0,0:0:0:0:
192,192,89779,1,0,0:0:0:0:
320,192,89849,1,0,0:0:0:0:
192,192,89920,1,0,0:0:0:0:
192,192,90096,1,0,0:0:0:0:
448,192,90096,1,0,0:0:0:0:
320,192,90202,1,0,0:0:0:0:
192,192,90273,1,0,0:0:0:0:
448,192,90414,1,0,0:0:0:0:
192,192,90414,1,0,0:0:0:0:
192,192,90555,1,0,0:0:0:0:
192,192,90696,1,0,0:0:0:0:
448,192,90696,1,0,0:0:0:0:
192,192,90873,1,0,0:0:0:0:
320,192,90908,1,0,0:0:0:0:
192,192,91049,1,0,0:0:0:0:
448,192,91049,1,0,0:0:0:0:
64,192,91085,1,0,0:0:0:0:
192,192,91226,1,0,0:0:0:0:
320,192,91261,1,0,0:0:0:0:
448,192,91367,1,0,0:0:0:0:
192,192,91367,1,0,0:0:0:0:
448,192,91508,1,0,0:0:0:0:
320,192,91508,1,0,0:0:0:0:
64,192,91508,1,0,0:0:0:0:
192,192,91614,1,0,0:0:0:0:
448,192,91649,1,0,0:0:0:0:
320,192,91790,5,0,0:0:0:0:
192,192,91790,1,0,0:0:0:0:
448,192,91790,1,0,0:0:0:0:
64,192,91790,1,0,0:0:0:0:
64,192,91932,1,0,0:0:0:0:
192,192,91967,1,0,0:0:0:0:
448,192,92073,1,0,0:0:0:0:
320,192,92073,1,0,0:0:0:0:
64,192,92143,1,0,0:0:0:0:
192,192,92214,1,0,0:0:0:0:
320,192,92320,1,0,0:0:0:0:
448,192,92390,1,0,0:0:0:0:
64,192,92390,1,0,0:0:0:0:
64,192,92496,1,0,0:0:0:0:
320,192,92567,1,0,0:0:0:0:
192,192,92673,1,0,0:0:0:0:
448,192,92708,1,0,0:0:0:0:
320,192,92708,1,0,0:0:0:0:
64,192,92849,1,0,0:0:0:0:
64,192,92990,1,0,0:0:0:0:
320,192,92990,1,0,0:0:0:0:
192,192,93026,1,0,0:0:0:0:
448,192,93167,1,0,0:0:0:0:
320,192,93202,1,0,0:0:0:0:
64,192,93343,1,0,0:0:0:0:
448,192,93343,1,0,0:0:0:0:
192,192,93379,1,0,0:0:0:0:
448,192,93520,1,0,0:0:0:0:
320,192,93555,1,0,0:0:0:0:
192,192,93661,1,0,0:0:0:0:
64,192,93661,1,0,0:0:0:0:
320,192,93732,1,0,0:0:0:0:
448,192,93802,1,0,0:0:0:0:
448,192,93908,1,0,0:0:0:0:
192,192,93943,1,0,0:0:0:0:
64,192,93943,1,0,0:0:0:0:
320,192,94085,1,0,0:0:0:0:
64,192,94261,1,0,0:0:0:0:
448,192,94261,1,0,0:0:0:0:
320,192,94437,1,0,0:0:0:0:
448,192,94437,1,0,0:0:0:0:
64,192,94437,1,0,0:0:0:0:
192,192,94437,1,0,0:0:0:0:
192,192,94790,1,0,0:0:0:0:
448,192,94790,1,0,0:0:0:0:
64,192,94967,1,0,0:0:0:0:
320,192,95108,1,0,0:0:0:0:
448,192,95108,1,0,0:0:0:0:
192,192,95143,1,0,0:0:0:0:
448,192,95249,1,0,0:0:0:0:
64,192,95320,1,0,0:0:0:0:
64,192,95390,1,0,0:0:0:0:
320,192,95390,1,0,0:0:0:0:
448,192,95496,1,0,0:0:0:0:
192,192,95567,1,0,0:0:0:0:
64,192,95673,1,0,0:0:0:0:
320,192,95743,1,0,0:0:0:0:
448,192,95743,1,0,0:0:0:0:
64,192,95849,1,0,0:0:0:0:
448,192,95885,1,0,0:0:0:0:
64,192,96026,1,0,0:0:0:0:
192,192,96026,1,0,0:0:0:0:
320,192,96167,1,0,0:0:0:0:
448,192,96202,1,0,0:0:0:0:
448,192,96343,1,0,0:0:0:0:
192,192,96343,1,0,0:0:0:0:
64,192,96379,1,0,0:0:0:0:
320,192,96520,1,0,0:0:0:0:
448,192,96555,1,0,0:0:0:0:
320,192,96696,1,0,0:0:0:0:
192,192,96696,1,0,0:0:0:0:
64,192,96732,1,0,0:0:0:0:
64,192,96837,1,0,0:0:0:0:
320,192,96908,1,0,0:0:0:0:
448,192,96979,1,0,0:0:0:0:
192,192,96979,1,0,0:0:0:0:
64,192,97085,1,0,0:0:0:0:
448,192,97120,1,0,0:0:0:0:
320,192,97261,1,0,0:0:0:0:
192,192,97261,1,0,0:0:0:0:
64,192,97261,1,0,0:0:0:0:
448,192,97261,1,0,0:0:0:0:
448,192,97614,1,0,0:0:0:0:
320,192,97614,1,0,0:0:0:0:
64,192,97755,1,0,0:0:0:0:
448,192,97790,1,0,0:0:0:0:
64,192,97896,1,0,0:0:0:0:
192,192,97896,1,0,0:0:0:0:
320,192,97967,1,0,0:0:0:0:
448,192,98037,1,0,0:0:0:0:
448,192,98143,1,0,0:0:0:0:
192,192,98214,1,0,0:0:0:0:
64,192,98214,1,0,0:0:0:0:
320,192,98320,1,0,0:0:0:0:
448,192,98390,1,0,0:0:0:0:
192,192,98496,1,0,0:0:0:0:
448,192,98532,1,0,0:0:0:0:
64,192,98532,1,0,0:0:0:0:
64,192,98673,1,0,0:0:0:0:
320,192,98814,1,0,0:0:0:0:
448,192,98814,1,0,0:0:0:0:
64,192,98849,1,0,0:0:0:0:
192,192,98990,1,0,0:0:0:0:
448,192,99026,1,0,0:0:0:0:
448,192,99167,1,0,0:0:0:0:
320,192,99167,1,0,0:0:0:0:
192,192,99202,1,0,0:0:0:0:
192,192,99343,1,0,0:0:0:0:
320,192,99379,1,0,0:0:0:0:
64,192,99485,1,0,0:0:0:0:
448,192,99485,1,0,0:0:0:0:
192,192,99555,1,0,0:0:0:0:
448,192,99626,1,0,0:0:0:0:
320,192,99732,1,0,0:0:0:0:
192,192,99767,1,0,0:0:0:0:
448,192,99767,1,0,0:0:0:0:
320,192,99908,1,0,0:0:0:0:
448,192,99908,1,0,0:0:0:0:
320,192,100085,1,0,0:0:0:0:
448,192,100085,1,0,0:0:0:0:
64,192,100085,1,0,0:0:0:0:
192,192,100085,1,0,0:0:0:0:
448,192,100437,1,0,0:0:0:0:
192,192,100437,1,0,0:0:0:0:
320,192,100614,1,0,0:0:0:0:
64,192,100790,1,0,0:0:0:0:
448,192,100790,1,0,0:0:0:0:
192,192,100932,1,0,0:0:0:0:
320,192,100967,1,0,0:0:0:0:
64,192,101073,1,0,0:0:0:0:
320,192,101073,1,0,0:0:0:0:
448,192,101143,1,0,0:0:0:0:
192,192,101214,1,0,0:0:0:0:
320,192,101320,1,0,0:0:0:0:
64,192,101390,1,0,0:0:0:0:
192,192,101390,1,0,0:0:0:0:
448,192,101496,1,0,0:0:0:0:
320,192,101567,1,0,0:0:0:0:
192,192,101673,1,0,0:0:0:0:
64,192,101708,1,0,0:0:0:0:
448,192,101708,1,0,0:0:0:0:
448,192,101849,1,0,0:0:0:0:
64,192,101990,1,0,0:0:0:0:
192,192,101990,1,0,0:0:0:0:
448,192,102026,1,0,0:0:0:0:
64,192,102167,1,0,0:0:0:0:
320,192,102202,1,0,0:0:0:0:
64,192,102343,1,0,0:0:0:0:
192,192,102343,1,0,0:0:0:0:
320,192,102379,1,0,0:0:0:0:
448,192,102520,1,0,0:0:0:0:
192,192,102555,1,0,0:0:0:0:
64,192,102661,1,0,0:0:0:0:
320,192,102661,1,0,0:0:0:0:
192,192,102732,1,0,0:0:0:0:
448,192,102802,1,0,0:0:0:0:
64,192,102802,1,0,0:0:0:0:
320,192,102802,1,0,0:0:0:0:
192,192,102908,1,0,0:0:0:0:
448,192,102943,1,0,0:0:0:0:
192,192,103085,1,0,0:0:0:0:
448,192,103085,128,0,103155:0:0:0:0:
64,192,103085,1,0,0:0:0:0:
320,192,103085,128,0,103155:0:0:0:0:
64,192,103226,128,0,103296:0:0:0:0:
192,192,103261,128,0,103332:0:0:0:0:
320,192,103367,1,0,0:0:0:0:
448,192,103367,128,0,103437:0:0:0:0:
64,192,103437,128,0,103508:0:0:0:0:
192,192,103508,128,0,103579:0:0:0:0:
320,192,103614,128,0,103685:0:0:0:0:
64,192,103685,1,0,0:0:0:0:
448,192,103685,128,0,103755:0:0:0:0:
64,192,103790,128,0,103861:0:0:0:0:
320,192,103861,128,0,103932:0:0:0:0:
192,192,103967,128,0,104037:0:0:0:0:
320,192,104002,1,0,0:0:0:0:
448,192,104002,128,0,104073:0:0:0:0:
64,192,104143,128,0,104214:0:0:0:0:
320,192,104285,1,0,0:0:0:0:
64,192,104285,128,0,104355:0:0:0:0:
192,192,104320,128,0,104390:0:0:0:0:
448,192,104461,128,0,104532:0:0:0:0:
320,192,104496,128,0,104567:0:0:0:0:
448,192,104637,1,0,0:0:0:0:
64,192,104637,128,0,104708:0:0:0:0:
192,192,104673,128,0,104743:0:0:0:0:
448,192,104814,128,0,104885:0:0:0:0:
320,192,104849,128,0,104920:0:0:0:0:
192,192,104955,1,0,0:0:0:0:
64,192,104955,128,0,105026:0:0:0:0:
320,192,105026,128,0,105096:0:0:0:0:
448,192,105096,128,0,105167:0:0:0:0:
64,192,105202,128,0,105273:0:0:0:0:
448,192,105237,1,0,0:0:0:0:
192,192,105237,128,0,105308:0:0:0:0:
320,192,105379,128,0,105449:0:0:0:0:
64,192,105555,1,0,0:0:0:0:
448,192,105555,128,0,105626:0:0:0:0:
320,192,105732,1,0,0:0:0:0:
192,192,105732,1,0,0:0:0:0:
64,192,105732,128,0,105802:0:0:0:0:
448,192,105732,128,0,105802:0:0:0:0:
192,192,106085,1,0,0:0:0:0:
448,192,106085,128,0,106155:0:0:0:0:
64,192,106261,128,0,106332:0:0:0:0:
448,192,106402,1,0,0:0:0:0:
320,192,106402,128,0,106473:0:0:0:0:
192,192,106437,128,0,106508:0:0:0:0:
64,192,106543,128,0,106614:0:0:0:0:
448,192,106614,128,0,106685:0:0:0:0:
64,192,106685,1,0,0:0:0:0:
192,192,106685,128,0,106755:0:0:0:0:
448,192,106790,128,0,106861:0:0:0:0:
320,192,106861,128,0,106932:0:0:0:0:
64,192,106967,128,0,107037:0:0:0:0:
448,192,107037,1,0,0:0:0:0:
320,192,107037,128,0,107108:0:0:0:0:
64,192,107143,128,0,107214:0:0:0:0:
448,192,107179,128,0,107249:0:0:0:0:
64,192,107320,1,0,0:0:0:0:
192,192,107320,128,0,107390:0:0:0:0:
320,192,107461,128,0,107532:0:0:0:0:
448,192,107496,128,0,107567:0:0:0:0:
448,192,107637,1,0,0:0:0:0:
192,192,107637,128,0,107708:0:0:0:0:
64,192,107673,128,0,107743:0:0:0:0:
320,192,107814,128,0,107885:0:0:0:0:
448,192,107849,128,0,107920:0:0:0:0:
192,192,107990,128,0,108061:0:0:0:0:
320,192,107990,1,0,0:0:0:0:
64,192,108026,128,0,108096:0:0:0:0:
448,192,108132,128,0,108202:0:0:0:0:
192,192,108202,128,0,108273:0:0:0:0:
448,192,108273,1,0,0:0:0:0:
320,192,108273,128,0,108343:0:0:0:0:
64,192,108379,128,0,108449:0:0:0:0:
448,192,108414,128,0,108485:0:0:0:0:
64,192,108555,1,0,0:0:0:0:
448,192,108555,1,0,0:0:0:0:
320,192,108555,128,0,108626:0:0:0:0:
192,192,108555,128,0,108626:0:0:0:0:
448,192,108908,1,0,0:0:0:0:
320,192,108908,128,0,108979:0:0:0:0:
64,192,109049,128,0,109120:0:0:0:0:
448,192,109085,128,0,109155:0:0:0:0:
192,192,109190,128,0,109261:0:0:0:0:
64,192,109190,1,0,0:0:0:0:
320,192,109261,128,0,109332:0:0:0:0:
448,192,109332,128,0,109402:0:0:0:0:
64,192,109437,128,0,109508:0:0:0:0:
320,192,109508,128,0,109579:0:0:0:0:
448,192,109508,1,0,0:0:0:0:
192,192,109614,128,0,109685:0:0:0:0:
448,192,109685,128,0,109755:0:0:0:0:
64,192,109790,128,0,109861:0:0:0:0:
320,192,109826,128,0,109896:0:0:0:0:
192,192,109826,1,0,0:0:0:0:
64,192,109967,128,0,110037:0:0:0:0:
320,192,110108,128,0,110179:0:0:0:0:
448,192,110108,1,0,0:0:0:0:
64,192,110143,128,0,110214:0:0:0:0:
192,192,110285,128,0,110355:0:0:0:0:
448,192,110320,128,0,110390:0:0:0:0:
448,192,110461,1,0,0:0:0:0:
320,192,110461,128,0,110532:0:0:0:0:
192,192,110496,128,0,110567:0:0:0:0:
192,192,110637,128,0,110708:0:0:0:0:
320,192,110673,128,0,110743:0:0:0:0:
448,192,110779,1,0,0:0:0:0:
64,192,110779,128,0,110849:0:0:0:0:
192,192,110849,128,0,110920:0:0:0:0:
448,192,110920,128,0,110990:0:0:0:0:
320,192,111026,128,0,111096:0:0:0:0:
64,192,111061,1,0,0:0:0:0:
192,192,111061,128,0,111132:0:0:0:0:
320,192,111202,1,0,0:0:0:0:
448,192,111202,128,0,111273:0:0:0:0:
320,192,111379,1,0,0:0:0:0:
64,192,111379,1,0,0:0:0:0:
448,192,111379,128,0,111449:0:0:0:0:
192,192,111379,128,0,111449:0:0:0:0:
448,192,111732,1,0,0:0:0:0:
192,192,111732,128,0,111802:0:0:0:0:
320,192,111908,128,0,111979:0:0:0:0:
448,192,112085,1,0,0:0:0:0:
64,192,112085,128,0,112155:0:0:0:0:
192,192,112226,128,0,112296:0:0:0:0:
320,192,112261,128,0,112332:0:0:0:0:
192,192,112367,1,0,0:0:0:0:
64,192,112367,128,0,112437:0:0:0:0:
448,192,112437,128,0,112508:0:0:0:0:
64,192,112508,128,0,112579:0:0:0:0:
320,192,112614,128,0,112685:0:0:0:0:
192,192,112685,1,0,0:0:0:0:
64,192,112685,128,0,112755:0:0:0:0:
448,192,112790,128,0,112861:0:0:0:0:
320,192,112861,128,0,112932:0:0:0:0:
192,192,112967,128,0,113037:0:0:0:0:
448,192,113002,1,0,0:0:0:0:
64,192,113002,128,0,113073:0:0:0:0:
448,192,113143,128,0,113214:0:0:0:0:
64,192,113285,1,0,0:0:0:0:
192,192,113285,128,0,113355:0:0:0:0:
448,192,113320,128,0,113390:0:0:0:0:
64,192,113461,128,0,113532:0:0:0:0:
320,192,113496,128,0,113567:0:0:0:0:
192,192,113637,128,0,113708:0:0:0:0:
64,192,113637,1,0,0:0:0:0:
320,192,113673,128,0,113743:0:0:0:0:
448,192,113814,128,0,113885:0:0:0:0:
192,192,113849,128,0,113920:0:0:0:0:
320,192,113955,128,0,114026:0:0:0:0:
64,192,113955,1,0,0:0:0:0:
192,192,114026,128,0,114096:0:0:0:0:
320,192,114096,1,0,0:0:0:0:
64,192,114096,1,0,0:0:0:0:
448,192,114096,128,0,114167:0:0:0:0:
192,192,114202,128,0,114273:0:0:0:0:
448,192,114237,128,0,114308:0:0:0:0:
448,192,114379,5,0,0:0:0:0:
64,192,114379,128,0,114449:0:0:0:0:
192,192,114379,1,0,0:0:0:0:
320,192,114379,128,0,114449:0:0:0:0:
64,192,114520,128,0,114590:0:0:0:0:
448,192,114555,128,0,114626:0:0:0:0:
192,192,114661,128,0,114732:0:0:0:0:
64,192,114661,1,0,0:0:0:0:
448,192,114732,128,0,114802:0:0:0:0:
192,192,114802,128,0,114873:0:0:0:0:
320,192,114908,128,0,114979:0:0:0:0:
192,192,114979,1,0,0:0:0:0:
64,192,114979,128,0,115049:0:0:0:0:
448,192,115085,128,0,115155:0:0:0:0:
64,192,115155,128,0,115226:0:0:0:0:
320,192,115261,128,0,115332:0:0:0:0:
192,192,115296,128,0,115367:0:0:0:0:
64,192,115296,1,0,0:0:0:0:
320,192,115437,128,0,115508:0:0:0:0:
64,192,115579,1,0,0:0:0:0:
448,192,115579,128,0,115649:0:0:0:0:
320,192,115614,128,0,115685:0:0:0:0:
64,192,115755,128,0,115826:0:0:0:0:
192,192,115790,128,0,115861:0:0:0:0:
448,192,115932,128,0,116002:0:0:0:0:
192,192,115932,1,0,0:0:0:0:
320,192,115967,128,0,116037:0:0:0:0:
64,192,116108,128,0,116179:0:0:0:0:
192,192,116143,128,0,116214:0:0:0:0:
448,192,116249,128,0,116320:0:0:0:0:
320,192,116249,1,0,0:0:0:0:
192,192,116320,128,0,116390:0:0:0:0:
320,192,116390,128,0,116461:0:0:0:0:
64,192,116496,128,0,116567:0:0:0:0:
448,192,116532,128,0,116602:0:0:0:0:
192,192,116532,1,0,0:0:0:0:
320,192,116673,128,0,116743:0:0:0:0:
64,192,116849,1,0,0:0:0:0:
448,192,116849,128,0,116920:0:0:0:0:
192,192,116849,1,0,0:0:0:0:
320,192,117026,1,0,0:0:0:0:
192,192,117026,1,0,0:0:0:0:
64,192,117026,128,0,117096:0:0:0:0:
448,192,117026,128,0,117096:0:0:0:0:
192,192,117379,1,0,0:0:0:0:
448,192,117379,128,0,117449:0:0:0:0:
320,192,117555,128,0,117626:0:0:0:0:
448,192,117696,128,0,117767:0:0:0:0:
320,192,117696,1,0,0:0:0:0:
64,192,117732,128,0,117802:0:0:0:0:
448,192,117837,128,0,117908:0:0:0:0:
192,192,117908,128,0,117979:0:0:0:0:
448,192,117979,1,0,0:0:0:0:
320,192,117979,128,0,118049:0:0:0:0:
64,192,118085,128,0,118155:0:0:0:0:
320,192,118155,128,0,118226:0:0:0:0:
64,192,118261,128,0,118332:0:0:0:0:
448,192,118332,128,0,118402:0:0:0:0:
320,192,118332,1,0,0:0:0:0:
192,192,118437,128,0,118508:0:0:0:0:
448,192,118473,128,0,118543:0:0:0:0:
448,192,118614,1,0,0:0:0:0:
320,192,118614,128,0,118685:0:0:0:0:
192,192,118755,128,0,118826:0:0:0:0:
64,192,118790,128,0,118861:0:0:0:0:
320,192,118932,128,0,119002:0:0:0:0:
64,192,118932,1,0,0:0:0:0:
448,192,118967,128,0,119037:0:0:0:0:
192,192,119108,128,0,119179:0:0:0:0:
64,192,119143,128,0,119214:0:0:0:0:
320,192,119285,128,0,119355:0:0:0:0:
192,192,119285,1,0,0:0:0:0:
448,192,119320,128,0,119390:0:0:0:0:
64,192,119426,128,0,119496:0:0:0:0:
192,192,119496,128,0,119567:0:0:0:0:
448,192,119567,128,0,119637:0:0:0:0:
320,192,119567,1,0,0:0:0:0:
64,192,119673,128,0,119743:0:0:0:0:
448,192,119708,128,0,119779:0:0:0:0:
320,192,119849,1,0,0:0:0:0:
192,192,119849,1,0,0:0:0:0:
64,192,119849,128,0,119920:0:0:0:0:
448,192,119849,128,0,119920:0:0:0:0:
448,192,120202,1,0,0:0:0:0:
64,192,120202,128,0,120273:0:0:0:0:
192,192,120343,128,0,120414:0:0:0:0:
448,192,120379,128,0,120449:0:0:0:0:
64,192,120485,128,0,120555:0:0:0:0:
192,192,120485,1,0,0:0:0:0:
320,192,120555,128,0,120626:0:0:0:0:
64,192,120626,128,0,120696:0:0:0:0:
448,192,120732,128,0,120802:0:0:0:0:
192,192,120802,128,0,120873:0:0:0:0:
64,192,120802,1,0,0:0:0:0:
320,192,120908,128,0,120979:0:0:0:0:
448,192,120979,128,0,121049:0:0:0:0:
64,192,121085,128,0,121155:0:0:0:0:
192,192,121120,128,0,121190:0:0:0:0:
448,192,121120,1,0,0:0:0:0:
320,192,121261,128,0,121332:0:0:0:0:
448,192,121402,128,0,121473:0:0:0:0:
64,192,121402,1,0,0:0:0:0:
320,192,121437,128,0,121508:0:0:0:0:
192,192,121579,128,0,121649:0:0:0:0:
448,192,121614,128,0,121685:0:0:0:0:
320,192,121755,128,0,121826:0:0:0:0:
64,192,121755,1,0,0:0:0:0:
192,192,121790,128,0,121861:0:0:0:0:
192,192,121932,128,0,122002:0:0:0:0:
320,192,121967,128,0,122037:0:0:0:0:
448,192,122073,1,0,0:0:0:0:
64,192,122073,128,0,122143:0:0:0:0:
192,192,122143,128,0,122214:0:0:0:0:
320,192,122214,128,0,122285:0:0:0:0:
448,192,122320,128,0,122390:0:0:0:0:
64,192,122355,128,0,122426:0:0:0:0:
192,192,122355,1,0,0:0:0:0:
448,192,122496,1,0,0:0:0:0:
320,192,122496,128,0,122567:0:0:0:0:
64,192,122496,1,0,0:0:0:0:
320,192,122673,1,0,0:0:0:0:
192,192,122673,1,0,0:0:0:0:
448,192,122673,128,0,122743:0:0:0:0:
64,192,122673,128,0,122743:0:0:0:0:
192,192,123026,1,0,0:0:0:0:
448,192,123026,128,0,123096:0:0:0:0:
64,192,123202,128,0,123273:0:0:0:0:
448,192,123379,1,0,0:0:0:0:
320,192,123379,128,0,123449:0:0:0:0:
320,192,123520,128,0,123590:0:0:0:0:
192,192,123555,128,0,123626:0:0:0:0:
320,192,123661,1,0,0:0:0:0:
448,192,123661,128,0,123732:0:0:0:0:
64,192,123732,128,0,123802:0:0:0:0:
448,192,123802,128,0,123873:0:0:0:0:
64,192,123908,128,0,123979:0:0:0:0:
448,192,123979,1,0,0:0:0:0:
320,192,123979,128,0,124049:0:0:0:0:
192,192,124085,128,0,124155:0:0:0:0:
64,192,124155,128,0,124226:0:0:0:0:
448,192,124261,128,0,124332:0:0:0:0:
320,192,124296,128,0,124367:0:0:0:0:
64,192,124296,1,0,0:0:0:0:
192,192,124437,128,0,124508:0:0:0:0:
64,192,124579,128,0,124649:0:0:0:0:
448,192,124579,1,0,0:0:0:0:
192,192,124614,128,0,124685:0:0:0:0:
320,192,124755,128,0,124826:0:0:0:0:
64,192,124790,128,0,124861:0:0:0:0:
192,192,124932,128,0,125002:0:0:0:0:
448,192,124932,1,0,0:0:0:0:
320,192,124967,128,0,125037:0:0:0:0:
320,192,125108,128,0,125179:0:0:0:0:
192,192,125143,128,0,125214:0:0:0:0:
64,192,125249,1,0,0:0:0:0:
448,192,125249,128,0,125320:0:0:0:0:
320,192,125320,128,0,125390:0:0:0:0:
64,192,125390,1,0,0:0:0:0:
192,192,125390,1,0,0:0:0:0:
448,192,125390,128,0,125461:0:0:0:0:
192,192,125496,128,0,125567:0:0:0:0:
320,192,125532,128,0,125602:0:0:0:0:
320,192,125673,5,0,0:0:0:0:
192,192,125673,1,0,0:0:0:0:
64,192,125673,128,0,125743:0:0:0:0:
448,192,125673,128,0,125743:0:0:0:0:
64,192,125814,128,0,125885:0:0:0:0:
320,192,125849,128,0,125920:0:0:0:0:
192,192,125955,128,0,126026:0:0:0:0:
64,192,125955,1,0,0:0:0:0:
448,192,126026,128,0,126096:0:0:0:0:
192,192,126096,128,0,126167:0:0:0:0:
320,192,126202,128,0,126273:0:0:0:0:
192,192,126273,1,0,0:0:0:0:
64,192,126273,128,0,126343:0:0:0:0:
320,192,126379,128,0,126449:0:0:0:0:
64,192,126449,128,0,126520:0:0:0:0:
448,192,126555,128,0,126626:0:0:0:0:
192,192,126590,128,0,126661:0:0:0:0:
64,192,126590,1,0,0:0:0:0:
320,192,126732,128,0,126802:0:0:0:0:
64,192,126873,1,0,0:0:0:0:
448,192,126873,128,0,126943:0:0:0:0:
320,192,126908,128,0,126979:0:0:0:0:
64,192,127049,128,0,127120:0:0:0:0:
192,192,127085,128,0,127155:0:0:0:0:
448,192,127226,128,0,127296:0:0:0:0:
192,192,127226,1,0,0:0:0:0:
320,192,127261,128,0,127332:0:0:0:0:
64,192,127402,128,0,127473:0:0:0:0:
192,192,127437,128,0,127508:0:0:0:0:
448,192,127543,128,0,127614:0:0:0:0:
320,192,127543,1,0,0:0:0:0:
192,192,127614,128,0,127685:0:0:0:0:
320,192,127685,128,0,127755:0:0:0:0:
64,192,127790,128,0,127861:0:0:0:0:
448,192,127826,128,0,127896:0:0:0:0:
320,192,127826,1,0,0:0:0:0:
192,192,127967,128,0,128037:0:0:0:0:
64,192,128143,1,0,0:0:0:0:
448,192,128143,128,0,128214:0:0:0:0:
192,192,128143,1,0,0:0:0:0:
320,192,128320,1,0,0:0:0:0:
192,192,128320,1,0,0:0:0:0:
64,192,128320,128,0,128390:0:0:0:0:
448,192,128320,128,0,128390:0:0:0:0:
192,192,128673,1,0,0:0:0:0:
448,192,128673,128,0,128743:0:0:0:0:
320,192,128849,128,0,128920:0:0:0:0:
448,192,128990,128,0,129061:0:0:0:0:
320,192,128990,1,0,0:0:0:0:
64,192,129026,128,0,129096:0:0:0:0:
448,192,129132,128,0,129202:0:0:0:0:
64,192,129202,128,0,129273:0:0:0:0:
448,192,129273,1,0,0:0:0:0:
320,192,129273,128,0,129343:0:0:0:0:
192,192,129379,128,0,129449:0:0:0:0:
320,192,129449,128,0,129520:0:0:0:0:
64,192,129555,128,0,129626:0:0:0:0:
448,192,129626,128,0,129696:0:0:0:0:
320,192,129626,1,0,0:0:0:0:
192,192,129732,128,0,129802:0:0:0:0:
448,192,129767,128,0,129837:0:0:0:0:
448,192,129908,1,0,0:0:0:0:
320,192,129908,128,0,129979:0:0:0:0:
192,192,130049,128,0,130120:0:0:0:0:
64,192,130085,128,0,130155:0:0:0:0:
320,192,130226,128,0,130296:0:0:0:0:
64,192,130226,1,0,0:0:0:0:
448,192,130261,128,0,130332:0:0:0:0:
192,192,130402,128,0,130473:0:0:0:0:
64,192,130437,128,0,130508:0:0:0:0:
320,192,130579,128,0,130649:0:0:0:0:
192,192,130579,1,0,0:0:0:0:
448,192,130614,128,0,130685:0:0:0:0:
64,192,130720,128,0,130790:0:0:0:0:
448,192,130790,128,0,130861:0:0:0:0:
320,192,130861,128,0,130932:0:0:0:0:
64,192,130861,1,0,0:0:0:0:
192,192,130967,128,0,131037:0:0:0:0:
448,192,131002,128,0,131073:0:0:0:0:
320,192,131143,1,0,0:0:0:0:
192,192,131143,1,0,0:0:0:0:
64,192,131143,128,0,131214:0:0:0:0:
448,192,131143,128,0,131214:0:0:0:0:
448,192,131496,1,0,0:0:0:0:
64,192,131496,128,0,131567:0:0:0:0:
192,192,131637,128,0,131708:0:0:0:0:
448,192,131673,128,0,131743:0:0:0:0:
64,192,131779,128,0,131849:0:0:0:0:
192,192,131779,1,0,0:0:0:0:
320,192,131849,128,0,131920:0:0:0:0:
64,192,131920,128,0,131990:0:0:0:0:
320,192,132026,128,0,132096:0:0:0:0:
192,192,132096,128,0,132167:0:0:0:0:
64,192,132096,1,0,0:0:0:0:
448,192,132202,128,0,132273:0:0:0:0:
320,192,132273,128,0,132343:0:0:0:0:
64,192,132379,128,0,132449:0:0:0:0:
192,192,132414,128,0,132485:0:0:0:0:
448,192,132414,1,0,0:0:0:0:
320,192,132555,128,0,132626:0:0:0:0:
448,192,132696,128,0,132767:0:0:0:0:
64,192,132696,1,0,0:0:0:0:
320,192,132732,128,0,132802:0:0:0:0:
192,192,132873,128,0,132943:0:0:0:0:
448,192,132908,128,0,132979:0:0:0:0:
320,192,133049,128,0,133120:0:0:0:0:
64,192,133049,1,0,0:0:0:0:
192,192,133085,128,0,133155:0:0:0:0:
192,192,133226,128,0,133296:0:0:0:0:
320,192,133261,128,0,133332:0:0:0:0:
448,192,133367,1,0,0:0:0:0:
64,192,133367,128,0,133437:0:0:0:0:
192,192,133437,128,0,133508:0:0:0:0:
448,192,133508,128,0,133579:0:0:0:0:
320,192,133614,128,0,133685:0:0:0:0:
64,192,133649,128,0,133720:0:0:0:0:
192,192,133649,1,0,0:0:0:0:
448,192,133790,1,0,0:0:0:0:
320,192,133790,128,0,133861:0:0:0:0:
64,192,133790,1,0,0:0:0:0:
320,192,133967,1,0,0:0:0:0:
192,192,133967,1,0,0:0:0:0:
448,192,133967,128,0,134037:0:0:0:0:
64,192,133967,128,0,134037:0:0:0:0:
192,192,134320,1,0,0:0:0:0:
448,192,134320,128,0,134390:0:0:0:0:
64,192,134496,128,0,134567:0:0:0:0:
448,192,134673,1,0,0:0:0:0:
320,192,134673,128,0,134743:0:0:0:0:
320,192,134814,128,0,134885:0:0:0:0:
64,192,134849,128,0,134920:0:0:0:0:
320,192,134955,1,0,0:0:0:0:
448,192,134955,128,0,135026:0:0:0:0:
64,192,135026,128,0,135096:0:0:0:0:
448,192,135096,128,0,135167:0:0:0:0:
192,192,135202,128,0,135273:0:0:0:0:
448,192,135273,1,0,0:0:0:0:
320,192,135273,128,0,135343:0:0:0:0:
64,192,135379,128,0,135449:0:0:0:0:
192,192,135449,128,0,135520:0:0:0:0:
448,192,135555,128,0,135626:0:0:0:0:
320,192,135590,128,0,135661:0:0:0:0:
64,192,135590,1,0,0:0:0:0:
192,192,135732,128,0,135802:0:0:0:0:
64,192,135873,128,0,135943:0:0:0:0:
448,192,135873,1,0,0:0:0:0:
192,192,135908,128,0,135979:0:0:0:0:
320,192,136049,128,0,136120:0:0:0:0:
64,192,136085,128,0,136155:0:0:0:0:
192,192,136226,128,0,136296:0:0:0:0:
448,192,136226,1,0,0:0:0:0:
320,192,136261,128,0,136332:0:0:0:0:
320,192,136402,128,0,136473:0:0:0:0:
192,192,136437,128,0,136508:0:0:0:0:
64,192,136543,1,0,0:0:0:0:
448,192,136543,128,0,136614:0:0:0:0:
320,192,136614,128,0,136685:0:0:0:0:
64,192,136685,1,0,0:0:0:0:
192,192,136685,1,0,0:0:0:0:
448,192,136685,128,0,136755:0:0:0:0:
192,192,136790,128,0,136861:0:0:0:0:
320,192,136826,128,0,136896:0:0:0:0:
448,192,136967,5,0,0:0:0:0:
320,192,136967,1,0,0:0:0:0:
192,192,136967,1,0,0:0:0:0:
64,192,136967,1,0,0:0:0:0:
448,192,137143,1,0,0:0:0:0:
192,192,137249,1,0,0:0:0:0:
64,192,137249,1,0,0:0:0:0:
320,192,137390,1,0,0:0:0:0:
448,192,137496,1,0,0:0:0:0:
192,192,137567,1,0,0:0:0:0:
64,192,137567,1,0,0:0:0:0:
64,192,137673,1,0,0:0:0:0:
320,192,137743,1,0,0:0:0:0:
448,192,137849,1,0,0:0:0:0:
192,192,137885,1,0,0:0:0:0:
64,192,137885,1,0,0:0:0:0:
320,192,138026,1,0,0:0:0:0:
192,192,138167,1,0,0:0:0:0:
64,192,138167,1,0,0:0:0:0:
448,192,138202,1,0,0:0:0:0:
320,192,138343,1,0,0:0:0:0:
192,192,138520,1,0,0:0:0:0:
64,192,138520,1,0,0:0:0:0:
448,192,138555,1,0,0:0:0:0:
320,192,138696,1,0,0:0:0:0:
192,192,138837,1,0,0:0:0:0:
64,192,138837,1,0,0:0:0:0:
448,192,138908,1,0,0:0:0:0:
320,192,138979,1,0,0:0:0:0:
320,192,139085,1,0,0:0:0:0:
192,192,139120,1,0,0:0:0:0:
64,192,139120,1,0,0:0:0:0:
448,192,139261,1,0,0:0:0:0:
320,192,139437,1,0,0:0:0:0:
192,192,139437,1,0,0:0:0:0:
320,192,139614,1,0,0:0:0:0:
448,192,139614,1,0,0:0:0:0:
320,192,139967,1,0,0:0:0:0:
448,192,139967,1,0,0:0:0:0:
192,192,140143,1,0,0:0:0:0:
320,192,140285,1,0,0:0:0:0:
448,192,140285,1,0,0:0:0:0:
64,192,140320,1,0,0:0:0:0:
192,192,140426,1,0,0:0:0:0:
448,192,140496,1,0,0:0:0:0:
320,192,140567,1,0,0:0:0:0:
448,192,140567,1,0,0:0:0:0:
64,192,140673,1,0,0:0:0:0:
192,192,140743,1,0,0:0:0:0:
320,192,140920,1,0,0:0:0:0:
448,192,140920,1,0,0:0:0:0:
64,192,141026,1,0,0:0:0:0:
192,192,141061,1,0,0:0:0:0:
320,192,141202,1,0,0:0:0:0:
448,192,141202,1,0,0:0:0:0:
192,192,141343,1,0,0:0:0:0:
64,192,141379,1,0,0:0:0:0:
320,192,141520,1,0,0:0:0:0:
448,192,141520,1,0,0:0:0:0:
192,192,141696,1,0,0:0:0:0:
64,192,141732,1,0,0:0:0:0:
320,192,141873,1,0,0:0:0:0:
448,192,141873,1,0,0:0:0:0:
192,192,141908,1,0,0:0:0:0:
192,192,142014,1,0,0:0:0:0:
64,192,142085,1,0,0:0:0:0:
320,192,142155,1,0,0:0:0:0:
448,192,142155,1,0,0:0:0:0:
192,192,142296,1,0,0:0:0:0:
64,192,142437,1,0,0:0:0:0:
320,192,142437,1,0,0:0:0:0:
320,192,142790,1,0,0:0:0:0:
64,192,142790,1,0,0:0:0:0:
192,192,142932,1,0,0:0:0:0:
320,192,143073,1,0,0:0:0:0:
64,192,143073,1,0,0:0:0:0:
448,192,143143,1,0,0:0:0:0:
192,192,143214,1,0,0:0:0:0:
320,192,143320,1,0,0:0:0:0:
320,192,143390,1,0,0:0:0:0:
64,192,143390,1,0,0:0:0:0:
448,192,143496,1,0,0:0:0:0:
192,192,143567,1,0,0:0:0:0:
320,192,143708,1,0,0:0:0:0:
64,192,143708,1,0,0:0:0:0:
448,192,143849,1,0,0:0:0:0:
320,192,143990,1,0,0:0:0:0:
64,192,143990,1,0,0:0:0:0:
192,192,144167,1,0,0:0:0:0:
448,192,144202,1,0,0:0:0:0:
320,192,144343,1,0,0:0:0:0:
64,192,144343,1,0,0:0:0:0:
192,192,144520,1,0,0:0:0:0:
448,192,144555,1,0,0:0:0:0:
320,192,144661,1,0,0:0:0:0:
64,192,144661,1,0,0:0:0:0:
192,192,144732,1,0,0:0:0:0:
192,192,144802,1,0,0:0:0:0:
448,192,144908,1,0,0:0:0:0:
320,192,144943,1,0,0:0:0:0:
64,192,144943,1,0,0:0:0:0:
64,192,145085,1,0,0:0:0:0:
448,192,145085,1,0,0:0:0:0:
192,192,145261,1,0,0:0:0:0:
448,192,145261,1,0,0:0:0:0:
192,192,145614,1,0,0:0:0:0:
448,192,145614,1,0,0:0:0:0:
320,192,145790,1,0,0:0:0:0:
192,192,145967,1,0,0:0:0:0:
448,192,145967,1,0,0:0:0:0:
320,192,146108,1,0,0:0:0:0:
448,192,146143,1,0,0:0:0:0:
192,192,146249,1,0,0:0:0:0:
448,192,146249,1,0,0:0:0:0:
64,192,146320,1,0,0:0:0:0:
320,192,146390,1,0,0:0:0:0:
192,192,146567,1,0,0:0:0:0:
448,192,146567,1,0,0:0:0:0:
64,192,146673,1,0,0:0:0:0:
320,192,146743,1,0,0:0:0:0:
448,192,146885,1,0,0:0:0:0:
192,192,146885,1,0,0:0:0:0:
64,192,147026,1,0,0:0:0:0:
192,192,147167,1,0,0:0:0:0:
448,192,147167,1,0,0:0:0:0:
320,192,147343,1,0,0:0:0:0:
64,192,147379,1,0,0:0:0:0:
448,192,147520,1,0,0:0:0:0:
192,192,147520,1,0,0:0:0:0:
320,192,147555,1,0,0:0:0:0:
320,192,147696,1,0,0:0:0:0:
64,192,147732,1,0,0:0:0:0:
448,192,147837,1,0,0:0:0:0:
192,192,147837,1,0,0:0:0:0:
448,192,147979,1,0,0:0:0:0:
320,192,147979,1,0,0:0:0:0:
64,192,148085,1,0,0:0:0:0:
320,192,148120,1,0,0:0:0:0:
448,192,148261,5,0,0:0:0:0:
192,192,148261,1,0,0:0:0:0:
320,192,148261,1,0,0:0:0:0:
64,192,148261,1,0,0:0:0:0:
192,192,148402,1,0,0:0:0:0:
448,192,148437,1,0,0:0:0:0:
192,192,148543,1,0,0:0:0:0:
64,192,148543,1,0,0:0:0:0:
64,192,148685,1,0,0:0:0:0:
448,192,148790,1,0,0:0:0:0:
192,192,148861,1,0,0:0:0:0:
64,192,148861,1,0,0:0:0:0:
320,192,148967,1,0,0:0:0:0:
192,192,149037,1,0,0:0:0:0:
448,192,149143,1,0,0:0:0:0:
192,192,149179,1,0,0:0:0:0:
64,192,149179,1,0,0:0:0:0:
64,192,149320,1,0,0:0:0:0:
192,192,149461,1,0,0:0:0:0:
64,192,149461,1,0,0:0:0:0:
448,192,149496,1,0,0:0:0:0:
192,192,149637,1,0,0:0:0:0:
192,192,149814,1,0,0:0:0:0:
64,192,149814,1,0,0:0:0:0:
448,192,149849,1,0,0:0:0:0:
64,192,149990,1,0,0:0:0:0:
64,192,150132,1,0,0:0:0:0:
192,192,150132,1,0,0:0:0:0:
448,192,150202,1,0,0:0:0:0:
192,192,150273,1,0,0:0:0:0:
320,192,150379,1,0,0:0:0:0:
192,192,150414,1,0,0:0:0:0:
64,192,150414,1,0,0:0:0:0:
64,192,150555,1,0,0:0:0:0:
448,192,150555,1,0,0:0:0:0:
192,192,150732,1,0,0:0:0:0:
320,192,150732,1,0,0:0:0:0:
320,192,150908,1,0,0:0:0:0:
448,192,150908,1,0,0:0:0:0:
320,192,151261,1,0,0:0:0:0:
448,192,151261,1,0,0:0:0:0:
320,192,151437,1,0,0:0:0:0:
320,192,151579,1,0,0:0:0:0:
448,192,151579,1,0,0:0:0:0:
64,192,151614,1,0,0:0:0:0:
448,192,151720,1,0,0:0:0:0:
192,192,151790,1,0,0:0:0:0:
320,192,151861,1,0,0:0:0:0:
448,192,151861,1,0,0:0:0:0:
64,192,151967,1,0,0:0:0:0:
320,192,152037,1,0,0:0:0:0:
320,192,152214,1,0,0:0:0:0:
448,192,152214,1,0,0:0:0:0:
64,192,152320,1,0,0:0:0:0:
448,192,152355,1,0,0:0:0:0:
320,192,152496,1,0,0:0:0:0:
448,192,152496,1,0,0:0:0:0:
320,192,152637,1,0,0:0:0:0:
64,192,152673,1,0,0:0:0:0:
320,192,152814,1,0,0:0:0:0:
448,192,152814,1,0,0:0:0:0:
448,192,152990,1,0,0:0:0:0:
64,192,153026,1,0,0:0:0:0:
320,192,153167,1,0,0:0:0:0:
448,192,153167,1,0,0:0:0:0:
192,192,153202,1,0,0:0:0:0:
320,192,153308,1,0,0:0:0:0:
64,192,153379,1,0,0:0:0:0:
320,192,153449,1,0,0:0:0:0:
448,192,153449,1,0,0:0:0:0:
448,192,153590,1,0,0:0:0:0:
64,192,153732,1,0,0:0:0:0:
320,192,153732,1,0,0:0:0:0:
192,192,154085,1,0,0:0:0:0:
64,192,154085,1,0,0:0:0:0:
64,192,154226,1,0,0:0:0:0:
192,192,154367,1,0,0:0:0:0:
64,192,154367,1,0,0:0:0:0:
320,192,154437,1,0,0:0:0:0:
192,192,154508,1,0,0:0:0:0:
448,192,154614,1,0,0:0:0:0:
64,192,154685,1,0,0:0:0:0:
192,192,154685,1,0,0:0:0:0:
320,192,154790,1,0,0:0:0:0:
192,192,154861,1,0,0:0:0:0:
192,192,155002,1,0,0:0:0:0:
64,192,155002,1,0,0:0:0:0:
64,192,155143,1,0,0:0:0:0:
320,192,155143,1,0,0:0:0:0:
64,192,155285,1,0,0:0:0:0:
192,192,155285,1,0,0:0:0:0:
192,192,155461,1,0,0:0:0:0:
320,192,155496,1,0,0:0:0:0:
192,192,155637,1,0,0:0:0:0:
64,192,155637,1,0,0:0:0:0:
64,192,155814,1,0,0:0:0:0:
320,192,155849,1,0,0:0:0:0:
192,192,155955,1,0,0:0:0:0:
64,192,155955,1,0,0:0:0:0:
448,192,156026,1,0,0:0:0:0:
192,192,156096,1,0,0:0:0:0:
320,192,156202,1,0,0:0:0:0:
192,192,156237,1,0,0:0:0:0:
64,192,156237,1,0,0:0:0:0:
64,192,156379,1,0,0:0:0:0:
448,192,156379,1,0,0:0:0:0:
192,192,156555,1,0,0:0:0:0:
448,192,156555,1,0,0:0:0:0:
320,192,156908,1,0,0:0:0:0:
448,192,156908,1,0,0:0:0:0:
448,192,157085,1,0,0:0:0:0:
320,192,157261,1,0,0:0:0:0:
448,192,157261,1,0,0:0:0:0:
320,192,157402,1,0,0:0:0:0:
64,192,157437,1,0,0:0:0:0:
320,192,157543,1,0,0:0:0:0:
448,192,157543,1,0,0:0:0:0:
192,192,157614,1,0,0:0:0:0:
448,192,157685,1,0,0:0:0:0:
320,192,157861,1,0,0:0:0:0:
448,192,157861,1,0,0:0:0:0:
192,192,157967,1,0,0:0:0:0:
320,192,158037,1,0,0:0:0:0:
448,192,158179,1,0,0:0:0:0:
320,192,158179,1,0,0:0:0:0:
192,192,158320,1,0,0:0:0:0:
448,192,158320,1,0,0:0:0:0:
320,192,158461,1,0,0:0:0:0:
448,192,158461,1,0,0:0:0:0:
320,192,158637,1,0,0:0:0:0:
192,192,158673,1,0,0:0:0:0:
320,192,158814,1,0,0:0:0:0:
448,192,158814,1,0,0:0:0:0:
64,192,158849,1,0,0:0:0:0:
448,192,158990,1,0,0:0:0:0:
192,192,159026,1,0,0:0:0:0:
448,192,159132,1,0,0:0:0:0:
320,192,159132,1,0,0:0:0:0:
192,192,159273,1,0,0:0:0:0:
64,192,159273,1,0,0:0:0:0:
448,192,159273,1,0,0:0:0:0:
320,192,159379,1,0,0:0:0:0:
64,192,159414,1,0,0:0:0:0:
192,192,159555,5,0,0:0:0:0:
64,192,159555,1,0,0:0:0:0:
320,192,159555,1,0,0:0:0:0:
448,192,159555,1,0,0:0:0:0:
192,192,159696,1,0,0:0:0:0:
448,192,159732,1,0,0:0:0:0:
192,192,159837,1,0,0:0:0:0:
320,192,159908,1,0,0:0:0:0:
64,192,159908,1,0,0:0:0:0:
192,192,159979,1,0,0:0:0:0:
448,192,160085,1,0,0:0:0:0:
192,192,160155,1,0,0:0:0:0:
64,192,160261,1,0,0:0:0:0:
320,192,160261,1,0,0:0:0:0:
448,192,160261,1,0,0:0:0:0:
192,192,160332,1,0,0:0:0:0:
448,192,160437,1,0,0:0:0:0:
192,192,160473,1,0,0:0:0:0:
64,192,160614,1,0,0:0:0:0:
320,192,160614,1,0,0:0:0:0:
192,192,160614,1,0,0:0:0:0:
192,192,160755,1,0,0:0:0:0:
448,192,160790,1,0,0:0:0:0:
192,192,160932,1,0,0:0:0:0:
64,192,160967,1,0,0:0:0:0:
320,192,160967,1,0,0:0:0:0:
192,192,161108,1,0,0:0:0:0:
448,192,161143,1,0,0:0:0:0:
192,192,161285,1,0,0:0:0:0:
64,192,161320,1,0,0:0:0:0:
320,192,161320,1,0,0:0:0:0:
192,192,161426,1,0,0:0:0:0:
448,192,161496,1,0,0:0:0:0:
192,192,161567,1,0,0:0:0:0:
320,192,161673,1,0,0:0:0:0:
448,192,161673,1,0,0:0:0:0:
64,192,161673,1,0,0:0:0:0:
192,192,161708,1,0,0:0:0:0:
192,192,161849,1,0,0:0:0:0:
448,192,161849,1,0,0:0:0:0:
320,192,162026,1,0,0:0:0:0:
192,192,162026,1,0,0:0:0:0:
64,192,162026,1,0,0:0:0:0:
320,192,162202,1,0,0:0:0:0:
448,192,162202,1,0,0:0:0:0:
192,192,162202,1,0,0:0:0:0:
64,192,162202,1,0,0:0:0:0:
448,192,162555,1,0,0:0:0:0:
64,192,162555,1,0,0:0:0:0:
320,192,162555,1,0,0:0:0:0:
192,192,162626,1,0,0:0:0:0:
448,192,162732,1,0,0:0:0:0:
320,192,162732,1,0,0:0:0:0:
64,192,162732,1,0,0:0:0:0:
448,192,162873,1,0,0:0:0:0:
192,192,162908,1,0,0:0:0:0:
448,192,163014,1,0,0:0:0:0:
320,192,163085,1,0,0:0:0:0:
192,192,163085,1,0,0:0:0:0:
64,192,163085,1,0,0:0:0:0:
448,192,163155,1,0,0:0:0:0:
192,192,163261,1,0,0:0:0:0:
448,192,163332,1,0,0:0:0:0:
320,192,163437,1,0,0:0:0:0:
64,192,163437,1,0,0:0:0:0:
448,192,163508,1,0,0:0:0:0:
192,192,163614,1,0,0:0:0:0:
448,192,163649,1,0,0:0:0:0:
320,192,163790,1,0,0:0:0:0:
64,192,163790,1,0,0:0:0:0:
448,192,163790,1,0,0:0:0:0:
448,192,163932,1,0,0:0:0:0:
192,192,163967,1,0,0:0:0:0:
448,192,164108,1,0,0:0:0:0:
320,192,164143,1,0,0:0:0:0:
64,192,164143,1,0,0:0:0:0:
448,192,164285,1,0,0:0:0:0:
192,192,164320,1,0,0:0:0:0:
448,192,164461,1,0,0:0:0:0:
320,192,164496,1,0,0:0:0:0:
192,192,164496,1,0,0:0:0:0:
64,192,164496,1,0,0:0:0:0:
448,192,164602,1,0,0:0:0:0:
192,192,164673,1,0,0:0:0:0:
448,192,164743,1,0,0:0:0:0:
320,192,164849,1,0,0:0:0:0:
64,192,164849,1,0,0:0:0:0:
448,192,164885,1,0,0:0:0:0:
448,192,165026,1,0,0:0:0:0:
320,192,165026,1,0,0:0:0:0:
192,192,165026,1,0,0:0:0:0:
64,192,165026,1,0,0:0:0:0:
64,192,165379,1,0,0:0:0:0:
448,192,165379,1,0,0:0:0:0:
192,192,165379,1,0,0:0:0:0:
320,192,165449,1,0,0:0:0:0:
64,192,165520,1,0,0:0:0:0:
192,192,165555,1,0,0:0:0:0:
448,192,165555,1,0,0:0:0:0:
64,192,165661,1,0,0:0:0:0:
320,192,165732,1,0,0:0:0:0:
64,192,165802,1,0,0:0:0:0:
192,192,165908,1,0,0:0:0:0:
320,192,165908,1,0,0:0:0:0:
448,192,165908,1,0,0:0:0:0:
64,192,165979,1,0,0:0:0:0:
320,192,166085,1,0,0:0:0:0:
64,192,166155,1,0,0:0:0:0:
192,192,166261,1,0,0:0:0:0:
448,192,166261,1,0,0:0:0:0:
64,192,166296,1,0,0:0:0:0:
320,192,166437,1,0,0:0:0:0:
64,192,166437,1,0,0:0:0:0:
64,192,166579,1,0,0:0:0:0:
448,192,166614,1,0,0:0:0:0:
192,192,166614,1,0,0:0:0:0:
64,192,166755,1,0,0:0:0:0:
320,192,166790,1,0,0:0:0:0:
64,192,166932,1,0,0:0:0:0:
192,192,166967,1,0,0:0:0:0:
448,192,166967,1,0,0:0:0:0:
64,192,167108,1,0,0:0:0:0:
320,192,167143,1,0,0:0:0:0:
64,192,167249,1,0,0:0:0:0:
192,192,167320,1,0,0:0:0:0:
320,192,167320,1,0,0:0:0:0:
448,192,167320,1,0,0:0:0:0:
64,192,167390,1,0,0:0:0:0:
320,192,167496,1,0,0:0:0:0:
64,192,167532,1,0,0:0:0:0:
192,192,167673,1,0,0:0:0:0:
448,192,167673,1,0,0:0:0:0:
64,192,167673,1,0,0:0:0:0:
64,192,167849,1,0,0:0:0:0:
192,192,167849,1,0,0:0:0:0:
320,192,167849,1,0,0:0:0:0:
448,192,167849,1,0,0:0:0:0:
320,192,168202,1,0,0:0:0:0:
448,192,168202,1,0,0:0:0:0:
192,192,168202,1,0,0:0:0:0:
64,192,168273,1,0,0:0:0:0:
448,192,168379,1,0,0:0:0:0:
192,192,168379,1,0,0:0:0:0:
320,192,168379,1,0,0:0:0:0:
64,192,168555,1,0,0:0:0:0:
320,192,168555,1,0,0:0:0:0:
320,192,168696,1,0,0:0:0:0:
64,192,168732,1,0,0:0:0:0:
192,192,168732,1,0,0:0:0:0:
448,192,168732,1,0,0:0:0:0:
320,192,168837,1,0,0:0:0:0:
64,192,168908,1,0,0:0:0:0:
320,192,168979,1,0,0:0:0:0:
192,192,169085,1,0,0:0:0:0:
448,192,169085,1,0,0:0:0:0:
320,192,169155,1,0,0:0:0:0:
64,192,169261,1,0,0:0:0:0:
320,192,169332,1,0,0:0:0:0:
192,192,169437,1,0,0:0:0:0:
448,192,169437,1,0,0:0:0:0:
320,192,169473,1,0,0:0:0:0:
64,192,169614,1,0,0:0:0:0:
320,192,169614,1,0,0:0:0:0:
320,192,169755,5,0,0:0:0:0:
192,192,169790,1,0,0:0:0:0:
448,192,169790,1,0,0:0:0:0:
320,192,169932,1,0,0:0:0:0:
64,192,169967,1,0,0:0:0:0:
320,192,170108,1,0,0:0:0:0:
448,192,170143,1,0,0:0:0:0:
64,192,170143,1,0,0:0:0:0:
192,192,170143,1,0,0:0:0:0:
320,192,170285,1,0,0:0:0:0:
64,192,170320,1,0,0:0:0:0:
320,192,170426,1,0,0:0:0:0:
448,192,170496,1,0,0:0:0:0:
192,192,170496,1,0,0:0:0:0:
64,192,170567,1,0,0:0:0:0:
320,192,170673,1,0,0:0:0:0:
64,192,170708,1,0,0:0:0:0:
320,192,170849,5,0,0:0:0:0:
448,192,170849,1,0,0:0:0:0:
192,192,170849,1,0,0:0:0:0:
64,192,170849,1,0,0:0:0:0:
64,192,170990,1,0,0:0:0:0:
192,192,171026,1,0,0:0:0:0:
448,192,171132,1,0,0:0:0:0:
64,192,171202,1,0,0:0:0:0:
320,192,171202,1,0,0:0:0:0:
192,192,171273,1,0,0:0:0:0:
320,192,171379,1,0,0:0:0:0:
448,192,171449,1,0,0:0:0:0:
64,192,171555,1,0,0:0:0:0:
320,192,171555,1,0,0:0:0:0:
448,192,171555,1,0,0:0:0:0:
192,192,171626,1,0,0:0:0:0:
320,192,171732,1,0,0:0:0:0:
448,192,171767,1,0,0:0:0:0:
64,192,171908,1,0,0:0:0:0:
192,192,171908,1,0,0:0:0:0:
320,192,172049,1,0,0:0:0:0:
64,192,172085,1,0,0:0:0:0:
64,192,172226,1,0,0:0:0:0:
448,192,172261,1,0,0:0:0:0:
192,192,172261,1,0,0:0:0:0:
448,192,172402,1,0,0:0:0:0:
320,192,172437,1,0,0:0:0:0:
64,192,172579,1,0,0:0:0:0:
192,192,172614,1,0,0:0:0:0:
448,192,172614,1,0,0:0:0:0:
320,192,172720,1,0,0:0:0:0:
64,192,172790,1,0,0:0:0:0:
448,192,172861,1,0,0:0:0:0:
64,192,172967,1,0,0:0:0:0:
320,192,172967,1,0,0:0:0:0:
448,192,172967,1,0,0:0:0:0:
192,192,173002,1,0,0:0:0:0:
320,192,173143,1,0,0:0:0:0:
192,192,173320,1,0,0:0:0:0:
448,192,173320,1,0,0:0:0:0:
320,192,173496,1,0,0:0:0:0:
448,192,173496,1,0,0:0:0:0:
64,192,173496,1,0,0:0:0:0:
192,192,173496,1,0,0:0:0:0:
192,192,173849,1,0,0:0:0:0:
448,192,173849,1,0,0:0:0:0:
64,192,174026,1,0,0:0:0:0:
448,192,174026,1,0,0:0:0:0:
320,192,174167,1,0,0:0:0:0:
192,192,174202,1,0,0:0:0:0:
448,192,174308,1,0,0:0:0:0:
64,192,174379,1,0,0:0:0:0:
320,192,174379,1,0,0:0:0:0:
192,192,174379,1,0,0:0:0:0:
448,192,174449,1,0,0:0:0:0:
64,192,174555,1,0,0:0:0:0:
192,192,174626,1,0,0:0:0:0:
320,192,174732,1,0,0:0:0:0:
448,192,174732,1,0,0:0:0:0:
64,192,174802,1,0,0:0:0:0:
448,192,174908,1,0,0:0:0:0:
320,192,174943,1,0,0:0:0:0:
64,192,175085,1,0,0:0:0:0:
192,192,175085,1,0,0:0:0:0:
320,192,175226,1,0,0:0:0:0:
448,192,175261,1,0,0:0:0:0:
192,192,175402,1,0,0:0:0:0:
64,192,175437,1,0,0:0:0:0:
448,192,175437,1,0,0:0:0:0:
320,192,175579,1,0,0:0:0:0:
448,192,175614,1,0,0:0:0:0:
192,192,175755,1,0,0:0:0:0:
320,192,175790,1,0,0:0:0:0:
448,192,175790,1,0,0:0:0:0:
64,192,175790,1,0,0:0:0:0:
192,192,175896,1,0,0:0:0:0:
64,192,175967,1,0,0:0:0:0:
320,192,176037,1,0,0:0:0:0:
64,192,176143,1,0,0:0:0:0:
192,192,176143,1,0,0:0:0:0:
448,192,176179,1,0,0:0:0:0:
320,192,176320,1,0,0:0:0:0:
192,192,176320,1,0,0:0:0:0:
64,192,176320,1,0,0:0:0:0:
448,192,176320,1,0,0:0:0:0:
448,192,176673,1,0,0:0:0:0:
320,192,176673,1,0,0:0:0:0:
64,192,176814,1,0,0:0:0:0:
320,192,176849,1,0,0:0:0:0:
192,192,176849,1,0,0:0:0:0:
448,192,176955,1,0,0:0:0:0:
64,192,177026,1,0,0:0:0:0:
192,192,177096,1,0,0:0:0:0:
192,192,177202,1,0,0:0:0:0:
64,192,177202,1,0,0:0:0:0:
320,192,177202,1,0,0:0:0:0:
448,192,177273,1,0,0:0:0:0:
320,192,177379,1,0,0:0:0:0:
192,192,177449,1,0,0:0:0:0:
64,192,177555,1,0,0:0:0:0:
448,192,177555,1,0,0:0:0:0:
320,192,177590,1,0,0:0:0:0:
448,192,177732,1,0,0:0:0:0:
192,192,177873,1,0,0:0:0:0:
448,192,177908,1,0,0:0:0:0:
64,192,177908,1,0,0:0:0:0:
64,192,178049,1,0,0:0:0:0:
320,192,178085,1,0,0:0:0:0:
448,192,178226,1,0,0:0:0:0:
64,192,178261,1,0,0:0:0:0:
192,192,178261,1,0,0:0:0:0:
192,192,178402,1,0,0:0:0:0:
320,192,178437,1,0,0:0:0:0:
448,192,178543,1,0,0:0:0:0:
320,192,178614,1,0,0:0:0:0:
192,192,178614,1,0,0:0:0:0:
64,192,178614,1,0,0:0:0:0:
448,192,178685,1,0,0:0:0:0:
64,192,178790,1,0,0:0:0:0:
320,192,178826,1,0,0:0:0:0:
448,192,178967,1,0,0:0:0:0:
192,192,178967,1,0,0:0:0:0:
320,192,179143,1,0,0:0:0:0:
448,192,179143,1,0,0:0:0:0:
64,192,179143,1,0,0:0:0:0:
192,192,179143,1,0,0:0:0:0:
448,192,179496,1,0,0:0:0:0:
192,192,179496,1,0,0:0:0:0:
320,192,179673,1,0,0:0:0:0:
192,192,179673,1,0,0:0:0:0:
64,192,179849,1,0,0:0:0:0:
448,192,179990,1,0,0:0:0:0:
320,192,180026,1,0,0:0:0:0:
192,192,180026,1,0,0:0:0:0:
64,192,180026,1,0,0:0:0:0:
448,192,180132,1,0,0:0:0:0:
192,192,180202,1,0,0:0:0:0:
320,192,180273,1,0,0:0:0:0:
192,192,180379,1,0,0:0:0:0:
64,192,180379,1,0,0:0:0:0:
448,192,180449,1,0,0:0:0:0:
192,192,180555,1,0,0:0:0:0:
320,192,180626,1,0,0:0:0:0:
448,192,180732,1,0,0:0:0:0:
64,192,180732,1,0,0:0:0:0:
192,192,180767,1,0,0:0:0:0:
64,192,180908,1,0,0:0:0:0:
320,192,181049,1,0,0:0:0:0:
448,192,181085,1,0,0:0:0:0:
64,192,181085,1,0,0:0:0:0:
192,192,181226,1,0,0:0:0:0:
448,192,181261,1,0,0:0:0:0:
320,192,181402,1,0,0:0:0:0:
448,192,181437,1,0,0:0:0:0:
192,192,181437,1,0,0:0:0:0:
64,192,181437,1,0,0:0:0:0:
320,192,181579,1,0,0:0:0:0:
64,192,181614,1,0,0:0:0:0:
192,192,181720,1,0,0:0:0:0:
320,192,181790,1,0,0:0:0:0:
448,192,181790,1,0,0:0:0:0:
448,192,181861,1,0,0:0:0:0:
192,192,181967,1,0,0:0:0:0:
448,192,182002,1,0,0:0:0:0:
64,192,182143,5,0,0:0:0:0:
192,192,182143,1,0,0:0:0:0:
448,192,182143,1,0,0:0:0:0:
320,192,182143,1,0,0:0:0:0:
320,192,182285,1,0,0:0:0:0:
64,192,182320,1,0,0:0:0:0:
320,192,182426,1,0,0:0:0:0:
320,192,182496,1,0,0:0:0:0:
192,192,182496,1,0,0:0:0:0:
64,192,182496,1,0,0:0:0:0:
448,192,182567,1,0,0:0:0:0:
192,192,182673,1,0,0:0:0:0:
448,192,182743,1,0,0:0:0:0:
64,192,182849,1,0,0:0:0:0:
192,192,182849,1,0,0:0:0:0:
320,192,182920,1,0,0:0:0:0:
64,192,183026,1,0,0:0:0:0:
320,192,183061,1,0,0:0:0:0:
64,192,183202,1,0,0:0:0:0:
192,192,183202,1,0,0:0:0:0:
448,192,183202,1,0,0:0:0:0:
448,192,183343,1,0,0:0:0:0:
192,192,183379,1,0,0:0:0:0:
448,192,183520,1,0,0:0:0:0:
192,192,183555,1,0,0:0:0:0:
320,192,183555,1,0,0:0:0:0:
64,192,183696,1,0,0:0:0:0:
320,192,183732,1,0,0:0:0:0:
64,192,183873,1,0,0:0:0:0:
448,192,183908,1,0,0:0:0:0:
192,192,183908,1,0,0:0:0:0:
320,192,183908,1,0,0:0:0:0:
192,192,184014,1,0,0:0:0:0:
448,192,184085,1,0,0:0:0:0:
192,192,184155,1,0,0:0:0:0:
320,192,184261,1,0,0:0:0:0:
448,192,184261,1,0,0:0:0:0:
64,192,184296,1,0,0:0:0:0:
320,192,184437,1,0,0:0:0:0:
448,192,184614,1,0,0:0:0:0:
192,192,184614,1,0,0:0:0:0:
64,192,184614,1,0,0:0:0:0:
448,192,184790,1,0,0:0:0:0:
320,192,184790,1,0,0:0:0:0:
192,192,184790,1,0,0:0:0:0:
64,192,184790,1,0,0:0:0:0:
320,192,185143,1,0,0:0:0:0:
64,192,185143,1,0,0:0:0:0:
448,192,185320,1,0,0:0:0:0:
320,192,185320,1,0,0:0:0:0:
192,192,185320,1,0,0:0:0:0:
64,192,185461,1,0,0:0:0:0:
448,192,185496,1,0,0:0:0:0:
64,192,185602,1,0,0:0:0:0:
448,192,185673,1,0,0:0:0:0:
320,192,185673,1,0,0:0:0:0:
192,192,185743,1,0,0:0:0:0:
320,192,185849,1,0,0:0:0:0:
192,192,185920,1,0,0:0:0:0:
320,192,186026,1,0,0:0:0:0:
192,192,186026,1,0,0:0:0:0:
64,192,186026,1,0,0:0:0:0:
448,192,186096,1,0,0:0:0:0:
64,192,186202,1,0,0:0:0:0:
448,192,186237,1,0,0:0:0:0:
320,192,186379,1,0,0:0:0:0:
64,192,186379,1,0,0:0:0:0:
192,192,186520,1,0,0:0:0:0:
320,192,186555,1,0,0:0:0:0:
192,192,186696,1,0,0:0:0:0:
320,192,186732,1,0,0:0:0:0:
448,192,186732,1,0,0:0:0:0:
64,192,186732,1,0,0:0:0:0:
448,192,186873,1,0,0:0:0:0:
64,192,186908,1,0,0:0:0:0:
448,192,187049,1,0,0:0:0:0:
192,192,187085,1,0,0:0:0:0:
64,192,187085,1,0,0:0:0:0:
320,192,187190,1,0,0:0:0:0:
192,192,187261,1,0,0:0:0:0:
320,192,187332,1,0,0:0:0:0:
192,192,187437,1,0,0:0:0:0:
320,192,187437,1,0,0:0:0:0:
448,192,187437,1,0,0:0:0:0:
64,192,187473,1,0,0:0:0:0:
448,192,187614,1,0,0:0:0:0:
320,192,187614,1,0,0:0:0:0:
192,192,187614,1,0,0:0:0:0:
64,192,187614,1,0,0:0:0:0:
192,192,187967,1,0,0:0:0:0:
448,192,187967,1,0,0:0:0:0:
320,192,188108,1,0,0:0:0:0:
192,192,188143,1,0,0:0:0:0:
64,192,188143,1,0,0:0:0:0:
448,192,188143,1,0,0:0:0:0:
320,192,188249,1,0,0:0:0:0:
64,192,188320,1,0,0:0:0:0:
320,192,188390,1,0,0:0:0:0:
192,192,188496,1,0,0:0:0:0:
64,192,188496,1,0,0:0:0:0:
448,192,188567,1,0,0:0:0:0:
192,192,188673,1,0,0:0:0:0:
448,192,188743,1,0,0:0:0:0:
448,192,188849,1,0,0:0:0:0:
192,192,188849,1,0,0:0:0:0:
320,192,188849,1,0,0:0:0:0:
64,192,188885,1,0,0:0:0:0:
320,192,189026,1,0,0:0:0:0:
64,192,189167,1,0,0:0:0:0:
320,192,189202,1,0,0:0:0:0:
192,192,189202,1,0,0:0:0:0:
448,192,189343,1,0,0:0:0:0:
192,192,189379,1,0,0:0:0:0:
448,192,189520,1,0,0:0:0:0:
64,192,189555,1,0,0:0:0:0:
320,192,189555,1,0,0:0:0:0:
192,192,189555,1,0,0:0:0:0:
64,192,189696,1,0,0:0:0:0:
320,192,189732,1,0,0:0:0:0:
64,192,189837,1,0,0:0:0:0:
192,192,189908,1,0,0:0:0:0:
320,192,189908,1,0,0:0:0:0:
448,192,189979,1,0,0:0:0:0:
192,192,190085,1,0,0:0:0:0:
448,192,190120,1,0,0:0:0:0:
320,192,190261,1,0,0:0:0:0:
192,192,190261,1,0,0:0:0:0:
64,192,190261,1,0,0:0:0:0:
448,192,190437,1,0,0:0:0:0:
320,192,190437,1,0,0:0:0:0:
192,192,190437,1,0,0:0:0:0:
64,192,190437,1,0,0:0:0:0:
448,192,190790,1,0,0:0:0:0:
192,192,190790,1,0,0:0:0:0:
320,192,190967,1,0,0:0:0:0:
448,192,190967,1,0,0:0:0:0:
64,192,190967,1,0,0:0:0:0:
192,192,191143,1,0,0:0:0:0:
320,192,191285,1,0,0:0:0:0:
192,192,191320,1,0,0:0:0:0:
64,192,191320,1,0,0:0:0:0:
448,192,191426,1,0,0:0:0:0:
64,192,191496,1,0,0:0:0:0:
448,192,191567,1,0,0:0:0:0:
64,192,191673,1,0,0:0:0:0:
448,192,191673,1,0,0:0:0:0:
320,192,191673,1,0,0:0:0:0:
192,192,191743,1,0,0:0:0:0:
320,192,191849,1,0,0:0:0:0:
192,192,191920,1,0,0:0:0:0:
448,192,192026,1,0,0:0:0:0:
320,192,192026,1,0,0:0:0:0:
64,192,192061,1,0,0:0:0:0:
448,192,192202,1,0,0:0:0:0:
64,192,192343,1,0,0:0:0:0:
320,192,192379,1,0,0:0:0:0:
192,192,192379,1,0,0:0:0:0:
448,192,192379,1,0,0:0:0:0:
320,192,192520,1,0,0:0:0:0:
192,192,192555,1,0,0:0:0:0:
192,192,192696,1,0,0:0:0:0:
320,192,192732,1,0,0:0:0:0:
64,192,192732,1,0,0:0:0:0:
448,192,192873,1,0,0:0:0:0:
64,192,192908,1,0,0:0:0:0:
448,192,193014,1,0,0:0:0:0:
192,192,193085,1,0,0:0:0:0:
64,192,193085,1,0,0:0:0:0:
320,192,193085,1,0,0:0:0:0:
192,192,193155,1,0,0:0:0:0:
448,192,193261,1,0,0:0:0:0:
192,192,193296,1,0,0:0:0:0:
64,192,193437,5,0,0:0:0:0:
448,192,193437,1,0,0:0:0:0:
192,192,193437,1,0,0:0:0:0:
320,192,193437,1,0,0:0:0:0:
320,192,193579,1,0,0:0:0:0:
64,192,193614,1,0,0:0:0:0:
320,192,193720,1,0,0:0:0:0:
320,192,193790,1,0,0:0:0:0:
192,192,193790,1,0,0:0:0:0:
64,192,193790,1,0,0:0:0:0:
448,192,193861,1,0,0:0:0:0:
192,192,193967,1,0,0:0:0:0:
448,192,194037,1,0,0:0:0:0:
64,192,194143,1,0,0:0:0:0:
192,192,194143,1,0,0:0:0:0:
320,192,194214,1,0,0:0:0:0:
64,192,194320,1,0,0:0:0:0:
320,192,194355,1,0,0:0:0:0:
64,192,194496,1,0,0:0:0:0:
192,192,194496,1,0,0:0:0:0:
448,192,194496,1,0,0:0:0:0:
448,192,194637,1,0,0:0:0:0:
192,192,194673,1,0,0:0:0:0:
448,192,194814,1,0,0:0:0:0:
192,192,194849,1,0,0:0:0:0:
320,192,194849,1,0,0:0:0:0:
64,192,194990,1,0,0:0:0:0:
320,192,195026,1,0,0:0:0:0:
64,192,195167,1,0,0:0:0:0:
448,192,195202,1,0,0:0:0:0:
192,192,195202,1,0,0:0:0:0:
320,192,195202,1,0,0:0:0:0:
192,192,195308,1,0,0:0:0:0:
448,192,195379,1,0,0:0:0:0:
192,192,195449,1,0,0:0:0:0:
320,192,195555,1,0,0:0:0:0:
448,192,195555,1,0,0:0:0:0:
64,192,195590,1,0,0:0:0:0:
320,192,195732,1,0,0:0:0:0:
448,192,195908,1,0,0:0:0:0:
192,192,195908,1,0,0:0:0:0:
64,192,195908,1,0,0:0:0:0:
448,192,196085,1,0,0:0:0:0:
320,192,196085,1,0,0:0:0:0:
192,192,196085,1,0,0:0:0:0:
64,192,196085,1,0,0:0:0:0:
320,192,196437,1,0,0:0:0:0:
64,192,196437,1,0,0:0:0:0:
448,192,196614,1,0,0:0:0:0:
320,192,196614,1,0,0:0:0:0:
192,192,196614,1,0,0:0:0:0:
64,192,196755,1,0,0:0:0:0:
448,192,196790,1,0,0:0:0:0:
64,192,196896,1,0,0:0:0:0:
448,192,196967,1,0,0:0:0:0:
320,192,196967,1,0,0:0:0:0:
192,192,197037,1,0,0:0:0:0:
320,192,197143,1,0,0:0:0:0:
192,192,197214,1,0,0:0:0:0:
320,192,197320,1,0,0:0:0:0:
192,192,197320,1,0,0:0:0:0:
64,192,197320,1,0,0:0:0:0:
448,192,197390,1,0,0:0:0:0:
64,192,197496,1,0,0:0:0:0:
448,192,197532,1,0,0:0:0:0:
320,192,197673,1,0,0:0:0:0:
64,192,197673,1,0,0:0:0:0:
192,192,197814,1,0,0:0:0:0:
320,192,197849,1,0,0:0:0:0:
192,192,197990,1,0,0:0:0:0:
320,192,198026,1,0,0:0:0:0:
448,192,198026,1,0,0:0:0:0:
64,192,198026,1,0,0:0:0:0:
448,192,198167,1,0,0:0:0:0:
64,192,198202,1,0,0:0:0:0:
448,192,198343,1,0,0:0:0:0:
192,192,198379,1,0,0:0:0:0:
64,192,198379,1,0,0:0:0:0:
320,192,198485,1,0,0:0:0:0:
192,192,198555,1,0,0:0:0:0:
320,192,198626,1,0,0:0:0:0:
192,192,198732,1,0,0:0:0:0:
448,192,198732,1,0,0:0:0:0:
320,192,198732,1,0,0:0:0:0:
64,192,198767,1,0,0:0:0:0:
448,192,198908,1,0,0:0:0:0:
320,192,198908,1,0,0:0:0:0:
192,192,198908,1,0,0:0:0:0:
64,192,198908,1,0,0:0:0:0:
192,192,199261,1,0,0:0:0:0:
448,192,199261,1,0,0:0:0:0:
320,192,199402,1,0,0:0:0:0:
192,192,199437,1,0,0:0:0:0:
64,192,199437,1,0,0:0:0:0:
448,192,199437,1,0,0:0:0:0:
320,192,199543,1,0,0:0:0:0:
64,192,199614,1,0,0:0:0:0:
320,192,199685,1,0,0:0:0:0:
192,192,199790,1,0,0:0:0:0:
64,192,199790,1,0,0:0:0:0:
448,192,199861,1,0,0:0:0:0:
192,192,199967,1,0,0:0:0:0:
448,192,200037,1,0,0:0:0:0:
448,192,200143,1,0,0:0:0:0:
192,192,200143,1,0,0:0:0:0:
320,192,200143,1,0,0:0:0:0:
64,192,200179,1,0,0:0:0:0:
320,192,200320,1,0,0:0:0:0:
64,192,200461,1,0,0:0:0:0:
320,192,200496,1,0,0:0:0:0:
192,192,200496,1,0,0:0:0:0:
448,192,200637,1,0,0:0:0:0:
192,192,200673,1,0,0:0:0:0:
448,192,200814,1,0,0:0:0:0:
64,192,200849,1,0,0:0:0:0:
320,192,200849,1,0,0:0:0:0:
192,192,200849,1,0,0:0:0:0:
64,192,200990,1,0,0:0:0:0:
320,192,201026,1,0,0:0:0:0:
64,192,201132,1,0,0:0:0:0:
192,192,201202,1,0,0:0:0:0:
320,192,201202,1,0,0:0:0:0:
448,192,201273,1,0,0:0:0:0:
192,192,201379,1,0,0:0:0:0:
448,192,201414,1,0,0:0:0:0:
320,192,201555,1,0,0:0:0:0:
192,192,201555,1,0,0:0:0:0:
64,192,201555,1,0,0:0:0:0:
448,192,201732,1,0,0:0:0:0:
320,192,201732,1,0,0:0:0:0:
192,192,201732,1,0,0:0:0:0:
64,192,201732,1,0,0:0:0:0:
192,192,202085,1,0,0:0:0:0:
448,192,202085,1,0,0:0:0:0:
320,192,202261,1,0,0:0:0:0:
448,192,202261,1,0,0:0:0:0:
64,192,202261,1,0,0:0:0:0:
192,192,202437,1,0,0:0:0:0:
320,192,202579,1,0,0:0:0:0:
192,192,202614,1,0,0:0:0:0:
64,192,202614,1,0,0:0:0:0:
448,192,202720,1,0,0:0:0:0:
64,192,202790,1,0,0:0:0:0:
448,192,202861,1,0,0:0:0:0:
64,192,202967,1,0,0:0:0:0:
448,192,202967,1,0,0:0:0:0:
320,192,202967,1,0,0:0:0:0:
192,192,203037,1,0,0:0:0:0:
320,192,203143,1,0,0:0:0:0:
192,192,203214,1,0,0:0:0:0:
448,192,203320,1,0,0:0:0:0:
320,192,203320,1,0,0:0:0:0:
64,192,203355,1,0,0:0:0:0:
448,192,203496,1,0,0:0:0:0:
64,192,203637,1,0,0:0:0:0:
320,192,203673,1,0,0:0:0:0:
192,192,203673,1,0,0:0:0:0:
448,192,203673,1,0,0:0:0:0:
320,192,203814,1,0,0:0:0:0:
192,192,203849,1,0,0:0:0:0:
192,192,203990,1,0,0:0:0:0:
320,192,204026,1,0,0:0:0:0:
64,192,204026,1,0,0:0:0:0:
448,192,204167,1,0,0:0:0:0:
64,192,204202,1,0,0:0:0:0:
448,192,204308,1,0,0:0:0:0:
192,192,204379,1,0,0:0:0:0:
64,192,204379,1,0,0:0:0:0:
320,192,204379,1,0,0:0:0:0:
192,192,204449,1,0,0:0:0:0:
448,192,204555,1,0,0:0:0:0:
192,192,204590,1,0,0:0:0:0:
320,192,204732,5,0,0:0:0:0:
192,192,204732,1,0,0:0:0:0:
448,192,204732,1,0,0:0:0:0:
64,192,204732,1,0,0:0:0:0:
64,192,204873,1,0,0:0:0:0:
192,192,204908,1,0,0:0:0:0:
448,192,205014,1,0,0:0:0:0:
64,192,205085,1,0,0:0:0:0:
320,192,205085,1,0,0:0:0:0:
192,192,205085,1,0,0:0:0:0:
448,192,205155,1,0,0:0:0:0:
192,192,205261,1,0,0:0:0:0:
320,192,205332,1,0,0:0:0:0:
64,192,205437,1,0,0:0:0:0:
448,192,205437,1,0,0:0:0:0:
192,192,205508,1,0,0:0:0:0:
320,192,205614,1,0,0:0:0:0:
448,192,205649,1,0,0:0:0:0:
64,192,205790,1,0,0:0:0:0:
192,192,205790,1,0,0:0:0:0:
448,192,205790,1,0,0:0:0:0:
320,192,205932,1,0,0:0:0:0:
64,192,205967,1,0,0:0:0:0:
64,192,206108,1,0,0:0:0:0:
448,192,206143,1,0,0:0:0:0:
192,192,206143,1,0,0:0:0:0:
448,192,206285,1,0,0:0:0:0:
320,192,206320,1,0,0:0:0:0:
64,192,206461,1,0,0:0:0:0:
192,192,206496,1,0,0:0:0:0:
448,192,206496,1,0,0:0:0:0:
320,192,206496,1,0,0:0:0:0:
192,192,206602,1,0,0:0:0:0:
64,192,206673,1,0,0:0:0:0:
320,192,206743,1,0,0:0:0:0:
192,192,206849,1,0,0:0:0:0:
64,192,206849,1,0,0:0:0:0:
448,192,206885,1,0,0:0:0:0:
320,192,207026,1,0,0:0:0:0:
192,192,207202,1,0,0:0:0:0:
448,192,207202,1,0,0:0:0:0:
64,192,207202,1,0,0:0:0:0:
320,192,207379,1,0,0:0:0:0:
448,192,207379,1,0,0:0:0:0:
64,192,207379,1,0,0:0:0:0:
192,192,207379,1,0,0:0:0:0:
192,192,207732,1,0,0:0:0:0:
448,192,207732,1,0,0:0:0:0:
64,192,207908,1,0,0:0:0:0:
448,192,207908,1,0,0:0:0:0:
320,192,207908,1,0,0:0:0:0:
192,192,208049,1,0,0:0:0:0:
320,192,208085,1,0,0:0:0:0:
448,192,208190,1,0,0:0:0:0:
64,192,208261,1,0,0:0:0:0:
192,192,208261,1,0,0:0:0:0:
320,192,208332,1,0,0:0:0:0:
64,192,208437,1,0,0:0:0:0:
192,192,208508,1,0,0:0:0:0:
64,192,208614,1,0,0:0:0:0:
448,192,208614,1,0,0:0:0:0:
192,192,208614,1,0,0:0:0:0:
320,192,208685,1,0,0:0:0:0:
64,192,208790,1,0,0:0:0:0:
448,192,208826,1,0,0:0:0:0:
64,192,208967,1,0,0:0:0:0:
192,192,208967,1,0,0:0:0:0:
320,192,209108,1,0,0:0:0:0:
448,192,209143,1,0,0:0:0:0:
192,192,209285,1,0,0:0:0:0:
64,192,209320,1,0,0:0:0:0:
448,192,209320,1,0,0:0:0:0:
320,192,209320,1,0,0:0:0:0:
192,192,209461,1,0,0:0:0:0:
320,192,209496,1,0,0:0:0:0:
192,192,209637,1,0,0:0:0:0:
448,192,209673,1,0,0:0:0:0:
64,192,209673,1,0,0:0:0:0:
320,192,209779,1,0,0:0:0:0:
192,192,209849,1,0,0:0:0:0:
448,192,209920,1,0,0:0:0:0:
64,192,210026,1,0,0:0:0:0:
192,192,210026,1,0,0:0:0:0:
320,192,210026,1,0,0:0:0:0:
448,192,210061,1,0,0:0:0:0:
320,192,210202,1,0,0:0:0:0:
192,192,210202,1,0,0:0:0:0:
64,192,210202,1,0,0:0:0:0:
448,192,210202,1,0,0:0:0:0:
448,192,210555,1,0,0:0:0:0:
320,192,210555,1,0,0:0:0:0:
64,192,210696,1,0,0:0:0:0:
320,192,210732,1,0,0:0:0:0:
192,192,210732,1,0,0:0:0:0:
448,192,210732,1,0,0:0:0:0:
448,192,210837,1,0,0:0:0:0:
64,192,210908,1,0,0:0:0:0:
192,192,210979,1,0,0:0:0:0:
64,192,211085,1,0,0:0:0:0:
320,192,211085,1,0,0:0:0:0:
448,192,211155,1,0,0:0:0:0:
192,192,211261,1,0,0:0:0:0:
320,192,211332,1,0,0:0:0:0:
64,192,211437,1,0,0:0:0:0:
448,192,211437,1,0,0:0:0:0:
192,192,211437,1,0,0:0:0:0:
320,192,211473,1,0,0:0:0:0:
448,192,211614,1,0,0:0:0:0:
192,192,211755,1,0,0:0:0:0:
448,192,211790,1,0,0:0:0:0:
64,192,211790,1,0,0:0:0:0:
64,192,211932,1,0,0:0:0:0:
320,192,211967,1,0,0:0:0:0:
448,192,212108,1,0,0:0:0:0:
64,192,212143,1,0,0:0:0:0:
192,192,212143,1,0,0:0:0:0:
320,192,212143,1,0,0:0:0:0:
192,192,212285,1,0,0:0:0:0:
448,192,212320,1,0,0:0:0:0:
320,192,212426,1,0,0:0:0:0:
192,192,212496,1,0,0:0:0:0:
64,192,212496,1,0,0:0:0:0:
448,192,212567,1,0,0:0:0:0:
64,192,212673,1,0,0:0:0:0:
320,192,212708,1,0,0:0:0:0:
448,192,212849,1,0,0:0:0:0:
192,192,212849,1,0,0:0:0:0:
64,192,212849,1,0,0:0:0:0:
320,192,213026,1,0,0:0:0:0:
448,192,213026,1,0,0:0:0:0:
64,192,213026,1,0,0:0:0:0:
192,192,213026,1,0,0:0:0:0:
448,192,213379,1,0,0:0:0:0:
192,192,213379,1,0,0:0:0:0:
320,192,213555,1,0,0:0:0:0:
192,192,213555,1,0,0:0:0:0:
64,192,213732,1,0,0:0:0:0:
448,192,213873,1,0,0:0:0:0:
192,192,213908,1,0,0:0:0:0:
64,192,213908,1,0,0:0:0:0:
320,192,214014,1,0,0:0:0:0:
448,192,214085,1,0,0:0:0:0:
64,192,214155,1,0,0:0:0:0:
320,192,214261,1,0,0:0:0:0:
192,192,214261,1,0,0:0:0:0:
64,192,214261,1,0,0:0:0:0:
448,192,214332,1,0,0:0:0:0:
192,192,214437,1,0,0:0:0:0:
320,192,214508,1,0,0:0:0:0:
448,192,214614,1,0,0:0:0:0:
64,192,214614,1,0,0:0:0:0:
192,192,214649,1,0,0:0:0:0:
64,192,214790,1,0,0:0:0:0:
320,192,214932,1,0,0:0:0:0:
448,192,214967,1,0,0:0:0:0:
64,192,214967,1,0,0:0:0:0:
192,192,214967,1,0,0:0:0:0:
448,192,215108,1,0,0:0:0:0:
192,192,215143,1,0,0:0:0:0:
320,192,215285,1,0,0:0:0:0:
448,192,215320,1,0,0:0:0:0:
64,192,215320,1,0,0:0:0:0:
320,192,215461,1,0,0:0:0:0:
64,192,215496,1,0,0:0:0:0:
192,192,215602,1,0,0:0:0:0:
320,192,215673,1,0,0:0:0:0:
448,192,215673,1,0,0:0:0:0:
448,192,215743,1,0,0:0:0:0:
192,192,215849,1,0,0:0:0:0:
448,192,215885,1,0,0:0:0:0:
320,192,216026,5,0,0:0:0:0:
448,192,216026,1,0,0:0:0:0:
192,192,216026,1,0,0:0:0:0:
64,192,216026,1,0,0:0:0:0:
64,192,216167,1,0,0:0:0:0:
192,192,216202,1,0,0:0:0:0:
448,192,216308,1,0,0:0:0:0:
64,192,216379,1,0,0:0:0:0:
320,192,216379,1,0,0:0:0:0:
192,192,216379,1,0,0:0:0:0:
448,192,216449,1,0,0:0:0:0:
192,192,216555,1,0,0:0:0:0:
320,192,216626,1,0,0:0:0:0:
64,192,216732,1,0,0:0:0:0:
448,192,216732,1,0,0:0:0:0:
192,192,216802,1,0,0:0:0:0:
320,192,216908,1,0,0:0:0:0:
448,192,216943,1,0,0:0:0:0:
64,192,217085,1,0,0:0:0:0:
192,192,217085,1,0,0:0:0:0:
448,192,217085,1,0,0:0:0:0:
320,192,217226,1,0,0:0:0:0:
64,192,217261,1,0,0:0:0:0:
64,192,217402,1,0,0:0:0:0:
448,192,217437,1,0,0:0:0:0:
192,192,217437,1,0,0:0:0:0:
448,192,217579,1,0,0:0:0:0:
320,192,217614,1,0,0:0:0:0:
64,192,217755,1,0,0:0:0:0:
192,192,217790,1,0,0:0:0:0:
448,192,217790,1,0,0:0:0:0:
320,192,217790,1,0,0:0:0:0:
192,192,217896,1,0,0:0:0:0:
64,192,217967,1,0,0:0:0:0:
320,192,218037,1,0,0:0:0:0:
192,192,218143,1,0,0:0:0:0:
64,192,218143,1,0,0:0:0:0:
448,192,218179,1,0,0:0:0:0:
320,192,218320,1,0,0:0:0:0:
192,192,218496,1,0,0:0:0:0:
448,192,218496,1,0,0:0:0:0:
64,192,218496,1,0,0:0:0:0:
320,192,218673,1,0,0:0:0:0:
448,192,218673,1,0,0:0:0:0:
64,192,218673,1,0,0:0:0:0:
192,192,218673,1,0,0:0:0:0:
192,192,219026,1,0,0:0:0:0:
448,192,219026,1,0,0:0:0:0:
64,192,219202,1,0,0:0:0:0:
448,192,219202,1,0,0:0:0:0:
320,192,219202,1,0,0:0:0:0:
192,192,219343,1,0,0:0:0:0:
320,192,219379,1,0,0:0:0:0:
448,192,219485,1,0,0:0:0:0:
64,192,219555,1,0,0:0:0:0:
192,192,219555,1,0,0:0:0:0:
320,192,219626,1,0,0:0:0:0:
64,192,219732,1,0,0:0:0:0:
192,192,219802,1,0,0:0:0:0:
64,192,219908,1,0,0:0:0:0:
448,192,219908,1,0,0:0:0:0:
192,192,219908,1,0,0:0:0:0:
320,192,219979,1,0,0:0:0:0:
64,192,220085,1,0,0:0:0:0:
448,192,220120,1,0,0:0:0:0:
64,192,220261,1,0,0:0:0:0:
192,192,220261,1,0,0:0:0:0:
320,192,220402,1,0,0:0:0:0:
448,192,220437,1,0,0:0:0:0:
192,192,220579,1,0,0:0:0:0:
64,192,220614,1,0,0:0:0:0:
448,192,220614,1,0,0:0:0:0:
320,192,220614,1,0,0:0:0:0:
192,192,220755,1,0,0:0:0:0:
320,192,220790,1,0,0:0:0:0:
192,192,220932,1,0,0:0:0:0:
448,192,220967,1,0,0:0:0:0:
64,192,220967,1,0,0:0:0:0:
320,192,221073,1,0,0:0:0:0:
192,192,221143,1,0,0:0:0:0:
448,192,221214,1,0,0:0:0:0:
64,192,221320,1,0,0:0:0:0:
192,192,221320,1,0,0:0:0:0:
320,192,221320,1,0,0:0:0:0:
448,192,221355,1,0,0:0:0:0:
320,192,221496,1,0,0:0:0:0:
192,192,221496,1,0,0:0:0:0:
64,192,221496,1,0,0:0:0:0:
448,192,221496,1,0,0:0:0:0:
448,192,221849,1,0,0:0:0:0:
320,192,221849,1,0,0:0:0:0:
64,192,221990,1,0,0:0:0:0:
192,192,222026,1,0,0:0:0:0:
320,192,222026,1,0,0:0:0:0:
448,192,222026,1,0,0:0:0:0:
448,192,222132,1,0,0:0:0:0:
64,192,222202,1,0,0:0:0:0:
192,192,222273,1,0,0:0:0:0:
64,192,222379,1,0,0:0:0:0:
320,192,222379,1,0,0:0:0:0:
448,192,222449,1,0,0:0:0:0:
192,192,222555,1,0,0:0:0:0:
320,192,222626,1,0,0:0:0:0:
64,192,222732,1,0,0:0:0:0:
448,192,222732,1,0,0:0:0:0:
192,192,222732,1,0,0:0:0:0:
320,192,222767,1,0,0:0:0:0:
448,192,222908,1,0,0:0:0:0:
192,192,223049,1,0,0:0:0:0:
448,192,223085,1,0,0:0:0:0:
64,192,223085,1,0,0:0:0:0:
64,192,223226,1,0,0:0:0:0:
320,192,223261,1,0,0:0:0:0:
448,192,223402,1,0,0:0:0:0:
64,192,223437,1,0,0:0:0:0:
192,192,223437,1,0,0:0:0:0:
320,192,223437,1,0,0:0:0:0:
192,192,223579,1,0,0:0:0:0:
448,192,223614,1,0,0:0:0:0:
320,192,223720,1,0,0:0:0:0:
192,192,223790,1,0,0:0:0:0:
64,192,223790,1,0,0:0:0:0:
448,192,223861,1,0,0:0:0:0:
64,192,223967,1,0,0:0:0:0:
320,192,224002,1,0,0:0:0:0:
448,192,224143,1,0,0:0:0:0:
192,192,224143,1,0,0:0:0:0:
64,192,224143,1,0,0:0:0:0:
320,192,224320,1,0,0:0:0:0:
448,192,224320,1,0,0:0:0:0:
64,192,224320,1,0,0:0:0:0:
192,192,224320,1,0,0:0:0:0:
448,192,224673,1,0,0:0:0:0:
192,192,224673,1,0,0:0:0:0:
320,192,224849,1,0,0:0:0:0:
192,192,224849,1,0,0:0:0:0:
64,192,225026,1,0,0:0:0:0:
448,192,225167,1,0,0:0:0:0:
192,192,225202,1,0,0:0:0:0:
64,192,225202,1,0,0:0:0:0:
320,192,225308,1,0,0:0:0:0:
448,192,225379,1,0,0:0:0:0:
64,192,225449,1,0,0:0:0:0:
320,192,225555,1,0,0:0:0:0:
192,192,225555,1,0,0:0:0:0:
64,192,225555,1,0,0:0:0:0:
448,192,225626,1,0,0:0:0:0:
192,192,225732,1,0,0:0:0:0:
320,192,225802,1,0,0:0:0:0:
448,192,225908,1,0,0:0:0:0:
64,192,225908,1,0,0:0:0:0:
192,192,225943,1,0,0:0:0:0:
64,192,226085,1,0,0:0:0:0:
320,192,226226,1,0,0:0:0:0:
448,192,226261,1,0,0:0:0:0:
64,192,226261,1,0,0:0:0:0:
192,192,226261,1,0,0:0:0:0:
448,192,226402,1,0,0:0:0:0:
192,192,226437,1,0,0:0:0:0:
320,192,226579,1,0,0:0:0:0:
448,192,226614,1,0,0:0:0:0:
64,192,226614,1,0,0:0:0:0:
320,192,226755,1,0,0:0:0:0:
64,192,226790,1,0,0:0:0:0:
192,192,226896,1,0,0:0:0:0:
320,192,226967,1,0,0:0:0:0:
448,192,226967,1,0,0:0:0:0:
448,192,227037,1,0,0:0:0:0:
192,192,227143,1,0,0:0:0:0:
448,192,227179,1,0,0:0:0:0:
64,192,227320,5,0,0:0:0:0:
448,192,227320,1,0,0:0:0:0:
192,192,227320,1,0,0:0:0:0:
320,192,227320,1,0,0:0:0:0:
320,192,227461,1,0,0:0:0:0:
64,192,227496,1,0,0:0:0:0:
320,192,227602,1,0,0:0:0:0:
192,192,227673,1,0,0:0:0:0:
448,192,227743,1,0,0:0:0:0:
192,192,227849,1,0,0:0:0:0:
448,192,227920,1,0,0:0:0:0:
64,192,228026,1,0,0:0:0:0:
192,192,228026,1,0,0:0:0:0:
320,192,228096,1,0,0:0:0:0:
64,192,228202,1,0,0:0:0:0:
320,192,228237,1,0,0:0:0:0:
192,192,228379,1,0,0:0:0:0:
448,192,228520,1,0,0:0:0:0:
192,192,228555,1,0,0:0:0:0:
448,192,228696,1,0,0:0:0:0:
64,192,228732,1,0,0:0:0:0:
320,192,228873,1,0,0:0:0:0:
64,192,228908,1,0,0:0:0:0:
320,192,229049,1,0,0:0:0:0:
448,192,229085,1,0,0:0:0:0:
192,192,229190,1,0,0:0:0:0:
448,192,229261,1,0,0:0:0:0:
192,192,229332,1,0,0:0:0:0:
320,192,229437,1,0,0:0:0:0:
448,192,229437,1,0,0:0:0:0:
64,192,229473,1,0,0:0:0:0:
320,192,229614,1,0,0:0:0:0:
192,192,229790,1,0,0:0:0:0:
448,192,229967,1,0,0:0:0:0:
320,192,229967,1,0,0:0:0:0:
192,192,229967,1,0,0:0:0:0:
64,192,229967,1,0,0:0:0:0:
320,192,230320,1,0,0:0:0:0:
64,192,230320,1,0,0:0:0:0:
448,192,230496,1,0,0:0:0:0:
192,192,230496,1,0,0:0:0:0:
64,192,230637,1,0,0:0:0:0:
448,192,230673,1,0,0:0:0:0:
64,192,230779,1,0,0:0:0:0:
448,192,230849,1,0,0:0:0:0:
320,192,230849,1,0,0:0:0:0:
192,192,230849,1,0,0:0:0:0:
320,192,230920,1,0,0:0:0:0:
192,192,231026,1,0,0:0:0:0:
320,192,231096,1,0,0:0:0:0:
192,192,231202,1,0,0:0:0:0:
64,192,231202,1,0,0:0:0:0:
448,192,231273,1,0,0:0:0:0:
64,192,231379,1,0,0:0:0:0:
448,192,231414,1,0,0:0:0:0:
320,192,231555,1,0,0:0:0:0:
64,192,231555,1,0,0:0:0:0:
192,192,231696,1,0,0:0:0:0:
320,192,231732,1,0,0:0:0:0:
192,192,231873,1,0,0:0:0:0:
320,192,231908,1,0,0:0:0:0:
448,192,231908,1,0,0:0:0:0:
448,192,232049,1,0,0:0:0:0:
64,192,232085,1,0,0:0:0:0:
448,192,232226,1,0,0:0:0:0:
192,192,232261,1,0,0:0:0:0:
64,192,232261,1,0,0:0:0:0:
320,192,232261,1,0,0:0:0:0:
320,192,232367,1,0,0:0:0:0:
192,192,232437,1,0,0:0:0:0:
320,192,232508,1,0,0:0:0:0:
192,192,232614,1,0,0:0:0:0:
448,192,232614,1,0,0:0:0:0:
64,192,232649,1,0,0:0:0:0:
448,192,232790,1,0,0:0:0:0:
320,192,232790,1,0,0:0:0:0:
192,192,232790,1,0,0:0:0:0:
64,192,232790,1,0,0:0:0:0:
320,192,233143,1,0,0:0:0:0:
192,192,233143,1,0,0:0:0:0:
448,192,233285,1,0,0:0:0:0:
192,192,233320,1,0,0:0:0:0:
64,192,233320,1,0,0:0:0:0:
320,192,233426,1,0,0:0:0:0:
64,192,233496,1,0,0:0:0:0:
320,192,233567,1,0,0:0:0:0:
192,192,233673,1,0,0:0:0:0:
64,192,233673,1,0,0:0:0:0:
320,192,233673,1,0,0:0:0:0:
448,192,233743,1,0,0:0:0:0:
192,192,233849,1,0,0:0:0:0:
448,192,233920,1,0,0:0:0:0:
192,192,234026,1,0,0:0:0:0:
320,192,234026,1,0,0:0:0:0:
64,192,234061,1,0,0:0:0:0:
320,192,234202,1,0,0:0:0:0:
64,192,234343,1,0,0:0:0:0:
192,192,234379,1,0,0:0:0:0:
320,192,234379,1,0,0:0:0:0:
448,192,234520,1,0,0:0:0:0:
192,192,234555,1,0,0:0:0:0:
448,192,234696,1,0,0:0:0:0:
64,192,234732,1,0,0:0:0:0:
320,192,234732,1,0,0:0:0:0:
64,192,234873,1,0,0:0:0:0:
320,192,234908,1,0,0:0:0:0:
64,192,235014,1,0,0:0:0:0:
192,192,235085,1,0,0:0:0:0:
320,192,235085,1,0,0:0:0:0:
448,192,235085,1,0,0:0:0:0:
448,192,235155,1,0,0:0:0:0:
192,192,235261,1,0,0:0:0:0:
448,192,235296,1,0,0:0:0:0:
320,192,235437,1,0,0:0:0:0:
64,192,235437,1,0,0:0:0:0:
448,192,235614,1,0,0:0:0:0:
320,192,235614,1,0,0:0:0:0:
192,192,235614,1,0,0:0:0:0:
64,192,235614,1,0,0:0:0:0:
448,192,235967,1,0,0:0:0:0:
192,192,235967,1,0,0:0:0:0:
320,192,236143,1,0,0:0:0:0:
64,192,236143,1,0,0:0:0:0:
192,192,236320,1,0,0:0:0:0:
320,192,236461,1,0,0:0:0:0:
192,192,236496,1,0,0:0:0:0:
64,192,236496,1,0,0:0:0:0:
448,192,236496,1,0,0:0:0:0:
448,192,236602,1,0,0:0:0:0:
64,192,236673,1,0,0:0:0:0:
448,192,236743,1,0,0:0:0:0:
64,192,236849,1,0,0:0:0:0:
320,192,236849,1,0,0:0:0:0:
192,192,236920,1,0,0:0:0:0:
320,192,237026,1,0,0:0:0:0:
192,192,237096,1,0,0:0:0:0:
448,192,237202,1,0,0:0:0:0:
320,192,237202,1,0,0:0:0:0:
64,192,237237,1,0,0:0:0:0:
448,192,237379,1,0,0:0:0:0:
64,192,237520,1,0,0:0:0:0:
192,192,237555,1,0,0:0:0:0:
448,192,237555,1,0,0:0:0:0:
320,192,237696,1,0,0:0:0:0:
192,192,237732,1,0,0:0:0:0:
192,192,237873,1,0,0:0:0:0:
320,192,237908,1,0,0:0:0:0:
64,192,237908,1,0,0:0:0:0:
448,192,237908,1,0,0:0:0:0:
448,192,238049,1,0,0:0:0:0:
64,192,238085,1,0,0:0:0:0:
448,192,238190,1,0,0:0:0:0:
64,192,238261,1,0,0:0:0:0:
192,192,238261,1,0,0:0:0:0:
192,192,238332,1,0,0:0:0:0:
320,192,238437,1,0,0:0:0:0:
192,192,238473,1,0,0:0:0:0:
64,192,238614,5,0,0:0:0:0:
192,192,238614,1,0,0:0:0:0:
448,192,238614,1,0,0:0:0:0:
320,192,238614,1,0,0:0:0:0:
320,192,238755,1,0,0:0:0:0:
64,192,238790,1,0,0:0:0:0:
320,192,238896,1,0,0:0:0:0:
192,192,238967,1,0,0:0:0:0:
448,192,239037,1,0,0:0:0:0:
192,192,239143,1,0,0:0:0:0:
448,192,239214,1,0,0:0:0:0:
64,192,239320,1,0,0:0:0:0:
192,192,239320,1,0,0:0:0:0:
320,192,239390,1,0,0:0:0:0:
64,192,239496,1,0,0:0:0:0:
320,192,239532,1,0,0:0:0:0:
192,192,239673,1,0,0:0:0:0:
448,192,239814,1,0,0:0:0:0:
192,192,239849,1,0,0:0:0:0:
448,192,239990,1,0,0:0:0:0:
64,192,240026,1,0,0:0:0:0:
320,192,240167,1,0,0:0:0:0:
64,192,240202,1,0,0:0:0:0:
320,192,240343,1,0,0:0:0:0:
448,192,240379,1,0,0:0:0:0:
192,192,240485,1,0,0:0:0:0:
448,192,240555,1,0,0:0:0:0:
192,192,240626,1,0,0:0:0:0:
320,192,240732,1,0,0:0:0:0:
448,192,240732,1,0,0:0:0:0:
64,192,240767,1,0,0:0:0:0:
320,192,240908,1,0,0:0:0:0:
192,192,241085,1,0,0:0:0:0:
448,192,241085,1,0,0:0:0:0:
448,192,241261,1,0,0:0:0:0:
320,192,241261,1,0,0:0:0:0:
192,192,241261,1,0,0:0:0:0:
64,192,241261,1,0,0:0:0:0:
320,192,241614,1,0,0:0:0:0:
64,192,241614,1,0,0:0:0:0:
448,192,241790,1,0,0:0:0:0:
192,192,241790,1,0,0:0:0:0:
64,192,241932,1,0,0:0:0:0:
448,192,241967,1,0,0:0:0:0:
64,192,242073,1,0,0:0:0:0:
448,192,242143,1,0,0:0:0:0:
320,192,242143,1,0,0:0:0:0:
192,192,242143,1,0,0:0:0:0:
320,192,242214,1,0,0:0:0:0:
192,192,242320,1,0,0:0:0:0:
320,192,242390,1,0,0:0:0:0:
192,192,242496,1,0,0:0:0:0:
64,192,242496,1,0,0:0:0:0:
448,192,242567,1,0,0:0:0:0:
64,192,242673,1,0,0:0:0:0:
448,192,242708,1,0,0:0:0:0:
320,192,242849,1,0,0:0:0:0:
64,192,242849,1,0,0:0:0:0:
192,192,242990,1,0,0:0:0:0:
320,192,243026,1,0,0:0:0:0:
192,192,243167,1,0,0:0:0:0:
320,192,243202,1,0,0:0:0:0:
448,192,243202,1,0,0:0:0:0:
448,192,243343,1,0,0:0:0:0:
64,192,243379,1,0,0:0:0:0:
448,192,243520,1,0,0:0:0:0:
192,192,243555,1,0,0:0:0:0:
64,192,243555,1,0,0:0:0:0:
320,192,243555,1,0,0:0:0:0:
320,192,243661,1,0,0:0:0:0:
192,192,243732,1,0,0:0:0:0:
320,192,243802,1,0,0:0:0:0:
192,192,243908,1,0,0:0:0:0:
448,192,243908,1,0,0:0:0:0:
64,192,243943,1,0,0:0:0:0:
448,192,244085,1,0,0:0:0:0:
320,192,244085,1,0,0:0:0:0:
192,192,244085,1,0,0:0:0:0:
64,192,244085,1,0,0:0:0:0:
320,192,244437,1,0,0:0:0:0:
192,192,244437,1,0,0:0:0:0:
448,192,244579,1,0,0:0:0:0:
192,192,244614,1,0,0:0:0:0:
64,192,244614,1,0,0:0:0:0:
320,192,244720,1,0,0:0:0:0:
64,192,244790,1,0,0:0:0:0:
320,192,244861,1,0,0:0:0:0:
192,192,244967,1,0,0:0:0:0:
64,192,244967,1,0,0:0:0:0:
320,192,244967,1,0,0:0:0:0:
448,192,245037,1,0,0:0:0:0:
192,192,245143,1,0,0:0:0:0:
448,192,245214,1,0,0:0:0:0:
192,192,245320,1,0,0:0:0:0:
320,192,245320,1,0,0:0:0:0:
64,192,245355,1,0,0:0:0:0:
320,192,245496,1,0,0:0:0:0:
64,192,245637,1,0,0:0:0:0:
192,192,245673,1,0,0:0:0:0:
320,192,245673,1,0,0:0:0:0:
448,192,245814,1,0,0:0:0:0:
192,192,245849,1,0,0:0:0:0:
448,192,245990,1,0,0:0:0:0:
64,192,246026,1,0,0:0:0:0:
320,192,246026,1,0,0:0:0:0:
64,192,246167,1,0,0:0:0:0:
320,192,246202,1,0,0:0:0:0:
64,192,246308,1,0,0:0:0:0:
192,192,246379,1,0,0:0:0:0:
320,192,246379,1,0,0:0:0:0:
448,192,246379,1,0,0:0:0:0:
448,192,246449,1,0,0:0:0:0:
192,192,246555,1,0,0:0:0:0:
448,192,246590,1,0,0:0:0:0:
320,192,246732,1,0,0:0:0:0:
64,192,246732,1,0,0:0:0:0:
448,192,246908,1,0,0:0:0:0:
320,192,246908,1,0,0:0:0:0:
192,192,246908,1,0,0:0:0:0:
64,192,246908,1,0,0:0:0:0:
448,192,247261,1,0,0:0:0:0:
64,192,247437,1,0,0:0:0:0:
192,192,247614,1,0,0:0:0:0:
320,192,247755,1,0,0:0:0:0:
64,192,247790,1,0,0:0:0:0:
448,192,247896,1,0,0:0:0:0:
64,192,247967,1,0,0:0:0:0:
448,192,248037,1,0,0:0:0:0:
320,192,248143,1,0,0:0:0:0:
192,192,248214,1,0,0:0:0:0:
320,192,248320,1,0,0:0:0:0:
192,192,248390,1,0,0:0:0:0:
448,192,248496,1,0,0:0:0:0:
64,192,248532,1,0,0:0:0:0:
448,192,248673,1,0,0:0:0:0:
64,192,248814,1,0,0:0:0:0:
320,192,248849,1,0,0:0:0:0:
320,192,248990,1,0,0:0:0:0:
192,192,249026,1,0,0:0:0:0:
192,192,249167,1,0,0:0:0:0:
320,192,249202,1,0,0:0:0:0:
448,192,249202,1,0,0:0:0:0:
448,192,249343,1,0,0:0:0:0:
64,192,249379,1,0,0:0:0:0:
448,192,249485,1,0,0:0:0:0:
192,192,249555,1,0,0:0:0:0:
320,192,249626,1,0,0:0:0:0:
448,192,249626,1,0,0:0:0:0:
64,192,249732,1,0,0:0:0:0:
192,192,249767,1,0,0:0:0:0:
320,192,249767,1,0,0:0:0:0:
448,192,249908,5,0,0:0:0:0:
320,192,249908,1,0,0:0:0:0:
192,192,249908,1,0,0:0:0:0:
64,192,249908,1,0,0:0:0:0:
448,192,250049,1,0,0:0:0:0:
320,192,250085,1,0,0:0:0:0:
192,192,250190,1,0,0:0:0:0:
64,192,250190,1,0,0:0:0:0:
448,192,250261,1,0,0:0:0:0:
320,192,250332,1,0,0:0:0:0:
448,192,250437,1,0,0:0:0:0:
192,192,250508,1,0,0:0:0:0:
64,192,250508,1,0,0:0:0:0:
320,192,250614,1,0,0:0:0:0:
448,192,250685,1,0,0:0:0:0:
320,192,250790,1,0,0:0:0:0:
192,192,250826,1,0,0:0:0:0:
64,192,250826,1,0,0:0:0:0:
448,192,250967,1,0,0:0:0:0:
192,192,251108,1,0,0:0:0:0:
64,192,251108,1,0,0:0:0:0:
320,192,251143,1,0,0:0:0:0:
448,192,251285,1,0,0:0:0:0:
320,192,251320,1,0,0:0:0:0:
192,192,251461,1,0,0:0:0:0:
64,192,251461,1,0,0:0:0:0:
448,192,251496,1,0,0:0:0:0:
320,192,251637,1,0,0:0:0:0:
448,192,251673,1,0,0:0:0:0:
192,192,251779,1,0,0:0:0:0:
64,192,251779,1,0,0:0:0:0:
320,192,251849,1,0,0:0:0:0:
448,192,251920,1,0,0:0:0:0:
448,192,252026,1,0,0:0:0:0:
192,192,252061,1,0,0:0:0:0:
64,192,252061,1,0,0:0:0:0:
320,192,252202,1,0,0:0:0:0:
448,192,252379,1,0,0:0:0:0:
192,192,252379,1,0,0:0:0:0:
320,192,252555,1,0,0:0:0:0:
448,192,252555,1,0,0:0:0:0:
320,192,252908,1,0,0:0:0:0:
448,192,252908,1,0,0:0:0:0:
64,192,253085,1,0,0:0:0:0:
320,192,253226,1,0,0:0:0:0:
448,192,253226,1,0,0:0:0:0:
192,192,253261,1,0,0:0:0:0:
64,192,253367,1,0,0:0:0:0:
192,192,253437,1,0,0:0:0:0:
320,192,253508,1,0,0:0:0:0:
448,192,253508,1,0,0:0:0:0:
64,192,253614,1,0,0:0:0:0:
192,192,253685,1,0,0:0:0:0:
64,192,253790,1,0,0:0:0:0:
320,192,253861,1,0,0:0:0:0:
448,192,253861,1,0,0:0:0:0:
192,192,253967,1,0,0:0:0:0:
64,192,254002,1,0,0:0:0:0:
320,192,254143,1,0,0:0:0:0:
448,192,254143,1,0,0:0:0:0:
192,192,254285,1,0,0:0:0:0:
64,192,254320,1,0,0:0:0:0:
320,192,254461,1,0,0:0:0:0:
448,192,254461,1,0,0:0:0:0:
192,192,254496,1,0,0:0:0:0:
64,192,254637,1,0,0:0:0:0:
192,192,254673,1,0,0:0:0:0:
320,192,254814,1,0,0:0:0:0:
448,192,254814,1,0,0:0:0:0:
64,192,254849,1,0,0:0:0:0:
64,192,254955,1,0,0:0:0:0:
192,192,255026,1,0,0:0:0:0:
320,192,255096,1,0,0:0:0:0:
448,192,255096,1,0,0:0:0:0:
64,192,255202,1,0,0:0:0:0:
192,192,255237,1,0,0:0:0:0:
64,192,255379,1,0,0:0:0:0:
320,192,255379,1,0,0:0:0:0:
320,192,255732,1,0,0:0:0:0:
64,192,255732,1,0,0:0:0:0:
448,192,255873,1,0,0:0:0:0:
192,192,255908,1,0,0:0:0:0:
320,192,256014,1,0,0:0:0:0:
64,192,256014,1,0,0:0:0:0:
448,192,256085,1,0,0:0:0:0:
192,192,256155,1,0,0:0:0:0:
448,192,256261,1,0,0:0:0:0:
64,192,256332,1,0,0:0:0:0:
320,192,256332,1,0,0:0:0:0:
192,192,256437,1,0,0:0:0:0:
448,192,256508,1,0,0:0:0:0:
192,192,256614,1,0,0:0:0:0:
320,192,256649,1,0,0:0:0:0:
64,192,256649,1,0,0:0:0:0:
448,192,256790,1,0,0:0:0:0:
64,192,256932,1,0,0:0:0:0:
320,192,256932,1,0,0:0:0:0:
192,192,256967,1,0,0:0:0:0:
448,192,257108,1,0,0:0:0:0:
192,192,257143,1,0,0:0:0:0:
64,192,257285,1,0,0:0:0:0:
320,192,257285,1,0,0:0:0:0:
448,192,257320,1,0,0:0:0:0:
192,192,257461,1,0,0:0:0:0:
448,192,257496,1,0,0:0:0:0:
320,192,257602,1,0,0:0:0:0:
64,192,257602,1,0,0:0:0:0:
192,192,257673,1,0,0:0:0:0:
192,192,257743,1,0,0:0:0:0:
448,192,257849,1,0,0:0:0:0:
64,192,257885,1,0,0:0:0:0:
320,192,257885,1,0,0:0:0:0:
64,192,258026,1,0,0:0:0:0:
448,192,258026,1,0,0:0:0:0:
192,192,258202,1,0,0:0:0:0:
448,192,258202,1,0,0:0:0:0:
192,192,258555,1,0,0:0:0:0:
448,192,258555,1,0,0:0:0:0:
64,192,258732,1,0,0:0:0:0:
192,192,258908,1,0,0:0:0:0:
448,192,258908,1,0,0:0:0:0:
320,192,259049,1,0,0:0:0:0:
64,192,259085,1,0,0:0:0:0:
192,192,259190,1,0,0:0:0:0:
448,192,259190,1,0,0:0:0:0:
320,192,259261,1,0,0:0:0:0:
64,192,259332,1,0,0:0:0:0:
320,192,259437,1,0,0:0:0:0:
192,192,259508,1,0,0:0:0:0:
448,192,259508,1,0,0:0:0:0:
64,192,259614,1,0,0:0:0:0:
320,192,259685,1,0,0:0:0:0:
64,192,259790,1,0,0:0:0:0:
448,192,259826,1,0,0:0:0:0:
192,192,259826,1,0,0:0:0:0:
320,192,259967,1,0,0:0:0:0:
192,192,260108,1,0,0:0:0:0:
448,192,260108,1,0,0:0:0:0:
64,192,260143,1,0,0:0:0:0:
320,192,260285,1,0,0:0:0:0:
64,192,260320,1,0,0:0:0:0:
448,192,260461,1,0,0:0:0:0:
192,192,260461,1,0,0:0:0:0:
320,192,260496,1,0,0:0:0:0:
320,192,260637,1,0,0:0:0:0:
64,192,260673,1,0,0:0:0:0:
448,192,260779,1,0,0:0:0:0:
192,192,260779,1,0,0:0:0:0:
64,192,260849,1,0,0:0:0:0:
448,192,260920,1,0,0:0:0:0:
320,192,260920,1,0,0:0:0:0:
192,192,260920,1,0,0:0:0:0:
320,192,261026,1,0,0:0:0:0:
64,192,261061,1,0,0:0:0:0:
448,192,261202,5,0,0:0:0:0:
192,192,261202,1,0,0:0:0:0:
320,192,261202,1,0,0:0:0:0:
64,192,261202,1,0,0:0:0:0:
448,192,261343,1,0,0:0:0:0:
320,192,261379,1,0,0:0:0:0:
192,192,261485,1,0,0:0:0:0:
64,192,261485,1,0,0:0:0:0:
448,192,261555,1,0,0:0:0:0:
320,192,261626,1,0,0:0:0:0:
448,192,261732,1,0,0:0:0:0:
192,192,261802,1,0,0:0:0:0:
64,192,261802,1,0,0:0:0:0:
64,192,261908,1,0,0:0:0:0:
448,192,261979,1,0,0:0:0:0:
320,192,262085,1,0,0:0:0:0:
192,192,262120,1,0,0:0:0:0:
64,192,262120,1,0,0:0:0:0:
448,192,262261,1,0,0:0:0:0:
192,192,262402,1,0,0:0:0:0:
64,192,262402,1,0,0:0:0:0:
320,192,262437,1,0,0:0:0:0:
448,192,262579,1,0,0:0:0:0:
320,192,262614,1,0,0:0:0:0:
192,192,262755,1,0,0:0:0:0:
64,192,262755,1,0,0:0:0:0:
448,192,262790,1,0,0:0:0:0:
320,192,262932,1,0,0:0:0:0:
448,192,262967,1,0,0:0:0:0:
192,192,263073,1,0,0:0:0:0:
64,192,263073,1,0,0:0:0:0:
320,192,263143,1,0,0:0:0:0:
448,192,263214,1,0,0:0:0:0:
448,192,263320,1,0,0:0:0:0:
192,192,263355,1,0,0:0:0:0:
64,192,263355,1,0,0:0:0:0:
320,192,263496,1,0,0:0:0:0:
192,192,263673,1,0,0:0:0:0:
448,192,263673,1,0,0:0:0:0:
320,192,263849,1,0,0:0:0:0:
448,192,263849,1,0,0:0:0:0:
320,192,264202,1,0,0:0:0:0:
448,192,264202,1,0,0:0:0:0:
64,192,264379,1,0,0:0:0:0:
320,192,264520,1,0,0:0:0:0:
448,192,264520,1,0,0:0:0:0:
192,192,264555,1,0,0:0:0:0:
64,192,264661,1,0,0:0:0:0:
448,192,264732,1,0,0:0:0:0:
320,192,264802,1,0,0:0:0:0:
448,192,264802,1,0,0:0:0:0:
64,192,264908,1,0,0:0:0:0:
192,192,264979,1,0,0:0:0:0:
64,192,265085,1,0,0:0:0:0:
320,192,265155,1,0,0:0:0:0:
448,192,265155,1,0,0:0:0:0:
192,192,265261,1,0,0:0:0:0:
64,192,265296,1,0,0:0:0:0:
320,192,265437,1,0,0:0:0:0:
448,192,265437,1,0,0:0:0:0:
192,192,265579,1,0,0:0:0:0:
64,192,265614,1,0,0:0:0:0:
320,192,265755,1,0,0:0:0:0:
448,192,265755,1,0,0:0:0:0:
192,192,265790,1,0,0:0:0:0:
64,192,265932,1,0,0:0:0:0:
192,192,265967,1,0,0:0:0:0:
320,192,266108,1,0,0:0:0:0:
448,192,266108,1,0,0:0:0:0:
64,192,266143,1,0,0:0:0:0:
64,192,266249,1,0,0:0:0:0:
192,192,266320,1,0,0:0:0:0:
320,192,266390,1,0,0:0:0:0:
448,192,266390,1,0,0:0:0:0:
64,192,266496,1,0,0:0:0:0:
192,192,266532,1,0,0:0:0:0:
64,192,266673,1,0,0:0:0:0:
320,192,266673,1,0,0:0:0:0:
320,192,267026,1,0,0:0:0:0:
64,192,267026,1,0,0:0:0:0:
448,192,267167,1,0,0:0:0:0:
192,192,267202,1,0,0:0:0:0:
320,192,267308,1,0,0:0:0:0:
64,192,267308,1,0,0:0:0:0:
448,192,267379,1,0,0:0:0:0:
192,192,267449,1,0,0:0:0:0:
320,192,267555,1,0,0:0:0:0:
320,192,267626,1,0,0:0:0:0:
64,192,267626,1,0,0:0:0:0:
192,192,267732,1,0,0:0:0:0:
448,192,267802,1,0,0:0:0:0:
192,192,267908,1,0,0:0:0:0:
320,192,267943,1,0,0:0:0:0:
64,192,267943,1,0,0:0:0:0:
448,192,268085,1,0,0:0:0:0:
64,192,268226,1,0,0:0:0:0:
320,192,268226,1,0,0:0:0:0:
192,192,268261,1,0,0:0:0:0:
448,192,268402,1,0,0:0:0:0:
192,192,268437,1,0,0:0:0:0:
64,192,268579,1,0,0:0:0:0:
320,192,268579,1,0,0:0:0:0:
448,192,268614,1,0,0:0:0:0:
192,192,268755,1,0,0:0:0:0:
448,192,268790,1,0,0:0:0:0:
320,192,268896,1,0,0:0:0:0:
64,192,268896,1,0,0:0:0:0:
192,192,268967,1,0,0:0:0:0:
192,192,269037,1,0,0:0:0:0:
448,192,269143,1,0,0:0:0:0:
64,192,269179,1,0,0:0:0:0:
320,192,269179,1,0,0:0:0:0:
64,192,269320,1,0,0:0:0:0:
448,192,269320,1,0,0:0:0:0:
192,192,269496,1,0,0:0:0:0:
448,192,269496,1,0,0:0:0:0:
192,192,269849,1,0,0:0:0:0:
448,192,269849,1,0,0:0:0:0:
64,192,270026,1,0,0:0:0:0:
192,192,270202,1,0,0:0:0:0:
448,192,270202,1,0,0:0:0:0:
320,192,270343,1,0,0:0:0:0:
192,192,270379,1,0,0:0:0:0:
448,192,270485,1,0,0:0:0:0:
192,192,270485,1,0,0:0:0:0:
320,192,270555,1,0,0:0:0:0:
64,192,270626,1,0,0:0:0:0:
320,192,270732,1,0,0:0:0:0:
192,192,270802,1,0,0:0:0:0:
448,192,270802,1,0,0:0:0:0:
64,192,270908,1,0,0:0:0:0:
320,192,270979,1,0,0:0:0:0:
64,192,271085,1,0,0:0:0:0:
448,192,271120,1,0,0:0:0:0:
192,192,271120,1,0,0:0:0:0:
320,192,271261,1,0,0:0:0:0:
192,192,271402,1,0,0:0:0:0:
448,192,271402,1,0,0:0:0:0:
64,192,271437,1,0,0:0:0:0:
320,192,271579,1,0,0:0:0:0:
64,192,271614,1,0,0:0:0:0:
448,192,271755,1,0,0:0:0:0:
192,192,271755,1,0,0:0:0:0:
320,192,271790,1,0,0:0:0:0:
320,192,271932,1,0,0:0:0:0:
64,192,271967,1,0,0:0:0:0:
448,192,272073,1,0,0:0:0:0:
192,192,272073,1,0,0:0:0:0:
64,192,272143,1,0,0:0:0:0:
448,192,272214,1,0,0:0:0:0:
320,192,272214,1,0,0:0:0:0:
192,192,272214,1,0,0:0:0:0:
320,192,272320,1,0,0:0:0:0:
64,192,272355,1,0,0:0:0:0:
64,192,272496,5,0,0:0:0:0:
448,192,272496,1,0,0:0:0:0:
192,192,272496,1,0,0:0:0:0:
320,192,272496,1,0,0:0:0:0:
320,192,272637,1,0,0:0:0:0:
64,192,272673,1,0,0:0:0:0:
320,192,272779,1,0,0:0:0:0:
320,192,272849,1,0,0:0:0:0:
192,192,272849,1,0,0:0:0:0:
64,192,272849,1,0,0:0:0:0:
448,192,272920,1,0,0:0:0:0:
192,192,273026,1,0,0:0:0:0:
448,192,273096,1,0,0:0:0:0:
64,192,273202,1,0,0:0:0:0:
192,192,273202,1,0,0:0:0:0:
320,192,273273,1,0,0:0:0:0:
64,192,273379,1,0,0:0:0:0:
320,192,273414,1,0,0:0:0:0:
64,192,273555,1,0,0:0:0:0:
192,192,273555,1,0,0:0:0:0:
448,192,273555,1,0,0:0:0:0:
448,192,273696,1,0,0:0:0:0:
192,192,273732,1,0,0:0:0:0:
448,192,273873,1,0,0:0:0:0:
192,192,273908,1,0,0:0:0:0:
320,192,273908,1,0,0:0:0:0:
64,192,274049,1,0,0:0:0:0:
320,192,274085,1,0,0:0:0:0:
64,192,274226,1,0,0:0:0:0:
448,192,274261,1,0,0:0:0:0:
192,192,274261,1,0,0:0:0:0:
320,192,274261,1,0,0:0:0:0:
192,192,274367,1,0,0:0:0:0:
448,192,274437,1,0,0:0:0:0:
192,192,274508,1,0,0:0:0:0:
320,192,274614,1,0,0:0:0:0:
448,192,274614,1,0,0:0:0:0:
64,192,274649,1,0,0:0:0:0:
320,192,274790,1,0,0:0:0:0:
448,192,274967,1,0,0:0:0:0:
192,192,274967,1,0,0:0:0:0:
64,192,274967,1,0,0:0:0:0:
448,192,275143,1,0,0:0:0:0:
320,192,275143,1,0,0:0:0:0:
192,192,275143,1,0,0:0:0:0:
64,192,275143,1,0,0:0:0:0:
320,192,275496,1,0,0:0:0:0:
64,192,275496,1,0,0:0:0:0:
448,192,275673,1,0,0:0:0:0:
320,192,275673,1,0,0:0:0:0:
192,192,275673,1,0,0:0:0:0:
64,192,275814,1,0,0:0:0:0:
448,192,275849,1,0,0:0:0:0:
64,192,275955,1,0,0:0:0:0:
448,192,276026,1,0,0:0:0:0:
320,192,276026,1,0,0:0:0:0:
192,192,276096,1,0,0:0:0:0:
320,192,276202,1,0,0:0:0:0:
192,192,276273,1,0,0:0:0:0:
320,192,276379,1,0,0:0:0:0:
192,192,276379,1,0,0:0:0:0:
64,192,276379,1,0,0:0:0:0:
448,192,276449,1,0,0:0:0:0:
64,192,276555,1,0,0:0:0:0:
448,192,276590,1,0,0:0:0:0:
320,192,276732,1,0,0:0:0:0:
64,192,276732,1,0,0:0:0:0:
192,192,276873,1,0,0:0:0:0:
320,192,276908,1,0,0:0:0:0:
192,192,277049,1,0,0:0:0:0:
320,192,277085,1,0,0:0:0:0:
448,192,277085,1,0,0:0:0:0:
64,192,277085,1,0,0:0:0:0:
448,192,277226,1,0,0:0:0:0:
64,192,277261,1,0,0:0:0:0:
448,192,277402,1,0,0:0:0:0:
192,192,277437,1,0,0:0:0:0:
64,192,277437,1,0,0:0:0:0:
320,192,277543,1,0,0:0:0:0:
192,192,277614,1,0,0:0:0:0:
320,192,277685,1,0,0:0:0:0:
192,192,277790,1,0,0:0:0:0:
320,192,277790,1,0,0:0:0:0:
448,192,277790,1,0,0:0:0:0:
64,192,277826,1,0,0:0:0:0:
448,192,277967,1,0,0:0:0:0:
320,192,277967,1,0,0:0:0:0:
192,192,277967,1,0,0:0:0:0:
64,192,277967,1,0,0:0:0:0:
192,192,278320,1,0,0:0:0:0:
320,192,278320,1,0,0:0:0:0:
192,192,278496,1,0,0:0:0:0:
64,192,278496,1,0,0:0:0:0:
448,192,278496,1,0,0:0:0:0:
320,192,278602,1,0,0:0:0:0:
64,192,278673,1,0,0:0:0:0:
320,192,278743,1,0,0:0:0:0:
192,192,278849,1,0,0:0:0:0:
64,192,278849,1,0,0:0:0:0:
448,192,278920,1,0,0:0:0:0:
192,192,279026,1,0,0:0:0:0:
448,192,279096,1,0,0:0:0:0:
448,192,279202,1,0,0:0:0:0:
192,192,279202,1,0,0:0:0:0:
320,192,279202,1,0,0:0:0:0:
64,192,279237,1,0,0:0:0:0:
320,192,279379,1,0,0:0:0:0:
64,192,279520,1,0,0:0:0:0:
320,192,279555,1,0,0:0:0:0:
192,192,279555,1,0,0:0:0:0:
448,192,279696,1,0,0:0:0:0:
192,192,279732,1,0,0:0:0:0:
448,192,279873,1,0,0:0:0:0:
64,192,279908,1,0,0:0:0:0:
320,192,279908,1,0,0:0:0:0:
192,192,279908,1,0,0:0:0:0:
64,192,280049,1,0,0:0:0:0:
320,192,280085,1,0,0:0:0:0:
64,192,280190,1,0,0:0:0:0:
192,192,280261,1,0,0:0:0:0:
320,192,280261,1,0,0:0:0:0:
448,192,280332,1,0,0:0:0:0:
192,192,280437,1,0,0:0:0:0:
448,192,280473,1,0,0:0:0:0:
320,192,280614,1,0,0:0:0:0:
192,192,280614,1,0,0:0:0:0:
64,192,280614,1,0,0:0:0:0:
448,192,280790,1,0,0:0:0:0:
320,192,280790,1,0,0:0:0:0:
192,192,280790,1,0,0:0:0:0:
64,192,280790,1,0,0:0:0:0:
448,192,281143,1,0,0:0:0:0:
192,192,281143,1,0,0:0:0:0:
320,192,281320,1,0,0:0:0:0:
448,192,281320,1,0,0:0:0:0:
64,192,281320,1,0,0:0:0:0:
192,192,281496,1,0,0:0:0:0:
320,192,281637,1,0,0:0:0:0:
192,192,281673,1,0,0:0:0:0:
64,192,281673,1,0,0:0:0:0:
448,192,281779,1,0,0:0:0:0:
64,192,281849,1,0,0:0:0:0:
448,192,281920,1,0,0:0:0:0:
64,192,282026,1,0,0:0:0:0:
448,192,282026,1,0,0:0:0:0:
320,192,282026,1,0,0:0:0:0:
192,192,282096,1,0,0:0:0:0:
320,192,282202,1,0,0:0:0:0:
192,192,282273,1,0,0:0:0:0:
448,192,282379,1,0,0:0:0:0:
320,192,282379,1,0,0:0:0:0:
64,192,282414,1,0,0:0:0:0:
448,192,282555,1,0,0:0:0:0:
64,192,282696,1,0,0:0:0:0:
320,192,282732,1,0,0:0:0:0:
192,192,282732,1,0,0:0:0:0:
448,192,282732,1,0,0:0:0:0:
320,192,282873,1,0,0:0:0:0:
192,192,282908,1,0,0:0:0:0:
192,192,283049,1,0,0:0:0:0:
320,192,283085,1,0,0:0:0:0:
64,192,283085,1,0,0:0:0:0:
448,192,283226,1,0,0:0:0:0:
64,192,283261,1,0,0:0:0:0:
448,192,283367,1,0,0:0:0:0:
192,192,283437,1,0,0:0:0:0:
64,192,283437,1,0,0:0:0:0:
320,192,283437,1,0,0:0:0:0:
64,192,283508,1,0,0:0:0:0:
448,192,283614,1,0,0:0:0:0:
64,192,283649,1,0,0:0:0:0:
448,192,283790,5,0,0:0:0:0:
192,192,283790,1,0,0:0:0:0:
64,192,283790,1,0,0:0:0:0:
320,192,283790,1,0,0:0:0:0:
192,192,283932,1,0,0:0:0:0:
448,192,283967,1,0,0:0:0:0:
192,192,284073,1,0,0:0:0:0:
64,192,284073,1,0,0:0:0:0:
448,192,284143,1,0,0:0:0:0:
320,192,284143,1,0,0:0:0:0:
64,192,284214,1,0,0:0:0:0:
320,192,284320,1,0,0:0:0:0:
64,192,284390,1,0,0:0:0:0:
192,192,284390,1,0,0:0:0:0:
448,192,284496,1,0,0:0:0:0:
192,192,284567,1,0,0:0:0:0:
448,192,284673,1,0,0:0:0:0:
192,192,284708,1,0,0:0:0:0:
64,192,284708,1,0,0:0:0:0:
64,192,284849,1,0,0:0:0:0:
320,192,284849,1,0,0:0:0:0:
64,192,284990,1,0,0:0:0:0:
192,192,284990,1,0,0:0:0:0:
448,192,285026,1,0,0:0:0:0:
192,192,285167,1,0,0:0:0:0:
448,192,285202,1,0,0:0:0:0:
64,192,285343,1,0,0:0:0:0:
192,192,285343,1,0,0:0:0:0:
320,192,285379,1,0,0:0:0:0:
64,192,285520,1,0,0:0:0:0:
448,192,285555,1,0,0:0:0:0:
320,192,285555,1,0,0:0:0:0:
64,192,285661,1,0,0:0:0:0:
192,192,285661,1,0,0:0:0:0:
448,192,285732,1,0,0:0:0:0:
192,192,285802,1,0,0:0:0:0:
320,192,285908,1,0,0:0:0:0:
192,192,285943,1,0,0:0:0:0:
64,192,285943,1,0,0:0:0:0:
64,192,286085,1,0,0:0:0:0:
448,192,286261,1,0,0:0:0:0:
192,192,286261,1,0,0:0:0:0:
320,192,286261,1,0,0:0:0:0:
320,192,286437,1,0,0:0:0:0:
448,192,286437,1,0,0:0:0:0:
64,192,286437,1,0,0:0:0:0:
192,192,286437,1,0,0:0:0:0:
320,192,286790,1,0,0:0:0:0:
448,192,286790,1,0,0:0:0:0:
320,192,286967,1,0,0:0:0:0:
192,192,286967,1,0,0:0:0:0:
320,192,287108,1,0,0:0:0:0:
448,192,287108,1,0,0:0:0:0:
64,192,287143,1,0,0:0:0:0:
448,192,287249,1,0,0:0:0:0:
64,192,287320,1,0,0:0:0:0:
320,192,287390,1,0,0:0:0:0:
448,192,287390,1,0,0:0:0:0:
192,192,287496,1,0,0:0:0:0:
320,192,287567,1,0,0:0:0:0:
192,192,287673,1,0,0:0:0:0:
64,192,287673,1,0,0:0:0:0:
448,192,287743,1,0,0:0:0:0:
320,192,287743,1,0,0:0:0:0:
64,192,287849,1,0,0:0:0:0:
448,192,287885,1,0,0:0:0:0:
448,192,288026,1,0,0:0:0:0:
320,192,288026,1,0,0:0:0:0:
320,192,288167,1,0,0:0:0:0:
192,192,288202,1,0,0:0:0:0:
448,192,288343,1,0,0:0:0:0:
320,192,288343,1,0,0:0:0:0:
192,192,288379,1,0,0:0:0:0:
64,192,288379,1,0,0:0:0:0:
448,192,288520,1,0,0:0:0:0:
64,192,288555,1,0,0:0:0:0:
448,192,288696,1,0,0:0:0:0:
320,192,288696,1,0,0:0:0:0:
192,192,288732,1,0,0:0:0:0:
320,192,288837,1,0,0:0:0:0:
64,192,288908,1,0,0:0:0:0:
448,192,288979,1,0,0:0:0:0:
320,192,288979,1,0,0:0:0:0:
192,192,289085,1,0,0:0:0:0:
64,192,289085,1,0,0:0:0:0:
448,192,289120,1,0,0:0:0:0:
192,192,289261,1,0,0:0:0:0:
64,192,289261,1,0,0:0:0:0:
448,192,289261,1,0,0:0:0:0:
320,192,289261,1,0,0:0:0:0:
192,192,289614,1,0,0:0:0:0:
64,192,289614,1,0,0:0:0:0:
64,192,289755,1,0,0:0:0:0:
448,192,289790,1,0,0:0:0:0:
320,192,289790,1,0,0:0:0:0:
64,192,289896,1,0,0:0:0:0:
192,192,289896,1,0,0:0:0:0:
448,192,289967,1,0,0:0:0:0:
192,192,290037,1,0,0:0:0:0:
448,192,290143,1,0,0:0:0:0:
64,192,290214,1,0,0:0:0:0:
192,192,290214,1,0,0:0:0:0:
320,192,290320,1,0,0:0:0:0:
64,192,290390,1,0,0:0:0:0:
320,192,290496,1,0,0:0:0:0:
448,192,290496,1,0,0:0:0:0:
64,192,290532,1,0,0:0:0:0:
192,192,290532,1,0,0:0:0:0:
192,192,290673,1,0,0:0:0:0:
192,192,290814,1,0,0:0:0:0:
64,192,290814,1,0,0:0:0:0:
448,192,290849,1,0,0:0:0:0:
64,192,290990,1,0,0:0:0:0:
320,192,291026,1,0,0:0:0:0:
192,192,291167,1,0,0:0:0:0:
64,192,291167,1,0,0:0:0:0:
448,192,291202,1,0,0:0:0:0:
320,192,291202,1,0,0:0:0:0:
192,192,291343,1,0,0:0:0:0:
448,192,291379,1,0,0:0:0:0:
192,192,291485,1,0,0:0:0:0:
64,192,291485,1,0,0:0:0:0:
320,192,291555,1,0,0:0:0:0:
64,192,291626,1,0,0:0:0:0:
320,192,291732,1,0,0:0:0:0:
192,192,291767,1,0,0:0:0:0:
64,192,291767,1,0,0:0:0:0:
192,192,291908,1,0,0:0:0:0:
320,192,291908,1,0,0:0:0:0:
448,192,291908,1,0,0:0:0:0:
192,192,292085,1,0,0:0:0:0:
64,192,292085,1,0,0:0:0:0:
448,192,292085,1,0,0:0:0:0:
320,192,292085,1,0,0:0:0:0:
448,192,292437,1,0,0:0:0:0:
320,192,292437,1,0,0:0:0:0:
64,192,292614,1,0,0:0:0:0:
448,192,292614,1,0,0:0:0:0:
320,192,292790,1,0,0:0:0:0:
448,192,292790,1,0,0:0:0:0:
320,192,292932,1,0,0:0:0:0:
192,192,292967,1,0,0:0:0:0:
448,192,293073,1,0,0:0:0:0:
320,192,293073,1,0,0:0:0:0:
64,192,293143,1,0,0:0:0:0:
448,192,293214,1,0,0:0:0:0:
64,192,293320,1,0,0:0:0:0:
192,192,293320,1,0,0:0:0:0:
320,192,293390,1,0,0:0:0:0:
448,192,293390,1,0,0:0:0:0:
192,192,293496,1,0,0:0:0:0:
320,192,293567,1,0,0:0:0:0:
64,192,293673,1,0,0:0:0:0:
448,192,293708,1,0,0:0:0:0:
320,192,293708,1,0,0:0:0:0:
448,192,293849,1,0,0:0:0:0:
448,192,293990,1,0,0:0:0:0:
320,192,293990,1,0,0:0:0:0:
192,192,294026,1,0,0:0:0:0:
64,192,294026,1,0,0:0:0:0:
320,192,294167,1,0,0:0:0:0:
192,192,294202,1,0,0:0:0:0:
320,192,294343,1,0,0:0:0:0:
448,192,294343,1,0,0:0:0:0:
64,192,294379,1,0,0:0:0:0:
448,192,294520,1,0,0:0:0:0:
64,192,294555,1,0,0:0:0:0:
448,192,294661,1,0,0:0:0:0:
320,192,294661,1,0,0:0:0:0:
192,192,294732,1,0,0:0:0:0:
448,192,294802,1,0,0:0:0:0:
64,192,294802,1,0,0:0:0:0:
192,192,294802,1,0,0:0:0:0:
320,192,294908,1,0,0:0:0:0:
192,192,294943,1,0,0:0:0:0:
320,192,295085,5,0,0:0:0:0:
192,192,295085,1,0,0:0:0:0:
448,192,295085,1,0,0:0:0:0:
64,192,295085,1,0,0:0:0:0:
64,192,295226,1,0,0:0:0:0:
192,192,295261,1,0,0:0:0:0:
448,192,295367,1,0,0:0:0:0:
64,192,295437,1,0,0:0:0:0:
320,192,295437,1,0,0:0:0:0:
192,192,295508,1,0,0:0:0:0:
320,192,295614,1,0,0:0:0:0:
448,192,295685,1,0,0:0:0:0:
64,192,295790,1,0,0:0:0:0:
320,192,295790,1,0,0:0:0:0:
448,192,295790,1,0,0:0:0:0:
192,192,295861,1,0,0:0:0:0:
320,192,295967,1,0,0:0:0:0:
448,192,296002,1,0,0:0:0:0:
64,192,296143,1,0,0:0:0:0:
192,192,296143,1,0,0:0:0:0:
320,192,296285,1,0,0:0:0:0:
64,192,296320,1,0,0:0:0:0:
64,192,296461,1,0,0:0:0:0:
448,192,296496,1,0,0:0:0:0:
192,192,296496,1,0,0:0:0:0:
448,192,296637,1,0,0:0:0:0:
320,192,296673,1,0,0:0:0:0:
64,192,296814,1,0,0:0:0:0:
192,192,296849,1,0,0:0:0:0:
448,192,296849,1,0,0:0:0:0:
320,192,296955,1,0,0:0:0:0:
64,192,297026,1,0,0:0:0:0:
448,192,297096,1,0,0:0:0:0:
64,192,297202,1,0,0:0:0:0:
320,192,297202,1,0,0:0:0:0:
448,192,297202,1,0,0:0:0:0:
192,192,297237,1,0,0:0:0:0:
320,192,297379,1,0,0:0:0:0:
192,192,297555,1,0,0:0:0:0:
448,192,297555,1,0,0:0:0:0:
320,192,297732,1,0,0:0:0:0:
448,192,297732,1,0,0:0:0:0:
64,192,297732,1,0,0:0:0:0:
192,192,297732,1,0,0:0:0:0:
192,192,298085,1,0,0:0:0:0:
448,192,298085,1,0,0:0:0:0:
64,192,298261,1,0,0:0:0:0:
448,192,298261,1,0,0:0:0:0:
320,192,298402,1,0,0:0:0:0:
192,192,298437,1,0,0:0:0:0:
448,192,298543,1,0,0:0:0:0:
64,192,298614,1,0,0:0:0:0:
320,192,298614,1,0,0:0:0:0:
192,192,298614,1,0,0:0:0:0:
448,192,298685,1,0,0:0:0:0:
64,192,298790,1,0,0:0:0:0:
192,192,298861,1,0,0:0:0:0:
320,192,298967,1,0,0:0:0:0:
448,192,298967,1,0,0:0:0:0:
64,192,299037,1,0,0:0:0:0:
448,192,299143,1,0,0:0:0:0:
320,192,299179,1,0,0:0:0:0:
64,192,299320,1,0,0:0:0:0:
192,192,299320,1,0,0:0:0:0:
320,192,299461,1,0,0:0:0:0:
448,192,299496,1,0,0:0:0:0:
192,192,299637,1,0,0:0:0:0:
64,192,299673,1,0,0:0:0:0:
448,192,299673,1,0,0:0:0:0:
320,192,299814,1,0,0:0:0:0:
448,192,299849,1,0,0:0:0:0:
192,192,299990,1,0,0:0:0:0:
320,192,300026,1,0,0:0:0:0:
448,192,300026,1,0,0:0:0:0:
64,192,300026,1,0,0:0:0:0:
192,192,300132,1,0,0:0:0:0:
64,192,300202,1,0,0:0:0:0:
320,192,300273,1,0,0:0:0:0:
64,192,300379,1,0,0:0:0:0:
192,192,300379,1,0,0:0:0:0:
448,192,300414,1,0,0:0:0:0:
320,192,300555,1,0,0:0:0:0:
192,192,300555,1,0,0:0:0:0:
64,192,300555,1,0,0:0:0:0:
448,192,300555,1,0,0:0:0:0:
448,192,300908,1,0,0:0:0:0:
320,192,300908,1,0,0:0:0:0:
64,192,301049,1,0,0:0:0:0:
320,192,301085,1,0,0:0:0:0:
192,192,301085,1,0,0:0:0:0:
448,192,301190,1,0,0:0:0:0:
64,192,301261,1,0,0:0:0:0:
192,192,301332,1,0,0:0:0:0:
192,192,301437,1,0,0:0:0:0:
64,192,301437,1,0,0:0:0:0:
320,192,301437,1,0,0:0:0:0:
448,192,301508,1,0,0:0:0:0:
320,192,301614,1,0,0:0:0:0:
192,192,301685,1,0,0:0:0:0:
64,192,301790,1,0,0:0:0:0:
448,192,301790,1,0,0:0:0:0:
320,192,301826,1,0,0:0:0:0:
448,192,301967,1,0,0:0:0:0:
192,192,302108,1,0,0:0:0:0:
448,192,302143,1,0,0:0:0:0:
64,192,302143,1,0,0:0:0:0:
64,192,302285,1,0,0:0:0:0:
320,192,302320,1,0,0:0:0:0:
448,192,302461,1,0,0:0:0:0:
64,192,302496,1,0,0:0:0:0:
192,192,302496,1,0,0:0:0:0:
192,192,302637,1,0,0:0:0:0:
320,192,302673,1,0,0:0:0:0:
448,192,302779,1,0,0:0:0:0:
320,192,302849,1,0,0:0:0:0:
192,192,302849,1,0,0:0:0:0:
64,192,302849,1,0,0:0:0:0:
448,192,302920,1,0,0:0:0:0:
64,192,303026,1,0,0:0:0:0:
320,192,303061,1,0,0:0:0:0:
448,192,303202,1,0,0:0:0:0:
192,192,303202,1,0,0:0:0:0:
320,192,303379,1,0,0:0:0:0:
448,192,303379,1,0,0:0:0:0:
64,192,303379,1,0,0:0:0:0:
192,192,303379,1,0,0:0:0:0:
448,192,303732,1,0,0:0:0:0:
192,192,303732,1,0,0:0:0:0:
320,192,303908,1,0,0:0:0:0:
192,192,303908,1,0,0:0:0:0:
64,192,304085,1,0,0:0:0:0:
448,192,304226,1,0,0:0:0:0:
320,192,304261,1,0,0:0:0:0:
192,192,304261,1,0,0:0:0:0:
64,192,304261,1,0,0:0:0:0:
448,192,304367,1,0,0:0:0:0:
192,192,304437,1,0,0:0:0:0:
320,192,304508,1,0,0:0:0:0:
192,192,304614,1,0,0:0:0:0:
64,192,304614,1,0,0:0:0:0:
448,192,304685,1,0,0:0:0:0:
192,192,304790,1,0,0:0:0:0:
320,192,304861,1,0,0:0:0:0:
448,192,304967,1,0,0:0:0:0:
64,192,304967,1,0,0:0:0:0:
192,192,305002,1,0,0:0:0:0:
64,192,305143,1,0,0:0:0:0:
320,192,305285,1,0,0:0:0:0:
448,192,305320,1,0,0:0:0:0:
64,192,305320,1,0,0:0:0:0:
192,192,305461,1,0,0:0:0:0:
448,192,305496,1,0,0:0:0:0:
320,192,305637,1,0,0:0:0:0:
448,192,305673,1,0,0:0:0:0:
192,192,305673,1,0,0:0:0:0:
64,192,305673,1,0,0:0:0:0:
320,192,305814,1,0,0:0:0:0:
64,192,305849,1,0,0:0:0:0:
192,192,305955,1,0,0:0:0:0:
320,192,306026,1,0,0:0:0:0:
448,192,306026,1,0,0:0:0:0:
448,192,306096,1,0,0:0:0:0:
192,192,306202,1,0,0:0:0:0:
448,192,306237,1,0,0:0:0:0:
320,192,306379,5,0,0:0:0:0:
192,192,306379,1,0,0:0:0:0:
64,192,306379,1,0,0:0:0:0:
448,192,306379,1,0,0:0:0:0:
64,192,306520,1,0,0:0:0:0:
320,192,306555,1,0,0:0:0:0:
64,192,306661,1,0,0:0:0:0:
192,192,306661,1,0,0:0:0:0:
448,192,306732,1,0,0:0:0:0:
192,192,306802,1,0,0:0:0:0:
320,192,306908,1,0,0:0:0:0:
192,192,306979,1,0,0:0:0:0:
64,192,306979,1,0,0:0:0:0:
320,192,307085,1,0,0:0:0:0:
64,192,307155,1,0,0:0:0:0:
448,192,307261,1,0,0:0:0:0:
64,192,307296,1,0,0:0:0:0:
192,192,307296,1,0,0:0:0:0:
320,192,307437,1,0,0:0:0:0:
64,192,307579,1,0,0:0:0:0:
448,192,307579,1,0,0:0:0:0:
320,192,307614,1,0,0:0:0:0:
64,192,307755,1,0,0:0:0:0:
192,192,307790,1,0,0:0:0:0:
192,192,307932,1,0,0:0:0:0:
448,192,307932,1,0,0:0:0:0:
320,192,307967,1,0,0:0:0:0:
64,192,308108,1,0,0:0:0:0:
192,192,308143,1,0,0:0:0:0:
320,192,308249,1,0,0:0:0:0:
448,192,308249,1,0,0:0:0:0:
192,192,308320,1,0,0:0:0:0:
320,192,308390,1,0,0:0:0:0:
64,192,308496,1,0,0:0:0:0:
320,192,308532,1,0,0:0:0:0:
448,192,308532,1,0,0:0:0:0:
192,192,308673,1,0,0:0:0:0:
64,192,308849,1,0,0:0:0:0:
192,192,308849,1,0,0:0:0:0:
448,192,308849,1,0,0:0:0:0:
320,192,309026,1,0,0:0:0:0:
192,192,309026,1,0,0:0:0:0:
64,192,309026,1,0,0:0:0:0:
448,192,309026,1,0,0:0:0:0:
192,192,309379,1,0,0:0:0:0:
448,192,309379,1,0,0:0:0:0:
320,192,309555,1,0,0:0:0:0:
320,192,309696,1,0,0:0:0:0:
448,192,309696,1,0,0:0:0:0:
64,192,309732,1,0,0:0:0:0:
448,192,309837,1,0,0:0:0:0:
64,192,309908,1,0,0:0:0:0:
448,192,309979,1,0,0:0:0:0:
320,192,309979,1,0,0:0:0:0:
192,192,310085,1,0,0:0:0:0:
320,192,310155,1,0,0:0:0:0:
64,192,310261,1,0,0:0:0:0:
320,192,310332,1,0,0:0:0:0:
448,192,310332,1,0,0:0:0:0:
192,192,310437,1,0,0:0:0:0:
448,192,310473,1,0,0:0:0:0:
448,192,310614,1,0,0:0:0:0:
320,192,310614,1,0,0:0:0:0:
192,192,310755,1,0,0:0:0:0:
64,192,310790,1,0,0:0:0:0:
64,192,310932,1,0,0:0:0:0:
320,192,310932,1,0,0:0:0:0:
448,192,310967,1,0,0:0:0:0:
192,192,311108,1,0,0:0:0:0:
64,192,311143,1,0,0:0:0:0:
192,192,311285,1,0,0:0:0:0:
320,192,311285,1,0,0:0:0:0:
448,192,311320,1,0,0:0:0:0:
64,192,311426,1,0,0:0:0:0:
448,192,311496,1,0,0:0:0:0:
64,192,311567,1,0,0:0:0:0:
320,192,311567,1,0,0:0:0:0:
192,192,311673,1,0,0:0:0:0:
448,192,311708,1,0,0:0:0:0:
320,192,311849,1,0,0:0:0:0:
192,192,311849,1,0,0:0:0:0:
448,192,311849,1,0,0:0:0:0:
64,192,311849,1,0,0:0:0:0:
448,192,312202,1,0,0:0:0:0:
64,192,312202,1,0,0:0:0:0:
192,192,312343,1,0,0:0:0:0:
448,192,312379,1,0,0:0:0:0:
192,192,312485,1,0,0:0:0:0:
64,192,312485,1,0,0:0:0:0:
320,192,312555,1,0,0:0:0:0:
64,192,312626,1,0,0:0:0:0:
320,192,312732,1,0,0:0:0:0:
64,192,312802,1,0,0:0:0:0:
192,192,312802,1,0,0:0:0:0:
448,192,312908,1,0,0:0:0:0:
320,192,312979,1,0,0:0:0:0:
64,192,313085,1,0,0:0:0:0:
448,192,313120,1,0,0:0:0:0:
192,192,313120,1,0,0:0:0:0:
320,192,313261,1,0,0:0:0:0:
64,192,313402,1,0,0:0:0:0:
448,192,313402,1,0,0:0:0:0:
320,192,313437,1,0,0:0:0:0:
192,192,313579,1,0,0:0:0:0:
448,192,313614,1,0,0:0:0:0:
64,192,313755,1,0,0:0:0:0:
320,192,313755,1,0,0:0:0:0:
192,192,313790,1,0,0:0:0:0:
192,192,313932,1,0,0:0:0:0:
320,192,313967,1,0,0:0:0:0:
448,192,314073,1,0,0:0:0:0:
64,192,314073,1,0,0:0:0:0:
192,192,314143,1,0,0:0:0:0:
448,192,314214,1,0,0:0:0:0:
320,192,314320,1,0,0:0:0:0:
192,192,314355,1,0,0:0:0:0:
64,192,314355,1,0,0:0:0:0:
448,192,314496,1,0,0:0:0:0:
64,192,314496,1,0,0:0:0:0:
320,192,314496,1,0,0:0:0:0:
320,192,314673,1,0,0:0:0:0:
192,192,314673,1,0,0:0:0:0:
448,192,314673,1,0,0:0:0:0:
64,192,314673,1,0,0:0:0:0:
192,192,315026,1,0,0:0:0:0:
448,192,315026,1,0,0:0:0:0:
64,192,315202,1,0,0:0:0:0:
448,192,315379,1,0,0:0:0:0:
320,192,315379,1,0,0:0:0:0:
320,192,315520,1,0,0:0:0:0:
64,192,315555,1,0,0:0:0:0:
320,192,315661,1,0,0:0:0:0:
448,192,315661,1,0,0:0:0:0:
64,192,315732,1,0,0:0:0:0:
448,192,315802,1,0,0:0:0:0:
192,192,315908,1,0,0:0:0:0:
448,192,315979,1,0,0:0:0:0:
320,192,315979,1,0,0:0:0:0:
64,192,316085,1,0,0:0:0:0:
192,192,316155,1,0,0:0:0:0:
448,192,316261,1,0,0:0:0:0:
64,192,316296,1,0,0:0:0:0:
320,192,316296,1,0,0:0:0:0:
192,192,316437,1,0,0:0:0:0:
448,192,316579,1,0,0:0:0:0:
64,192,316579,1,0,0:0:0:0:
192,192,316614,1,0,0:0:0:0:
320,192,316755,1,0,0:0:0:0:
64,192,316790,1,0,0:0:0:0:
448,192,316932,1,0,0:0:0:0:
192,192,316932,1,0,0:0:0:0:
320,192,316967,1,0,0:0:0:0:
320,192,317108,1,0,0:0:0:0:
192,192,317143,1,0,0:0:0:0:
64,192,317249,1,0,0:0:0:0:
448,192,317249,1,0,0:0:0:0:
320,192,317320,1,0,0:0:0:0:
448,192,317390,1,0,0:0:0:0:
192,192,317390,1,0,0:0:0:0:
64,192,317390,1,0,0:0:0:0:
192,192,317496,1,0,0:0:0:0:
320,192,317532,1,0,0:0:0:0:
448,192,317673,5,0,0:0:0:0:
192,192,317673,1,0,0:0:0:0:
320,192,317673,1,0,0:0:0:0:
64,192,317673,1,0,0:0:0:0:
192,192,317955,1,0,0:0:0:0:
64,192,317955,1,0,0:0:0:0:
192,192,318273,1,0,0:0:0:0:
64,192,318273,1,0,0:0:0:0:
192,192,318590,1,0,0:0:0:0:
64,192,318590,1,0,0:0:0:0:
192,192,318873,1,0,0:0:0:0:
64,192,318873,1,0,0:0:0:0:
192,192,319226,1,0,0:0:0:0:
64,192,319226,1,0,0:0:0:0:
192,192,319543,1,0,0:0:0:0:
64,192,319543,1,0,0:0:0:0:
448,192,319790,1,0,0:0:0:0:
192,192,319826,1,0,0:0:0:0:
64,192,319826,1,0,0:0:0:0:
320,192,320143,1,0,0:0:0:0:
192,192,320143,1,0,0:0:0:0:
320,192,320320,1,0,0:0:0:0:
448,192,320320,1,0,0:0:0:0:
320,192,320673,1,0,0:0:0:0:
448,192,320673,1,0,0:0:0:0:
320,192,320990,1,0,0:0:0:0:
448,192,320990,1,0,0:0:0:0:
320,192,321273,1,0,0:0:0:0:
448,192,321273,1,0,0:0:0:0:
320,192,321626,1,0,0:0:0:0:
448,192,321626,1,0,0:0:0:0:
320,192,321908,1,0,0:0:0:0:
448,192,321908,1,0,0:0:0:0:
320,192,322226,1,0,0:0:0:0:
448,192,322226,1,0,0:0:0:0:
320,192,322579,1,0,0:0:0:0:
448,192,322579,1,0,0:0:0:0:
64,192,322614,1,0,0:0:0:0:
320,192,322861,1,0,0:0:0:0:
448,192,322861,1,0,0:0:0:0:
64,192,323143,1,0,0:0:0:0:
320,192,323143,1,0,0:0:0:0:
320,192,323496,1,0,0:0:0:0:
64,192,323496,1,0,0:0:0:0:
320,192,323779,1,0,0:0:0:0:
64,192,323779,1,0,0:0:0:0:
320,192,324096,1,0,0:0:0:0:
64,192,324096,1,0,0:0:0:0:
320,192,324414,1,0,0:0:0:0:
64,192,324414,1,0,0:0:0:0:
320,192,324696,1,0,0:0:0:0:
64,192,324696,1,0,0:0:0:0:
320,192,325049,1,0,0:0:0:0:
64,192,325049,1,0,0:0:0:0:
320,192,325367,1,0,0:0:0:0:
64,192,325367,1,0,0:0:0:0:
192,192,325437,1,0,0:0:0:0:
320,192,325649,1,0,0:0:0:0:
64,192,325649,1,0,0:0:0:0:
64,192,325790,1,0,0:0:0:0:
448,192,325790,1,0,0:0:0:0:
192,192,325967,1,0,0:0:0:0:
448,192,325967,1,0,0:0:0:0:
192,192,326320,1,0,0:0:0:0:
448,192,326320,1,0,0:0:0:0:
192,192,326673,1,0,0:0:0:0:
448,192,326673,1,0,0:0:0:0:
192,192,326955,1,0,0:0:0:0:
448,192,326955,1,0,0:0:0:0:
192,192,327273,1,0,0:0:0:0:
448,192,327273,1,0,0:0:0:0:
192,192,327590,1,0,0:0:0:0:
448,192,327590,1,0,0:0:0:0:
192,192,327873,1,0,0:0:0:0:
448,192,327873,1,0,0:0:0:0:
192,192,328226,1,0,0:0:0:0:
448,192,328226,1,0,0:0:0:0:
320,192,328261,1,0,0:0:0:0:
448,192,328543,1,0,0:0:0:0:
192,192,328543,1,0,0:0:0:0:
448,192,328685,1,0,0:0:0:0:
320,192,328685,1,0,0:0:0:0:
448,192,328967,5,0,0:0:0:0:
64,192,328967,1,0,0:0:0:0:
192,192,328967,1,0,0:0:0:0:
320,192,328967,1,0,0:0:0:0:
64,192,329249,1,0,0:0:0:0:
192,192,329249,1,0,0:0:0:0:
64,192,329567,1,0,0:0:0:0:
192,192,329567,1,0,0:0:0:0:
64,192,329885,1,0,0:0:0:0:
192,192,329885,1,0,0:0:0:0:
64,192,330167,1,0,0:0:0:0:
192,192,330167,1,0,0:0:0:0:
64,192,330520,1,0,0:0:0:0:
192,192,330520,1,0,0:0:0:0:
64,192,330837,1,0,0:0:0:0:
192,192,330837,1,0,0:0:0:0:
64,192,331120,1,0,0:0:0:0:
192,192,331120,1,0,0:0:0:0:
192,192,331437,1,0,0:0:0:0:
320,192,331437,1,0,0:0:0:0:
448,192,331614,1,0,0:0:0:0:
320,192,331614,1,0,0:0:0:0:
448,192,331967,1,0,0:0:0:0:
320,192,331967,1,0,0:0:0:0:
448,192,332285,1,0,0:0:0:0:
320,192,332285,1,0,0:0:0:0:
448,192,332567,1,0,0:0:0:0:
320,192,332567,1,0,0:0:0:0:
448,192,332920,1,0,0:0:0:0:
320,192,332920,1,0,0:0:0:0:
448,192,333202,1,0,0:0:0:0:
320,192,333202,1,0,0:0:0:0:
448,192,333520,1,0,0:0:0:0:
320,192,333520,1,0,0:0:0:0:
448,192,333873,1,0,0:0:0:0:
320,192,333873,1,0,0:0:0:0:
448,192,334155,1,0,0:0:0:0:
320,192,334155,1,0,0:0:0:0:
320,192,334437,1,0,0:0:0:0:
64,192,334437,1,0,0:0:0:0:
64,192,334790,1,0,0:0:0:0:
320,192,334790,1,0,0:0:0:0:
64,192,335073,1,0,0:0:0:0:
320,192,335073,1,0,0:0:0:0:
64,192,335390,1,0,0:0:0:0:
320,192,335390,1,0,0:0:0:0:
64,192,335708,1,0,0:0:0:0:
320,192,335708,1,0,0:0:0:0:
64,192,335990,1,0,0:0:0:0:
320,192,335990,1,0,0:0:0:0:
64,192,336343,1,0,0:0:0:0:
320,192,336343,1,0,0:0:0:0:
64,192,336661,1,0,0:0:0:0:
320,192,336661,1,0,0:0:0:0:
64,192,336943,1,0,0:0:0:0:
320,192,336943,1,0,0:0:0:0:
448,192,337085,1,0,0:0:0:0:
64,192,337085,1,0,0:0:0:0:
448,192,337261,1,0,0:0:0:0:
192,192,337261,1,0,0:0:0:0:
448,192,337614,1,0,0:0:0:0:
192,192,337614,1,0,0:0:0:0:
448,192,337967,1,0,0:0:0:0:
192,192,337967,1,0,0:0:0:0:
448,192,338249,1,0,0:0:0:0:
192,192,338249,1,0,0:0:0:0:
448,192,338567,1,0,0:0:0:0:
192,192,338567,1,0,0:0:0:0:
448,192,338885,1,0,0:0:0:0:
192,192,338885,1,0,0:0:0:0:
448,192,339167,1,0,0:0:0:0:
192,192,339167,1,0,0:0:0:0:
448,192,339520,1,0,0:0:0:0:
192,192,339520,1,0,0:0:0:0:
192,192,339837,1,0,0:0:0:0:
448,192,339837,1,0,0:0:0:0:
320,192,339979,1,0,0:0:0:0:
448,192,339979,1,0,0:0:0:0:
448,192,340261,5,0,0:0:0:0:
64,192,340261,1,0,0:0:0:0:
320,192,340261,1,0,0:0:0:0:
192,192,340261,1,0,0:0:0:0:
192,192,340437,1,0,0:0:0:0:
448,192,340614,1,0,0:0:0:0:
320,192,340790,1,0,0:0:0:0:
192,192,341143,1,0,0:0:0:0:
64,192,341320,1,0,0:0:0:0:
320,192,341496,1,0,0:0:0:0:
64,192,341849,1,0,0:0:0:0:
320,192,342026,1,0,0:0:0:0:
192,192,342202,1,0,0:0:0:0:
64,192,342555,1,0,0:0:0:0:
192,192,342732,1,0,0:0:0:0:
448,192,342732,1,0,0:0:0:0:
448,192,342908,1,0,0:0:0:0:
320,192,342908,1,0,0:0:0:0:
64,192,342908,1,0,0:0:0:0:
192,192,343261,1,0,0:0:0:0:
448,192,343437,1,0,0:0:0:0:
64,192,343614,1,0,0:0:0:0:
320,192,343720,1,0,0:0:0:0:
64,192,343790,1,0,0:0:0:0:
448,192,343967,1,0,0:0:0:0:
192,192,344143,1,0,0:0:0:0:
320,192,344320,1,0,0:0:0:0:
448,192,344364,1,0,0:0:0:0:
192,192,344673,1,0,0:0:0:0:
64,192,344849,1,0,0:0:0:0:
448,192,345026,1,0,0:0:0:0:
192,192,345202,1,0,0:0:0:0:
320,192,345379,1,0,0:0:0:0:
64,192,345555,1,0,0:0:0:0:
192,192,345732,1,0,0:0:0:0:
320,192,345732,1,0,0:0:0:0:
448,192,345732,1,0,0:0:0:0:
64,192,346085,1,0,0:0:0:0:
320,192,346261,1,0,0:0:0:0:
192,192,346437,1,0,0:0:0:0:
320,192,346614,1,0,0:0:0:0:
448,192,346790,1,0,0:0:0:0:
192,192,346967,1,0,0:0:0:0:
64,192,347143,1,0,0:0:0:0:
192,192,347496,1,0,0:0:0:0:
320,192,347673,1,0,0:0:0:0:
448,192,347849,1,0,0:0:0:0:
192,192,347982,1,0,0:0:0:0:
448,192,348026,1,0,0:0:0:0:
64,192,348202,1,0,0:0:0:0:
192,192,348379,1,0,0:0:0:0:
320,192,348379,1,0,0:0:0:0:
448,192,348555,1,0,0:0:0:0:
192,192,348555,1,0,0:0:0:0:
64,192,348555,1,0,0:0:0:0:
320,192,348908,1,0,0:0:0:0:
192,192,349085,1,0,0:0:0:0:
64,192,349261,1,0,0:0:0:0:
448,192,349437,1,0,0:0:0:0:
192,192,349614,1,0,0:0:0:0:
320,192,349790,1,0,0:0:0:0:
448,192,349967,1,0,0:0:0:0:
64,192,350143,1,0,0:0:0:0:
192,192,350320,1,0,0:0:0:0:
448,192,350496,1,0,0:0:0:0:
64,192,350673,1,0,0:0:0:0:
448,192,350849,1,0,0:0:0:0:
64,192,351026,1,0,0:0:0:0:
448,192,351202,1,0,0:0:0:0:
320,192,351273,1,0,0:0:0:0:
64,192,351555,1,0,0:0:0:0:
192,192,351555,1,0,0:0:0:0:
448,192,351555,1,0,0:0:0:0:
192,192,354026,1,0,0:0:0:0:
448,192,354026,1,0,0:0:0:0:
448,192,354202,1,0,0:0:0:0:
320,192,354202,1,0,0:0:0:0:
64,192,354202,1,0,0:0:0:0:
320,192,357026,1,0,0:0:0:0:
192,192,357026,1,0,0:0:0:0:
64,192,357026,1,0,0:0:0:0:
320,192,359673,1,0,0:0:0:0:
448,192,359673,1,0,0:0:0:0:
448,192,359849,1,0,0:0:0:0:
192,192,359849,1,0,0:0:0:0:
64,192,359849,1,0,0:0:0:0:
448,192,362849,1,0,0:0:0:0:
320,192,362849,1,0,0:0:0:0:
192,192,362849,1,0,0:0:0:0:
