osu file format v14

[General]
AudioFilename: audio.mp3
AudioLeadIn: 0
PreviewTime: 182091
Countdown: 0
SampleSet: Soft
StackLeniency: 0.7
Mode: 0
LetterboxInBreaks: 0
EpilepsyWarning: 1
WidescreenStoryboard: 0

[Editor]
Bookmarks: 227303,229597,238597,240891,249891,261185
DistanceSpacing: 1.6
BeatDivisor: 5
GridSize: 32
TimelineZoom: 2.500005

[Metadata]
Title:Asteroid Field of DECAPLETS
TitleUnicode:Asteroid Field of DECAPLETS
Artist:II-L
ArtistUnicode:II-L
Creator:DeviousPanda
Version:X
Source:Intermediate Global Taiko Showdown 2021
Tags:osu! fa featured artist juke footwork psytrance instrumental electronic IGTS finger control rhythm space BespokE
BeatmapID:3403124
BeatmapSetID:1666685

[Difficulty]
HPDrainRate:4
CircleSize:3.8
OverallDifficulty:9.4
ApproachRate:9.7
SliderMultiplier:2.8
SliderTickRate:1

[Events]
//Background and Video events
0,0,"bg.jpg",0,0
//Break Periods
2,227520,229060
2,238814,240354
2,250108,260648
//Storyboard Layer 0 (Background)
//Storyboard Layer 1 (Fail)
//Storyboard Layer 2 (Pass)
//Storyboard Layer 3 (Foreground)
//Storyboard Layer 4 (Overlay)
//Storyboard Sound Samples

[TimingPoints]
1438,352.941176470588,4,2,1,40,1,0
1438,-200,4,2,1,40,0,0
4085,-133.333333333333,4,2,1,40,0,0
4437,-200,4,2,1,40,0,0
9732,-133.333333333333,4,2,1,40,0,0
10084,-200,4,2,1,40,0,0
24026,-200,4,2,1,50,0,0
35320,-200,4,2,1,55,0,0
50214,-133.333333333333,4,2,1,40,0,0
50566,-200,4,2,1,40,0,0
91790,-166.666666666667,4,2,1,65,0,0
114379,-133.333333333333,4,2,1,75,0,1
136967,-200,4,2,1,55,0,0
159555,-166.666666666667,4,2,1,65,0,0
182143,-100,4,2,1,100,0,1
182249,-100,4,2,1,85,0,1
184790,-500,4,2,1,100,0,1
185143,-100,4,2,1,85,0,1
187614,-500,4,2,1,100,0,1
187967,-100,4,2,1,85,0,1
190437,-500,4,2,1,100,0,1
190790,-100,4,2,1,85,0,1
196085,-500,4,2,1,100,0,1
196437,-100,4,2,1,85,0,1
198908,-500,4,2,1,100,0,1
199260,-100,4,2,1,85,0,1
201732,-500,4,2,1,100,0,1
202084,-100,4,2,1,85,0,1
207379,-500,4,2,1,100,0,1
207731,-100,4,2,1,85,0,1
210202,-500,4,2,1,100,0,1
210554,-100,4,2,1,85,0,1
213026,-500,4,2,1,100,0,1
213378,-100,4,2,1,85,0,1
218673,-500,4,2,1,100,0,1
219025,-100,4,2,1,85,0,1
221496,-500,4,2,1,100,0,1
221848,-100,4,2,1,85,0,1
224320,-500,4,2,1,100,0,1
224672,-100,4,2,1,85,0,1
227320,-166.666666666667,4,2,1,70,0,0
229967,-500,4,2,1,100,0,1
230319,-100,4,2,1,85,0,1
232790,-500,4,2,1,100,0,1
233142,-100,4,2,1,85,0,1
235614,-500,4,2,1,100,0,1
235966,-100,4,2,1,85,0,1
238614,-166.666666666667,4,2,1,70,0,0
241261,-500,4,2,1,100,0,1
241613,-100,4,2,1,85,0,1
244085,-500,4,2,1,100,0,1
244437,-100,4,2,1,85,0,1
246908,-500,4,2,1,100,0,1
247261,-133.333333333333,4,2,1,70,0,0
249908,-200,4,2,1,50,0,0
261202,-200,4,2,1,65,0,0
272214,-133.333333333333,4,2,1,65,0,0
272355,-100,4,2,1,65,0,0
272496,-83.3333333333333,4,2,1,100,0,1
272602,-83.3333333333333,4,2,1,90,0,1
275143,-1000,4,2,1,100,0,1
275496,-83.3333333333333,4,2,1,90,0,1
277967,-1000,4,2,1,100,0,1
278320,-83.3333333333333,4,2,1,90,0,1
280790,-1000,4,2,1,100,0,1
281143,-83.3333333333333,4,2,1,90,0,1
283790,-133.333333333333,4,2,1,75,0,0
286437,-1000,4,2,1,100,0,1
286790,-133.333333333333,4,2,1,75,0,0
289261,-1000,4,2,1,100,0,1
289614,-133.333333333333,4,2,1,75,0,0
292085,-1000,4,2,1,100,0,1
292437,-133.333333333333,4,2,1,75,0,0
295085,-83.3333333333333,4,2,1,100,0,1
295190,-83.3333333333333,4,2,1,90,0,1
297732,-1000,4,2,1,100,0,1
298085,-83.3333333333333,4,2,1,90,0,1
300555,-1000,4,2,1,100,0,1
300908,-83.3333333333333,4,2,1,90,0,1
303379,-1000,4,2,1,100,0,1
303732,-83.3333333333333,4,2,1,90,0,1
306379,-133.333333333333,4,2,1,75,0,0
309026,-1000,4,2,1,100,0,1
309379,-133.333333333333,4,2,1,75,0,0
311849,-1000,4,2,1,100,0,1
312202,-133.333333333333,4,2,1,75,0,0
314673,-1000,4,2,1,100,0,1
315026,-133.333333333333,4,2,1,75,0,0
317143,-83.3333333333333,4,2,1,75,0,0
317673,-200,4,2,1,55,0,0
340261,-200,4,2,1,35,0,0
351555,-500,4,2,1,30,0,0
354026,-200,4,2,1,30,0,0
354202,-571.428571428571,4,2,1,30,0,0
359673,-200,4,2,1,30,0,0
359849,-606.060606060606,4,2,1,30,0,0
362849,-333.333333333333,4,2,1,30,0,0
363096,-200,4,2,1,5,0,0

[Colours]
Combo1 : 249,130,123
Combo2 : 189,177,140
Combo3 : 221,203,183
Combo4 : 236,214,53
Combo5 : 252,249,114
Combo6 : 234,139,34
Combo7 : 254,173,84
Combo8 : 226,82,82

[HitObjects]
59,55,1438,5,6,1:2:0:0:
93,50,1614,1,0,0:0:0:0:
118,32,1790,1,0,0:0:0:0:
132,0,1967,1,0,0:0:0:0:
113,128,2320,5,0,0:0:0:0:
138,133,2496,1,0,0:0:0:0:
153,152,2673,1,0,0:0:0:0:
225,186,3026,101,0,0:0:0:0:
230,202,3202,1,0,0:0:0:0:
226,218,3379,1,0,0:0:0:0:
82,254,3731,5,0,0:0:0:0:
138,307,3908,2,0,P|160:315|177:328,1,42,0|0,1:0|0:0,0:0:0:0:
56,336,4085,102,0,P|94:298|245:216,1,210.000008010865,6|0,1:2|0:0,0:0:0:0:
229,221,4614,1,0,0:0:0:0:
370,288,4790,37,0,0:0:0:0:
327,354,4896,21,0,0:0:0:0:
306,350,4967,2,0,P|294:334|286:311,1,42
323,217,5143,2,0,P|332:199|337:178,1,42
337,177,5320,1,0,0:0:0:0:
512,128,5496,21,0,0:0:0:0:
512,128,5532,2,0,P|477:124|415:60,1,126
253,0,6026,21,0,0:0:0:0:
258,75,6202,1,0,0:0:0:0:
260,154,6379,1,0,0:0:0:0:
263,232,6555,1,0,0:0:0:0:
267,309,6732,1,0,0:0:0:0:
166,373,6908,102,0,P|99:345|28:329,1,140,6|0,1:2|0:0,0:0:0:0:
33,329,7437,1,0,0:0:0:0:
7,295,7614,1,0,0:0:0:0:
14,247,7790,1,0,0:0:0:0:
54,225,7967,1,0,0:0:0:0:
98,231,8143,1,0,0:0:0:0:
119,265,8320,1,0,0:0:0:0:
207,269,8673,5,0,0:0:0:0:
233,255,8849,1,0,0:0:0:0:
237,223,9026,1,0,0:0:0:0:
151,148,9132,37,0,0:0:0:0:
171,156,9202,1,0,0:0:0:0:
288,119,9379,53,0,0:0:0:0:
435,78,9555,22,0,P|426:102|422:125,1,42,0|0,1:0|0:0,0:0:0:0:
329,0,9732,102,0,P|360:45|395:203,1,210.000008010865,6|0,1:2|0:0,0:0:0:0:
395,194,10261,101,0,0:0:0:0:
411,223,10437,1,0,0:0:0:0:
439,230,10614,1,0,0:0:0:0:
468,225,10790,1,0,0:0:0:0:
483,204,10967,1,0,0:0:0:0:
483,176,11143,1,0,0:0:0:0:
465,155,11320,1,0,0:0:0:0:
426,86,11496,5,0,0:0:0:0:
388,93,11673,1,0,0:0:0:0:
350,74,11849,1,0,0:0:0:0:
338,35,12026,1,0,0:0:0:0:
356,0,12202,1,0,0:0:0:0:
499,1,12379,53,0,0:0:0:0:
499,1,12449,1,0,0:0:0:0:
306,182,12732,38,0,P|260:164|99:136,1,210,6|0,1:2|0:0,0:0:0:0:
503,5,13437,6,0,P|250:78|20:102,1,490,8|0,3:1|0:0,0:0:0:0:
25,102,15202,22,0,P|45:104|68:112,1,42,0|0,1:0|0:0,0:0:0:0:
266,35,15379,86,0,P|187:25|114:184,1,280,6|0,1:2|0:0,0:0:0:0:
0,14,16261,102,0,P|35:0|197:292,1,490,8|0,3:1|0:0,0:0:0:0:
0,375,18202,6,0,P|99:349|277:323,1,280,6|0,1:2|0:0,0:0:0:0:
512,172,19085,102,0,P|275:137|31:57,1,490,8|0,3:1|0:0,0:0:0:0:
37,59,20849,22,0,P|54:56|81:43,1,42,0|0,1:2|0:0,0:0:0:0:
263,0,21026,102,0,P|252:68|238:281,1,280,6|0,1:2|0:0,0:0:0:0:
237,278,21908,1,8,3:1:0:0:
256,192,22085,12,0,23143,0:0:0:0:
256,192,23320,101,8,3:1:0:0:
257,0,23743,5,8,3:2:0:0:
257,0,23885,1,8,3:2:0:0:
257,0,24026,22,0,P|266:24|276:80,1,70,6|0,1:2|0:0,0:0:0:0:
345,221,24308,2,0,P|327:262|316:309,1,84,0|0,3:0|0:0,0:0:0:0:
472,199,24626,102,0,P|438:192|410:147,1,84,0|0,3:0|0:0,0:0:0:0:
387,77,24943,2,0,P|394:58|437:26,1,70,0|0,3:0|0:0,0:0:0:0:
333,134,25226,6,0,P|285:144|223:175,1,112,0|0,3:0|0:0,0:0:0:0:
228,171,25579,1,0,3:0:0:0:
42,143,25896,102,0,P|14:122|6:83,1,70,0|0,3:0|0:0,0:0:0:0:
36,20,26179,2,0,P|50:12|110:33,1,84,0|0,3:0|0:0,0:0:0:0:
145,104,26496,5,0,3:0:0:0:
48,234,26673,2,0,P|36:262|21:333,1,98,6|0,3:2|0:0,0:0:0:0:
105,376,27026,102,0,P|125:371|155:314,1,84,0|0,3:0|0:0,0:0:0:0:
238,266,27343,2,0,P|235:234|190:200,1,84,0|0,3:0|0:0,0:0:0:0:
48,234,27626,6,0,P|77:241|142:246,1,84,0|0,3:0|0:0,0:0:0:0:
296,348,27979,2,0,P|339:338|372:335,1,70,0|0,3:0|0:0,0:0:0:0:
410,274,28261,1,0,3:0:0:0:
216,384,28579,102,0,P|216:358|198:281,1,98,0|0,3:0|0:0,0:0:0:0:
276,181,28932,2,0,P|282:144|304:96,1,84,0|0,3:0|0:0,0:0:0:0:
267,30,29214,1,0,3:0:0:0:
0,212,29496,85,6,1:2:0:0:
65,173,29849,1,0,3:0:0:0:
119,226,30132,1,0,3:0:0:0:
204,150,30449,5,0,3:0:0:0:
249,209,30767,1,0,3:0:0:0:
321,183,31049,1,0,3:0:0:0:
396,240,31402,101,0,3:0:0:0:
441,178,31720,1,0,3:0:0:0:
512,217,32002,1,0,3:0:0:0:
512,217,32143,1,0,3:0:0:0:
463,312,32320,38,0,P|412:322|361:339,1,98,6|0,1:2|0:0,0:0:0:0:
235,245,32673,2,0,P|186:235|139:216,1,98,0|0,3:0|0:0,0:0:0:0:
241,374,33026,102,0,P|262:358|276:311,1,70,0|0,3:0|0:0,0:0:0:0:
333,264,33308,2,0,P|315:231|306:184,1,84,0|0,3:0|0:0,0:0:0:0:
257,124,33626,1,0,3:0:0:0:
308,0,33943,101,0,3:0:0:0:
241,374,34226,1,0,3:0:0:0:
312,4,34579,1,0,3:0:0:0:
512,196,34896,21,0,3:0:0:0:
512,196,35037,2,0,P|480:177|436:168,1,70,0|0,3:0|0:0,0:0:0:0:
333,264,35320,102,0,P|311:285|271:297,1,70,6|0,1:2|0:0,0:0:0:0:
189,247,35602,2,0,P|181:217|199:160,1,84,0|0,1:2|0:0,0:0:0:0:
294,132,35920,1,0,1:0:0:0:
294,132,36026,2,0,P|312:139|332:161,1,42,8|0,3:1|0:0,0:0:0:0:
200,331,36237,6,0,P|161:336|125:351,1,70,0|0,1:0|0:0,0:0:0:0:
337,260,36520,2,0,P|369:271|434:275,1,98,0|0,1:0|0:0,0:0:0:0:
185,251,36873,102,0,P|148:235|100:228,1,84,0|0,1:0|0:0,0:0:0:0:
316,338,37190,2,0,P|338:363|377:389,1,70,0|0,1:0|0:0,0:0:0:0:
265,195,37473,6,0,P|263:148|255:108,1,84,0|0,1:0|0:0,0:0:0:0:
266,32,37790,69,0,1:0:0:0:
252,293,37967,5,6,1:2:0:0:
333,71,38320,6,0,P|360:80|398:131,1,84,0|0,1:0|0:0,0:0:0:0:
499,47,38637,2,0,P|478:63|465:98,1,56,0|0,1:0|0:0,0:0:0:0:
462,170,38849,21,8,3:1:0:0:
462,170,38920,2,0,P|408:175|359:198,1,98,0|0,1:0|0:0,0:0:0:0:
241,136,39273,2,0,P|204:131|169:114,1,70,0|0,1:0|0:0,0:0:0:0:
407,37,39555,102,0,P|362:68|340:99,1,84,0|0,1:0|0:0,0:0:0:0:
256,229,39873,2,0,P|221:243|152:252,1,98,0|0,1:0|0:0,0:0:0:0:
272,0,40226,21,0,1:0:0:0:
260,225,40508,37,0,1:0:0:0:
254,384,40790,5,6,1:2:0:0:
131,40,41143,6,0,P|94:56|76:90,1,70,0|0,1:0|0:0,0:0:0:0:
3,140,41426,2,0,P|16:167|55:190,1,70,0|0,1:0|0:0,0:0:0:0:
122,149,41673,21,8,3:1:0:0:
122,149,41743,2,0,P|140:141|205:128,1,84,0|0,1:0|0:0,0:0:0:0:
272,53,42061,2,0,P|290:61|343:70,1,70,0|0,1:0|0:0,0:0:0:0:
87,15,42343,102,0,P|106:17|181:45,1,98,0|0,1:0|0:0,0:0:0:0:
299,157,42696,2,0,P|310:172|364:215,1,84,0|0,1:0|0:0,0:0:0:0:
187,213,43014,102,0,P|200:178|207:131,1,84,0|0,1:0|0:0,0:0:0:0:
211,128,43296,1,0,1:0:0:0:
364,217,43437,85,0,1:0:0:0:
254,384,43614,5,6,1:2:0:0:
366,78,43967,22,0,P|391:107|459:120,1,98,0|0,1:0|0:0,0:0:0:0:
361,214,44320,2,0,P|391:200|407:197,1,42,0|0,1:0|0:0,0:0:0:0:
478,196,44496,101,8,3:1:0:0:
502,238,44602,2,0,P|489:268|476:324,1,84,0|0,1:0|0:0,0:0:0:0:
402,381,44920,2,0,P|392:340|376:301,1,84,0|0,1:0|0:0,0:0:0:0:
289,155,45237,85,0,1:0:0:0:
512,384,45520,1,0,1:0:0:0:
285,159,45873,1,0,1:0:0:0:
423,138,46190,5,0,1:0:0:0:
321,231,46332,2,0,P|303:273|298:298,1,70,0|0,1:0|0:0,0:0:0:0:
240,367,46614,22,0,P|220:348|216:300,1,70,6|0,1:2|0:0,0:0:0:0:
136,203,46896,2,0,P|139:180|166:154,1,56,0|0,1:0|0:0,0:0:0:0:
41,300,47214,101,0,1:0:0:0:
89,313,47320,2,0,P|123:292|146:285,1,56,8|0,3:1|0:0,0:0:0:0:
164,159,47532,85,0,1:0:0:0:
239,166,47673,1,0,3:0:0:0:
271,100,47814,2,0,P|266:68|248:29,1,70,0|0,1:0|0:0,0:0:0:0:
326,207,48167,6,0,P|336:176|360:141,1,70,0|0,1:0|0:0,0:0:0:0:
257,256,48485,102,0,P|241:227|222:209,1,56,0|0,1:0|0:0,0:0:0:0:
332,313,48767,6,0,P|352:287|373:272,1,56,0|0,1:0|0:0,0:0:0:0:
245,384,49085,102,0,P|253:358|256:339,1,42,0|0,1:0|0:0,0:0:0:0:
259,0,49261,69,6,1:2:0:0:
0,215,49614,54,0,P|20:218|61:248,1,70,0|0,1:0|0:0,0:0:0:0:
151,222,49932,2,0,P|165:244|165:276,1,56,0|0,1:0|0:0,0:0:0:0:
102,315,50143,37,8,3:1:0:0:
102,315,50214,2,0,P|101:266|133:137,1,168.000006408692,0|0,1:0|0:0,0:0:0:0:
192,106,50567,54,0,P|190:85|162:53,1,56,0|0,1:0|0:0,0:0:0:0:
92,0,50849,2,0,P|66:12|49:44,1,56,0|0,1:0|0:0,0:0:0:0:
197,183,51167,6,0,P|234:191|258:215,1,70,0|0,1:0|0:0,0:0:0:0:
349,220,51520,2,0,P|353:241|338:276,1,56,0|0,1:0|0:0,0:0:0:0:
245,384,51802,101,0,1:0:0:0:
254,208,51943,5,0,3:0:0:0:
259,0,52084,101,6,1:2:0:0:
458,135,52437,6,0,P|429:144|404:169,1,56,0|0,1:0|0:0,0:0:0:0:
319,129,52720,2,0,P|304:150|298:186,1,56,0|0,1:0|0:0,0:0:0:0:
340,272,52967,53,8,3:1:0:0:
340,272,53037,2,0,P|350:311|352:344,1,70,0|0,1:0|0:0,0:0:0:0:
409,160,53355,2,0,P|402:127|401:97,1,56,0|0,1:0|0:0,0:0:0:0:
432,305,53637,38,0,P|460:333|478:361,1,70,0|0,1:0|0:0,0:0:0:0:
320,133,53990,2,0,P|297:107|274:73,1,70,0|0,1:0|0:0,0:0:0:0:
512,210,54308,6,0,P|483:216|451:230,1,56,0|0,1:0|0:0,0:0:0:0:
214,337,54590,38,0,P|219:316|226:299,1,28,0|0,1:0|0:0,0:0:0:0:
301,250,54732,2,0,P|299:225|295:208,1,42,0|0,1:0|0:0,0:0:0:0:
254,0,54908,5,6,1:2:0:0:
26,127,55261,38,0,P|56:137|84:167,1,70,0|0,1:0|0:0,0:0:0:0:
178,79,55614,2,0,P|166:102|162:127,1,42,0|0,1:0|0:0,0:0:0:0:
159,206,55790,21,8,3:1:0:0:
191,232,55896,2,0,P|200:263|202:295,1,56,0|0,1:0|0:0,0:0:0:0:
329,186,56214,102,0,P|314:214|305:260,1,70,0|0,1:0|0:0,0:0:0:0:
132,73,56532,102,0,P|151:99|162:127,1,56,0|0,1:0|0:0,0:0:0:0:
453,67,56814,6,0,P|429:89|409:126,1,70,0|0,1:0|0:0,0:0:0:0:
277,384,57167,102,0,P|275:349|270:313,1,70,0|0,1:0|0:0,0:0:0:0:
333,182,57485,5,0,1:0:0:0:
222,62,57626,2,0,P|223:27|230:0,1,56,0|0,1:0|0:0,0:0:0:0:
0,182,57908,101,6,1:0:0:0:
73,158,58049,1,0,3:0:0:0:
138,199,58190,1,0,1:0:0:0:
130,277,58332,1,0,3:0:0:0:
0,297,58508,37,0,1:0:0:0:
41,384,58614,5,8,3:1:0:0:
57,373,58685,2,0,P|59:353|58:335,1,28,0|0,3:0|0:0,0:0:0:0:
134,281,58826,69,0,1:0:0:0:
61,235,58967,1,0,3:0:0:0:
144,118,59108,102,0,P|135:83|133:45,1,70,0|0,1:0|0:0,0:0:0:0:
240,288,59461,2,0,P|249:323|251:361,1,70,0|0,1:0|0:0,0:0:0:0:
64,232,59779,5,0,1:0:0:0:
193,189,59920,1,0,3:0:0:0:
318,144,60026,69,8,3:1:0:0:
322,148,60061,2,0,P|350:137|380:119,1,56,0|0,1:0|0:0,0:0:0:0:
173,90,60379,37,0,1:0:0:0:
348,236,60555,2,0,P|388:251|443:290,1,98,0|0,1:0|0:0,0:0:0:0:
284,51,60908,101,0,1:0:0:0:
232,281,61085,1,0,3:0:0:0:
195,144,61226,54,0,P|188:117|176:92,1,56,0|0,1:0|0:0,0:0:0:0:
114,50,61437,1,8,3:1:0:0:
127,30,61508,2,0,P|156:19|192:-4,1,70,0|0,1:0|0:0,0:0:0:0:
92,133,61861,2,0,P|59:145|37:158,1,56,0|0,1:0|0:0,0:0:0:0:
15,33,62143,69,0,1:0:0:0:
172,95,62285,2,0,P|191:101|211:114,1,42,0|0,3:0|0:0,0:0:0:0:
192,2,62461,101,0,1:0:0:0:
96,137,62637,2,0,P|106:160|107:179,1,42,0|0,3:0|0:0,0:0:0:0:
195,214,62814,101,0,1:0:0:0:
195,214,62849,1,8,3:1:0:0:
130,259,62955,38,0,P|122:277|117:297,1,28,0|0,3:0|0:0,0:0:0:0:
30,314,63096,101,0,1:0:0:0:
182,365,63237,1,0,3:0:0:0:
30,314,63379,2,0,P|69:310|133:283,1,98,0|0,1:2|0:0,0:0:0:0:
198,218,63732,101,0,1:0:0:0:
261,260,63873,1,0,3:0:0:0:
333,231,64014,1,0,1:0:0:0:
341,157,64155,1,0,3:0:0:0:
277,94,64261,69,8,3:1:0:0:
303,65,64332,2,0,P|335:58|372:44,1,70,0|0,1:0|0:0,0:0:0:0:
160,135,64649,2,0,P|128:142|103:153,1,56,0|0,1:0|0:0,0:0:0:0:
247,7,64932,53,0,1:0:0:0:
228,170,65108,1,0,3:0:0:0:
209,330,65285,1,0,1:0:0:0:
339,292,65461,38,0,P|358:279|374:274,1,28,0|0,3:0|0:0,0:0:0:0:
417,218,65602,1,0,1:0:0:0:
440,248,65673,1,8,3:1:0:0:
474,248,65743,1,0,3:0:0:0:
512,165,65885,53,0,1:0:0:0:
442,85,66026,5,0,1:0:0:0:
260,96,66202,102,0,P|308:115|375:121,1,112,0|0,1:0|0:0,0:0:0:0:
512,26,66555,5,0,1:0:0:0:
337,214,66732,1,0,3:0:0:0:
512,26,66908,1,0,1:0:0:0:
449,92,67049,69,0,3:0:0:0:
449,92,67085,2,0,P|442:111|441:123,1,28,8|0,3:1|0:0,0:0:0:0:
486,182,67190,2,0,P|494:198|504:238,1,56,0|0,1:0|0:0,0:0:0:0:
308,65,67508,2,0,P|314:37|333:-3,1,70,0|0,1:0|0:0,0:0:0:0:
449,92,67826,22,0,P|478:76|498:56,1,56,0|0,1:0|0:0,0:0:0:0:
245,216,68108,2,0,P|220:228|186:258,1,70,0|0,1:0|0:0,0:0:0:0:
356,145,68461,101,0,1:0:0:0:
356,145,68496,1,8,3:1:0:0:
383,219,68637,21,0,3:0:0:0:
315,256,68779,1,0,1:0:0:0:
483,179,68920,101,8,1:0:0:0:
217,64,69061,1,8,1:2:0:0:
477,98,69202,5,6,1:2:0:0:
401,84,69343,1,0,3:0:0:0:
360,149,69485,1,0,1:0:0:0:
245,216,69626,101,0,3:0:0:0:
169,218,69802,1,0,1:0:0:0:
151,147,69908,69,8,3:1:0:0:
160,129,69979,1,0,3:0:0:0:
278,109,70120,53,0,1:0:0:0:
71,217,70261,1,0,3:0:0:0:
311,252,70402,101,0,1:0:0:0:
75,84,70579,1,0,3:0:0:0:
205,324,70755,5,0,1:0:0:0:
167,29,70932,1,0,3:0:0:0:
194,139,71073,37,0,1:0:0:0:
176,152,71143,1,2,0:0:0:0:
170,171,71214,1,0,3:0:0:0:
201,244,71320,21,8,3:1:0:0:
201,244,71355,1,0,1:0:0:0:
111,287,71496,22,0,P|95:311|91:332,1,42,0|0,3:0|0:0,0:0:0:0:
209,328,71673,5,0,1:0:0:0:
79,185,71849,2,0,P|74:155|53:111,1,70,6|0,1:2|0:0,0:0:0:0:
167,29,72202,101,0,1:0:0:0:
245,12,72379,1,0,3:0:0:0:
281,79,72520,1,0,1:0:0:0:
342,135,72661,69,0,3:0:0:0:
362,136,72732,1,8,3:1:0:0:
381,120,72802,1,0,1:0:0:0:
471,95,72908,101,0,3:0:0:0:
476,112,72979,2,0,P|464:134|458:158,1,42,0|0,3:0|0:0,0:0:0:0:
338,235,73155,5,0,1:0:0:0:
422,290,73261,21,2,3:2:0:0:
422,290,73296,1,0,3:0:0:0:
276,302,73437,21,0,1:0:0:0:
485,223,73579,1,0,3:0:0:0:
265,183,73755,101,0,1:0:0:0:
502,345,73932,1,0,3:0:0:0:
386,132,74108,85,0,1:0:0:0:
386,132,74143,2,0,P|385:105|378:84,1,42,8|0,3:1|3:0,0:0:0:0:
512,0,74320,101,0,3:0:0:0:
483,19,74390,2,0,P|474:44|473:80,1,56,0|0,1:0|3:0,0:0:0:0:
356,372,74673,53,6,1:2:0:0:
226,126,75026,101,0,1:0:0:0:
148,120,75167,1,0,3:0:0:0:
116,188,75308,53,0,1:0:0:0:
129,216,75379,1,0,3:0:0:0:
158,226,75449,1,0,3:0:0:0:
226,274,75555,5,8,3:1:0:0:
202,303,75626,2,0,P|178:310|159:318,1,42,0|0,1:0|0:0,0:0:0:0:
291,224,75802,2,0,P|307:218|324:209,1,28,0|0,3:0|0:0,0:0:0:0:
368,320,75943,53,0,1:0:0:0:
162,222,76085,1,0,3:0:0:0:
368,320,76226,1,0,1:0:0:0:
105,364,76402,101,0,3:0:0:0:
412,185,76579,1,0,1:0:0:0:
255,384,76755,5,0,3:0:0:0:
204,329,76896,37,0,1:0:0:0:
205,288,76967,1,8,3:1:0:0:
235,264,77037,1,0,3:0:0:0:
309,191,77179,53,0,1:0:0:0:
220,99,77320,5,0,1:0:0:0:
405,17,77496,101,6,1:2:0:0:
111,197,77849,5,0,1:0:0:0:
43,160,78026,1,0,3:0:0:0:
51,84,78202,1,0,1:0:0:0:
166,37,78343,85,0,3:0:0:0:
166,37,78379,1,8,3:1:0:0:
216,95,78485,85,0,1:0:0:0:
258,103,78555,1,0,3:0:0:0:
292,73,78626,1,0,1:0:0:0:
369,6,78802,85,0,1:0:0:0:
438,36,78908,5,0,3:0:0:0:
425,64,78979,2,0,P|403:73|394:82,1,28,0|0,3:0|0:0,0:0:0:0:
270,0,79120,53,0,1:0:0:0:
403,166,79261,1,0,3:0:0:0:
505,69,79402,5,0,1:0:0:0:
262,107,79579,2,0,P|237:117|215:128,1,42,0|0,3:0|0:0,0:0:0:0:
138,95,79755,69,0,1:0:0:0:
138,95,79790,2,0,P|110:90|77:71,1,56,8|0,3:1|3:0,0:0:0:0:
267,3,80073,21,0,1:0:0:0:
257,194,80214,5,8,1:0:0:0:
249,384,80355,101,8,3:2:0:0:
185,232,80496,5,6,1:2:0:0:
111,215,80637,1,0,3:0:0:0:
67,279,80779,1,0,1:0:0:0:
116,360,80920,102,0,P|134:349|161:339,1,42,0|0,3:0|0:0,0:0:0:0:
327,246,81096,21,0,1:0:0:0:
355,317,81202,37,8,3:1:0:0:
310,325,81273,2,0,P|292:314|277:307,1,28,0|0,3:0|0:0,0:0:0:0:
126,108,81414,54,0,P|136:125|161:154,1,56,0|0,1:0|3:0,0:0:0:0:
320,372,81696,2,0,P|304:341|281:314,1,70,0|0,1:0|3:0,0:0:0:0:
70,282,82049,101,0,1:0:0:0:
371,160,82226,1,0,3:0:0:0:
184,225,82367,53,0,1:0:0:0:
225,221,82437,1,0,3:0:0:0:
252,242,82508,1,0,3:0:0:0:
204,330,82614,37,8,3:1:0:0:
204,330,82649,1,0,1:0:0:0:
243,144,82790,5,0,3:0:0:0:
399,302,82967,5,0,1:0:0:0:
42,149,83143,1,6,1:2:0:0:
332,11,83496,101,0,1:0:0:0:
409,4,83673,1,0,3:0:0:0:
442,75,83814,1,0,1:0:0:0:
375,149,83955,69,0,3:0:0:0:
338,158,84026,1,8,3:1:0:0:
319,198,84096,1,0,1:0:0:0:
402,299,84202,101,0,3:0:0:0:
435,277,84273,2,0,P|438:255|446:234,1,42,0|0,3:0|0:0,0:0:0:0:
340,69,84449,2,0,P|337:47|327:13,1,56,0|0,1:0|3:0,0:0:0:0:
505,172,84732,69,0,1:0:0:0:
257,112,84873,1,0,3:0:0:0:
512,44,85049,101,0,1:0:0:0:
247,234,85226,1,0,3:0:0:0:
386,144,85402,85,0,1:0:0:0:
386,144,85437,2,0,P|384:167|380:187,1,42,8|0,3:1|3:0,0:0:0:0:
394,320,85614,101,0,3:0:0:0:
432,306,85685,2,0,P|437:275|449:240,1,56,0|0,1:0|3:0,0:0:0:0:
427,0,85967,53,6,1:2:0:0:
191,168,86320,101,0,1:0:0:0:
115,168,86461,1,0,3:0:0:0:
90,95,86602,53,0,1:0:0:0:
104,60,86673,1,0,3:0:0:0:
138,49,86743,1,0,3:0:0:0:
253,0,86849,5,8,3:1:0:0:
267,40,86920,2,0,P|254:66|241:117,1,70,0|0,1:0|3:0,0:0:0:0:
271,232,87237,2,0,P|261:265|249:295,1,56,0|0,1:0|3:0,0:0:0:0:
368,92,87520,53,0,1:0:0:0:
140,238,87696,1,0,3:0:0:0:
393,211,87873,101,0,1:0:0:0:
131,94,88049,1,0,3:0:0:0:
273,10,88190,53,0,1:0:0:0:
249,44,88261,1,8,3:1:0:0:
247,84,88332,1,0,3:0:0:0:
309,151,88473,69,0,1:0:0:0:
191,210,88614,101,0,1:0:0:0:
369,384,88790,6,0,P|362:331|350:285,1,98,6|0,1:2|0:0,0:0:0:0:
187,213,89143,101,0,1:0:0:0:
128,164,89320,1,0,3:0:0:0:
152,91,89496,1,0,1:0:0:0:
254,90,89637,101,0,3:0:0:0:
254,90,89673,1,8,3:1:0:0:
296,156,89779,85,0,1:0:0:0:
339,140,89849,1,0,3:0:0:0:
354,93,89920,1,0,3:0:0:0:
265,237,90096,85,0,1:0:0:0:
296,306,90202,5,0,3:0:0:0:
270,319,90273,2,0,P|248:313|234:311,1,28,0|0,3:0|0:0,0:0:0:0:
182,252,90414,6,0,P|167:258|150:264,1,28,0|0,1:0|0:0,0:0:0:0:
106,318,90555,2,0,P|82:306|69:301,1,28,0|0,3:0|0:0,0:0:0:0:
27,247,90696,53,0,1:0:0:0:
372,328,90873,1,0,3:0:0:0:
40,381,91049,85,0,1:0:0:0:
40,381,91085,1,8,3:1:0:0:
349,218,91226,5,0,3:0:0:0:
223,384,91367,54,0,P|218:365|210:353,1,28,0|0,1:0|0:0,0:0:0:0:
159,291,91508,6,0,P|153:277|151:262,1,28,8|0,3:1|0:0,0:0:0:0:
139,138,91649,102,0,P|133:117|125:105,1,28,8|0,3:2|0:0,0:0:0:0:
2,0,91790,5,6,1:0:0:0:
48,75,91932,5,2,3:2:0:0:
48,75,91967,1,2,3:2:0:0:
120,25,92073,85,2,1:2:0:0:
154,22,92144,1,2,3:2:0:0:
175,38,92214,1,2,3:2:0:0:
255,77,92320,6,0,P|274:71|288:58,1,33.5999989746094,2|2,3:2|1:2,0:0:0:0:
241,181,92496,102,0,P|249:203|250:227,1,33.5999989746094,8|2,3:1|3:2,0:0:0:0:
356,171,92673,37,2,3:2:0:0:
356,171,92708,1,2,1:2:0:0:
351,256,92849,5,2,3:2:0:0:
440,262,92990,85,2,1:2:0:0:
440,262,93026,1,2,3:2:0:0:
460,341,93167,5,2,3:2:0:0:
460,341,93202,1,2,3:2:0:0:
348,298,93343,101,2,3:2:0:0:
348,298,93379,1,2,1:2:0:0:
380,158,93520,5,2,3:2:0:0:
380,158,93556,1,2,1:2:0:0:
157,207,93661,86,0,P|154:231|147:248,2,33.5999989746094,2|2|2,1:2|3:2|3:2,0:2:0:0:
146,61,93908,5,2,3:2:0:0:
146,61,93943,1,2,1:2:0:0:
6,4,94085,37,2,3:2:0:0:
288,208,94261,1,2,1:2:0:0:
6,4,94437,1,6,1:0:0:0:
40,293,94790,101,6,1:2:0:0:
58,220,94967,1,2,3:2:0:0:
137,208,95108,101,2,1:2:0:0:
137,208,95143,1,2,3:2:0:0:
206,267,95249,69,2,3:2:0:0:
258,266,95320,1,8,3:1:0:0:
291,228,95390,1,2,1:2:0:0:
265,152,95496,6,0,P|247:143|221:135,1,33.5999989746094,2|2,3:2|3:2,0:2:0:0:
213,67,95673,102,0,P|229:63|245:58,1,33.5999989746094,2|2,3:2|3:2,0:2:0:0:
293,0,95849,21,2,3:2:0:0:
293,0,95885,1,2,3:2:0:0:
341,166,96026,37,2,1:2:0:0:
155,121,96167,85,2,3:2:0:0:
155,121,96202,1,2,3:2:0:0:
390,61,96343,101,2,1:2:0:0:
390,61,96379,1,2,3:2:0:0:
232,223,96519,5,2,3:2:0:0:
232,223,96555,1,2,3:2:0:0:
155,0,96696,101,2,1:2:0:0:
155,0,96732,1,8,3:1:0:0:
251,105,96837,102,0,P|273:94|282:81,2,33.5999989746094,2|2|2,3:2|3:2|1:2,0:0:0:0:
147,211,97085,21,2,3:2:0:0:
147,211,97120,1,2,3:2:0:0:
255,384,97261,5,6,1:0:0:0:
479,247,97614,5,6,1:2:0:0:
397,229,97755,69,2,3:2:0:0:
397,229,97790,1,2,3:2:0:0:
420,144,97896,85,2,1:2:0:0:
410,101,97967,1,2,3:2:0:0:
374,85,98037,1,2,3:2:0:0:
282,33,98143,6,0,P|262:40|244:42,1,33.5999989746094,8|2,3:1|1:2,0:0:0:0:
285,131,98320,102,0,P|308:139|324:152,1,33.5999989746094,2|2,3:2|3:2,0:0:0:0:
298,236,98496,37,2,3:2:0:0:
298,236,98532,1,2,1:2:0:0:
499,163,98673,5,2,3:2:0:0:
361,8,98814,85,2,1:2:0:0:
361,8,98849,1,2,3:2:0:0:
435,277,98990,5,2,3:2:0:0:
435,277,99026,1,2,3:2:0:0:
244,111,99167,101,2,1:2:0:0:
244,111,99203,1,2,3:2:0:0:
495,33,99344,5,2,3:2:0:0:
495,33,99379,1,2,3:2:0:0:
372,98,99485,86,0,P|351:92|340:83,2,33.5999989746094,2|8|2,1:2|3:1|3:2,0:0:0:0:
423,193,99732,5,2,3:2:0:0:
423,193,99767,1,2,1:2:0:0:
330,305,99908,37,2,1:2:0:0:
512,384,100085,101,6,1:0:0:0:
248,115,100437,5,6,1:2:0:0:
174,137,100614,1,2,3:2:0:0:
158,211,100790,1,2,1:2:0:0:
219,280,100932,85,2,3:2:0:0:
219,280,100967,1,8,3:1:0:0:
181,357,101073,69,2,1:2:0:0:
133,365,101143,1,2,3:2:0:0:
99,331,101214,1,2,3:2:0:0:
238,199,101320,6,0,P|256:195|270:189,1,33.5999989746094,2|2,3:2|1:2,0:0:0:0:
344,277,101496,102,0,P|328:268|311:262,1,33.5999989746094,2|2,3:2|3:2,0:0:0:0:
350,137,101673,21,2,3:2:0:0:
350,137,101708,1,2,1:2:0:0:
269,342,101849,37,2,3:2:0:0:
109,199,101990,85,0,1:2:0:0:
109,199,102026,1,2,3:2:0:0:
389,266,102167,101,2,3:2:0:0:
389,266,102202,1,2,3:2:0:0:
136,336,102343,5,2,1:2:0:0:
136,336,102378,1,8,3:1:0:0:
208,92,102520,101,2,3:2:0:0:
208,92,102555,1,2,3:2:0:0:
283,163,102661,102,0,P|272:192|269:209,1,33.5999989746094,2|2,1:2|3:2,0:0:0:0:
211,241,102802,2,0,P|217:266|218:278,1,33.5999989746094,8|0,3:2|0:0,0:0:0:0:
266,339,102908,5,2,3:2:0:0:
266,339,102943,2,0,P|260:364|259:376,1,33.5999989746094,8|0,3:2|0:0,0:0:0:0:
263,18,103085,85,6,1:0:0:0:
333,85,103226,37,2,3:2:0:0:
333,85,103261,2,0,P|356:73|365:64,1,33.5999989746094,2|0,3:2|0:0,0:0:0:0:
430,21,103367,85,2,1:2:0:0:
459,32,103437,1,2,3:2:0:0:
471,64,103508,1,2,3:2:0:0:
425,133,103614,102,0,P|402:138|382:146,1,33.5999989746094,2|2,3:2|1:2,0:0:0:0:
472,203,103790,6,0,P|491:207|505:215,1,33.5999989746094,8|2,3:1|3:2,0:0:0:0:
386,245,103967,5,2,3:2:0:0:
386,245,104002,2,0,P|370:260|363:272,1,33.5999989746094,2|0,1:2|0:0,0:0:0:0:
263,295,104143,86,0,P|258:273|251:261,1,33.5999989746094,2|0,3:2|0:0,0:0:0:0:
285,164,104285,37,2,1:2:0:0:
285,164,104320,2,0,P|305:170|319:170,1,33.5999989746094,2|0,3:2|0:0,0:0:0:0:
334,345,104461,101,2,3:2:0:0:
334,345,104496,1,2,3:2:0:0:
400,162,104637,5,2,1:2:0:0:
400,162,104673,1,2,3:2:0:0:
204,196,104814,101,2,3:2:0:0:
204,196,104849,1,2,3:2:0:0:
333,91,104955,102,0,P|339:77|341:57,2,33.5999989746094,2|2|2,1:2|3:2|3:2,0:0:0:0:
11,141,105202,21,8,3:1:0:0:
11,141,105237,1,2,1:2:0:0:
257,188,105379,5,2,3:2:0:0:
501,234,105555,5,2,1:2:0:0:
264,32,105732,102,0,P|261:15|255:-2,1,33.5999989746094,6|0,1:0|0:0,0:0:0:0:
56,224,106085,54,0,P|77:228|101:249,1,50.3999984619141,6|0,1:2|0:0,0:0:0:0:
175,228,106261,2,0,P|189:248|192:268,1,33.5999989746094,2|0,3:2|0:0,0:0:0:0:
161,333,106402,21,2,1:2:0:0:
161,333,106437,1,2,3:2:0:0:
223,384,106543,101,2,3:2:0:0:
263,373,106614,1,8,3:1:0:0:
274,338,106685,1,2,1:2:0:0:
195,260,106790,102,0,P|208:236|218:226,1,33.5999989746094,2|2,3:2|3:2,0:0:0:0:
316,142,106967,6,0,P|302:123|286:111,1,33.5999989746094,2|2,3:2|1:2,0:0:0:0:
240,6,107143,21,0,3:2:0:0:
240,6,107179,2,0,P|231:32|230:51,1,33.5999989746094,2|0,3:2|0:0,0:0:0:0:
288,115,107320,70,0,P|295:139|298:157,1,33.5999989746094,2|0,1:2|0:0,0:0:0:0:
226,218,107461,21,2,3:2:0:0:
226,218,107496,2,0,P|219:242|216:260,1,33.5999989746094,2|0,3:2|0:0,0:0:0:0:
340,281,107637,5,2,1:2:0:0:
340,281,107673,2,0,P|347:305|350:323,1,33.5999989746094,2|0,3:2|0:0,0:0:0:0:
271,381,107814,101,2,3:2:0:0:
271,381,107849,1,2,3:2:0:0:
372,198,107990,5,2,1:2:0:0:
372,198,108026,2,0,P|390:189|408:175,1,33.5999989746094,8|0,3:1|0:0,0:0:0:0:
482,172,108132,86,0,P|502:183|512:194,2,33.5999989746094,2|2|2,3:2|3:2|1:2,0:0:0:0:
437,103,108379,5,2,3:2:0:0:
437,103,108414,1,2,3:2:0:0:
352,317,108555,38,0,P|350:330|348:355,1,33.5999989746094,6|0,1:0|0:0,0:0:0:0:
262,12,108908,38,0,P|272:34|275:52,1,33.5999989746094,6|0,1:2|0:0,0:0:0:0:
321,109,109049,37,2,3:2:0:0:
321,109,109085,2,0,P|308:135|306:152,1,33.5999989746094,2|0,3:2|0:0,0:0:0:0:
235,177,109190,85,2,1:2:0:0:
194,159,109261,1,2,3:2:0:0:
187,114,109332,1,2,3:2:0:0:
350,29,109437,102,0,P|373:24|388:15,1,33.5999989746094,8|2,3:1|1:2,0:0:0:0:
429,95,109614,6,0,P|450:100|466:109,1,33.5999989746094,2|2,3:2|3:2,0:0:0:0:
512,35,109790,5,2,3:2:0:0:
512,35,109826,1,2,1:2:0:0:
386,169,109967,21,2,3:2:0:0:
271,19,110108,101,2,1:2:0:0:
271,19,110143,1,2,3:2:0:0:
474,122,110285,101,2,3:2:0:0:
474,122,110320,2,0,P|449:111|433:98,1,33.5999989746094,2|0,3:2|0:0,0:0:0:0:
394,176,110461,5,2,1:2:0:0:
394,176,110496,2,0,P|369:187|353:200,1,33.5999989746094,2|0,3:2|0:0,0:0:0:0:
305,38,110637,101,2,3:2:0:0:
305,38,110672,2,0,P|280:27|264:14,1,33.5999989746094,2|0,3:2|0:0,0:0:0:0:
190,50,110779,86,0,P|175:65|168:81,2,33.5999989746094,2|8|2,1:2|3:1|3:2,0:0:0:0:
262,157,111026,37,2,3:2:0:0:
262,157,111061,2,0,P|270:178|273:195,1,33.5999989746094,2|0,1:2|0:0,0:0:0:0:
174,285,111202,86,0,P|180:260|193:239,1,50.3999984619141,2|0,1:2|0:0,0:0:0:0:
394,32,111379,54,0,P|398:20|399:-5,1,33.5999989746094,6|0,1:0|0:0,0:0:0:0:
499,384,111732,38,0,P|470:372|451:349,1,50.3999984619141,6|0,1:2|0:0,0:0:0:0:
380,352,111908,2,0,P|377:334|379:317,1,33.5999989746094,2|0,3:2|0:0,0:0:0:0:
481,272,112085,86,0,P|472:244|454:221,1,50.3999984619141,2|0,1:2|0:0,0:0:0:0:
383,214,112226,53,2,3:2:0:0:
383,214,112261,1,8,3:1:0:0:
329,149,112367,101,2,1:2:0:0:
325,109,112437,1,2,3:2:0:0:
347,83,112508,1,2,3:2:0:0:
431,97,112614,102,0,P|442:117|445:137,1,33.5999989746094,2|2,3:2|1:2,0:0:0:0:
301,226,112790,6,0,P|293:248|291:268,1,33.5999989746094,2|2,3:2|3:2,0:0:0:0:
412,376,112967,21,2,3:2:0:0:
412,376,113002,1,2,1:2:0:0:
386,217,113143,5,2,3:2:0:0:
363,54,113285,85,2,1:2:0:0:
363,54,113320,1,2,3:2:0:0:
483,220,113461,5,2,3:2:0:0:
483,220,113496,2,0,P|468:231|458:250,1,33.5999989746094,2|0,3:2|0:0,0:0:0:0:
332,355,113637,101,2,1:2:0:0:
332,355,113672,2,0,P|320:340|302:330,1,33.5999989746094,8|0,3:1|0:0,0:0:0:0:
219,231,113814,5,2,3:2:0:0:
219,231,113849,1,2,3:2:0:0:
90,316,113955,70,0,P|81:333|77:352,2,33.5999989746094,2|2|8,1:2|3:2|1:0,0:0:0:0:
0,150,114202,21,10,3:2:0:0:
0,150,114238,1,2,3:2:0:0:
26,245,114379,102,0,P|58:233|73:217,1,42.0000016021729,6|0,1:0|0:0,0:0:0:0:
70,52,114520,21,2,3:2:0:0:
70,52,114555,2,0,P|56:77|55:98,1,42.0000016021729,2|0,3:2|0:0,0:0:0:0:
110,148,114661,69,2,1:2:0:0:
147,120,114732,1,8,3:1:0:0:
190,138,114802,2,0,P|202:152|228:163,1,42.0000016021729,2|0,3:2|0:0,0:0:0:0:
310,200,114908,5,2,3:2:0:0:
288,231,114979,1,2,1:2:0:0:
195,299,115085,102,0,P|186:277|174:259,1,42.0000016021729,2|2,3:2|3:2,0:0:0:0:
42,341,115261,21,2,3:2:0:0:
42,341,115296,2,0,P|76:344|98:353,1,42.0000016021729,2|0,1:2|0:0,0:0:0:0:
421,315,115437,102,0,P|387:318|363:325,1,42.0000016021729,8|0,1:0|0:0,0:0:0:0:
240,384,115579,21,2,3:2:0:0:
240,384,115614,1,2,1:2:0:0:
275,0,115755,101,2,3:2:0:0:
275,0,115790,1,2,3:2:0:0:
280,315,115932,5,2,3:2:0:0:
280,315,115967,1,2,1:2:0:0:
243,72,116108,101,2,3:2:0:0:
243,72,116143,1,8,3:1:0:0:
278,147,116249,86,0,P|266:172|261:199,2,42.0000016021729,2|2|2,1:2|3:2|3:2,0:0:0:0:
182,254,116496,37,2,3:2:0:0:
182,254,116532,2,0,P|147:243|135:230,1,42.0000016021729,2|0,1:2|0:0,0:0:0:0:
368,110,116673,86,0,P|328:118|297:136,1,63.0000024032594,2|0,3:2|0:0,0:0:0:0:
11,178,116849,101,8,1:0:0:0:
512,202,117026,69,6,1:0:0:0:
240,384,117379,6,0,P|245:353|256:336,1,42.0000016021729,6|0,1:2|0:0,0:0:0:0:
322,144,117555,2,0,P|334:173|335:205,1,63.0000024032594,8|0,1:0|0:0,0:0:0:0:
421,251,117696,53,2,1:2:0:0:
421,251,117732,2,0,P|394:260|377:272,1,42.0000016021729,2|0,3:2|0:0,0:0:0:0:
306,278,117837,101,2,3:2:0:0:
267,262,117908,1,2,3:2:0:0:
256,220,117979,1,2,1:2:0:0:
328,141,118085,102,0,P|344:124|356:103,1,42.0000016021729,2|2,3:2|3:2,0:0:0:0:
475,17,118261,5,8,3:2:0:0:
500,50,118332,2,0,P|492:78|487:117,1,63.0000024032594,2|2,1:2|3:2,0:0:0:0:
487,111,118473,1,2,3:2:0:0:
417,247,118614,102,0,P|413:222|405:199,1,42.0000016021729,2|0,1:2|0:0,0:0:0:0:
296,59,118755,37,2,3:2:0:0:
296,59,118790,2,0,P|299:33|307:12,1,42.0000016021729,2|0,3:2|0:0,0:0:0:0:
181,190,118932,101,2,3:2:0:0:
181,190,118967,2,0,P|178:164|170:143,1,42.0000016021729,8|0,1:0|0:0,0:0:0:0:
123,78,119108,5,2,3:2:0:0:
123,78,119143,2,0,P|126:52|134:31,1,42.0000016021729,2|0,3:2|0:0,0:0:0:0:
46,118,119285,101,2,1:2:0:0:
46,118,119320,1,2,3:2:0:0:
106,247,119426,102,0,P|130:255|145:269,2,42.0000016021729,2|2|2,3:2|3:2|1:2,0:0:0:0:
0,187,119637,21,2,3:2:0:0:
0,187,119673,1,8,1:2:0:0:
512,202,119849,5,6,1:0:0:0:
312,24,120202,54,0,P|304:43|299:77,1,42.0000016021729,6|0,1:2|0:0,0:0:0:0:
240,114,120343,21,2,1:2:0:0:
240,114,120379,2,0,P|251:143|253:163,1,42.0000016021729,8|0,3:2|0:0,0:0:0:0:
326,219,120485,101,2,1:2:0:0:
301,262,120555,1,2,3:2:0:0:
254,268,120626,1,2,3:2:0:0:
174,221,120732,102,0,P|150:239|139:257,1,42.0000016021729,2|2,3:2|1:2,0:0:0:0:
1,261,120908,5,2,3:2:0:0:
31,285,120979,2,0,P|40:316|42:336,1,42.0000016021729,2|0,3:2|0:0,0:0:0:0:
113,377,121085,21,2,1:2:0:0:
113,377,121120,2,0,P|117:351|126:332,1,42.0000016021729,8|0,3:2|0:0,0:0:0:0:
170,217,121261,2,0,P|166:191|157:172,1,42.0000016021729,2|0,3:2|0:0,0:0:0:0:
201,299,121402,70,0,P|227:281|257:271,1,63.0000024032594,2|0,1:2|0:0,0:0:0:0:
301,209,121579,21,2,3:2:0:0:
301,209,121614,2,0,P|326:225|348:231,1,42.0000016021729,2|0,3:2|0:0,0:0:0:0:
368,303,121755,5,2,1:2:0:0:
368,303,121790,2,0,P|345:326|320:328,1,42.0000016021729,10|0,3:2|0:0,0:0:0:0:
82,220,121932,101,2,3:2:0:0:
82,220,121967,2,0,P|79:193|83:175,1,42.0000016021729,2|0,3:2|0:0,0:0:0:0:
118,107,122073,102,0,P|141:99|161:82,2,42.0000016021729,2|2|2,1:2|3:2|3:2,0:2:0:0:
70,0,122320,21,2,3:2:0:0:
70,0,122355,1,2,1:2:0:0:
191,382,122496,21,8,1:0:0:0:
512,202,122673,101,6,1:0:0:0:
137,288,123026,54,0,P|147:264|175:235,1,63.0000024032594,6|0,1:2|0:0,0:0:0:0:
209,143,123202,2,0,P|240:139|272:121,1,63.0000024032594,8|0,1:0|0:0,0:0:0:0:
312,221,123379,5,2,1:2:0:0:
96,165,123520,5,2,3:2:0:0:
96,165,123555,1,2,3:2:0:0:
386,142,123661,86,0,P|408:128|435:119,2,42.0000016021729,2|2|2,1:2|3:2|3:2,0:0:0:0:
273,0,123908,5,10,3:2:0:0:
293,28,123979,1,0,1:2:0:0:
271,128,124085,102,0,P|260:147|253:167,1,42.0000016021729,2|2,3:2|3:2,0:0:0:0:
330,358,124261,37,2,3:2:0:0:
330,358,124296,2,0,P|351:347|376:340,1,42.0000016021729,2|0,1:2|0:0,0:0:0:0:
484,289,124437,86,0,P|455:282|436:270,1,42.0000016021729,2|0,3:2|0:0,0:0:0:0:
394,149,124579,5,2,1:2:0:0:
394,149,124614,1,8,3:1:0:0:
251,264,124755,5,2,3:2:0:0:
251,264,124790,1,2,3:2:0:0:
199,34,124932,101,2,1:2:0:0:
199,34,124967,1,2,3:2:0:0:
38,258,125108,5,2,3:2:0:0:
38,258,125143,1,2,3:2:0:0:
46,166,125249,70,0,P|38:142|26:124,2,42.0000016021729,2|8|8,1:2|3:1|1:0,0:0:0:0:
142,166,125497,21,2,1:2:0:0:
142,166,125532,2,0,P|171:158|189:142,1,42.0000016021729,8|0,3:1|0:0,0:0:0:0:
293,25,125673,102,0,P|285:49|281:76,1,42.0000016021729,6|0,1:0|0:0,0:0:0:0:
310,161,125814,21,2,3:2:0:0:
310,161,125849,2,0,P|318:185|322:212,1,42.0000016021729,2|0,3:2|0:0,0:0:0:0:
269,264,125955,69,2,1:2:0:0:
231,254,126026,1,2,3:2:0:0:
218,223,126096,1,2,3:2:0:0:
447,95,126202,5,2,3:2:0:0:
412,64,126273,2,0,P|386:69|351:96,1,63.0000024032594,2|8,1:2|3:1,0:0:0:0:
177,148,126449,2,0,P|152:138|139:124,1,42.0000016021729,2|0,3:2|0:0,0:0:0:0:
155,52,126555,5,2,3:2:0:0:
155,52,126590,1,2,1:2:0:0:
397,158,126732,21,2,3:2:0:0:
134,287,126873,101,2,1:2:0:0:
134,287,126908,2,0,P|129:256|116:233,1,42.0000016021729,2|0,3:2|0:0,0:0:0:0:
274,111,127049,101,2,3:2:0:0:
274,111,127085,2,0,P|264:129|260:150,1,42.0000016021729,2|0,3:2|0:0,0:0:0:0:
368,338,127226,5,2,1:2:0:0:
368,338,127261,2,0,P|363:307|350:284,1,42.0000016021729,2|0,3:2|0:0,0:0:0:0:
487,72,127402,101,2,3:2:0:0:
487,72,127437,2,0,P|477:90|473:111,1,42.0000016021729,2|0,3:2|0:0,0:0:0:0:
431,182,127543,86,0,P|411:168|399:151,2,42.0000016021729,2|2|2,1:2|3:2|3:2,0:0:0:0:
493,281,127791,37,8,3:1:0:0:
493,281,127826,2,0,P|467:291|448:306,1,42.0000016021729,2|0,1:2|0:0,0:0:0:0:
217,310,127967,86,0,P|221:289|220:268,1,42.0000016021729,2|0,3:2|0:0,0:0:0:0:
329,55,128143,86,0,P|344:68|363:78,1,42.0000016021729,2|0,1:2|0:0,0:0:0:0:
0,186,128320,85,6,1:0:0:0:
284,384,128673,6,0,P|285:363|293:336,1,42.0000016021729,6|0,1:2|0:0,0:0:0:0:
343,263,128849,2,0,P|340:231|334:212,1,42.0000016021729,2|0,3:2|0:0,0:0:0:0:
451,380,128990,53,2,1:2:0:0:
451,380,129026,1,2,3:2:0:0:
268,270,129132,85,2,3:2:0:0:
239,249,129202,1,8,3:1:0:0:
236,219,129273,2,0,P|242:185|259:153,1,63.0000024032594,2|2,1:2|3:2,0:0:0:0:
327,94,129449,2,0,P|321:60|304:28,1,63.0000024032594,2|2,3:2|3:2,0:0:0:0:
230,0,129626,5,2,1:2:0:0:
403,175,129732,21,2,3:2:0:0:
403,175,129767,1,2,3:2:0:0:
152,240,129908,70,0,P|143:272|141:300,1,42.0000016021729,2|0,1:2|0:0,0:0:0:0:
99,94,130050,21,2,3:2:0:0:
99,94,130085,1,2,3:2:0:0:
328,300,130226,5,2,1:2:0:0:
328,300,130261,1,2,3:2:0:0:
407,38,130402,101,2,3:2:0:0:
407,38,130437,1,2,3:2:0:0:
271,167,130579,5,2,1:2:0:0:
271,167,130614,1,8,3:1:0:0:
433,279,130720,86,0,P|450:298|460:321,2,42.0000016021729,2|2|2,3:2|3:2|1:2,0:0:0:0:
332,66,130967,5,2,3:2:0:0:
332,66,131002,1,2,3:2:0:0:
0,186,131143,21,6,1:0:0:0:
410,153,131496,54,0,P|383:143|363:132,1,42.0000016021729,6|0,1:2|0:0,0:0:0:0:
279,174,131637,37,2,3:2:0:0:
279,174,131673,2,0,P|252:179|235:187,1,42.0000016021729,2|0,3:2|0:0,0:0:0:0:
156,159,131779,85,2,1:2:0:0:
116,128,131849,1,2,3:2:0:0:
119,77,131920,1,2,3:2:0:0:
222,72,132026,101,10,3:2:0:0:
255,65,132096,1,2,1:2:0:0:
183,250,132202,6,0,P|161:241|132:239,1,42.0000016021729,2|2,3:2|3:2,0:0:0:0:
106,365,132379,5,2,3:2:0:0:
106,365,132414,2,0,P|102:338|93:315,1,42.0000016021729,2|0,1:2|0:0,0:0:0:0:
342,253,132555,86,0,P|346:226|355:203,1,42.0000016021729,2|0,3:2|0:0,0:0:0:0:
165,0,132696,5,2,1:2:0:0:
262,72,132873,21,2,3:2:0:0:
262,72,132908,2,0,P|299:63|316:56,1,42.0000016021729,2|0,3:2|0:0,0:0:0:0:
153,160,133049,101,2,1:2:0:0:
153,160,133084,2,0,P|116:151|99:144,1,42.0000016021729,2|0,3:2|0:0,0:0:0:0:
305,267,133226,5,2,3:2:0:0:
305,267,133261,2,0,P|342:258|359:251,1,42.0000016021729,2|0,3:2|0:0,0:0:0:0:
433,301,133367,70,0,P|434:320|430:343,2,42.0000016021729,2|8|2,1:2|3:1|3:2,0:0:0:0:
512,203,133614,21,2,3:2:0:0:
512,203,133649,1,2,1:2:0:0:
256,194,133790,37,2,1:2:0:0:
0,186,133967,101,6,1:0:0:0:
379,10,134320,38,0,P|370:35|370:52,1,42.0000016021729,6|0,1:2|0:0,0:0:0:0:
435,127,134496,2,0,P|442:155|443:173,1,42.0000016021729,2|0,3:2|0:0,0:0:0:0:
246,122,134673,101,2,1:2:0:0:
492,31,134814,69,2,3:2:0:0:
492,31,134849,2,0,P|465:46|447:54,1,42.0000016021729,8|0,3:1|0:0,0:0:0:0:
365,53,134955,85,2,1:2:0:0:
324,19,135026,1,2,3:2:0:0:
276,29,135096,1,2,3:2:0:0:
250,118,135202,101,2,3:2:0:0:
209,136,135273,1,2,1:2:0:0:
239,227,135379,6,0,P|267:235|286:246,1,42.0000016021729,2|2,3:2|3:2,0:0:0:0:
145,327,135555,5,2,3:2:0:0:
145,327,135590,2,0,P|137:300|128:280,1,42.0000016021729,2|0,1:2|0:0,0:0:0:0:
335,175,135732,86,0,P|343:148|352:128,1,42.0000016021729,2|0,3:2|0:0,0:0:0:0:
153,0,135873,37,2,1:2:0:0:
153,0,135908,1,2,3:2:0:0:
278,344,136049,101,2,3:2:0:0:
278,344,136084,1,2,3:2:0:0:
42,64,136226,5,2,1:2:0:0:
42,64,136261,1,8,3:1:0:0:
358,272,136402,101,2,3:2:0:0:
358,272,136437,1,2,3:2:0:0:
44,160,136543,102,0,P|24:172|3:192,2,42.0000016021729,2|2|8,1:2|3:2|1:0,0:0:0:0:
275,0,136790,21,2,3:2:0:0:
275,0,136826,2,0,P|263:31|258:56,1,42.0000016021729,8|0,3:1|0:0,0:0:0:0:
176,342,136967,6,0,P|171:301|164:276,1,56,6|0,1:0|0:0,0:0:0:0:
240,188,137249,2,0,P|231:152|225:110,1,70,0|0,1:0|0:0,0:0:0:0:
181,58,137496,69,0,3:0:0:0:
155,85,137567,1,0,1:0:0:0:
101,141,137673,70,0,P|80:130|65:113,1,42,8|0,3:1|0:0,0:0:0:0:
111,229,137849,69,0,3:0:0:0:
111,229,137885,2,0,P|135:213|167:204,1,56,0|0,1:0|0:0,0:0:0:0:
327,103,138167,2,0,P|361:118|388:121,1,56,0|0,1:0|0:0,0:0:0:0:
139,13,138520,22,0,P|158:29|179:57,1,56,0|0,1:0|0:0,0:0:0:0:
296,280,138837,2,0,P|312:302|334:320,1,56,0|0,1:0|0:0,0:0:0:0:
237,172,139085,69,8,3:1:0:0:
237,172,139120,2,0,P|239:148|247:116,1,56,0|0,1:0|0:0,0:0:0:0:
267,384,139437,21,0,1:0:0:0:
245,0,139614,5,6,1:2:0:0:
512,211,139967,102,0,P|473:203|442:190,1,70,0|0,1:0|0:0,0:0:0:0:
293,277,140285,2,0,P|260:264|234:258,1,56,0|0,1:0|0:0,0:0:0:0:
184,203,140496,53,8,3:1:0:0:
157,234,140567,2,0,P|163:261|165:284,1,42,0|0,1:0|0:0,0:0:0:0:
214,333,140743,1,0,3:0:0:0:
327,139,140920,38,0,P|322:111|315:93,1,42,0|0,1:0|0:0,0:0:0:0:
317,98,141061,1,0,3:0:0:0:
407,314,141202,2,0,P|412:342|423:372,1,56,0|0,1:0|0:0,0:0:0:0:
421,367,141379,1,0,3:0:0:0:
512,211,141520,6,0,P|482:199|434:190,1,70,0|0,1:0|0:0,0:0:0:0:
236,255,141873,85,0,1:0:0:0:
236,255,141908,2,0,P|201:247|185:241,1,42,8|0,3:1|0:0,0:0:0:0:
144,304,142085,101,0,3:0:0:0:
118,274,142155,2,0,P|117:239|109:209,1,56,0|0,1:0|0:0,0:0:0:0:
245,0,142437,53,6,1:2:0:0:
512,74,142790,101,0,1:0:0:0:
448,117,142932,2,0,P|430:106|421:93,1,28,0|0,3:0|0:0,0:0:0:0:
351,73,143073,53,0,1:2:0:0:
313,79,143143,1,0,3:0:0:0:
298,115,143214,1,0,3:0:0:0:
351,182,143320,5,8,3:1:0:0:
367,216,143390,2,0,P|354:244|347:286,1,70,0|0,1:0|0:0,0:0:0:0:
168,100,143708,2,0,P|178:73|185:41,1,56,0|0,1:0|0:0,0:0:0:0:
97,277,143990,54,0,P|119:267|165:255,1,70,0|0,1:0|0:0,0:0:0:0:
355,77,144343,2,0,P|389:68|421:55,1,70,0|0,1:0|0:0,0:0:0:0:
253,173,144661,37,2,1:2:0:0:
269,209,144732,2,0,P|259:235|254:258,1,42,8|0,3:1|0:0,0:0:0:0:
301,384,144908,37,0,3:0:0:0:
301,384,144943,1,0,1:0:0:0:
273,205,145085,5,0,1:0:0:0:
245,0,145261,5,6,1:2:0:0:
112,227,145614,102,0,P|80:209|45:200,1,70,0|0,1:0|0:0,0:0:0:0:
367,176,145967,2,0,P|399:194|414:199,1,42,0|0,1:0|0:0,0:0:0:0:
278,312,146143,37,8,3:1:0:0:
231,249,146249,21,0,1:0:0:0:
268,235,146320,2,0,P|276:214|278:200,1,28,0|0,3:0|0:0,0:0:0:0:
181,79,146567,2,0,P|173:58|168:33,1,42,0|0,1:0|0:0,0:0:0:0:
168,38,146743,1,0,3:0:0:0:
330,84,146885,101,0,1:2:0:0:
354,60,146955,1,0,3:0:0:0:
385,52,147026,1,0,3:0:0:0:
168,191,147167,6,0,P|140:208|114:220,1,56,0|0,1:0|0:0,0:0:0:0:
119,217,147379,1,0,3:0:0:0:
361,188,147520,5,0,1:0:0:0:
361,188,147555,2,0,P|380:190|430:213,1,70,8|0,3:1|0:0,0:0:0:0:
273,161,147837,86,0,P|257:158|235:149,1,28,0|0,1:0|0:0,0:0:0:0:
436,118,147979,2,0,P|451:112|483:107,1,42,0|0,1:0|0:0,0:0:0:0:
385,341,148261,70,0,P|382:308|375:281,1,56,6|0,1:2|3:0,0:0:0:0:
280,0,148543,2,0,P|282:27|288:55,1,56,0|0,1:2|3:0,0:0:0:0:
243,158,148790,53,0,3:0:0:0:
207,175,148861,1,0,1:0:0:0:
146,113,148967,101,8,3:1:0:0:
116,97,149037,2,0,P|89:105|83:110,1,28,0|0,3:0|0:0,0:0:0:0:
41,175,149143,37,0,3:0:0:0:
41,175,149179,2,0,P|53:206|57:238,1,56,0|0,1:0|3:0,0:0:0:0:
22,66,149461,2,0,P|10:35|2:-6,1,70,0|0,1:0|3:0,0:0:0:0:
280,0,149814,6,0,P|265:31|237:65,1,70,0|0,1:0|3:0,0:0:0:0:
49,307,150132,2,0,P|27:334|18:353,1,56,0|0,1:0|3:0,0:0:0:0:
142,195,150379,85,8,3:1:0:0:
142,195,150414,2,0,P|160:192|174:186,1,28,0|0,1:0|0:0,0:0:0:0:
298,115,150555,102,0,P|320:115|340:121,1,42,0|0,3:0|0:0,0:0:0:0:
402,182,150732,101,0,1:0:0:0:
0,198,150908,5,6,1:2:0:0:
31,208,150979,1,0,3:0:0:0:
352,384,151261,54,0,P|366:351|390:318,1,70,0|0,1:0|3:0,0:0:0:0:
342,124,151579,2,0,P|352:106|366:74,1,56,0|0,1:0|3:0,0:0:0:0:
424,16,151790,37,8,3:1:0:0:
461,5,151861,1,0,1:0:0:0:
511,97,151967,5,0,3:0:0:0:
486,88,152037,1,0,3:0:0:0:
255,289,152214,38,0,P|232:295|197:312,1,56,0|0,1:0|3:0,0:0:0:0:
402,182,152496,2,0,P|425:176|460:159,1,56,0|0,1:0|3:0,0:0:0:0:
192,172,152814,6,0,P|169:166|126:147,1,70,0|0,1:0|3:0,0:0:0:0:
454,278,153167,85,0,1:0:0:0:
454,278,153202,2,0,P|477:284|502:299,1,42,8|0,3:1|3:0,0:0:0:0:
308,129,153449,5,0,1:0:0:0:
163,252,153590,5,0,3:0:0:0:
0,198,153732,37,6,1:2:0:0:
22,191,153802,1,0,3:0:0:0:
395,28,154085,54,0,P|384:52|376:83,1,56,0|0,1:0|3:0,0:0:0:0:
247,238,154367,69,0,1:0:0:0:
264,270,154437,1,0,3:0:0:0:
273,311,154508,1,0,3:0:0:0:
332,384,154614,101,8,3:1:0:0:
370,361,154685,2,0,P|374:340|385:314,1,42,0|0,1:0|3:0,0:0:0:0:
347,252,154861,1,0,3:0:0:0:
208,354,155002,70,0,P|188:357|155:372,1,56,0|0,1:0|3:0,0:0:0:0:
412,199,155285,2,0,P|432:196|479:177,1,70,0|0,1:0|3:0,0:0:0:0:
244,235,155637,102,0,P|209:227|176:213,1,70,0|0,1:0|3:0,0:0:0:0:
381,320,155955,69,0,1:0:0:0:
428,307,156026,2,0,P|447:312|462:320,1,28,8|0,3:1|3:0,0:0:0:0:
212,358,156237,53,0,1:0:0:0:
265,128,156379,101,0,1:0:0:0:
0,198,156555,53,6,1:2:0:0:
40,203,156626,1,0,3:0:0:0:
497,87,156908,70,0,P|474:98|431:111,1,70,0|0,1:0|3:0,0:0:0:0:
253,337,157261,2,0,P|233:345|214:354,1,42,0|0,1:0|3:0,0:0:0:0:
306,276,157437,5,8,3:1:0:0:
333,313,157543,2,0,P|350:321|364:322,2,28,0|0|0,1:0|3:0|3:0,0:0:0:0:
223,242,157861,5,0,1:0:0:0:
266,177,157967,21,0,3:0:0:0:
228,165,158037,2,0,P|216:147|214:138,1,28,0|0,3:0|0:0,0:0:0:0:
128,260,158179,38,0,P|139:235|147:203,1,56,0|0,1:0|3:0,0:0:0:0:
328,29,158461,2,0,P|314:61|304:97,1,70,0|0,1:0|3:0,0:0:0:0:
142,68,158814,85,0,1:0:0:0:
142,68,158849,2,0,P|120:60|85:34,1,56,8|0,3:1|3:0,0:0:0:0:
344,163,159132,37,0,1:0:0:0:
415,192,159273,1,8,1:0:0:0:
479,236,159414,1,8,3:1:0:0:
485,120,159555,38,0,P|482:99|487:77,1,33.5999989746094,6|0,1:0|0:0,0:0:0:0:
411,196,159696,2,0,P|414:221|415:236,1,33.5999989746094,0|0,3:0|0:0,0:0:0:0:
269,134,159837,5,0,3:0:0:0:
280,104,159908,1,0,1:0:0:0:
310,92,159979,2,0,P|327:86|355:71,1,50.3999984619141,0|0,3:0|3:0,0:0:0:0:
252,218,160155,2,0,P|228:226|219:234,1,33.5999989746094,0|0,3:0|0:0,0:0:0:0:
76,250,160261,101,8,3:1:0:0:
102,236,160332,2,0,P|123:239|149:255,1,50.3999984619141,0|0,3:0|0:0,0:0:0:0:
147,253,160473,1,0,3:0:0:0:
75,358,160614,6,0,P|82:338|90:326,1,33.5999989746094,0|0,1:0|0:0,0:0:0:0:
219,228,160755,2,0,P|234:211|241:192,1,33.5999989746094,0|0,3:0|0:0,0:0:0:0:
208,355,160932,21,0,3:0:0:0:
208,355,160967,2,0,P|202:332|193:313,1,33.5999989746094,0|0,1:0|0:0,0:0:0:0:
50,177,161108,2,0,P|43:161|40:144,1,33.5999989746094,0|0,3:0|0:0,0:0:0:0:
274,291,161285,101,0,3:0:0:0:
274,291,161320,1,0,1:0:0:0:
348,256,161426,86,0,P|364:260|387:274,1,33.5999989746094,0|0,3:0|0:0,0:0:0:0:
194,319,161567,2,0,P|178:315|159:305,1,33.5999989746094,0|0,3:0|0:0,0:0:0:0:
81,314,161673,37,8,3:1:0:0:
81,314,161708,2,0,P|88:332|91:351,1,33.5999989746094,0|0,1:0|0:0,0:0:0:0:
314,185,161849,86,0,P|318:159|327:135,1,50.3999984619141,0|0,3:0|0:0,0:0:0:0:
238,0,162026,37,0,1:0:0:0:
278,384,162202,53,6,1:2:0:0:
286,348,162273,1,0,3:0:0:0:
0,84,162555,86,0,P|20:79|35:71,1,33.5999989746094,0|0,1:0|0:0,0:0:0:0:
163,87,162732,2,0,P|146:90|131:97,1,33.5999989746094,0|0,1:0|0:0,0:0:0:0:
23,166,162873,69,0,3:0:0:0:
23,166,162908,1,0,3:0:0:0:
71,228,163014,85,0,3:0:0:0:
108,239,163085,1,8,1:0:0:0:
122,275,163155,1,0,3:0:0:0:
63,325,163261,101,0,3:0:0:0:
28,336,163332,2,0,P|15:365|12:392,1,50.3999984619141,0|0,3:0|1:0,0:0:0:0:
217,272,163508,2,0,P|230:243|238:219,1,50.3999984619141,0|0,3:0|3:0,0:0:0:0:
243,218,163649,6,0,P|239:200|238:183,1,33.5999989746094,0|0,3:0|0:0,0:0:0:0:
172,340,163790,2,0,P|176:358|177:375,1,33.5999989746094,0|0,1:0|0:0,0:0:0:0:
358,257,163932,102,0,P|381:260|409:277,1,50.3999984619141,0|0,3:0|0:0,0:0:0:0:
371,344,164108,21,0,3:0:0:0:
371,344,164143,2,0,P|350:337|336:326,1,33.5999989746094,0|0,1:0|0:0,0:0:0:0:
162,181,164285,2,0,P|147:172|131:167,1,33.5999989746094,0|0,3:0|0:0,0:0:0:0:
349,73,164461,5,0,3:0:0:0:
349,73,164496,1,8,1:0:0:0:
398,139,164602,85,0,3:0:0:0:
376,176,164673,1,0,3:0:0:0:
329,181,164743,1,0,3:0:0:0:
213,276,164849,5,0,1:0:0:0:
213,276,164885,1,0,3:0:0:0:
279,384,165026,101,6,1:2:0:0:
274,365,165096,1,0,3:0:0:0:
288,0,165379,102,0,P|280:24|278:40,1,33.5999989746094,0|0,1:0|0:0,0:0:0:0:
218,79,165520,37,0,3:0:0:0:
218,79,165555,2,0,P|229:108|234:134,1,50.3999984619141,0|0,1:0|3:0,0:0:0:0:
307,169,165732,85,0,3:0:0:0:
281,189,165802,2,0,P|267:217|263:231,1,33.5999989746094,0|0,3:0|0:0,0:0:0:0:
205,269,165908,101,8,1:0:0:0:
175,238,165979,2,0,P|150:230|129:216,1,50.3999984619141,0|0,3:0|0:0,0:0:0:0:
0,225,166155,2,0,P|25:233|37:240,1,33.5999989746094,0|0,3:0|0:0,0:0:0:0:
108,143,166261,21,0,1:0:0:0:
108,143,166296,2,0,P|104:120|97:102,1,33.5999989746094,0|0,3:0|0:0,0:0:0:0:
35,240,166437,2,0,P|39:263|46:281,1,33.5999989746094,0|0,3:0|0:0,0:0:0:0:
17,92,166579,5,0,3:0:0:0:
17,92,166614,2,0,P|21:69|28:51,1,33.5999989746094,0|0,1:0|0:0,0:0:0:0:
115,311,166755,2,0,P|111:334|104:352,1,33.5999989746094,0|0,3:0|0:0,0:0:0:0:
137,224,166932,101,0,3:0:0:0:
137,224,166967,2,0,P|157:216|174:212,1,33.5999989746094,0|0,1:0|0:0,0:0:0:0:
236,147,167108,2,0,P|256:155|273:159,1,33.5999989746094,0|0,3:0|0:0,0:0:0:0:
323,222,167249,101,0,3:0:0:0:
362,211,167320,1,8,1:0:0:0:
398,235,167390,1,0,3:0:0:0:
483,260,167496,21,0,3:0:0:0:
483,260,167532,2,0,P|482:240|478:218,1,33.5999989746094,0|0,3:0|0:0,0:0:0:0:
379,87,167673,2,0,P|379:106|383:128,1,33.5999989746094,0|0,1:0|0:0,0:0:0:0:
278,384,167849,69,6,1:2:0:0:
288,339,167920,1,0,3:0:0:0:
198,76,168202,102,0,P|174:70|159:60,1,33.5999989746094,0|0,1:0|0:0,0:0:0:0:
51,186,168379,2,0,P|27:192|12:202,1,33.5999989746094,0|0,1:0|0:0,0:0:0:0:
94,10,168555,6,0,P|86:27|84:42,1,33.5999989746094,0|0,3:0|0:0,0:0:0:0:
143,190,168696,21,0,3:0:0:0:
143,190,168732,2,0,P|151:207|153:222,1,33.5999989746094,8|0,1:0|0:0,0:0:0:0:
119,293,168837,101,0,3:0:0:0:
77,300,168908,1,0,3:0:0:0:
48,270,168979,1,0,3:0:0:0:
179,340,169085,101,0,1:0:0:0:
196,309,169155,2,0,P|210:301|248:291,1,50.3999984619141,0|0,3:0|3:0,0:0:0:0:
340,209,169332,2,0,P|354:217|380:225,1,33.5999989746094,0|0,3:0|0:0,0:0:0:0:
426,282,169437,37,0,1:0:0:0:
426,282,169473,1,0,3:0:0:0:
231,215,169614,21,0,3:0:0:0:
40,150,169755,69,0,3:0:0:0:
40,150,169790,1,0,1:0:0:0:
272,93,169932,21,0,3:0:0:0:
504,31,170108,101,0,3:0:0:0:
504,31,170143,2,0,P|497:47|494:64,1,33.5999989746094,8|0,1:0|0:0,0:0:0:0:
437,114,170285,2,0,P|444:135|446:153,1,33.5999989746094,0|0,3:0|0:0,0:0:0:0:
504,218,170426,85,0,3:0:0:0:
486,253,170496,1,0,1:0:0:0:
440,265,170567,1,8,3:1:0:0:
227,219,170708,53,8,3:1:0:0:
0,384,170849,101,6,1:0:0:0:
77,356,170990,85,2,3:2:0:0:
77,356,171026,1,2,3:2:0:0:
35,276,171132,85,2,3:2:0:0:
37,236,171202,1,2,1:2:0:0:
69,212,171273,1,2,3:2:0:0:
199,234,171379,6,0,P|215:227|239:222,1,33.5999989746094,2|2,3:2|3:2,0:0:0:0:
153,112,171555,102,0,P|158:95|159:74,1,33.5999989746094,8|2,1:0|3:2,0:0:0:0:
363,133,171732,37,2,3:2:0:0:
363,133,171768,1,2,3:2:0:0:
345,18,171908,21,0,1:0:0:0:
469,3,172049,69,2,3:2:0:0:
469,3,172085,1,2,3:2:0:0:
442,104,172226,5,2,3:2:0:0:
442,104,172261,1,2,1:2:0:0:
256,82,172402,101,2,3:2:0:0:
256,82,172437,1,2,3:2:0:0:
280,293,172579,5,2,3:2:0:0:
280,293,172614,1,2,1:2:0:0:
105,338,172720,86,0,P|88:346|74:358,2,33.5999989746094,2|2|2,3:2|3:2|3:2,0:0:0:0:
155,257,172967,5,8,1:0:0:0:
155,257,173002,1,2,3:2:0:0:
401,253,173143,21,2,3:2:0:0:
59,147,173320,1,2,1:2:0:0:
401,253,173496,1,6,1:0:0:0:
319,0,173849,6,0,P|329:13|337:37,1,33.5999989746094,6|2,1:2|3:2,0:0:0:0:
305,96,174026,5,2,1:2:0:0:
397,135,174167,69,2,3:2:0:0:
397,135,174202,1,2,3:2:0:0:
340,234,174308,69,2,3:2:0:0:
358,272,174379,1,8,1:0:0:0:
396,279,174449,1,2,3:2:0:0:
463,219,174555,6,0,P|464:197|468:183,1,33.5999989746094,2|2,3:2|3:2,0:0:0:0:
244,171,174732,102,0,P|253:184|259:200,1,33.5999989746094,2|2,1:2|3:2,0:0:0:0:
336,370,174908,21,2,3:2:0:0:
336,370,174943,1,2,3:2:0:0:
344,229,175085,5,2,1:2:0:0:
476,300,175226,101,2,3:2:0:0:
476,300,175261,1,2,3:2:0:0:
286,298,175402,5,2,3:2:0:0:
286,298,175437,1,2,1:2:0:0:
434,380,175579,101,2,3:2:0:0:
434,380,175614,1,2,3:2:0:0:
435,213,175755,5,2,3:2:0:0:
435,213,175790,1,8,1:0:0:0:
255,204,175896,86,0,P|236:192|223:172,2,33.5999989746094,2|2|2,3:2|3:2|3:2,0:0:0:0:
388,303,176143,5,2,1:2:0:0:
388,303,176179,1,2,3:2:0:0:
512,152,176320,85,6,1:0:0:0:
490,141,176390,1,0,3:0:0:0:
189,278,176673,54,0,P|167:281|150:288,1,33.5999989746094,6|0,1:2|3:0,0:0:0:0:
87,358,176814,101,2,3:2:0:0:
87,358,176849,1,2,1:2:0:0:
21,293,176955,85,2,3:2:0:0:
25,248,177026,1,2,3:2:0:0:
64,224,177096,1,2,3:2:0:0:
152,179,177202,102,0,P|160:161|162:142,1,33.5999989746094,8|2,1:0|3:2,0:0:0:0:
226,353,177379,6,0,P|218:371|216:390,1,33.5999989746094,2|2,3:2|3:2,0:0:0:0:
313,268,177555,5,2,1:2:0:0:
313,268,177590,1,2,3:2:0:0:
77,143,177732,37,2,3:2:0:0:
306,132,177873,85,2,3:2:0:0:
306,132,177908,1,2,1:2:0:0:
91,284,178049,101,2,3:2:0:0:
91,284,178085,1,2,3:2:0:0:
194,74,178226,5,2,3:2:0:0:
194,74,178261,1,2,1:2:0:0:
207,330,178402,101,2,3:2:0:0:
207,330,178437,1,2,3:2:0:0:
179,180,178543,86,0,P|173:163|162:146,2,33.5999989746094,2|8|2,3:2|1:0|3:2,0:0:0:0:
243,235,178790,37,2,3:2:0:0:
243,235,178826,1,2,3:2:0:0:
359,74,178967,5,2,1:2:0:0:
512,187,179143,69,6,1:0:0:0:
479,195,179214,1,0,3:0:0:0:
84,12,179496,54,0,P|101:22|119:28,1,33.5999989746094,6|0,1:2|3:0,0:0:0:0:
200,0,179673,21,2,1:2:0:0:
214,122,179849,69,2,3:2:0:0:
367,81,179990,85,2,3:2:0:0:
367,81,180026,1,8,1:0:0:0:
399,157,180132,85,2,3:2:0:0:
371,190,180202,1,2,3:2:0:0:
332,188,180273,1,2,3:2:0:0:
280,62,180379,6,0,P|285:38|292:21,1,33.5999989746094,2|2,1:2|3:2,0:0:0:0:
134,157,180555,102,0,P|129:181|122:198,1,33.5999989746094,2|2,3:2|3:2,0:0:0:0:
91,19,180732,37,2,1:2:0:0:
91,19,180767,2,0,P|80:37|77:54,1,33.5999989746094,2|0,3:2|0:0,0:0:0:0:
14,95,180908,2,0,P|20:115|23:131,1,33.5999989746094,2|0,3:2|0:0,0:0:0:0:
101,219,181049,101,2,3:2:0:0:
101,219,181085,2,0,P|113:200|132:188,1,33.5999989746094,2|0,1:2|0:0,0:0:0:0:
177,87,181226,5,2,3:2:0:0:
177,87,181262,2,0,P|199:87|219:98,1,33.5999989746094,2|0,1:2|0:0,0:0:0:0:
362,49,181402,101,2,3:2:0:0:
362,49,181438,2,0,P|372:68|373:91,1,33.5999989746094,8|0,1:0|0:0,0:0:0:0:
512,168,181579,5,0,3:2:0:0:
512,168,181615,2,0,P|500:186|481:198,1,33.5999989746094,2|0,3:2|0:0,0:0:0:0:
482,277,181720,86,0,P|498:284|514:295,2,33.5999989746094,2|2|8,3:2|1:2|1:0,0:0:0:0:
301,210,181967,5,2,1:2:0:0:
301,210,182002,1,8,1:0:0:0:
47,106,182143,86,0,P|30:81|22:20,1,84,6|0,1:0|0:2,0:0:0:0:
119,141,182285,37,2,3:2:0:0:
119,141,182320,2,0,P|81:154|46:185,1,84,2|2,3:2|3:2,0:0:0:0:
130,59,182496,85,8,1:0:0:0:
170,81,182567,2,0,P|205:76|235:59,1,56,2|0,3:2|0:2,0:0:0:0:
283,15,182673,101,2,3:2:0:0:
299,53,182743,2,0,P|330:74|343:97,1,56,2|0,3:2|0:0,0:0:0:0:
395,149,182849,5,2,1:2:0:0:
423,112,182920,2,0,P|431:66|450:39,1,56,2|0,3:2|0:0,0:0:0:0:
505,16,183026,5,2,1:2:0:0:
505,16,183061,1,2,1:2:0:0:
317,166,183202,5,8,1:0:0:0:
512,299,183343,101,2,3:2:0:0:
512,299,183379,2,0,P|509:275|496:244,1,56,2|0,3:2|0:0,0:0:0:0:
324,174,183520,5,2,3:2:0:0:
324,174,183556,2,0,P|327:150|340:119,1,56,2|0,1:2|0:0,0:0:0:0:
410,370,183696,101,2,3:2:0:0:
410,370,183732,2,0,P|419:347|423:314,1,56,2|0,3:2|0:0,0:0:0:0:
281,57,183873,5,2,3:2:0:0:
281,57,183908,2,0,P|292:48|304:41,1,28,8|0,1:0|0:0,0:0:0:0:
438,61,184014,70,0,P|460:39|474:15,2,56,2|2|2,3:2|3:2|3:2,0:0:0:0:
313,49,184261,21,2,1:2:0:0:
313,49,184296,1,2,3:2:0:0:
424,240,184437,37,2,1:2:0:0:
60,116,184614,101,8,1:0:0:0:
264,384,184790,6,2,P|263:364|258:338,1,44.8,6|0,1:0|0:0,0:1:0:0:
276,261,185143,6,0,P|233:254|204:230,1,56,6|0,1:2|0:0,0:0:0:0:
339,305,185320,38,0,P|304:312|257:339,1,84,8|0,1:0|0:0,0:0:0:0:
375,182,185460,21,2,3:2:0:0:
375,182,185496,2,0,P|351:217|347:245,1,56,2|0,3:2|0:0,0:0:0:0:
218,252,185602,69,2,3:2:0:0:
177,263,185673,2,0,P|160:229|159:194,2,56,2|2|2,1:2|3:2|0:0,0:0:0:0:
141,335,185850,5,2,3:2:0:0:
111,308,185920,2,0,P|79:304|48:315,1,56,2|0,3:2|0:0,0:0:0:0:
0,254,186026,101,8,1:0:0:0:
43,235,186096,2,0,P|58:207|62:176,1,56,2|0,3:2|0:0,0:0:0:0:
17,100,186202,21,2,3:2:0:0:
17,100,186237,1,2,3:2:0:0:
241,177,186379,5,2,1:2:0:0:
394,14,186520,101,2,3:2:0:0:
394,14,186555,2,0,P|367:31|348:53,1,56,2|0,3:2|0:0,0:0:0:0:
252,317,186696,5,2,3:2:0:0:
252,317,186732,2,0,P|237:288|231:260,1,56,8|0,1:0|0:0,0:0:0:0:
487,82,186873,101,2,3:2:0:0:
487,82,186908,2,0,P|455:84|427:93,1,56,2|0,3:2|0:0,0:0:0:0:
149,238,187049,5,2,3:2:0:0:
149,238,187085,2,0,P|152:224|156:211,1,28,2|0,1:2|0:0,0:0:0:0:
145,116,187190,86,0,P|128:90|99:67,2,56,2|2|2,3:2|3:2|3:2,0:0:0:0:
207,384,187437,5,8,1:0:0:0:
207,384,187473,1,2,3:2:0:0:
248,0,187614,22,2,P|249:20|254:46,1,44.8,6|0,1:0|0:0,0:1:0:0:
228,123,187967,54,0,P|264:133|287:147,1,56,6|0,1:2|0:0,0:0:0:0:
376,63,188108,37,2,3:2:0:0:
376,63,188143,2,0,P|346:74|305:79,1,56,8|0,1:0|0:0,0:0:0:0:
169,72,188249,85,2,3:2:0:0:
148,113,188320,2,0,P|109:120|78:132,2,56,2|2|2,3:2|3:2|0:2,0:0:0:0:
329,198,188496,101,2,1:2:0:0:
291,216,188567,2,0,P|280:243|275:278,1,56,2|0,3:2|0:0,0:0:0:0:
222,324,188673,5,2,3:2:0:0:
191,296,188743,2,0,P|187:271|179:241,1,56,2|0,3:2|0:0,0:0:0:0:
156,120,188849,5,8,1:0:0:0:
156,120,188885,1,2,3:2:0:0:
28,348,189026,5,2,3:2:0:0:
301,343,189167,101,2,3:2:0:0:
301,343,189202,2,0,P|323:325|359:310,1,56,2|0,1:2|0:0,0:0:0:0:
236,115,189343,5,2,3:2:0:0:
236,115,189378,2,0,P|258:133|294:148,1,56,2|0,3:2|0:0,0:0:0:0:
445,384,189520,101,2,3:2:0:0:
445,384,189555,2,0,P|455:357|478:326,1,56,8|0,1:0|0:0,0:0:0:0:
293,41,189696,5,2,3:2:0:0:
293,41,189731,2,0,P|300:53|308:64,1,28,2|0,3:2|0:0,0:0:0:0:
421,161,189837,70,0,P|449:147|484:141,2,56,2|2|2,3:2|1:2|3:2,0:0:0:0:
218,229,190085,21,2,3:2:0:0:
218,229,190120,1,2,3:2:0:0:
406,38,190261,37,8,1:0:0:0:
375,342,190437,102,2,P|362:327|343:308,1,44.8,6|0,1:0|0:0,0:1:0:0:
330,232,190790,38,0,P|335:196|355:168,1,56,6|0,1:2|0:0,0:0:0:0:
243,368,190967,22,0,P|259:335|266:287,1,84,8|0,1:0|0:0,0:0:0:0:
487,232,191143,102,0,P|445:238|407:254,1,84,2|0,3:2|0:0,0:0:0:0:
218,229,191285,37,2,3:2:0:0:
218,229,191320,2,0,P|181:212|158:181,1,56,2|0,1:2|0:0,0:0:0:0:
114,150,191425,85,2,3:2:0:0:
90,187,191496,2,0,P|99:221|100:255,1,56,2|2,3:2|3:2,0:0:0:0:
348,306,191672,101,8,1:0:0:0:
320,277,191743,2,0,P|289:281|257:292,1,56,2|0,3:2|0:0,0:0:0:0:
160,295,191849,5,2,3:2:0:0:
124,328,191920,2,0,P|80:317|58:303,1,56,2|0,3:2|0:0,0:0:0:0:
13,246,192026,5,2,1:2:0:0:
13,246,192061,1,2,3:2:0:0:
221,363,192202,5,2,3:2:0:0:
233,154,192343,101,2,3:2:0:0:
233,154,192379,2,0,P|240:121|259:89,1,56,8|0,1:0|0:0,0:0:0:0:
443,133,192520,5,2,3:2:0:0:
443,133,192556,2,0,P|433:100|411:70,1,56,2|0,3:2|0:0,0:0:0:0:
167,55,192696,101,2,3:2:0:0:
167,55,192732,2,0,P|189:29|222:11,1,56,2|0,1:2|0:0,0:0:0:0:
486,13,192873,5,2,3:2:0:0:
486,13,192909,2,0,P|474:6|462:0,1,28,2|0,3:2|0:0,0:0:0:0:
324,0,193014,69,2,3:2:0:0:
330,22,193085,1,8,1:0:0:0:
333,48,193155,1,8,3:1:0:0:
349,175,193261,22,0,P|346:161|344:147,2,28,2|8|2,3:2|3:1|3:2,0:0:0:0:
370,375,193437,102,0,P|371:343|386:291,1,84,6|0,1:0|0:0,0:0:0:0:
485,252,193579,21,2,3:2:0:0:
485,252,193614,2,0,P|452:231|427:200,1,56,2|0,3:2|0:0,0:0:0:0:
312,248,193720,69,2,3:2:0:0:
295,285,193790,2,0,P|258:299|227:326,2,56,8|2|2,1:0|3:2|0:2,0:0:0:0:
436,222,193967,5,2,3:2:0:0:
422,178,194037,2,0,P|428:136|442:109,1,56,2|0,3:2|0:0,0:0:0:0:
400,56,194143,101,2,1:2:0:0:
446,49,194214,2,0,P|473:37|498:6,1,56,2|0,3:2|0:0,0:0:0:0:
512,108,194320,21,2,3:2:0:0:
512,108,194355,1,2,3:2:0:0:
311,0,194496,5,8,1:0:0:0:
297,192,194637,101,2,3:2:0:0:
297,192,194673,2,0,P|313:233|315:267,1,56,2|0,3:2|0:0,0:0:0:0:
411,338,194814,5,2,3:2:0:0:
411,338,194850,2,0,P|376:365|357:393,1,56,2|0,1:2|0:0,0:0:0:0:
274,75,194990,101,2,3:2:0:0:
274,75,195026,2,0,P|308:102|327:130,1,56,2|0,3:2|0:0,0:0:0:0:
484,252,195167,5,2,3:2:0:0:
484,252,195203,2,0,P|470:255|457:261,1,28,8|0,1:0|0:0,0:0:0:0:
299,326,195308,86,0,P|263:313|245:292,2,56,2|2|2,3:2|3:2|3:2,0:0:0:0:
391,222,195555,5,2,1:2:0:0:
391,222,195590,1,2,3:2:0:0:
512,384,195732,37,2,3:2:0:0:
247,305,195908,101,8,1:0:0:0:
137,42,196085,6,2,P|150:57|169:76,1,44.8,6|0,1:0|0:0,0:1:0:0:
53,138,196437,6,0,P|82:125|119:121,1,56,6|0,1:2|0:0,0:0:0:0:
242,97,196614,22,0,P|196:126|165:172,1,84,8|0,1:0|0:0,0:0:0:0:
119,205,196755,37,2,3:2:0:0:
119,205,196790,2,0,P|133:241|129:273,1,56,2|0,3:2|0:0,0:0:0:0:
173,323,196896,85,2,3:2:0:0:
137,344,196967,2,0,P|109:332|77:329,2,56,2|2|2,1:2|3:2|0:2,0:0:0:0:
209,255,197143,101,2,3:2:0:0:
242,287,197214,2,0,P|277:279|297:264,1,56,2|0,3:2|0:0,0:0:0:0:
394,324,197320,5,8,1:0:0:0:
369,297,197390,2,0,P|371:265|383:238,1,56,2|0,3:2|0:0,0:0:0:0:
318,187,197496,5,2,3:2:0:0:
318,187,197532,1,2,3:2:0:0:
232,384,197673,5,2,1:2:0:0:
57,256,197814,101,2,3:2:0:0:
57,256,197849,2,0,P|65:223|65:193,1,56,2|0,3:2|0:0,0:0:0:0:
239,105,197990,5,2,3:2:0:0:
239,105,198025,2,0,P|215:80|200:54,1,56,8|0,1:0|0:0,0:0:0:0:
79,359,198167,101,2,3:2:0:0:
79,359,198202,2,0,P|102:334|117:308,1,56,2|0,3:2|0:0,0:0:0:0:
343,79,198343,5,2,3:2:0:0:
343,79,198378,2,0,P|330:73|318:66,1,28,2|0,1:2|0:0,0:0:0:0:
121,53,198485,70,0,P|95:28|60:9,2,56,2|2|2,3:2|3:2|3:2,0:0:0:0:
141,159,198732,21,8,1:0:0:0:
141,159,198767,1,2,3:2:0:0:
440,243,198908,38,2,P|421:238|394:234,1,44.8,6|0,1:0|0:0,0:1:0:0:
348,165,199261,38,0,P|329:191|299:211,1,56,6|0,1:2|0:0,0:0:0:0:
281,309,199402,53,2,3:2:0:0:
281,309,199437,2,0,P|302:294|338:285,1,56,8|0,1:0|0:0,0:0:0:0:
415,128,199543,69,2,3:2:0:0:
385,95,199614,2,0,P|386:64|397:34,2,56,2|2|2,3:2|3:2|0:2,0:0:0:0:
307,208,199790,101,2,1:2:0:0:
273,193,199861,2,0,P|244:199|218:214,1,56,2|0,3:2|0:0,0:0:0:0:
183,146,199967,5,2,3:2:0:0:
149,168,200037,2,0,P|115:156|98:140,1,56,2|0,3:2|0:0,0:0:0:0:
22,173,200143,5,8,1:0:0:0:
22,173,200179,1,2,3:2:0:0:
261,115,200320,5,2,3:2:0:0:
214,357,200461,101,2,3:2:0:0:
214,357,200496,2,0,P|208:326|196:300,1,56,2|0,1:2|0:0,0:0:0:0:
74,293,200637,5,2,3:2:0:0:
74,293,200672,2,0,P|85:263|101:239,1,56,2|0,3:2|0:0,0:0:0:0:
296,264,200814,101,2,3:2:0:0:
296,264,200849,2,0,P|275:240|251:223,1,56,8|0,1:0|0:0,0:0:0:0:
43,154,200990,5,2,3:2:0:0:
43,154,201025,2,0,P|55:147|67:141,1,28,2|0,3:2|0:0,0:0:0:0:
183,92,201132,70,0,P|201:56|206:32,2,56,2|2|2,3:2|1:2|3:2,0:0:0:0:
0,252,201379,21,2,3:2:0:0:
0,252,201414,1,2,3:2:0:0:
385,95,201555,21,8,1:0:0:0:
72,141,201732,6,2,P|91:146|118:150,1,44.8,6|0,1:0|0:0,0:1:0:0:
136,245,202085,6,0,P|156:219|185:202,1,56,6|0,1:2|0:0,0:0:0:0:
151,17,202261,38,0,P|174:47|183:93,1,84,8|0,1:0|0:0,0:0:0:0:
272,309,202437,102,0,P|272:285|249:224,1,84,2|0,3:2|0:0,0:0:0:0:
242,154,202579,37,2,3:2:0:0:
242,154,202614,2,0,P|264:132|298:120,1,56,2|0,1:2|0:0,0:0:0:0:
346,72,202720,85,2,3:2:0:0:
361,113,202790,2,0,P|390:131|418:138,2,56,2|2|2,3:2|3:2|0:2,0:0:0:0:
248,25,202967,101,8,1:0:0:0:
202,41,203037,2,0,P|163:16|138:10,1,56,2|0,3:2|0:0,0:0:0:0:
44,74,203143,5,2,3:2:0:0:
21,108,203214,2,0,P|32:141|36:172,1,56,2|0,3:2|0:0,0:0:0:0:
97,223,203320,5,2,1:2:0:0:
97,223,203355,1,2,3:2:0:0:
320,0,203496,5,2,3:2:0:0:
403,285,203637,101,2,3:2:0:0:
403,285,203673,2,0,P|375:269|345:262,1,56,8|0,1:0|0:0,0:0:0:0:
166,116,203814,5,2,3:2:0:0:
166,116,203850,2,0,P|138:132|108:139,1,56,2|0,3:2|0:0,0:0:0:0:
352,384,203990,101,2,3:2:0:0:
352,384,204026,2,0,P|335:356|313:335,1,56,2|0,1:2|0:0,0:0:0:0:
135,29,204167,5,2,3:2:0:0:
135,29,204203,2,0,P|125:39|115:49,1,28,2|0,3:2|0:0,0:0:0:0:
40,165,204308,70,0,P|17:187|3:211,2,56,2|8|8,3:2|1:0|3:1,0:0:0:0:
174,122,204555,21,2,3:2:0:0:
174,122,204590,2,0,P|207:109|225:96,1,56,8|0,3:1|0:0,0:0:0:0:
294,20,204732,102,0,P|327:27|349:40,1,56,6|0,1:0|0:0,0:0:0:0:
436,72,204873,21,2,3:2:0:0:
436,72,204908,2,0,P|407:90|389:109,1,56,2|0,3:2|0:0,0:0:0:0:
353,172,205014,69,2,3:2:0:0:
390,180,205085,1,8,1:0:0:0:
414,206,205155,2,0,P|426:242|428:278,1,56,2|0,3:2|0:0,0:0:0:0:
471,323,205261,5,2,3:2:0:0:
431,334,205332,2,0,P|416:361|408:389,1,56,2|0,3:2|0:0,0:0:0:0:
363,299,205437,101,2,1:2:0:0:
330,263,205508,2,0,P|301:253|273:231,1,56,2|0,3:2|0:0,0:0:0:0:
272,162,205614,21,2,3:2:0:0:
272,162,205649,1,2,3:2:0:0:
512,250,205790,5,8,1:0:0:0:
284,372,205932,101,2,3:2:0:0:
284,372,205967,2,0,P|260:361|224:351,1,56,2|0,3:2|0:0,0:0:0:0:
125,174,206108,5,2,3:2:0:0:
125,174,206143,2,0,P|103:189|76:215,1,56,2|0,1:2|0:0,0:0:0:0:
336,271,206285,101,2,3:2:0:0:
336,271,206320,2,0,P|309:273|273:282,1,56,2|0,3:2|0:0,0:0:0:0:
47,104,206461,5,2,3:2:0:0:
47,104,206496,2,0,P|42:117|40:131,1,28,8|0,1:0|0:0,0:0:0:0:
38,278,206602,85,2,3:2:0:0:
76,287,206673,1,2,3:2:0:0:
96,321,206743,1,2,3:2:0:0:
31,378,206849,5,2,1:2:0:0:
31,378,206885,1,2,3:2:0:0:
158,367,207026,21,2,3:2:0:0:
180,115,207202,5,8,1:0:0:0:
434,125,207379,102,2,P|416:132|392:144,1,44.8,6|0,1:0|0:0,0:1:0:0:
298,116,207732,38,0,P|263:97|245:75,1,56,6|0,1:2|0:0,0:0:0:0:
400,0,207908,6,0,P|376:34|364:74,1,84,8|0,1:0|0:0,0:0:0:0:
333,190,208049,37,2,3:2:0:0:
333,190,208085,2,0,P|342:216|343:244,1,56,2|0,3:2|0:0,0:0:0:0:
390,312,208190,85,2,3:2:0:0:
363,335,208261,1,2,1:2:0:0:
328,324,208332,2,0,P|291:312|244:310,1,84,2|2,3:2|3:2,0:0:0:0:
173,242,208508,2,0,P|130:252|113:252,1,56,0|0,3:0|0:0,0:0:0:0:
54,295,208614,101,8,1:0:0:0:
27,259,208685,2,0,P|36:222|55:196,1,56,2|0,3:2|0:0,0:0:0:0:
136,150,208790,21,2,3:2:0:0:
136,150,208826,1,2,3:2:0:0:
0,366,208967,5,2,1:2:0:0:
253,317,209108,101,2,3:2:0:0:
253,317,209143,2,0,P|259:285|271:259,1,56,2|0,3:2|0:0,0:0:0:0:
41,75,209285,5,2,3:2:0:0:
41,75,209320,2,0,P|52:101|57:129,1,56,8|0,1:0|0:0,0:0:0:0:
216,205,209461,101,2,3:2:0:0:
216,205,209496,2,0,P|237:180|260:163,1,56,2|0,3:2|0:0,0:0:0:0:
109,17,209637,5,2,3:2:0:0:
109,17,209672,2,0,P|118:27|126:38,1,28,8|0,1:0|0:0,0:0:0:0:
209,82,209779,85,2,3:2:0:0:
246,78,209849,1,2,3:2:0:0:
269,47,209920,1,2,3:2:0:0:
337,164,210026,5,8,1:0:0:0:
337,164,210061,1,2,3:2:0:0:
78,259,210202,38,2,P|96:252|120:240,1,44.8,6|0,1:0|0:0,0:1:0:0:
196,267,210555,6,0,P|177:297|169:325,1,56,6|0,1:2|0:0,0:0:0:0:
236,174,210696,69,2,3:2:0:0:
236,174,210732,2,0,P|182:190|166:191,1,56,8|0,1:0|0:0,0:0:0:0:
112,159,210837,69,2,3:2:0:0:
94,126,210908,1,2,3:2:0:0:
107,91,210979,1,2,3:2:0:0:
148,19,211085,5,2,1:2:0:0:
179,41,211155,2,0,P|212:34|242:16,1,56,2|0,3:2|0:0,0:0:0:0:
270,92,211261,101,2,3:2:0:0:
303,62,211332,2,0,P|340:71|368:99,1,56,2|0,3:2|0:0,0:0:0:0:
356,161,211437,21,8,1:0:0:0:
356,161,211473,1,2,3:2:0:0:
69,22,211614,5,2,3:2:0:0:
26,322,211755,101,2,3:2:0:0:
26,322,211790,2,0,P|54:304|86:295,1,56,2|0,1:2|0:0,0:0:0:0:
183,122,211932,5,2,3:2:0:0:
183,122,211967,2,0,P|203:148|230:167,1,56,2|0,3:2|0:0,0:0:0:0:
123,384,212108,101,2,3:2:0:0:
123,384,212143,2,0,P|138:354|161:330,1,56,8|0,1:0|0:0,0:0:0:0:
249,59,212285,5,2,3:2:0:0:
249,59,212320,2,0,P|253:73|259:86,1,28,2|0,3:2|0:0,0:0:0:0:
313,145,212426,85,2,3:2:0:0:
333,177,212496,1,2,1:2:0:0:
329,213,212567,1,2,3:2:0:0:
210,254,212673,5,2,3:2:0:0:
210,254,212708,1,2,3:2:0:0:
374,384,212849,21,8,1:0:0:0:
360,33,213026,6,2,P|350:49|337:73,1,44.8,6|0,1:0|0:0,0:1:0:0:
256,89,213379,22,0,P|214:93|191:81,1,56,6|0,1:2|0:0,0:0:0:0:
382,200,213555,6,0,P|347:166|304:142,1,84,8|0,1:0|0:0,0:0:0:0:
134,136,213732,6,0,P|96:115|75:87,1,56,2|0,3:2|0:0,0:0:0:0:
242,180,213873,21,2,3:2:0:0:
242,180,213908,2,0,P|204:195|184:213,1,56,2|0,1:2|0:0,0:0:0:0:
96,220,214014,69,2,3:2:0:0:
102,254,214085,1,2,3:2:0:0:
130,273,214155,1,2,3:2:0:0:
152,347,214261,5,8,1:0:0:0:
192,329,214332,2,0,P|204:298|222:271,1,56,2|0,3:2|0:0,0:0:0:0:
196,207,214437,101,2,3:2:0:0:
164,171,214508,2,0,P|162:138|152:101,1,56,2|0,3:2|0:0,0:0:0:0:
113,0,214614,21,2,1:2:0:0:
113,0,214649,1,2,3:2:0:0:
385,203,214790,5,2,3:2:0:0:
70,340,214932,101,2,3:2:0:0:
70,340,214967,2,0,P|57:297|36:269,1,56,8|0,1:0|0:0,0:0:0:0:
165,123,215108,5,2,3:2:0:0:
165,123,215143,2,0,P|178:80|199:52,1,56,2|0,3:2|0:0,0:0:0:0:
192,329,215285,101,2,3:2:0:0:
192,329,215320,2,0,P|159:298|127:284,1,56,2|0,1:2|0:0,0:0:0:0:
70,89,215461,5,2,3:2:0:0:
70,89,215496,2,0,P|81:80|93:73,1,28,2|0,3:2|0:0,0:0:0:0:
262,66,215602,85,2,3:2:0:0:
290,52,215673,1,8,1:0:0:0:
298,22,215743,1,8,3:1:0:0:
249,151,215849,5,2,3:2:0:0:
249,151,215885,1,8,3:1:0:0:
389,207,216026,86,0,P|431:190|466:185,1,56,6|0,1:0|0:0,0:0:0:0:
284,254,216167,37,2,3:2:0:0:
284,254,216202,2,0,P|305:220|311:188,1,56,2|0,3:2|0:0,0:0:0:0:
348,137,216308,85,2,3:2:0:0:
359,99,216379,1,8,1:0:0:0:
392,82,216449,1,2,3:2:0:0:
445,283,216555,101,2,3:2:0:0:
411,307,216626,2,0,P|371:289|351:262,1,56,2|0,3:2|0:0,0:0:0:0:
287,258,216732,5,2,1:2:0:0:
263,288,216802,2,0,P|229:301|205:320,1,56,2|0,3:2|0:0,0:0:0:0:
138,312,216908,5,2,3:2:0:0:
138,312,216943,1,2,3:2:0:0:
438,384,217085,5,8,1:0:0:0:
400,89,217226,101,2,3:2:0:0:
400,89,217261,2,0,P|388:120|382:146,1,56,2|0,3:2|0:0,0:0:0:0:
171,165,217402,5,2,3:2:0:0:
171,165,217437,2,0,P|192:190|207:212,1,56,2|0,1:2|0:0,0:0:0:0:
504,125,217579,101,2,3:2:0:0:
504,125,217614,2,0,P|478:145|459:165,1,56,2|0,3:2|0:0,0:0:0:0:
102,219,217755,5,2,3:2:0:0:
102,219,217790,2,0,P|115:224|128:231,1,28,8|0,1:0|0:0,0:0:0:0:
287,258,217896,69,2,3:2:0:0:
316,235,217967,1,2,3:2:0:0:
314,190,218037,1,2,3:2:0:0:
243,106,218143,21,2,1:2:0:0:
243,106,218179,1,2,3:2:0:0:
439,235,218320,21,2,3:2:0:0:
24,148,218496,5,8,1:0:0:0:
152,351,218673,102,2,P|162:335|175:311,1,44.8,6|0,1:0|0:0,0:1:0:0:
307,250,219026,22,0,P|265:265|240:288,1,56,6|0,1:2|0:0,0:0:0:0:
112,197,219202,38,0,P|141:217|198:237,1,84,8|0,1:0|0:0,0:0:0:0:
246,352,219343,21,2,3:2:0:0:
246,352,219379,2,0,P|266:357|306:377,1,56,2|0,3:2|0:0,0:0:0:0:
377,353,219485,69,2,3:2:0:0:
408,328,219555,1,2,1:2:0:0:
405,284,219626,1,2,3:2:0:0:
446,213,219732,5,2,3:2:0:0:
402,202,219802,2,0,P|387:174|380:142,1,56,2|0,3:2|0:0,0:0:0:0:
311,115,219908,101,8,1:0:0:0:
333,83,219979,2,0,P|374:68|396:43,1,56,2|0,3:2|0:0,0:0:0:0:
437,0,220085,21,2,3:2:0:0:
437,0,220120,1,2,3:2:0:0:
491,299,220261,5,2,1:2:0:0:
194,242,220402,101,2,3:2:0:0:
194,242,220437,2,0,P|205:207|210:170,1,56,2|0,3:2|0:0,0:0:0:0:
376,126,220579,5,2,3:2:0:0:
376,126,220614,2,0,P|348:101|326:71,1,56,8|0,1:0|0:0,0:0:0:0:
218,335,220755,101,2,3:2:0:0:
218,335,220790,2,0,P|245:310|267:280,1,56,2|0,3:2|0:0,0:0:0:0:
428,211,220932,5,2,3:2:0:0:
428,211,220967,2,0,P|414:206|401:199,1,28,2|0,1:2|0:0,0:0:0:0:
353,280,221073,85,2,3:2:0:0:
380,301,221144,1,2,3:2:0:0:
397,334,221214,1,2,3:2:0:0:
304,188,221320,5,8,1:0:0:0:
304,188,221355,1,2,3:2:0:0:
248,0,221496,38,2,P|249:20|254:46,1,44.8,6|0,1:0|0:0,0:1:0:0:
174,62,221849,38,0,P|142:40|107:32,1,56,6|0,1:2|0:0,0:0:0:0:
179,155,221990,37,2,3:2:0:0:
179,155,222026,2,0,P|211:132|249:120,1,56,8|0,1:0|0:0,0:0:0:0:
306,107,222132,85,2,3:2:0:0:
345,112,222202,1,2,3:2:0:0:
378,85,222273,1,2,3:2:0:0:
444,42,222379,101,2,1:2:0:0:
462,84,222450,2,0,P|449:117|445:149,1,56,2|0,3:2|0:0,0:0:0:0:
383,187,222555,5,2,3:2:0:0:
427,214,222626,2,0,P|440:252|439:287,1,56,2|0,3:2|0:0,0:0:0:0:
384,329,222732,5,8,1:0:0:0:
384,329,222767,1,2,3:2:0:0:
327,27,222908,5,2,3:2:0:0:
79,203,223049,101,2,3:2:0:0:
79,203,223085,2,0,P|116:193|140:178,1,56,2|0,1:2|0:0,0:0:0:0:
334,256,223226,5,2,3:2:0:0:
334,256,223262,2,0,P|315:235|292:221,1,56,2|0,3:2|0:0,0:0:0:0:
113,314,223402,101,2,3:2:0:0:
113,314,223438,2,0,P|140:286|153:261,1,56,8|0,1:0|0:0,0:0:0:0:
374,158,223579,5,2,3:2:0:0:
374,158,223615,2,0,P|369:146|360:135,1,28,2|0,3:2|0:0,0:0:0:0:
278,104,223720,69,2,3:2:0:0:
250,79,223791,1,2,1:2:0:0:
245,42,223861,1,2,3:2:0:0:
175,116,223967,21,2,3:2:0:0:
175,116,224002,1,2,3:2:0:0:
416,260,224143,21,8,1:0:0:0:
264,384,224320,6,2,P|263:364|258:338,1,44.8,6|0,1:0|0:0,0:1:0:0:
332,284,224673,22,0,P|299:265|277:241,1,56,6|0,1:2|0:0,0:0:0:0:
130,315,224849,22,0,P|161:289|219:271,1,84,8|0,1:0|0:0,0:0:0:0:
296,175,225026,2,0,P|333:162|359:142,1,56,2|0,3:2|0:0,0:0:0:0:
216,196,225167,21,2,3:2:0:0:
216,196,225202,2,0,P|205:166|182:133,1,56,2|0,1:2|0:0,0:0:0:0:
180,67,225308,69,2,3:2:0:0:
200,33,225379,1,2,3:2:0:0:
244,30,225449,1,2,3:2:0:0:
294,89,225555,5,8,1:0:0:0:
321,58,225626,2,0,P|354:53|383:33,1,56,2|0,3:2|0:0,0:0:0:0:
440,1,225732,101,2,3:2:0:0:
453,43,225802,2,0,P|488:59|507:87,1,56,2|0,3:2|0:0,0:0:0:0:
495,153,225908,21,2,1:2:0:0:
495,153,225943,1,2,3:2:0:0:
125,14,226085,5,2,3:2:0:0:
193,384,226226,101,2,3:2:0:0:
193,384,226261,2,0,P|199:349|209:325,1,56,8|0,1:0|0:0,0:0:0:0:
384,224,226402,5,2,3:2:0:0:
384,224,226437,2,0,P|378:189|368:165,1,56,2|0,3:2|0:0,0:0:0:0:
146,273,226579,101,2,3:2:0:0:
146,273,226614,2,0,P|168:245|189:229,1,56,2|0,1:2|0:0,0:0:0:0:
411,90,226755,5,2,3:2:0:0:
411,90,226790,2,0,P|400:80|388:73,1,28,2|0,3:2|0:0,0:0:0:0:
286,70,226896,85,2,3:2:0:0:
259,45,226967,1,8,1:0:0:0:
257,1,227037,1,2,3:2:0:0:
249,160,227143,5,2,3:2:0:0:
249,160,227179,1,8,3:1:0:0:
358,0,227320,21,6,1:0:0:0:
512,384,229614,5,2,3:2:0:0:
389,270,229790,101,2,3:2:0:0:
137,42,229967,6,2,P|150:57|169:76,1,44.8,6|0,1:0|0:0,0:1:0:0:
184,156,230320,6,0,P|177:191|153:218,1,56,6|0,1:2|0:0,0:0:0:0:
248,92,230496,22,0,P|288:81|334:34,1,84,2|0,1:2|0:0,0:0:0:0:
278,175,230637,37,2,3:2:0:0:
278,175,230673,2,0,P|310:190|330:218,1,56,2|0,3:2|0:0,0:0:0:0:
406,179,230779,85,2,3:2:0:0:
383,149,230849,2,0,P|384:115|398:87,2,56,8|2|2,1:0|3:2|0:2,0:0:0:0:
383,253,231025,101,2,3:2:0:0:
353,281,231096,2,0,P|365:311|366:345,1,56,2|0,3:2|0:0,0:0:0:0:
426,384,231202,5,2,1:2:0:0:
452,356,231273,2,0,P|459:320|475:291,1,56,2|0,3:2|0:0,0:0:0:0:
512,243,231379,5,2,3:2:0:0:
512,243,231414,1,2,3:2:0:0:
261,296,231555,5,2,1:2:0:0:
327,61,231696,101,2,3:2:0:0:
327,61,231732,2,0,P|333:28|334:0,1,56,2|0,3:2|0:0,0:0:0:0:
500,0,231873,5,2,3:2:0:0:
500,0,231909,2,0,P|476:15|455:33,1,56,2|0,1:2|0:0,0:0:0:0:
250,122,232049,101,2,3:2:0:0:
250,122,232085,2,0,P|238:90|225:65,1,56,2|0,3:2|0:0,0:0:0:0:
483,122,232226,5,2,3:2:0:0:
483,122,232262,2,0,P|470:124|456:128,1,28,8|0,1:0|0:0,0:0:0:0:
326,180,232367,70,0,P|312:211|312:254,2,56,2|2|2,3:2|3:2|3:2,0:0:0:0:
381,122,232614,21,2,1:2:0:0:
381,122,232649,1,2,3:2:0:0:
375,342,232790,22,2,P|362:327|343:308,1,44.8,6|0,1:0|0:0,0:1:0:0:
234,229,233143,70,0,P|199:218|175:187,1,56,6|0,1:2|0:0,0:0:0:0:
268,305,233285,21,2,3:2:0:0:
268,305,233320,2,0,P|230:316|203:335,1,56,2|0,1:2|0:0,0:0:0:0:
148,285,233426,69,2,3:2:0:0:
132,324,233496,2,0,P|143:349|149:376,2,56,2|2|2,3:2|3:2|0:2,0:0:0:0:
73,271,233673,5,8,1:0:0:0:
30,258,233743,2,0,P|14:223|11:200,1,56,2|0,3:2|0:0,0:0:0:0:
20,131,233849,101,2,3:2:0:0:
59,147,233920,2,0,P|83:130|99:99,1,56,2|0,3:2|0:0,0:0:0:0:
74,25,234026,21,2,1:2:0:0:
74,25,234061,1,2,3:2:0:0:
57,349,234202,5,2,3:2:0:0:
356,205,234343,101,2,3:2:0:0:
356,205,234379,2,0,P|342:166|339:143,1,56,2|0,1:2|0:0,0:0:0:0:
482,332,234519,5,2,3:2:0:0:
482,332,234555,2,0,P|446:311|423:304,1,56,2|0,3:2|0:0,0:0:0:0:
406,107,234696,101,2,3:2:0:0:
406,107,234732,2,0,P|413:66|422:44,1,56,2|0,1:2|0:0,0:0:0:0:
347,362,234872,5,0,3:2:0:0:
347,362,234908,2,0,P|333:363|320:366,1,28,2|0,3:2|0:0,0:0:0:0:
252,292,235014,86,0,P|227:280|204:258,2,56,2|8|2,3:2|1:0|3:2,0:0:0:0:
357,284,235261,5,2,3:2:0:0:
357,284,235296,1,2,3:2:0:0:
312,29,235437,37,2,1:2:0:0:
72,141,235614,102,2,P|91:146|118:150,1,44.8,6|0,1:0|0:0,0:1:0:0:
223,62,235967,38,0,P|202:85|191:107,1,56,6|0,1:2|0:0,0:0:0:0:
127,231,236143,6,0,P|106:280|74:311,1,84,2|0,1:2|0:0,0:0:0:0:
204,188,236320,6,0,P|210:229|231:262,1,56,2|0,3:2|0:0,0:0:0:0:
179,321,236461,21,2,3:2:0:0:
179,321,236496,2,0,P|217:332|239:347,1,56,8|0,1:0|0:0,0:0:0:0:
287,289,236602,69,2,3:2:0:0:
312,322,236673,2,0,P|314:345|326:382,2,56,2|2|2,3:2|3:2|0:2,0:0:0:0:
367,262,236849,5,2,1:2:0:0:
403,245,236920,2,0,P|415:208|412:179,1,56,2|0,3:2|0:0,0:0:0:0:
400,117,237026,101,2,3:2:0:0:
365,128,237096,2,0,P|334:113|320:88,1,56,2|0,3:2|0:0,0:0:0:0:
330,16,237202,21,2,1:2:0:0:
330,16,237237,1,2,3:2:0:0:
491,236,237379,5,2,3:2:0:0:
224,249,237520,101,2,3:2:0:0:
224,249,237555,2,0,P|215:205|202:183,1,56,2|0,1:2|0:0,0:0:0:0:
118,117,237696,5,2,3:2:0:0:
118,117,237731,2,0,P|79:93|66:76,1,56,2|0,3:2|0:0,0:0:0:0:
346,258,237873,101,2,3:2:0:0:
346,258,237908,2,0,P|316:224|292:211,1,56,8|0,1:0|0:0,0:0:0:0:
32,200,238049,5,2,3:2:0:0:
32,200,238084,2,0,P|27:187|25:173,1,28,2|0,3:2|0:0,0:0:0:0:
198,81,238190,86,0,P|206:49|203:20,2,56,2|2|8,3:2|1:2|3:1,0:0:0:0:
131,204,238437,5,2,3:2:0:0:
131,204,238473,1,8,1:0:0:0:
3,7,238614,37,6,1:0:0:0:
0,176,240908,101,2,3:2:0:0:
145,196,241085,5,2,3:2:0:0:
440,243,241261,102,2,P|421:238|394:234,1,44.8,6|0,1:0|0:0,0:1:0:0:
347,172,241614,22,0,P|334:143|333:106,1,56,6|0,1:2|0:0,0:0:0:0:
269,313,241790,22,0,P|288:276|338:234,1,84,2|0,1:2|0:0,0:0:0:0:
436,152,241932,37,2,3:2:0:0:
436,152,241967,2,0,P|444:122|444:91,1,56,2|0,3:2|0:0,0:0:0:0:
409,9,242073,85,2,3:2:0:0:
455,21,242143,2,0,P|490:12|510:-6,2,56,8|2|2,1:0|3:2|0:2,0:0:0:0:
342,45,242320,101,2,3:2:0:0:
306,28,242390,2,0,P|272:37|251:53,1,56,2|0,3:2|0:0,0:0:0:0:
189,92,242496,5,2,1:2:0:0:
228,120,242567,2,0,P|237:153|239:194,1,56,2|0,3:2|0:0,0:0:0:0:
195,243,242673,5,2,3:2:0:0:
195,243,242708,1,2,3:2:0:0:
179,0,242849,5,2,1:2:0:0:
412,91,242990,101,2,3:2:0:0:
412,91,243026,2,0,P|395:123|389:152,1,56,2|0,3:2|0:0,0:0:0:0:
141,117,243167,5,2,3:2:0:0:
141,117,243203,2,0,P|167:109|192:95,1,56,2|0,1:2|0:0,0:0:0:0:
465,178,243343,101,2,3:2:0:0:
465,178,243379,2,0,P|466:214|475:242,1,56,2|0,3:2|0:0,0:0:0:0:
78,40,243520,5,2,3:2:0:0:
78,40,243556,2,0,P|92:41|106:39,1,28,8|0,1:0|0:0,0:0:0:0:
251,42,243661,70,0,P|273:21|306:5,2,56,2|2|2,3:2|3:2|3:2,0:0:0:0:
283,179,243908,21,2,1:2:0:0:
283,179,243943,1,2,3:2:0:0:
78,259,244085,38,2,P|96:252|120:240,1,44.8,6|0,1:0|0:0,0:1:0:0:
195,257,244437,54,0,P|226:268|250:291,1,56,6|0,1:2|0:0,0:0:0:0:
174,184,244579,21,2,3:2:0:0:
174,184,244614,2,0,P|181:149|197:124,1,56,2|0,1:2|0:0,0:0:0:0:
211,58,244720,69,2,3:2:0:0:
251,81,244790,2,0,P|285:79|316:61,2,56,2|2|2,3:2|3:2|0:2,0:0:0:0:
135,79,244967,5,8,1:0:0:0:
137,38,245037,2,0,P|110:10|76:-5,1,56,2|0,3:2|0:0,0:0:0:0:
14,15,245143,101,2,3:2:0:0:
37,56,245214,2,0,P|21:103|21:134,1,56,2|0,3:2|0:0,0:0:0:0:
80,168,245320,21,2,1:2:0:0:
80,168,245355,1,2,3:2:0:0:
269,3,245496,5,2,3:2:0:0:
319,254,245637,101,2,3:2:0:0:
319,254,245673,2,0,P|299:227|292:202,1,56,2|0,1:2|0:0,0:0:0:0:
142,87,245814,5,2,3:2:0:0:
142,87,245850,2,0,P|162:60|169:35,1,56,2|0,3:2|0:0,0:0:0:0:
227,320,245990,101,2,3:2:0:0:
227,320,246026,2,0,P|223:286|229:261,1,56,2|0,1:2|0:0,0:0:0:0:
218,149,246167,5,2,3:2:0:0:
218,149,246203,2,0,P|217:135|213:121,1,28,2|0,3:2|0:0,0:0:0:0:
59,84,246308,86,0,P|28:66|11:38,2,56,2|8|2,3:2|1:0|3:2,0:0:0:0:
251,39,246555,5,2,3:2:0:0:
251,39,246590,1,2,3:2:0:0:
136,314,246732,21,2,1:2:0:0:
434,125,246908,6,2,P|416:132|392:144,1,44.8,6|0,1:0|0:0,0:1:0:0:
393,143,247261,101,2,3:2:0:0:
369,217,247437,5,2,3:2:0:0:
292,235,247614,101,2,3:2:0:0:
231,191,247755,101,2,3:2:0:0:
231,191,247790,1,2,3:2:0:0:
209,112,247896,70,0,P|225:87|238:77,2,42.0000016021729,2|2|2,3:2|3:2|3:2,0:0:0:0:
143,67,248143,6,0,P|138:35|126:15,1,42.0000016021729,2|2,3:2|3:2,0:0:0:0:
68,86,248320,102,0,P|43:64|21:57,1,42.0000016021729,2|2,3:2|3:2,0:0:0:0:
35,158,248497,21,2,3:2:0:0:
35,158,248532,1,2,3:2:0:0:
67,227,248673,5,2,3:2:0:0:
146,228,248814,101,2,3:2:0:0:
146,228,248849,1,2,3:2:0:0:
213,271,248990,5,2,3:2:0:0:
213,271,249026,1,2,3:2:0:0:
213,350,249167,101,2,3:2:0:0:
213,350,249203,1,8,3:1:0:0:
143,384,249343,5,2,3:2:0:0:
143,384,249379,1,2,3:2:0:0:
42,364,249485,86,0,P|24:371|2:390,2,42.0000016021729,2|2|8,3:2|3:2|3:1,0:0:0:0:
287,315,249732,5,2,3:2:0:0:
287,315,249767,1,8,3:1:0:0:
293,109,249908,37,6,1:2:0:0:
3,381,261202,101,6,1:2:0:0:
79,372,261485,5,0,1:0:0:0:
139,315,261802,21,0,1:0:0:0:
139,315,261908,1,8,3:1:0:0:
155,223,262120,69,0,1:0:0:0:
190,133,262402,5,0,1:0:0:0:
273,50,262755,101,0,1:0:0:0:
387,23,263073,5,0,1:0:0:0:
508,44,263320,85,8,3:1:0:0:
508,44,263355,1,0,1:0:0:0:
292,384,263673,5,0,1:0:0:0:
215,0,263849,5,6,1:2:0:0:
512,48,264202,101,0,1:2:0:0:
480,121,264520,5,0,1:2:0:0:
400,156,264732,37,8,3:1:0:0:
400,156,264802,1,0,1:2:0:0:
299,160,265155,53,0,1:0:0:0:
195,160,265437,5,0,1:0:0:0:
90,193,265755,101,0,1:0:0:0:
0,274,266108,85,0,1:0:0:0:
0,274,266143,1,8,3:1:0:0:
264,19,266390,37,0,1:0:0:0:
248,364,266673,101,6,1:2:0:0:
4,278,267026,5,0,1:0:0:0:
55,211,267308,101,0,1:0:0:0:
135,236,267555,69,8,3:1:0:0:
135,236,267626,1,0,1:0:0:0:
182,158,267943,53,0,1:0:0:0:
291,175,268226,101,0,1:0:0:0:
325,72,268579,5,0,1:0:0:0:
460,106,268896,37,0,1:0:0:0:
460,106,268967,1,8,3:1:0:0:
265,384,269179,53,0,1:0:0:0:
254,192,269320,5,0,1:0:0:0:
247,0,269496,101,0,1:0:0:0:
464,110,269849,5,0,1:0:0:0:
397,63,270202,101,0,1:0:0:0:
317,118,270379,21,8,3:1:0:0:
317,118,270485,1,0,1:0:0:0:
228,16,270802,101,0,1:0:0:0:
98,77,271120,102,0,P|121:74|155:60,1,56,0|0,1:0|0:0,0:0:0:0:
254,186,271402,6,0,P|285:192|326:215,1,70,0|0,1:0|0:0,0:0:0:0:
425,19,271755,85,0,1:0:0:0:
425,19,271790,2,0,P|457:11|483:-4,1,56,8|0,3:1|0:0,0:0:0:0:
387,167,272073,86,0,P|401:180|407:194,1,28,0|0,1:0|0:0,0:0:0:0:
286,116,272214,102,0,P|304:110|333:110,1,42.0000016021729,8|0,1:0|0:0,0:0:0:0:
163,175,272355,6,0,P|167:156|194:123,1,56,8|0,3:1|0:0,0:0:0:0:
97,356,272496,102,0,P|87:312|57:262,1,100.799996923828,6|0,1:0|0:0,0:0:0:0:
173,324,272637,21,2,3:2:0:0:
173,324,272673,2,0,P|200:304|235:299,1,67.1999979492188,2|0,3:2|0:0,0:0:0:0:
306,265,272779,101,2,3:2:0:0:
316,308,272849,2,0,P|347:332|384:340,2,67.1999979492188,8|2|2,1:0|3:2|0:2,0:0:0:0:
239,216,273026,101,2,3:2:0:0:
277,187,273096,2,0,P|283:147|279:100,1,67.1999979492188,2|0,3:2|0:0,0:0:0:0:
347,83,273202,5,2,1:2:0:0:
327,50,273273,2,0,P|290:41|258:19,1,67.1999979492188,2|0,3:2|0:0,0:0:0:0:
179,50,273379,21,2,3:2:0:0:
179,50,273414,1,2,3:2:0:0:
384,264,273555,101,8,1:0:0:0:
105,363,273696,5,2,3:2:0:0:
105,363,273732,2,0,P|114:320|129:293,1,67.1999979492188,2|0,3:2|0:0,0:0:0:0:
392,271,273873,101,2,3:2:0:0:
392,271,273909,2,0,P|383:228|368:201,1,67.1999979492188,2|0,1:2|0:0,0:0:0:0:
46,258,274049,5,2,3:2:0:0:
46,258,274085,2,0,P|75:225|101:209,1,67.1999979492188,2|0,3:2|0:0,0:0:0:0:
434,148,274226,101,2,3:2:0:0:
434,148,274262,2,0,P|421:137|407:128,1,33.5999989746094,8|0,1:0|0:0,0:0:0:0:
313,136,274367,86,0,P|282:132|229:104,2,67.1999979492188,2|2|2,3:2|3:2|3:2,0:0:0:0:
440,52,274614,37,2,1:2:0:0:
440,52,274649,1,2,3:2:0:0:
0,153,274790,5,2,3:2:0:0:
512,238,274967,5,8,1:0:0:0:
248,0,275143,102,2,P|248:10|251:23,1,22.4,6|0,1:0|0:0,0:1:0:0:
181,73,275496,38,0,P|149:57|136:18,1,67.1999979492188,6|0,1:2|0:0,0:0:0:0:
331,46,275673,6,0,P|275:71|252:118,1,100.799996923828,8|0,1:0|0:0,0:0:0:0:
193,156,275814,21,2,3:2:0:0:
193,156,275849,2,0,P|208:198|209:250,1,67.1999979492188,2|0,3:2|0:0,0:0:0:0:
260,280,275955,101,2,3:2:0:0:
287,248,276026,2,0,P|294:211|311:178,2,67.1999979492188,2|2|2,1:2|3:2|0:0,0:0:0:0:
179,289,276202,101,2,3:2:0:0:
144,310,276273,2,0,P|102:300|82:275,1,67.1999979492188,2|0,3:2|0:0,0:0:0:0:
20,242,276379,5,8,1:0:0:0:
54,212,276449,2,0,P|54:171|31:128,1,67.1999979492188,2|0,3:2|0:0,0:0:0:0:
1,84,276555,21,2,3:2:0:0:
1,84,276590,1,2,3:2:0:0:
76,377,276732,101,2,1:2:0:0:
315,192,276873,5,2,3:2:0:0:
315,192,276908,2,0,P|352:173|393:166,1,67.1999979492188,2|0,3:2|0:0,0:0:0:0:
120,69,277049,101,2,3:2:0:0:
120,69,277084,2,0,P|157:88|198:95,1,67.1999979492188,8|0,1:1|0:0,0:0:0:0:
327,315,277226,5,2,3:2:0:0:
327,315,277261,2,0,P|349:280|381:253,1,67.1999979492188,2|0,3:2|0:0,0:0:0:0:
247,28,277402,101,2,3:2:0:0:
247,28,277437,2,0,P|258:41|271:52,1,33.5999989746094,2|0,1:2|0:0,0:0:0:0:
393,80,277543,86,0,P|429:94|454:119,2,67.1999979492188,2|2|2,3:2|3:2|3:2,0:0:0:0:
257,131,277790,37,8,1:0:0:0:
257,131,277826,1,2,3:2:0:0:
264,384,277967,22,2,P|263:374|261:361,1,22.4,6|0,1:0|0:0,0:1:0:0:
196,308,278320,54,0,P|161:290|144:259,1,67.1999979492188,6|0,1:2|0:0,0:0:0:0:
273,286,278461,5,2,3:2:0:0:
273,286,278496,2,0,P|301:265|344:254,1,67.1999979492188,8|0,1:0|0:0,0:0:0:0:
400,217,278602,85,2,3:2:0:0:
408,264,278673,2,0,P|445:290|478:296,2,67.1999979492188,2|2|2,3:2|3:2|3:2,0:0:0:0:
331,179,278849,5,2,1:2:0:0:
361,145,278920,2,0,P|358:111|339:64,1,67.1999979492188,2|0,3:2|0:0,0:0:0:0:
311,13,279026,101,2,3:2:0:0:
357,0,279096,2,0,P|392:14|445:17,1,67.1999979492188,2|0,3:2|0:0,0:0:0:0:
512,0,279202,37,8,1:0:0:0:
512,0,279237,1,2,3:2:0:0:
476,217,279379,101,2,3:2:0:0:
276,120,279520,5,2,3:2:0:0:
276,120,279555,2,0,P|238:130|214:149,1,67.1999979492188,2|0,1:2|0:0,0:0:0:0:
364,338,279696,101,2,3:2:0:0:
364,338,279731,2,0,P|326:328|302:309,1,67.1999979492188,2|0,3:2|0:0,0:0:0:0:
267,215,279873,5,2,3:2:0:0:
267,215,279908,2,0,P|239:242|227:271,1,67.1999979492188,8|0,1:0|0:0,0:0:0:0:
426,289,280049,101,2,3:2:0:0:
426,289,280084,2,0,P|417:274|412:259,1,33.5999989746094,2|0,3:2|0:0,0:0:0:0:
386,140,280190,102,0,P|412:105|446:88,2,67.1999979492188,2|2|2,3:2|1:2|3:2,0:0:0:0:
352,212,280437,21,2,3:2:0:0:
352,212,280473,1,2,3:2:0:0:
512,384,280614,5,8,1:0:0:0:
137,42,280790,6,2,P|143:49|153:59,1,22.4,6|0,1:0|0:0,0:1:0:0:
140,148,281143,22,0,P|114:171|54:163,1,67.1999979492188,6|0,1:2|0:0,0:0:0:0:
321,57,281320,6,0,P|259:63|209:95,1,100.799996923828,8|0,1:0|0:0,0:0:0:0:
13,65,281496,6,0,P|49:74|87:117,1,67.1999979492188,2|0,3:2|0:0,0:0:0:0:
225,163,281637,5,2,3:2:0:0:
225,163,281673,2,0,P|250:198|280:211,1,67.1999979492188,2|0,1:2|0:0,0:0:0:0:
314,318,281779,85,2,3:2:0:0:
317,273,281849,2,0,P|362:248|389:248,2,67.1999979492188,2|2|2,3:2|3:2|0:2,0:0:0:0:
237,295,282026,5,8,1:0:0:0:
211,265,282096,2,0,P|170:255|133:220,1,67.1999979492188,2|0,3:2|0:0,0:0:0:0:
132,166,282202,101,2,3:2:0:0:
86,179,282273,2,0,P|64:219|71:262,1,67.1999979492188,2|0,3:2|0:0,0:0:0:0:
107,316,282379,37,2,1:2:0:0:
107,316,282414,1,2,3:2:0:0:
343,170,282555,101,2,3:2:0:0:
112,25,282696,5,2,3:2:0:0:
112,25,282732,2,0,P|129:57|137:89,1,67.1999979492188,8|0,1:0|0:0,0:0:0:0:
245,302,282873,101,2,3:2:0:0:
245,302,282909,2,0,P|220:328|204:357,1,67.1999979492188,2|0,3:2|0:0,0:0:0:0:
2,67,283049,5,2,3:2:0:0:
2,67,283085,2,0,P|32:86|55:109,1,67.1999979492188,2|0,1:2|0:0,0:0:0:0:
320,366,283226,101,2,3:2:0:0:
320,366,283262,2,0,P|305:374|291:383,1,33.5999989746094,2|0,3:2|0:0,0:0:0:0:
134,384,283367,102,0,P|95:366|80:326,2,67.1999979492188,2|8|8,3:2|1:0|3:1,0:0:0:0:
329,278,283614,21,2,3:2:0:0:
329,278,283649,1,8,3:1:0:0:
131,131,283790,70,0,P|136:100|143:86,1,42.0000016021729,6|0,1:2|0:0,0:0:0:0:
210,56,283932,21,2,3:2:0:0:
210,56,283967,1,2,3:2:0:0:
117,14,284073,101,2,1:2:0:0:
70,22,284143,2,0,P|38:3|26:-15,1,42.0000016021729,8|2,3:1|3:2,0:0:0:0:
225,135,284320,101,2,3:2:0:0:
268,108,284390,2,2,B|294:110|321:145|316:151|335:188|379:199,1,147.000005607605,2|0,1:2|0:0,0:1:0:0:
448,157,284673,37,2,3:2:0:0:
448,157,284708,1,2,1:2:0:0:
255,220,284849,101,8,3:1:0:0:
64,289,284990,5,2,1:2:0:0:
64,289,285026,2,2,B|90:287|117:252|112:246|131:209|175:198,1,147.000005607605,2|0,3:2|0:0,0:1:0:0:
276,312,285343,101,2,1:2:0:0:
276,312,285379,1,2,3:2:0:0:
339,62,285520,5,2,3:2:0:0:
339,62,285555,1,8,3:1:0:0:
176,122,285661,85,2,1:2:0:0:
148,113,285732,1,2,3:2:0:0:
138,88,285802,1,2,3:2:0:0:
257,142,285908,5,2,3:2:0:0:
257,142,285943,1,2,1:2:0:0:
150,8,286085,21,2,3:2:0:0:
178,202,286261,5,8,1:0:0:0:
375,342,286438,102,2,P|368:334|359:325,1,22.4,6|0,1:0|0:0,0:1:0:0:
350,247,286790,22,0,P|355:224|373:199,1,42.0000016021729,6|0,1:2|0:0,0:0:0:0:
174,293,286967,22,0,P|194:281|220:276,1,42.0000016021729,8|0,1:0|0:0,0:0:0:0:
290,301,287108,37,2,1:2:0:0:
290,301,287143,1,2,3:2:0:0:
433,245,287249,85,2,3:2:0:0:
453,209,287320,2,0,P|440:178|436:157,1,42.0000016021729,2|2,3:2|1:2,0:0:0:0:
277,142,287496,101,2,3:2:0:0:
322,119,287567,2,0,P|332:94|333:65,1,42.0000016021729,2|0,3:2|0:0,0:0:0:0:
395,35,287673,5,8,3:1:0:0:
381,7,287743,1,2,1:2:0:0:
210,190,287849,5,2,3:2:0:0:
210,190,287885,2,2,B|166:183|155:149|159:143|140:106|97:101,1,147.000005607605,2|0,3:2|0:0,0:1:0:0:
0,157,288167,5,2,3:2:0:0:
0,157,288202,1,2,3:2:0:0:
217,98,288343,101,2,1:2:0:0:
217,98,288379,1,8,3:1:0:0:
24,42,288520,5,2,3:2:0:0:
24,42,288555,1,2,3:2:0:0:
276,239,288696,101,2,1:2:0:0:
276,239,288732,2,0,P|273:249|272:260,1,21.0000008010865,2|0,3:2|0:0,0:0:0:0:
299,332,288837,86,0,P|311:363|313:382,2,42.0000016021729,2|2|2,3:2|3:2|1:2,0:0:0:0:
194,270,289085,37,8,3:1:0:0:
194,270,289120,1,2,3:2:0:0:
72,141,289261,22,2,P|81:143|95:145,1,22.4,6|0,1:0|0:0,0:1:0:0:
166,107,289614,22,0,P|182:95|200:70,1,42.0000016021729,6|0,1:2|0:0,0:0:0:0:
170,6,289755,37,2,3:2:0:0:
170,6,289790,1,8,3:1:0:0:
162,188,289896,101,2,1:2:0:0:
196,179,289967,2,0,P|228:191|243:205,1,42.0000016021729,2|2,3:2|3:2,0:0:0:0:
274,262,290143,101,2,3:2:0:0:
305,240,290214,2,0,P|313:210|307:183,1,42.0000016021729,2|0,1:2|0:0,0:0:0:0:
276,132,290320,5,2,3:2:0:0:
287,107,290390,1,2,3:2:0:0:
117,257,290496,5,8,3:1:0:0:
117,257,290532,1,2,1:2:0:0:
280,381,290673,6,2,B|323:391|352:361|352:351|384:323|439:341,1,168.000006408692,2|0,3:2|0:0,0:1:0:0:
506,384,290990,101,2,3:2:0:0:
506,384,291026,1,2,3:2:0:0:
282,270,291167,5,2,1:2:0:0:
282,270,291202,1,8,3:1:0:0:
58,167,291343,101,2,3:2:0:0:
58,167,291379,1,2,3:2:0:0:
121,261,291485,101,2,1:2:0:0:
158,247,291555,1,2,3:2:0:0:
169,209,291626,1,2,3:2:0:0:
100,97,291732,5,2,3:2:0:0:
100,97,291767,1,2,1:2:0:0:
169,328,291908,21,8,1:0:0:0:
440,243,292085,6,2,P|430:240|417:238,1,22.4,6|0,1:0|0:0,0:1:0:0:
371,168,292437,6,0,P|357:137|356:118,1,42.0000016021729,6|0,1:2|0:0,0:0:0:0:
282,287,292614,22,0,P|304:261|337:238,1,63.0000024032594,8|0,3:1|0:0,0:0:0:0:
480,170,292790,53,2,1:2:0:0:
273,84,292932,1,2,3:2:0:0:
482,30,293073,69,2,1:2:0:0:
445,56,293143,1,2,3:2:0:0:
435,94,293214,1,2,3:2:0:0:
484,173,293320,101,8,3:1:0:0:
499,200,293390,2,0,P|491:229|489:259,1,42.0000016021729,2|0,1:2|0:0,0:0:0:0:
512,312,293496,5,2,3:2:0:0:
480,328,293567,2,0,P|460:318|443:302,1,42.0000016021729,2|0,3:2|0:0,0:0:0:0:
414,234,293673,21,2,3:2:0:0:
414,234,293708,1,2,1:2:0:0:
512,101,293849,101,2,3:2:0:0:
284,166,293990,5,2,1:2:0:0:
284,166,294026,2,0,P|291:186|292:211,1,42.0000016021729,8|0,3:1|0:0,0:0:0:0:
339,284,294167,101,2,3:2:0:0:
339,284,294203,2,0,P|325:300|316:323,1,42.0000016021729,2|0,3:2|0:0,0:0:0:0:
218,252,294343,5,2,1:2:0:0:
218,252,294379,2,0,P|234:265|247:286,1,42.0000016021729,2|0,3:2|0:0,0:0:0:0:
374,371,294520,101,2,3:2:0:0:
374,371,294556,2,0,P|365:377|357:383,1,21.0000008010865,2|0,3:2|0:0,0:0:0:0:
256,384,294661,85,2,1:2:0:0:
228,375,294732,1,8,3:1:0:0:
212,353,294802,1,8,1:0:0:0:
373,212,294908,37,2,3:2:0:0:
373,212,294943,1,8,3:1:0:0:
90,226,295085,54,0,P|48:194|33:130,1,100.799996923828,6|0,1:0|0:0,0:0:0:0:
103,350,295226,37,2,3:2:0:0:
103,350,295261,2,0,P|118:315|151:286,1,67.1999979492188,2|0,3:2|0:0,0:0:0:0:
218,252,295367,101,2,3:2:0:0:
239,219,295437,1,2,1:2:0:0:
225,179,295508,2,0,P|187:158|138:163,1,67.1999979492188,2|0,3:2|0:0,0:0:0:0:
101,109,295614,101,2,3:2:0:0:
129,82,295685,2,0,P|165:78|197:60,1,67.1999979492188,2|0,3:2|0:0,0:0:0:0:
249,8,295790,5,8,1:0:0:0:
280,43,295861,2,0,P|265:82|263:110,1,67.1999979492188,2|0,3:2|0:0,0:0:0:0:
306,175,295967,21,2,3:2:0:0:
306,175,296002,1,2,3:2:0:0:
25,70,296143,101,2,1:2:0:0:
22,372,296285,5,2,3:2:0:0:
22,372,296320,2,0,P|58:357|98:358,1,67.1999979492188,2|0,3:2|0:0,0:0:0:0:
374,93,296461,101,2,3:2:0:0:
374,93,296497,2,0,P|388:135|429:168,1,67.1999979492188,2|0,1:2|0:0,0:0:0:0:
150,309,296638,5,2,3:2:0:0:
150,309,296673,2,0,P|188:314|222:334,1,67.1999979492188,2|0,3:2|0:0,0:0:0:0:
400,252,296814,101,2,3:2:0:0:
400,252,296850,2,0,P|415:260|431:265,1,33.5999989746094,2|0,1:2|0:0,0:0:0:0:
475,332,296955,85,2,3:2:0:0:
497,352,297026,1,2,3:2:0:0:
509,383,297096,1,2,3:2:0:0:
510,264,297202,37,8,1:0:0:0:
510,264,297237,1,2,3:2:0:0:
396,338,297379,21,2,3:2:0:0:
267,111,297555,101,2,1:2:0:0:
78,259,297732,6,2,P|87:255|99:249,1,22.4,6|0,1:0|0:0,0:1:0:0:
162,195,298085,6,0,P|174:161|169:121,1,67.1999979492188,6|0,1:2|0:0,0:0:0:0:
262,328,298261,38,0,P|206:287|146:273,1,100.799996923828,2|0,1:2|0:0,0:0:0:0:
84,140,298402,5,2,3:2:0:0:
84,140,298437,2,0,P|60:102|59:64,1,67.1999979492188,2|0,3:2|0:0,0:0:0:0:
108,21,298543,85,2,3:2:0:0:
128,50,298614,1,8,1:0:0:0:
161,54,298685,2,0,P|197:36|214:0,1,67.1999979492188,2|0,3:2|0:0,0:0:0:0:
281,49,298790,5,2,3:2:0:0:
311,19,298861,2,0,P|362:34|382:65,1,67.1999979492188,2|0,3:2|0:0,0:0:0:0:
428,94,298967,101,2,1:2:0:0:
386,121,299037,2,0,P|369:158|367:201,1,67.1999979492188,2|0,3:2|0:0,0:0:0:0:
414,251,299143,37,2,3:2:0:0:
414,251,299179,1,2,3:2:0:0:
472,0,299320,101,2,1:2:0:0:
232,112,299461,5,2,3:2:0:0:
232,112,299496,2,0,P|245:158|240:197,1,67.1999979492188,2|0,3:2|0:0,0:0:0:0:
421,259,299637,101,2,3:2:0:0:
421,259,299672,2,0,P|386:292|371:328,1,67.1999979492188,2|0,1:2|0:0,0:0:0:0:
143,187,299814,5,2,3:2:0:0:
143,187,299849,2,0,P|177:220|192:256,1,67.1999979492188,2|0,3:2|0:0,0:0:0:0:
436,367,299990,101,2,3:2:0:0:
436,367,300025,2,0,P|421:373|407:382,1,33.5999989746094,8|0,1:0|0:0,0:0:0:0:
315,384,300132,101,2,3:2:0:0:
304,352,300202,1,2,3:2:0:0:
273,337,300273,1,2,3:2:0:0:
152,359,300379,21,2,1:2:0:0:
152,359,300414,1,2,3:2:0:0:
434,125,300555,6,2,P|425:128|413:134,1,22.4,6|0,1:0|0:0,0:1:0:0:
345,179,300908,54,0,P|304:161|288:116,1,67.1999979492188,6|0,1:2|0:0,0:0:0:0:
429,216,301049,21,2,3:2:0:0:
429,216,301085,2,0,P|398:248|393:279,1,67.1999979492188,2|0,1:2|0:0,0:0:0:0:
341,331,301190,101,2,3:2:0:0:
303,344,301261,1,2,3:2:0:0:
272,324,301332,2,0,P|255:284|261:235,1,67.1999979492188,2|0,3:2|0:0,0:0:0:0:
223,187,301437,101,8,1:0:0:0:
182,191,301508,2,0,P|158:225|159:268,1,67.1999979492188,2|0,3:2|0:0,0:0:0:0:
89,326,301614,5,2,3:2:0:0:
123,347,301685,2,0,P|157:331|200:327,1,67.1999979492188,2|0,3:2|0:0,0:0:0:0:
262,268,301790,21,2,1:2:0:0:
262,268,301826,1,2,3:2:0:0:
486,384,301967,101,2,3:2:0:0:
512,137,302108,5,2,3:2:0:0:
512,137,302143,2,0,P|472:118|454:94,1,67.1999979492188,2|0,1:2|0:0,0:0:0:0:
354,342,302285,101,2,3:2:0:0:
354,342,302320,2,0,P|357:297|345:270,1,67.1999979492188,2|0,3:2|0:0,0:0:0:0:
462,16,302461,5,2,3:2:0:0:
462,16,302496,2,0,P|417:19|390:7,1,67.1999979492188,2|0,1:2|0:0,0:0:0:0:
282,241,302638,101,2,3:2:0:0:
282,241,302673,2,0,P|288:226|290:209,1,33.5999989746094,2|0,3:2|0:0,0:0:0:0:
318,129,302779,85,2,3:2:0:0:
288,105,302849,1,8,1:0:0:0:
283,62,302920,1,2,3:2:0:0:
400,158,303026,37,2,3:2:0:0:
400,158,303061,1,2,3:2:0:0:
144,117,303202,21,2,1:2:0:0:
152,351,303379,102,2,P|157:343|163:331,1,22.4,6|0,1:0|0:0,0:1:0:0:
157,253,303732,38,0,P|136:220|100:199,1,67.1999979492188,6|0,1:2|0:0,0:0:0:0:
305,226,303908,22,0,P|270:272|201:287,1,100.799996923828,2|0,1:2|0:0,0:0:0:0:
25,322,304085,102,0,P|64:303|101:305,1,67.1999979492188,2|0,3:2|0:0,0:0:0:0:
236,366,304226,21,2,3:2:0:0:
236,366,304261,2,0,P|269:381|318:364,1,67.1999979492188,8|0,1:0|0:0,0:0:0:0:
404,356,304367,101,2,3:2:0:0:
367,339,304437,1,2,3:2:0:0:
363,301,304508,2,0,P|386:268|426:254,1,67.1999979492188,2|0,3:2|0:0,0:0:0:0:
471,210,304614,101,2,1:2:0:0:
443,186,304685,2,0,P|440:155|409:114,1,67.1999979492188,2|0,3:2|0:0,0:0:0:0:
345,114,304790,5,2,3:2:0:0:
343,77,304861,2,0,P|366:58|416:44,1,67.1999979492188,2|0,3:2|0:0,0:0:0:0:
477,70,304967,21,2,1:2:0:0:
477,70,305002,1,2,3:2:0:0:
192,184,305143,101,2,3:2:0:0:
475,323,305285,5,2,3:2:0:0:
475,323,305320,2,0,P|478:282|493:246,1,67.1999979492188,2|0,1:2|0:0,0:0:0:0:
257,112,305461,101,2,3:2:0:0:
257,112,305496,2,0,P|246:72|225:39,1,67.1999979492188,2|0,3:2|0:0,0:0:0:0:
392,384,305637,5,2,3:2:0:0:
392,384,305672,2,0,P|374:346|369:308,1,67.1999979492188,8|0,1:0|0:0,0:0:0:0:
347,150,305813,101,2,3:2:0:0:
347,150,305849,2,0,P|349:134|349:117,1,33.5999989746094,2|0,3:2|0:0,0:0:0:0:
408,63,305955,85,2,3:2:0:0:
428,34,306026,1,2,1:2:0:0:
462,25,306096,1,8,3:1:0:0:
449,170,306202,37,2,3:2:0:0:
449,170,306237,1,8,3:1:0:0:
229,205,306379,86,0,P|208:187|183:174,1,42.0000016021729,6|0,1:2|0:0,0:0:0:0:
116,201,306520,5,2,3:2:0:0:
116,201,306555,1,2,3:2:0:0:
53,118,306661,85,2,1:2:0:0:
58,83,306732,1,2,3:2:0:0:
93,62,306802,1,2,3:2:0:0:
162,0,306909,5,2,3:2:0:0:
185,32,306979,2,2,B|220:40|235:72|230:83|246:118|294:130,1,147.000005607605,2|0,1:2|0:0,0:1:0:0:
372,126,307261,5,2,3:2:0:0:
372,126,307296,1,2,1:2:0:0:
200,183,307437,5,2,3:2:0:0:
451,259,307579,101,2,1:2:0:0:
451,259,307614,2,2,B|415:254|390:279|391:291|364:318|315:313,1,147.000005607605,2|0,3:2|0:0,0:1:0:0:
245,273,307932,5,2,1:2:0:0:
245,273,307967,1,2,3:2:0:0:
402,336,308108,101,2,3:2:0:0:
402,336,308143,1,2,3:2:0:0:
280,378,308249,85,2,1:2:0:0:
247,356,308320,1,2,3:2:0:0:
205,348,308390,1,2,3:2:0:0:
79,373,308496,37,2,3:2:0:0:
79,373,308532,1,8,1:0:0:0:
128,264,308673,21,2,3:2:0:0:
319,235,308849,101,2,1:2:0:0:
360,33,309026,6,2,P|355:41|348:53,1,22.4,6|0,1:0|0:0,0:1:0:0:
242,41,309379,6,0,P|213:29|198:9,1,42.0000016021729,6|0,1:2|0:0,0:0:0:0:
405,181,309555,38,0,P|393:155|361:125,1,63.0000024032594,2|0,3:2|0:0,0:0:0:0:
293,109,309696,5,2,1:2:0:0:
293,109,309732,1,2,3:2:0:0:
200,161,309837,85,2,3:2:0:0:
170,148,309908,1,8,3:1:0:0:
164,116,309979,1,2,1:2:0:0:
272,184,310085,5,2,3:2:0:0:
288,224,310155,2,0,P|276:249|274:270,1,42.0000016021729,2|0,3:2|0:0,0:0:0:0:
305,335,310261,101,2,3:2:0:0:
261,342,310332,2,0,P|246:331|213:321,1,42.0000016021729,2|0,1:2|0:0,0:0:0:0:
194,245,310437,37,2,3:2:0:0:
194,245,310473,2,2,B|154:252|132:280|138:290|116:317|77:328,1,147.000005607605,2|0,3:2|0:2,0:1:0:0:
4,371,310755,101,2,3:2:0:0:
4,371,310790,1,2,3:2:0:0:
119,259,310932,5,2,3:2:0:0:
119,259,310967,1,2,1:2:0:0:
0,158,311108,101,2,3:2:0:0:
0,158,311143,1,2,3:2:0:0:
143,384,311285,5,2,1:2:0:0:
143,384,311320,2,0,P|149:353|161:334,1,42.0000016021729,8|0,1:0|0:0,0:0:0:0:
270,265,311426,85,2,3:2:0:0:
294,231,311496,1,2,3:2:0:0:
288,184,311567,1,2,1:2:0:0:
154,116,311673,21,2,3:2:0:0:
154,116,311708,1,0,0:0:0:0:
264,384,311849,6,2,P|263:374|261:361,1,22.4,6|0,1:0|0:0,0:1:0:0:
193,277,312202,54,0,P|173:260|163:241,1,42.0000016021729,6|0,1:2|0:0,0:0:0:0:
362,339,312343,21,2,3:2:0:0:
362,339,312379,2,0,P|340:325|312:316,1,42.0000016021729,2|0,3:2|0:0,0:0:0:0:
185,358,312485,101,2,1:2:0:0:
152,375,312556,1,2,3:2:0:0:
119,366,312626,1,2,3:2:0:0:
46,318,312732,101,8,3:1:0:0:
78,288,312802,2,0,P|76:263|62:241,1,42.0000016021729,2|0,1:2|0:0,0:0:0:0:
97,175,312908,5,2,3:2:0:0:
61,153,312979,2,0,P|67:121|80:102,1,42.0000016021729,2|0,3:2|0:0,0:0:0:0:
141,74,313085,21,2,3:2:0:0:
141,74,313120,1,2,1:2:0:0:
213,154,313261,102,2,B|262:153|283:118|282:108|307:68|355:68,1,168.000006408692,2|0,3:2|0:0,0:1:0:0:
431,99,313579,5,2,3:2:0:0:
431,99,313614,1,2,3:2:0:0:
171,0,313755,101,2,1:2:0:0:
171,0,313790,1,2,3:2:0:0:
388,230,313932,5,2,3:2:0:0:
388,230,313967,1,2,3:2:0:0:
217,158,314073,69,2,1:2:0:0:
186,179,314143,1,8,3:1:0:0:
183,217,314214,1,2,3:2:0:0:
270,302,314320,21,2,3:2:0:0:
270,302,314355,1,2,1:2:0:0:
354,151,314496,37,2,1:2:0:0:
248,0,314673,102,2,P|248:10|251:23,1,22.4,6|0,1:0|0:0,0:1:0:0:
210,91,315026,38,0,P|185:79|170:57,1,42.0000016021729,6|0,1:2|0:0,0:0:0:0:
344,65,315202,6,0,P|307:78|282:105,1,63.0000024032594,2|0,3:2|0:0,0:0:0:0:
252,162,315379,69,2,1:2:0:0:
406,254,315520,85,2,3:2:0:0:
406,254,315555,1,8,3:1:0:0:
473,192,315661,85,2,1:2:0:0:
461,156,315732,1,2,3:2:0:0:
421,142,315802,1,2,3:2:0:0:
347,191,315908,101,2,3:2:0:0:
318,229,315979,2,0,P|325:269|322:289,1,42.0000016021729,2|0,1:2|0:0,0:0:0:0:
293,341,316085,5,2,3:2:0:0:
333,357,316155,2,0,P|358:340|381:336,1,42.0000016021729,2|0,3:2|0:0,0:0:0:0:
449,330,316261,5,2,3:2:0:0:
449,330,316296,2,0,P|468:319|479:300,1,42.0000016021729,2|0,1:2|0:0,0:0:0:0:
512,225,316437,6,0,P|511:203|501:184,1,42.0000016021729,2|0,1:2|0:0,0:0:0:0:
497,81,316579,101,2,1:2:0:0:
497,81,316614,2,0,P|477:70|456:70,1,42.0000016021729,2|0,3:2|0:0,0:0:0:0:
356,0,316755,5,2,3:2:0:0:
356,0,316790,2,0,P|337:10|325:29,1,42.0000016021729,2|0,3:2|0:0,0:0:0:0:
180,68,316932,101,2,1:2:0:0:
180,68,316967,2,0,P|180:89|190:108,1,42.0000016021729,8|0,3:1|0:0,0:0:0:0:
143,264,317108,5,2,3:2:0:0:
142,263,317143,2,0,P|161:273|195:279,1,33.5999989746094,2|0,3:2|0:0,0:0:0:0:
320,267,317249,69,2,1:2:0:0:
342,234,317320,1,2,3:2:0:0:
336,196,317390,1,8,1:0:0:0:
197,115,317496,21,2,3:2:0:0:
197,115,317532,1,8,3:1:0:0:
246,329,317673,22,0,P|239:356|234:383,1,56,6|0,1:2|0:0,0:0:0:0:
375,130,317955,2,0,P|382:103|390:49,1,70,0|0,1:0|0:0,0:0:0:0:
182,274,318273,6,0,P|155:281|109:297,1,70,0|0,1:2|0:0,0:0:0:0:
426,196,318590,2,0,P|452:188|487:173,1,56,0|0,1:0|0:0,0:0:0:0:
89,145,318873,101,0,1:0:0:0:
508,308,319226,1,0,1:0:0:0:
89,145,319543,1,0,1:0:0:0:
309,231,319790,101,8,3:1:0:0:
309,231,319826,1,0,1:0:0:0:
269,346,320143,86,0,P|267:325|262:305,1,42,0|0,1:0|0:0,0:0:0:0:
354,123,320320,54,0,P|359:95|374:51,1,70,0|0,1:0|0:0,0:0:0:0:
382,317,320673,2,0,P|377:345|362:389,1,70,0|0,1:0|0:0,0:0:0:0:
283,157,320990,102,0,P|273:130|268:99,1,56,0|0,1:0|0:0,0:0:0:0:
455,282,321273,2,0,P|464:308|473:354,1,70,0|0,1:0|0:0,0:0:0:0:
512,174,321626,6,0,P|478:162|455:159,1,56,0|0,1:0|0:0,0:0:0:0:
274,283,321908,2,0,P|246:278|220:268,1,56,0|0,1:0|0:0,0:0:0:0:
211,85,322226,102,0,P|238:90|264:99,1,56,0|0,1:0|0:0,0:0:0:0:
511,362,322579,85,0,1:0:0:0:
511,362,322614,2,0,P|483:357|463:350,1,42,8|0,3:1|0:0,0:0:0:0:
374,219,322861,37,0,1:0:0:0:
127,364,323143,101,0,1:0:0:0:
127,364,323496,5,0,1:0:0:0:
53,327,323779,101,0,1:0:0:0:
36,238,324096,5,0,1:0:0:0:
85,146,324414,101,0,1:0:0:0:
196,105,324696,5,0,1:0:0:0:
311,142,325049,101,0,1:0:0:0:
405,212,325367,53,0,1:0:0:0:
405,212,325437,1,8,3:1:0:0:
512,223,325649,69,0,1:0:0:0:
276,207,325790,101,0,1:0:0:0:
28,192,325967,6,0,P|22:94|11:50,1,140,0|0,1:2|1:0,0:0:0:0:
337,273,326673,2,0,P|322:343|318:383,1,112,0|0,1:2|1:0,0:0:0:0:
24,315,327273,102,0,P|63:275|134:251,1,126,0|0,1:0|1:0,0:0:0:0:
434,161,327873,2,0,P|374:141|324:81,1,140,0|0,1:0|1:0,0:0:0:0:
325,83,328261,101,8,1:0:0:0:
257,244,328543,22,0,P|254:216|246:190,1,56,0|0,1:0|1:0,0:0:0:0:
83,51,328967,102,0,P|55:44|31:29,1,56,6|0,1:2|0:0,0:0:0:0:
251,186,329249,2,0,P|287:194|319:212,1,70,0|0,1:0|0:0,0:0:0:0:
78,159,329567,6,0,P|41:174|11:182,1,70,0|0,1:2|0:0,0:0:0:0:
278,55,329884,2,0,P|304:43|339:32,1,56,0|0,1:0|0:0,0:0:0:0:
196,351,330167,101,0,1:0:0:0:
158,0,330520,1,0,1:0:0:0:
196,351,330837,1,0,1:0:0:0:
158,0,331120,1,0,1:0:0:0:
203,79,331437,70,0,P|192:105|187:124,1,42,0|0,1:0|0:0,0:0:0:0:
117,234,331614,54,0,P|128:261|132:301,1,70,0|0,1:0|0:0,0:0:0:0:
71,94,331967,2,0,P|76:66|91:22,1,70,0|0,1:0|0:0,0:0:0:0:
205,331,332284,102,0,P|200:358|191:384,1,56,0|0,1:0|0:0,0:0:0:0:
18,201,332567,2,0,P|8:174|0:128,1,70,0|0,1:0|0:0,0:0:0:0:
10,352,332920,6,0,P|36:341|63:337,1,56,0|0,1:0|0:0,0:0:0:0:
201,243,333202,2,0,P|227:255|255:262,1,56,0|0,1:0|0:0,0:0:0:0:
333,355,333520,102,0,P|307:366|262:372,1,70,0|0,1:0|0:0,0:0:0:0:
74,215,333873,2,0,P|48:203|20:196,1,56,0|0,1:0|0:0,0:0:0:0:
132,301,334155,5,0,1:0:0:0:
398,150,334437,101,0,1:0:0:0:
398,150,334790,5,0,1:0:0:0:
331,110,335073,101,0,1:0:0:0:
248,132,335390,5,0,1:0:0:0:
206,219,335708,101,0,1:0:0:0:
237,317,335990,5,0,1:0:0:0:
347,357,336343,101,0,1:0:0:0:
475,316,336661,5,0,1:0:0:0:
483,167,336943,101,0,1:0:0:0:
315,231,337084,5,0,1:0:0:0:
115,78,337261,102,0,P|178:100|259:108,1,140,0|0,1:0|1:0,0:0:0:0:
471,312,337967,2,0,P|437:300|356:292,1,112,0|0,1:0|1:0,0:0:0:0:
132,317,338567,6,0,P|191:281|249:264,1,126,0|0,1:0|1:0,0:0:0:0:
481,37,339167,2,0,P|429:72|351:107,1,140,0|0,1:0|1:0,0:0:0:0:
304,209,339837,102,0,P|294:183|294:156,1,56,0|0,1:0|1:0,0:0:0:0:
226,31,340261,5,6,1:2:0:0:
213,14,340437,1,0,0:0:0:0:
195,5,340614,1,0,0:0:0:0:
175,3,340790,1,0,0:0:0:0:
189,139,341143,101,0,0:0:0:0:
205,121,341320,1,0,0:0:0:0:
227,111,341496,1,0,0:0:0:0:
306,36,341849,5,0,0:0:0:0:
329,40,342026,1,0,0:0:0:0:
343,60,342202,1,0,0:0:0:0:
417,0,342555,101,0,0:0:0:0:
463,62,342732,2,0,P|449:78|437:104,1,42,0|0,1:0|0:0,0:0:0:0:
339,64,342908,6,0,P|390:98|421:179,1,140,6|0,1:2|0:0,0:0:0:0:
420,168,343437,1,0,0:0:0:0:
287,278,343614,5,0,0:0:0:0:
264,204,343720,21,0,0:0:0:0:
295,190,343790,2,0,P|336:202|360:228,2,70
391,295,344320,21,0,0:0:0:0:
391,295,344355,2,0,P|407:217|430:171,1,126
501,134,344849,21,0,0:0:0:0:
512,59,345026,1,0,0:0:0:0:
454,9,345202,1,0,0:0:0:0:
378,18,345379,1,0,0:0:0:0:
348,88,345555,1,0,0:0:0:0:
491,253,345732,5,6,1:2:0:0:
491,253,346085,101,0,0:0:0:0:
468,229,346261,1,0,0:0:0:0:
431,225,346437,1,0,0:0:0:0:
401,239,346614,1,0,0:0:0:0:
385,268,346790,1,0,0:0:0:0:
392,302,346967,1,0,0:0:0:0:
417,324,347143,1,0,0:0:0:0:
331,378,347496,5,0,0:0:0:0:
296,372,347673,1,0,0:0:0:0:
254,278,347849,21,0,0:0:0:0:
221,346,347955,21,0,0:0:0:0:
188,321,348026,2,0,P|154:326|114:342,1,70
13,263,348379,2,0,P|34:276|57:282,1,42,0|0,1:0|0:0,0:0:0:0:
54,376,348555,38,0,P|70:334|127:250,1,140,6|0,1:2|0:0,0:0:0:0:
122,255,349085,1,0,0:0:0:0:
159,248,349261,1,0,0:0:0:0:
176,217,349437,1,0,0:0:0:0:
172,186,349614,1,0,0:0:0:0:
147,164,349790,1,0,0:0:0:0:
111,157,349967,1,0,0:0:0:0:
79,140,350143,1,0,0:0:0:0:
64,108,350320,1,0,0:0:0:0:
71,75,350496,6,0,P|105:66|137:49,1,70
295,59,350849,2,0,P|261:68|229:85,1,70
49,219,351202,37,0,0:0:0:0:
49,219,351273,1,0,0:0:0:0:
322,384,351555,54,0,P|362:214|428:67,1,336,6|0,1:2|0:0,0:0:0:0:
428,67,354026,70,0,P|429:86|424:112,1,42,0|0,1:0|0:0,0:0:0:0:
509,366,354202,54,0,P|389:238|235:124,1,367.49998878479,6|0,1:2|0:0,0:0:0:0:
88,0,357026,102,0,P|128:170|196:326,1,342.999989532471,6|0,1:2|0:0,0:0:0:0:
195,323,359673,54,0,P|196:304|191:278,1,42,0|0,1:0|0:0,0:0:0:0:
275,18,359849,70,0,P|155:145|-3:262,1,369.59999887207,6|0,1:2|0:0,0:0:0:0:
492,329,362849,102,0,P|503:355|513:387,1,58.7999982055665,0|0,1:0|0:0,0:0:0:0:
