osu file format v14

[General]
AudioFilename: audio.mp3
AudioLeadIn: 0
PreviewTime: -1
Countdown: 0
SampleSet: Normal
StackLeniency: 0.2
Mode: 0
LetterboxInBreaks: 0
WidescreenStoryboard: 1

[Editor]
Bookmarks: 20784,41319,72041,82709,102923,123458,154260
DistanceSpacing: 1.2
BeatDivisor: 8
GridSize: 8
TimelineZoom: 2.7

[Metadata]
Title:Bug Thief
TitleUnicode:Bug Thief
Artist:IGLOOGHOST
ArtistUnicode:IGLOOGHOST
Creator:Orenjijusu
Version:Retina
Source:Neo Wax Gloom
Tags:
BeatmapID:1578594
BeatmapSetID:749450

[Difficulty]
HPDrainRate:6
CircleSize:4
OverallDifficulty:8
ApproachRate:9.5
SliderMultiplier:1.7
SliderTickRate:1

[Events]
//Background and Video events
0,0,"56485767_p0.jpg",0,0
//Break Periods
//Storyboard Layer 0 (Background)
//Storyboard Layer 1 (Fail)
//Storyboard Layer 2 (Pass)
//Storyboard Layer 3 (Foreground)
//Storyboard Sound Samples

[TimingPoints]
250,320.855614973262,4,1,0,75,1,0
250,-133.333333333333,4,1,0,25,0,0
6987,-250,4,1,0,45,0,0
7950,-125,4,1,0,45,0,0
8592,-100,4,1,0,25,0,0
8692,-83.3333333333333,4,1,0,25,0,0
8913,-71.4285714285714,4,1,0,25,0,0
9073,-62.5,4,1,0,25,0,0
9233,-50,4,1,0,25,0,0
9715,-133.333333333333,4,1,0,25,0,0
10517,-76.9230769230769,4,1,0,25,0,0
20143,-153.846153846154,4,1,0,45,0,0
20784,-66.6666666666667,4,1,0,45,0,0
21266,-153.846153846154,4,1,0,45,0,0
23351,-66.6666666666667,4,1,0,45,0,0
23832,-153.846153846154,4,1,0,45,0,0
25437,-76.9230769230769,4,1,0,25,0,0
25597,-62.5,4,1,0,25,0,0
25758,-52.6315789473684,4,1,0,25,0,0
25918,-200,4,1,0,45,0,0
26560,-60.6060606060606,4,1,0,45,0,0
27201,-35,4,1,0,45,0,0
27843,-60.6060606060606,4,1,0,45,0,0
28485,-76.9230769230769,4,1,0,25,0,0
30089,-100,4,1,0,25,0,0
31052,-50,4,1,0,45,0,0
32014,-133.333333333333,4,1,0,25,0,0
32656,-266.666666666667,4,1,0,25,0,0
33298,-100,4,1,0,25,0,0
33618,-66.6666666666667,4,1,0,45,0,0
34581,-133.333333333333,4,1,0,25,0,0
35223,-266.666666666667,4,1,0,25,0,0
35704,-76.9230769230769,4,1,0,45,0,0
39715,-100,4,1,0,45,0,0
42602,-200,4,1,0,45,0,0
43886,-100,4,1,0,45,0,0
48378,-66.6666666666667,4,1,0,45,0,0
49661,-80,4,1,0,45,0,0
49982,-100,4,1,0,45,0,0
50303,-133.333333333333,4,1,0,45,0,0
50945,-66.6666666666667,4,1,0,45,0,0
56720,-100,4,1,0,45,0,0
59287,-66.6666666666667,4,1,0,45,0,0
67950,-57.1428571428571,4,1,0,45,0,0
72442,-25,4,1,0,45,0,0
72482,-26.3157894736841,4,2,0,5,0,0
72522,-26.3157894736841,4,1,0,45,0,0
72562,-26.3157894736841,4,2,0,5,0,0
72602,-27.7777777777778,4,1,0,45,0,0
72643,-26.3157894736841,4,2,0,5,0,0
72683,-29.4117647058824,4,1,0,45,0,0
72723,-26.3157894736841,4,2,0,5,0,0
72763,-31.25,4,1,0,45,0,0
72803,-26.3157894736841,4,2,0,5,0,0
72843,-33.3333333333333,4,1,0,45,0,0
72883,-26.3157894736841,4,2,0,5,0,0
72923,-35.7142857142857,4,1,0,45,0,0
72963,-26.3157894736841,4,2,0,5,0,0
73004,-38.4615384615385,4,1,0,45,0,0
73044,-26.3157894736841,4,2,0,5,0,0
73084,-41.6666666666667,4,1,0,45,0,0
73124,-26.3157894736841,4,2,0,5,0,0
73164,-45.4545454545455,4,1,0,45,0,0
73204,-26.3157894736841,4,2,0,5,0,0
73244,-50,4,1,0,45,0,0
73284,-26.3157894736841,4,2,0,5,0,0
73324,-55.5555555555556,4,1,0,45,0,0
73364,-26.3157894736841,4,2,0,5,0,0
73405,-62.5,4,1,0,45,0,0
73445,-26.3157894736841,4,2,0,5,0,0
73485,-71.4285714285714,4,1,0,45,0,0
73525,-26.3157894736841,4,2,0,5,0,0
73565,-83.3333333333334,4,1,0,45,0,0
73605,-26.3157894736841,4,2,0,5,0,0
73645,-100,4,1,0,45,0,0
73685,-26.3157894736841,4,2,0,5,0,0
73725,-100,4,1,0,45,0,0
79822,-200,4,1,0,45,0,0
81105,-100,4,1,0,45,0,0
82389,-200,4,1,0,45,0,0
82870,-100,4,1,0,45,0,0
83672,-200,4,1,0,45,0,0
84635,-100,4,1,0,45,0,0
87522,-200,4,1,0,45,0,0
88806,-100,4,1,0,45,0,0
89127,-66.6666666666667,4,1,0,45,0,0
89447,-100,4,1,0,45,0,0
89768,-66.6666666666667,4,1,0,45,0,0
90089,-151.515151515152,4,1,0,45,0,0
90731,-66.6666666666667,4,1,0,45,0,0
97790,-33.3333333333333,4,1,0,45,0,0
98271,-300,4,1,0,45,0,0
98752,-66.6666666666667,4,1,0,45,0,0
99073,-33.3333333333333,4,1,0,45,0,0
99554,-300,4,1,0,45,0,0
100036,-66.6666666666667,4,1,0,45,0,0
100356,-33.3333333333333,4,1,0,45,0,0
100838,-300,4,1,0,45,0,0
101319,-66.6666666666667,4,1,0,45,0,0
101640,-200,4,1,0,45,0,0
102923,-66.6666666666667,4,1,0,45,0,0
108057,-200,4,1,0,45,0,0
108538,-66.6666666666667,4,1,0,45,0,0
110624,-100,4,1,0,45,0,0
111266,-66.6666666666667,4,1,0,45,0,0
111907,-100,4,1,0,45,0,0
112308,-66.6666666666667,4,1,0,45,0,0
113191,-57.1428571428571,4,1,0,45,0,0
116399,-100,4,1,0,45,0,0
116720,-66.6666666666667,4,1,0,45,0,0
118324,-100,4,1,0,45,0,0
119287,-66.6666666666667,4,1,0,45,0,0
120249,-40,4,1,0,45,0,0
120570,-100,4,1,0,45,0,0
122175,-300,4,1,0,45,0,0
122495,-20,4,1,0,45,0,0
122816,-133.333333333333,4,1,0,45,0,0
123137,-66.6666666666667,4,1,0,45,0,0
123458,-153.846153846154,4,1,0,45,0,0
125223,-300,4,1,0,45,0,0
126025,-66.6666666666667,4,1,0,45,0,0
129554,-50,4,1,0,45,0,0
129875,-80,4,1,0,45,0,0
130196,-66.6666666666667,4,1,0,45,0,0
133725,-50,4,1,0,45,0,0
135009,-100,4,1,0,45,0,0
135330,-66.6666666666667,4,1,0,45,0,0
135490,-50,4,1,0,45,0,0
135651,-66.6666666666667,4,1,0,45,0,0
137576,-133.333333333333,4,1,0,45,0,0
137897,-66.6666666666667,4,1,0,45,0,0
138859,-133.333333333333,4,1,0,45,0,0
139822,-66.6666666666667,4,1,0,45,0,0
140784,-133.333333333333,4,1,0,45,0,0
141105,-66.6666666666667,4,1,0,45,0,0
144314,-50,4,1,0,45,0,0
145276,-66.6666666666667,4,1,0,45,0,0
152014,-100,4,1,0,45,0,0
159394,-90.9090909090909,4,1,0,45,0,0
161961,-200,4,1,0,45,0,0
164528,-333.333333333333,4,1,0,45,0,0
169661,-166.666666666667,4,1,0,45,0,0
174474,-100,4,1,0,45,0,0
174795,-200,4,1,0,45,0,0
175758,-300,4,1,0,45,0,0
177362,-200,4,1,0,45,0,0
179929,-200,4,1,0,20,0,0
182495,-133.333333333333,4,1,0,20,0,0
185062,-200,4,1,0,20,0,0
190196,-300,4,1,0,20,0,0
191159,-200,4,1,0,20,0,0
192763,-300,4,1,0,20,0,0
193084,-133.333333333333,4,1,0,20,0,0

[HitObjects]
20,298,250,6,0,B|75:269|77:233|66:194|66:194|57:111|111:130|139:69|139:69|156:134|211:152|161:228|161:228|196:292|114:333|114:333|213:298|255:332|255:332|281:357|383:314|363:247|363:247,1,892.500034046174
229,210,2736,1,0,0:0:0:0:
229,210,2816,2,0,B|367:236|366:124|366:124|422:96|435:21|435:21|550:170|447:292|447:292|384:267|318:292|318:292|353:223|321:154|259:112,1,956.250036478044
162,151,5383,2,0,B|152:243|45:270|45:270|160:253|197:282|197:282|223:229|331:214|331:214|254:203|243:169,1,573.750021886826
330,126,6987,6,0,B|355:130|367:119|367:119|362:136|375:153,1,68
313,209,7469,2,0,B|296:228|299:244|299:244|287:232|266:234,1,68
249,152,7950,2,0,B|240:127|225:122|225:122|242:118|250:98,2,68
253,254,8592,6,0,P|235:273|227:249,1,42.5
253,254,8752,2,0,P|235:273|236:243,1,50.9999984436036
253,254,8913,2,0,P|235:273|227:249,1,59.4999981842042
253,254,9073,2,0,P|233:275|225:248,1,68
253,254,9233,6,0,P|237:190|221:239,1,170
110,299,9554,5,0,0:0:0:0:
110,299,9635,1,0,0:0:0:0:
110,299,9715,2,0,L|192:299,1,63.7500024318696
212,300,9955,1,0,0:0:0:0:
286,300,10035,1,0,0:0:0:0:
360,300,10115,1,0,0:0:0:0:
435,300,10195,1,0,0:0:0:0:
512,299,10276,2,0,L|512:222,1,63.7500024318696
512,141,10517,6,0,B|509:80|427:80|427:140|427:140|427:195|352:195|352:140|352:140|352:106|296:106|296:138|296:138|296:173|237:173|237:138|237:138|204:138,2,441.999979766847
158,141,12121,1,0,0:0:0:0:
404,284,12442,1,0,0:0:0:0:
222,178,12602,1,0,0:0:0:0:
404,284,12763,2,0,L|307:228,1,110.499994941712
157,134,13084,2,0,B|90:115|103:40|103:40|143:82|207:97,2,220.999989883423
179,213,13886,1,0,0:0:0:0:
179,213,14046,2,0,L|299:192,1,110.499994941712
430,233,14688,5,0,0:0:0:0:
124,320,15009,1,0,0:0:0:0:
19,78,15330,1,0,0:0:0:0:
220,136,15490,5,0,0:0:0:0:
220,136,15570,1,0,0:0:0:0:
220,136,15651,2,0,L|220:215,1,55.2499974708558
221,287,15811,1,0,0:0:0:0:
422,345,15971,5,0,0:0:0:0:
489,353,16132,2,0,P|389:287|360:372,1,220.999989883423
166,336,16613,5,0,0:0:0:0:
387,264,16774,1,0,0:0:0:0:
166,336,16934,2,0,L|153:258,1,55.2499974708558
166,336,17255,2,0,L|153:258,1,55.2499974708558
209,36,17576,2,0,L|219:113,1,55.2499974708558
209,36,17897,2,0,L|220:116,1,55.2499974708558
281,257,18217,5,0,0:0:0:0:
209,36,18378,1,0,0:0:0:0:
281,257,18538,2,0,L|203:270,1,55.2499974708558
281,257,18859,2,0,L|203:270,1,55.2499974708558
267,156,19180,5,0,0:0:0:0:
339,377,19341,1,0,0:0:0:0:
267,156,19501,2,0,L|345:143,1,55.2499974708558
267,156,19822,2,0,L|345:143,1,55.2499974708558
173,250,20143,2,0,L|186:328,3,55.2499974708558
65,146,20784,6,0,B|142:117|185:32|185:32|190:80|244:121,1,255.000009727478
368,49,21266,2,0,L|381:106,1,55.2499974708558
312,205,21586,2,0,L|305:233,1,27.6249987354279
312,205,21747,2,0,L|305:233,1,27.6249987354279
221,292,22068,2,0,L|201:313,1,27.6249987354279
132,374,22389,2,0,L|104:382,1,27.6249987354279
221,292,22709,2,0,L|240:313,1,27.6249987354279
310,374,23030,2,0,L|337:382,1,27.6249987354279
310,374,23191,2,0,L|337:382,1,27.6249987354279
460,343,23351,6,0,L|434:52,1,255.000009727478
358,155,23832,6,0,L|304:151,1,27.6249987354279
233,139,23993,2,0,L|179:135,1,27.6249987354279
113,209,24153,2,0,L|166:212,1,27.6249987354279
238,225,24314,2,0,L|291:228,1,27.6249987354279
363,241,24635,6,0,L|366:187,1,27.6249987354279
325,67,24956,2,0,L|271:63,1,27.6249987354279
450,83,25116,2,0,L|396:79,1,27.6249987354279
200,51,25437,2,0,P|212:67|232:46,1,55.2499974708558
193,52,25597,2,0,P|219:66|234:33,1,68
193,52,25758,2,0,P|219:66|223:22,1,80.7499978437424
328,202,25918,6,0,P|373:219|329:217,1,127.5
408,289,26560,6,0,P|332:116|271:265,1,420.750004012585
231,325,27201,2,0,P|510:251|251:81,1,728.571428571429
251,198,27843,6,0,P|383:304|393:122,1,420.750004012585
349,210,28485,2,0,L|349:85,1,110.499994941712
154,13,28806,2,0,L|154:138,1,110.499994941712
268,288,29127,5,0,0:0:0:0:
268,288,29287,1,0,0:0:0:0:
268,288,29447,2,0,L|268:163,1,110.499994941712
388,0,29768,5,0,0:0:0:0:
388,0,29928,1,0,0:0:0:0:
388,0,30089,2,0,L|388:117,1,85
502,275,30410,5,0,0:0:0:0:
502,275,30570,1,0,0:0:0:0:
245,273,30731,1,0,0:0:0:0:
374,274,30891,1,0,0:0:0:0:
116,272,31052,2,0,B|171:65|384:57|384:57|324:101|318:170|345:203|345:203|250:181|226:348,1,680
448,125,31854,5,0,0:0:0:0:
448,125,32014,2,0,L|361:144,1,63.7500024318696
169,190,32335,2,0,L|255:170,1,63.7500024318696
448,125,32656,2,0,L|361:144,1,63.7500024318696
60,217,33137,1,0,0:0:0:0:
242,275,33298,2,0,L|231:224,1,42.5
242,275,33458,2,0,L|231:224,1,42.5
424,333,33618,2,0,B|461:175|371:93|371:93|369:160|331:183|331:183|307:159|272:148|272:148|243:187|167:160|167:160,1,510.000019454957
64,125,34421,5,0,0:0:0:0:
64,125,34581,2,0,L|151:144,1,63.7500024318696
343,190,34902,2,0,L|257:170,1,63.7500024318696
64,125,35223,2,0,L|151:144,1,63.7500024318696
459,213,35704,2,0,L|477:129,1,55.2499974708558
459,213,35864,2,0,L|477:129,1,55.2499974708558
435,102,36025,5,0,0:0:0:0:
408,96,36105,1,0,0:0:0:0:
364,94,36185,6,0,L|386:147,1,55.2499974708558
413,208,36346,2,0,L|391:155,1,55.2499974708558
364,94,36506,2,0,L|386:147,1,55.2499974708558
413,208,36667,2,0,L|391:155,1,55.2499974708558
312,40,36827,6,0,L|289:92,1,55.2499974708558
249,185,36987,2,0,L|271:132,1,55.2499974708558
312,40,37148,2,0,L|289:92,1,55.2499974708558
249,185,37308,2,0,L|271:132,1,55.2499974708558
387,56,37469,6,0,L|409:108,1,55.2499974708558
470,248,37629,2,0,L|447:195,1,55.2499974708558
387,56,37790,2,0,L|409:108,1,55.2499974708558
470,248,37950,2,0,L|447:195,1,55.2499974708558
370,22,38110,6,0,L|347:74,1,55.2499974708558
270,258,38270,2,0,L|292:205,1,55.2499974708558
370,22,38431,2,0,L|347:74,1,55.2499974708558
270,258,38591,2,0,L|292:205,1,55.2499974708558
240,50,38752,6,0,L|263:102,1,55.2499974708558
240,50,38913,2,0,L|263:102,1,55.2499974708558
240,50,39073,2,0,L|304:197,1,110.499994941712
363,304,39394,1,0,0:0:0:0:
412,85,39715,6,0,L|370:78,1,42.5
273,205,39875,2,0,L|314:198,1,42.5
512,264,40036,6,0,L|424:258,1,85
269,245,40356,1,0,0:0:0:0:
512,264,40517,6,0,L|424:258,1,85
269,245,40837,1,0,0:0:0:0:
269,245,40998,1,0,0:0:0:0:
287,41,41159,2,0,L|284:85,1,42.5
269,245,41319,6,0,L|279:129,1,85
287,41,41560,1,0,0:0:0:0:
287,41,41640,2,0,L|245:34,1,42.5
148,161,41800,2,0,L|189:154,1,42.5
392,120,41961,5,0,0:0:0:0:
392,120,42121,1,0,0:0:0:0:
392,120,42282,1,0,0:0:0:0:
392,120,42442,1,0,0:0:0:0:
148,161,42602,2,0,L|167:248,1,85
375,296,43084,1,0,0:0:0:0:
318,98,43244,5,0,0:0:0:0:
208,302,43405,1,0,0:0:0:0:
318,98,43565,1,0,0:0:0:0:
208,302,43725,1,0,0:0:0:0:
318,98,43886,6,0,L|274:176,1,85
183,343,44207,1,0,0:0:0:0:
46,134,44367,1,0,0:0:0:0:
113,384,44528,1,0,0:0:0:0:
219,66,44688,6,0,L|263:144,1,85
421,384,45009,1,0,0:0:0:0:
496,84,45169,1,0,0:0:0:0:
175,148,45330,1,0,0:0:0:0:
511,216,45490,6,0,L|421:250,1,85
93,359,45811,1,0,0:0:0:0:
262,58,45971,1,0,0:0:0:0:
341,330,46132,1,0,0:0:0:0:
92,106,46292,1,0,0:0:0:0:
472,108,46453,6,0,L|380:120,1,85
281,132,46774,1,0,0:0:0:0:
174,144,46934,2,0,L|230:217,1,85
290,297,47255,1,0,0:0:0:0:
354,384,47415,2,0,L|389:298,1,85
429,207,47736,1,0,0:0:0:0:
472,108,47897,5,0,0:0:0:0:
451,174,47977,1,0,0:0:0:0:
430,240,48057,2,0,L|338:252,1,85
89,329,48378,6,0,L|228:310,1,127.500004863739
353,350,48618,1,0,0:0:0:0:
353,350,48699,2,0,L|334:211,1,127.500004863739
374,86,49020,2,0,L|235:105,1,127.500004863739
110,65,49340,2,0,L|129:204,1,127.500004863739
374,86,49661,6,0,L|252:104,1,106.25
110,65,49982,2,0,L|126:186,1,85
374,86,50303,2,0,L|285:99,1,63.7500024318696
110,65,50624,5,0,0:0:0:0:
374,86,50784,1,0,0:0:0:0:
500,252,50945,5,0,0:0:0:0:
236,231,51105,1,0,0:0:0:0:
500,252,51266,1,0,0:0:0:0:
156,121,51506,5,0,0:0:0:0:
192,236,51586,2,0,L|201:263,4,15.9375006079674
286,71,51827,6,0,L|276:39,4,31.8750012159348
316,174,52068,2,0,B|341:270|341:270|311:311,1,127.500004863739
247,89,52308,6,0,L|215:99,4,31.8750012159348
362,76,52549,2,0,B|458:51|458:51|499:81,1,127.500004863739
362,184,52790,6,0,L|372:216,8,31.8750012159348
177,158,53191,2,0,L|300:125,1,127.500004863739
313,77,53431,1,0,0:0:0:0:
263,155,53512,2,0,B|243:179|243:179|144:163,1,127.500004863739
241,66,53752,6,0,L|231:34,4,31.8750012159348
351,194,53993,2,0,B|371:270,1,63.7500024318696
351,194,54153,2,0,B|371:270,1,63.7500024318696
415,126,54314,6,0,L|425:94,6,31.8750012159348
302,134,54635,2,0,B|277:230|277:230|251:241,1,127.500004863739
179,142,54875,6,0,L|169:110,4,31.8750012159348
83,264,55116,2,0,L|206:231,1,127.500004863739
245,271,55356,1,0,0:0:0:0:
243,326,55437,2,0,B|210:349|210:349|124:334,1,127.500004863739
40,318,55677,5,0,0:0:0:0:
40,318,55758,2,0,B|27:179,1,127.500004863739
125,94,55998,1,0,0:0:0:0:
125,94,56079,2,0,B|125:233,1,127.500004863739
210,318,56319,1,0,0:0:0:0:
210,318,56400,2,0,B|222:179,1,127.500004863739
239,84,56720,6,0,L|355:73,1,85
125,94,57041,1,0,0:0:0:0:
306,177,57201,2,0,L|189:187,1,85
420,167,57522,1,0,0:0:0:0:
221,184,57683,2,0,L|306:177,1,85
95,199,58004,6,0,L|105:315,1,85
112,363,58244,1,0,0:0:0:0:
191,353,58324,2,0,L|276:346,1,85
428,179,58645,1,0,0:0:0:0:
202,154,58806,1,0,0:0:0:0:
428,179,58966,2,0,L|434:106,1,42.5
428,179,59127,2,0,L|434:106,1,42.5
295,238,59287,6,0,B|381:273|381:273|401:334,1,127.500004863739
304,342,59528,1,0,0:0:0:0:
280,338,59608,1,0,0:0:0:0:
256,338,59688,1,0,0:0:0:0:
232,342,59768,6,0,L|221:242,1,63.7500024318696
169,149,59929,2,0,L|179:248,1,63.7500024318696
232,342,60089,2,0,L|221:242,1,63.7500024318696
169,149,60249,6,0,L|26:141,1,127.500004863739
0,69,60490,1,0,0:0:0:0:
41,141,60570,6,0,L|169:149,1,127.500004863739
498,251,60891,2,0,L|370:243,1,127.500004863739
150,230,61212,1,0,0:0:0:0:
322,336,61372,5,0,0:0:0:0:
322,336,61453,1,0,0:0:0:0:
322,336,61533,2,0,L|330:208,1,127.500004863739
359,174,61774,1,0,0:0:0:0:
386,205,61854,6,0,L|188:217,1,191.250007295609
202,257,62175,1,0,0:0:0:0:
228,266,62335,6,0,L|216:68,1,191.250007295609
287,116,62656,1,0,0:0:0:0:
67,255,62816,2,0,L|160:264,1,63.7500024318696
67,255,62977,2,0,L|160:264,1,63.7500024318696
67,255,63137,6,0,L|193:268,1,127.500004863739
156,331,63378,1,0,0:0:0:0:
203,375,63458,2,0,L|224:168,1,191.250007295609
238,24,63779,2,0,L|225:143,1,63.7500024318696
222,184,63939,1,0,0:0:0:0:
214,268,64100,2,0,L|212:295,4,15.9375006079674
217,245,64260,2,0,B|241:245|241:245|265:257|265:257|321:257,1,63.7500024318696
433,183,64421,5,0,0:0:0:0:
271,220,64581,1,0,0:0:0:0:
407,113,64741,1,0,0:0:0:0:
296,289,64901,1,0,0:0:0:0:
323,74,65062,1,0,0:0:0:0:
380,328,65222,1,0,0:0:0:0:
215,115,65383,1,0,0:0:0:0:
488,287,65543,1,0,0:0:0:0:
154,257,65704,5,0,0:0:0:0:
480,58,65864,1,0,0:0:0:0:
468,74,65945,1,0,0:0:0:0:
456,94,66025,1,0,0:0:0:0:
135,61,66185,5,0,0:0:0:0:
474,206,66345,1,0,0:0:0:0:
74,277,66506,5,0,0:0:0:0:
379,27,66666,1,0,0:0:0:0:
358,380,66827,1,0,0:0:0:0:
271,194,66987,6,0,B|237:178|237:178|122:196,1,127.500004863739
194,263,67228,1,0,0:0:0:0:
198,287,67308,1,0,0:0:0:0:
202,311,67389,1,0,0:0:0:0:
298,364,67469,2,0,B|277:275|277:275|345:301,1,127.500004863739
329,202,67709,5,0,0:0:0:0:
307,191,67789,1,0,0:0:0:0:
285,180,67870,1,0,0:0:0:0:
149,101,67950,6,0,B|154:139|154:139|228:162|228:162|236:209,1,148.750001418591
69,272,68191,1,0,0:0:0:0:
69,272,68271,2,0,B|43:190|43:190|68:145|68:145|59:111,1,148.750001418591
136,32,68512,1,0,0:0:0:0:
136,32,68592,2,0,B|171:31|171:31|206:62,1,74.3750007092953
328,125,68752,2,0,B|286:110|286:110|232:137,1,74.3750007092953
157,169,68913,5,0,0:0:0:0:
152,192,68993,1,0,0:0:0:0:
148,216,69073,1,0,0:0:0:0:
144,240,69153,1,0,0:0:0:0:
222,291,69233,6,0,B|260:288|260:288|284:262|284:262|313:280|313:280|413:274,1,148.750001418591
144,240,69474,1,0,0:0:0:0:
144,240,69554,2,0,B|175:206|175:206|175:134|175:134|152:93,1,148.750001418591
75,48,69875,1,0,0:0:0:0:
220,68,70036,2,0,L|298:76,1,74.3750007092953
378,83,70196,1,0,0:0:0:0:
512,161,70356,2,0,L|431:169,1,74.3750007092953
204,257,70517,6,0,L|408:233,1,148.750001418591
412,230,70838,2,0,P|396:306|512:325,1,223.125002127886
458,280,71159,6,0,L|345:266,1,74.3750007092953
458,280,71319,2,0,L|352:268,1,74.3750007092953
270,350,71479,2,0,L|251:160,1,148.750001418591
234,13,71800,2,0,L|253:203,1,148.750001418591
275,219,72041,5,0,0:0:0:0:
297,279,72121,1,0,0:0:0:0:
253,328,72201,1,0,0:0:0:0:
191,310,72281,1,0,0:0:0:0:
177,246,72361,1,0,0:0:0:0:
207,180,72442,6,0,B|269:171|269:171|285:156,1,85
207,163,72522,2,0,B|269:164|269:164|288:152,1,80.7499978437424
211,141,72602,2,0,B|271:159|271:159|291:152,1,76.4999976654053
218,127,72683,2,0,B|273:155|273:155|294:151,1,72.2500013780594
227,116,72763,6,0,B|277:153|277:153|298:153,1,68
239,107,72843,2,0,B|281:152|281:152|302:156,1,63.7500024318696
250,103,72923,2,0,B|284:155|284:155|304:162,1,59.4999981842042
261,102,73004,2,0,B|285:159|285:159|303:170,1,55.2499974708558
271,103,73084,6,0,B|285:163|285:163|301:177,1,50.9999984436036
280,105,73164,2,0,B|283:166|283:166,1,46.7500014266968
287,109,73244,2,0,B|279:170|279:170,1,42.5
293,114,73324,2,0,B|275:172|275:172,1,38.2499988327027
297,120,73405,6,0,B|269:174|269:174,1,34
299,126,73485,2,0,B|280:150|280:150,1,29.7499990921021
299,132,73565,2,0,B|276:153|276:153,1,25.4999992218018
298,137,73645,2,0,B|272:153|272:153,1,21.25
304,185,73725,5,0,0:0:0:0:
247,198,73806,1,0,0:0:0:0:
199,157,73886,1,0,0:0:0:0:
197,104,73966,5,0,0:0:0:0:
160,84,74046,1,0,0:0:0:0:
198,80,74127,1,0,0:0:0:0:
307,92,74207,5,0,0:0:0:0:
278,66,74287,1,0,0:0:0:0:
318,76,74367,1,0,0:0:0:0:
269,169,74447,5,0,0:0:0:0:
229,179,74528,1,0,0:0:0:0:
452,283,74688,5,0,0:0:0:0:
221,337,74848,1,0,0:0:0:0:
396,181,75009,1,0,0:0:0:0:
151,121,75169,1,0,0:0:0:0:
414,45,75330,1,0,0:0:0:0:
258,256,75490,1,0,0:0:0:0:
466,104,75651,1,0,0:0:0:0:
173,64,75811,1,0,0:0:0:0:
414,191,75971,5,0,0:0:0:0:
71,236,76132,1,0,0:0:0:0:
75,256,76212,1,0,0:0:0:0:
79,280,76292,1,0,0:0:0:0:
334,376,76453,1,0,0:0:0:0:
415,78,76613,5,0,0:0:0:0:
144,264,76774,1,0,0:0:0:0:
449,379,76934,1,0,0:0:0:0:
321,47,77094,1,0,0:0:0:0:
151,200,77255,6,0,L|35:176,1,85
63,261,77495,1,0,0:0:0:0:
63,261,77576,1,0,0:0:0:0:
63,261,77656,1,0,0:0:0:0:
156,278,77736,6,0,L|132:394,1,85
217,351,77976,1,0,0:0:0:0:
217,351,78057,1,0,0:0:0:0:
217,351,78137,1,0,0:0:0:0:
237,274,78217,6,0,L|320:256,1,85
231,197,78538,2,0,L|248:113,1,85
180,127,78779,1,0,0:0:0:0:
180,127,78859,1,0,0:0:0:0:
180,127,78939,1,0,0:0:0:0:
180,127,79020,1,0,0:0:0:0:
180,127,79100,1,0,0:0:0:0:
232,27,79180,6,0,L|296:31,1,42.5
360,149,79340,2,0,L|296:145,1,42.5
102,91,79501,2,0,L|262:101,1,127.5
338,119,79822,6,0,L|344:182,1,63.75
255,220,80143,2,0,L|248:283,1,63.75
338,321,80463,2,0,L|344:384,1,63.75
250,381,80784,1,0,0:0:0:0:
250,381,80864,1,0,0:0:0:0:
250,381,80945,1,0,0:0:0:0:
250,381,81025,1,0,0:0:0:0:
250,381,81105,5,0,0:0:0:0:
250,381,81426,6,0,L|250:297,1,85
251,183,81747,5,0,0:0:0:0:
250,381,81907,1,0,0:0:0:0:
251,183,82068,5,0,0:0:0:0:
250,381,82228,1,0,0:0:0:0:
251,183,82389,6,0,L|251:138,1,42.5
132,49,82709,5,0,0:0:0:0:
390,182,82870,2,0,L|459:216,1,42.5
151,244,83030,1,0,0:0:0:0:
268,15,83191,1,0,0:0:0:0:
459,180,83351,2,0,L|512:235,1,42.5
357,0,83512,1,0,0:0:0:0:
368,308,83672,2,0,L|422:364,1,42.5
175,134,83993,1,0,0:0:0:0:
456,83,84153,2,0,L|511:29,1,42.5
427,4,84394,5,0,0:0:0:0:
410,21,84474,1,0,0:0:0:0:
393,37,84554,1,0,0:0:0:0:
366,56,84635,2,0,L|354:16,1,42.5
264,92,84795,2,0,L|276:148,1,42.5
384,269,84955,5,0,0:0:0:0:
155,201,85116,1,0,0:0:0:0:
277,359,85276,1,0,0:0:0:0:
345,130,85437,1,0,0:0:0:0:
187,8,85597,1,0,0:0:0:0:
416,76,85758,1,0,0:0:0:0:
228,312,85918,2,0,L|224:364,1,42.5
240,140,86078,1,0,0:0:0:0:
140,272,86239,5,0,0:0:0:0:
324,128,86399,1,0,0:0:0:0:
312,300,86560,5,0,0:0:0:0:
272,64,86720,1,0,0:0:0:0:
124,160,86881,6,0,L|72:156,1,42.5
380,220,87041,1,0,0:0:0:0:
104,176,87201,1,0,0:0:0:0:
392,236,87362,2,0,L|444:232,1,42.5
119,87,87522,6,0,L|62:94,1,42.5
226,294,87843,1,0,0:0:0:0:
384,128,88004,6,0,L|440:132,1,42.5
256,366,88325,1,0,0:0:0:0:
233,130,88485,2,0,L|177:134,1,42.5
38,332,88806,6,0,L|178:330,1,127.5
330,334,89127,2,0,B|301:304|301:304|314:230,1,63.7500024318696
354,186,89287,2,0,P|377:219|352:268,1,63.7500024318696
455,263,89447,6,0,L|349:270,1,85
226,150,89688,1,0,0:0:0:0:
226,150,89768,2,0,L|298:162,1,63.7500024318696
330,334,89929,2,0,L|258:346,1,63.7500024318696
135,283,90089,6,0,L|152:185,1,84.1499997431946
169,108,90410,2,0,L|183:33,1,56.0999998287964
150,200,90651,1,0,0:0:0:0:
253,228,90731,6,0,L|161:213,1,63.7500024318696
391,252,90891,2,0,L|482:266,1,63.7500024318696
297,174,91052,2,0,L|264:87,1,63.7500024318696
346,305,91212,2,0,L|379:392,1,63.7500024318696
366,186,91372,2,0,L|425:113,1,63.7500024318696
277,293,91532,2,0,L|218:366,1,63.7500024318696
253,228,91693,6,0,L|94:202,1,127.500004863739
366,186,91934,1,0,0:0:0:0:
366,186,92014,2,0,L|459:70,1,127.500004863739
365,0,92255,1,0,0:0:0:0:
365,0,92335,2,0,L|289:93,1,63.7500024318696
134,83,92495,2,0,L|209:-10,1,63.7500024318696
223,173,92656,2,0,L|130:289,1,127.500004863739
263,346,92977,6,0,L|340:346,1,63.7500024318696
178,236,93137,2,0,L|258:236,1,63.7500024318696
360,149,93298,2,0,L|437:149,1,63.7500024318696
445,259,93458,2,0,L|522:259,1,63.7500024318696
255,301,93618,2,0,L|332:301,1,63.7500024318696
137,147,93779,2,0,L|214:147,1,63.7500024318696
37,92,93939,6,0,L|-5:25,1,63.7500024318696
154,110,94100,2,0,L|151:30,1,63.7500024318696
244,174,94260,2,0,L|281:104,1,63.7500024318696
282,296,94421,2,0,L|349:253,1,63.7500024318696
169,246,94581,6,0,L|87:251,1,63.7500024318696,0|0,2:0|2:0,2:0:0:0:
382,256,94741,2,0,L|318:251,1,63.7500024318696,0|0,2:0|2:0,2:0:0:0:
212,161,94902,2,0,L|275:156,1,63.7500024318696,0|0,2:0|2:0,2:0:0:0:
424,350,95062,2,0,L|488:355,1,63.7500024318696,0|0,2:0|2:0,2:0:0:0:
344,266,95223,6,0,L|166:271,1,127.500004863739
88,233,95463,1,0,0:0:0:0:
88,233,95544,2,0,L|80:305,1,63.7500024318696
88,233,95704,2,0,L|80:305,1,63.7500024318696
165,74,95864,6,0,L|173:146,1,63.7500024318696
165,74,96024,2,0,L|173:146,1,63.7500024318696
247,340,96185,6,0,L|255:268,1,63.7500024318696
247,340,96345,2,0,L|255:268,1,63.7500024318696
376,120,96506,6,0,L|384:48,1,63.7500024318696
376,120,96666,2,0,L|384:48,1,63.7500024318696
427,257,96827,6,0,L|435:321,1,63.7500024318696
427,257,96987,2,0,L|435:321,1,63.7500024318696
214,190,97148,6,0,L|206:126,1,63.7500024318696
214,190,97308,2,0,L|206:126,1,63.7500024318696
214,190,97469,2,0,L|206:126,1,63.7500024318696
214,190,97629,2,0,L|206:126,1,63.7500024318696
85,300,97790,6,0,B|255:330|255:330|217:249,1,255.000009727478
85,300,98030,2,0,B|255:330|255:330|218:251,1,255.000009727478
143,236,98271,6,0,L|86:225,1,56.6666666666667
244,265,98672,1,0,0:0:0:0:
143,236,98752,6,0,L|56:218,1,63.7500024318696
143,236,98913,2,0,L|56:218,1,63.7500024318696
85,300,99073,6,0,B|255:330|255:330|217:249,1,255.000009727478
85,300,99314,2,0,B|255:330|255:330|217:249,1,255.000009727478
143,236,99554,6,0,L|86:225,1,56.6666666666667
244,265,99955,1,0,0:0:0:0:
143,236,100036,6,0,L|56:218,1,63.7500024318696
143,236,100196,2,0,L|56:218,1,63.7500024318696
174,44,100356,6,0,P|76:98|180:157,1,255.000009727478
174,44,100597,2,0,P|76:98|180:157,1,255.000009727478
144,102,100838,6,0,L|210:102,1,56.6666666666667
313,102,101239,1,0,0:0:0:0:
313,102,101319,6,0,L|160:103,1,127.500004863739
58,101,101560,1,0,0:0:0:0:
58,101,101640,2,0,L|58:173,1,63.75
253,231,102121,2,0,L|253:319,1,85
403,112,102602,1,0,0:0:0:0:
403,112,102763,2,0,L|404:152,1,21.25
406,294,102923,6,0,L|282:306,1,63.7500024318696
267,342,103084,2,0,L|143:354,1,63.7500024318696
118,322,103244,2,0,L|111:257,1,63.7500024318696
99,136,103405,1,0,0:0:0:0:
83,18,103565,6,0,L|148:11,1,63.7500024318696
83,18,103725,2,0,L|148:11,1,63.7500024318696
267,0,103886,1,0,0:0:0:0:
83,18,104046,2,0,L|115:14,2,31.8750012159348
177,108,104207,5,0,0:0:0:0:
153,100,104287,1,0,0:0:0:0:
193,196,104367,5,0,0:0:0:0:
217,188,104447,1,0,0:0:0:0:
193,196,104528,2,0,B|206:280|206:280|189:328,1,127.500004863739
315,65,104848,1,0,0:0:0:0:
420,233,105009,6,0,L|428:310,1,63.7500024318696
420,233,105169,2,0,L|428:310,1,63.7500024318696
420,233,105330,2,0,L|428:310,1,63.7500024318696
451,395,105490,6,0,P|341:354|326:299,1,127.500004863739
411,247,105731,1,0,0:0:0:0:
411,247,105811,2,0,P|330:214|266:254,1,127.500004863739
169,300,106052,1,0,0:0:0:0:
169,300,106132,2,0,P|213:312|249:296,1,63.7500024318696
343,84,106292,2,0,P|299:72|263:88,1,63.7500024318696
364,279,106453,2,0,P|376:235|360:199,1,63.7500024318696
148,105,106613,2,0,P|136:149|152:185,1,63.7500024318696
292,207,106774,5,0,0:0:0:0:
384,159,106854,1,0,0:0:0:0:
406,55,106934,2,0,L|336:20,1,63.7500024318696
209,237,107094,2,0,L|278:202,1,63.7500024318696
89,112,107255,2,0,L|19:77,1,63.7500024318696
103,322,107415,2,0,L|172:287,1,63.7500024318696
358,261,107576,2,0,L|288:226,1,63.7500024318696
103,322,107736,6,0,L|172:287,1,63.7500024318696
358,261,107897,2,0,L|288:226,1,63.7500024318696
185,108,108057,6,0,L|187:169,1,42.5
305,296,108378,1,0,0:0:0:0:
454,141,108538,6,0,L|382:148,1,63.7500024318696
195,352,108699,2,0,L|267:345,1,63.7500024318696
335,248,108859,1,0,0:0:0:0:
442,45,109020,6,0,B|412:29|412:29|342:39|342:39|283:95,1,127.500004863739
190,74,109260,1,0,0:0:0:0:
190,74,109340,6,0,B|185:89|174:104|174:104|183:131|184:174|184:174|202:183|240:233,1,127.500004863739
442,45,109581,1,0,0:0:0:0:
442,45,109661,2,0,L|360:55,1,63.7500024318696
190,74,109822,2,0,L|200:156,1,63.7500024318696
203,320,109982,6,0,P|291:343|386:291,1,191.250007295609
279,207,110303,1,0,0:1:0:0:
136,20,110463,1,0,0:1:0:0:
361,61,110624,6,0,L|285:69,1,42.5
8,178,110945,2,0,L|84:170,1,42.5
133,133,111105,1,0,0:0:0:0:
137,145,111185,1,0,0:0:0:0:
136,204,111266,6,0,P|97:271|185:356,1,191.250007295609
180,274,111586,2,0,P|228:255|278:271,1,106.25
421,329,111907,2,0,L|339:334,1,42.5
207,166,112068,2,0,L|288:160,1,42.5
325,248,112228,5,0,0:0:0:0:
421,329,112308,2,0,L|339:334,1,63.7500024318696
207,166,112469,2,0,L|288:160,1,63.7500024318696
325,248,112629,6,0,L|325:169,1,63.7500024318696
325,248,112790,2,0,L|325:169,1,63.7500024318696
325,248,112950,2,0,L|325:169,1,63.7500024318696
323,80,113110,1,0,0:0:0:0:
270,25,113191,6,0,B|265:25|265:25|186:9|140:73|140:73|206:79|229:148,1,223.125002127886
368,141,113512,5,0,0:0:0:0:
377,158,113672,1,0,0:0:0:0:
323,295,113832,6,0,B|258:309|220:355|220:355|234:313|224:290|224:290|254:281|279:256,1,223.125002127886
232,132,114153,5,0,0:0:0:0:
232,132,114314,2,0,L|242:205,1,74.3750007092953
289,339,114474,5,0,0:0:0:0:
292,320,114554,1,0,0:0:0:0:
295,301,114635,1,0,0:0:0:0:
391,115,114715,6,0,L|379:190,1,74.3750007092953
182,348,114955,2,0,L|194:273,1,74.3750007092953
257,21,115116,6,0,B|231:70|220:121|220:121|196:68,1,148.750001418591
151,235,115356,1,0,0:0:0:0:
156,247,115437,1,0,0:0:0:0:
161,259,115517,1,0,0:0:0:0:
304,300,115597,2,0,L|276:230,1,74.3750007092953
49,106,115758,6,0,L|260:87,1,148.750001418591
130,200,115998,1,0,0:0:0:0:
130,200,116078,2,0,L|157:269,1,74.3750007092953
287,375,116239,5,0,0:0:0:0:
307,335,116319,1,0,0:0:0:0:
325,290,116399,2,0,L|317:230,1,42.5
403,139,116560,2,0,L|395:199,1,42.5
454,359,116720,6,0,P|474:291|426:231,1,127.500004863739
356,122,116961,1,0,0:0:0:0:
356,122,117041,2,0,P|310:163|249:152,1,127.500004863739
132,94,117282,1,0,0:0:0:0:
132,94,117362,2,0,P|71:83|25:124,1,127.500004863739
102,200,117602,5,0,0:0:0:0:
142,321,117683,2,0,L|134:392,1,63.7500024318696
235,248,117843,2,0,L|264:313,1,63.7500024318696
288,128,118004,2,0,L|346:170,1,63.7500024318696
264,1,118164,2,0,L|335:8,1,63.7500024318696
501,92,118324,6,0,L|389:104,1,85
273,118,118565,1,0,0:0:0:0:
301,122,118645,2,0,L|353:130,1,42.5
212,207,118806,2,0,L|152:211,1,42.5
53,304,118966,2,0,L|105:300,1,42.5
285,353,119127,2,0,L|233:357,1,42.5
390,232,119287,6,0,P|354:248|328:280,1,63.7500024318696
230,141,119447,1,0,0:0:0:0:
230,141,119528,1,0,0:0:0:0:
230,141,119608,2,0,P|266:157|292:189,1,63.7500024318696
218,229,119768,1,0,0:0:0:0:
218,229,119849,1,0,0:0:0:0:
218,229,119929,2,0,P|186:252|145:258,1,63.7500024318696
147,174,120089,2,0,P|142:134|157:96,1,63.7500024318696
218,229,120249,6,0,B|261:183|231:128|231:128|166:122|139:188,1,212.5
132,266,120490,1,0,0:0:0:0:
132,266,120570,2,0,P|140:233|167:193,1,42.5
318,143,120731,2,0,P|285:134|237:140,1,42.5
126,86,120891,6,0,L|232:195,1,127.5
309,273,121212,1,0,0:0:0:0:
309,273,121372,1,0,0:0:0:0:
397,364,121533,6,0,L|291:255,1,127.5
179,338,121854,1,0,0:0:0:0:
203,326,121934,1,0,0:0:0:0:
222,304,122014,2,0,P|228:274|219:251,1,42.5
135,189,122175,6,0,P|129:159|138:136,1,42.5
64,154,122495,2,0,P|143:82|197:162,1,212.5
198,143,122656,2,0,P|119:215|65:135,1,212.5
132,148,122816,2,0,L|129:215,1,63.7500024318696
124,291,123057,1,0,0:0:0:0:
132,148,123137,2,0,L|129:215,1,63.7500024318696
132,148,123298,2,0,L|129:215,1,63.7500024318696
252,136,123458,6,0,L|301:140,1,27.6249987354279
353,253,123779,6,0,L|402:257,1,27.6249987354279
463,270,123939,2,0,L|512:274,1,27.6249987354279
455,139,124100,6,0,L|405:143,1,27.6249987354279
302,179,124260,2,0,L|252:183,1,27.6249987354279
302,179,124421,2,0,L|282:132,1,27.6249987354279
302,179,124581,2,0,L|339:146,1,27.6249987354279
302,179,124742,2,0,L|344:204,1,27.6249987354279
302,179,125062,6,0,L|290:227,1,27.6249987354279
262,336,125223,2,0,L|276:272,1,56.6666666666667
318,76,125704,1,0,0:0:0:0:
262,336,125864,1,0,0:0:0:0:
409,361,126025,6,0,L|256:335,1,127.500004863739
373,240,126266,1,0,0:0:0:0:
373,240,126346,1,0,0:0:0:0:
433,105,126506,6,0,L|517:-17,1,127.500004863739
269,187,126827,1,0,0:0:0:0:
210,348,126987,2,0,L|138:398,1,63.7500024318696
0,305,127148,2,0,L|72:255,1,63.7500024318696
208,156,127308,2,0,L|215:10,1,127.500004863739
293,332,127629,5,0,0:0:0:0:
416,147,127790,1,0,0:0:0:0:
199,276,127950,2,0,L|53:269,1,127.500004863739
417,236,128271,2,0,L|490:239,1,63.7500024318696
301,123,128431,2,0,L|228:119,1,63.7500024318696
111,117,128592,6,0,B|51:122|7:170|7:170|77:213|45:299,1,255.000009727478
199,102,129073,1,0,0:0:0:0:
424,40,129233,5,0,0:0:0:0:
363,267,129394,1,0,0:0:0:0:
484,132,129554,2,0,L|393:124,1,85
266,109,129715,1,0,0:0:0:0:
177,278,129875,2,0,L|170:400,1,106.25
313,239,130196,6,0,P|379:216|437:239,1,127.500004863739
423,353,130437,1,0,0:0:0:0:
423,353,130517,2,0,P|384:366|339:353,1,63.7500024318696
388,243,130677,2,0,P|406:206|447:183,1,63.7500024318696
291,154,130838,2,0,P|252:140|207:154,1,63.7500024318696
228,285,130998,2,0,P|209:321|168:344,1,63.7500024318696
123,216,131159,6,0,P|100:149|123:92,1,127.500004863739
200,154,131399,1,0,0:0:0:0:
200,154,131479,2,0,P|232:126|272:114,1,63.7500024318696
428,166,131640,2,0,P|396:194|356:206,1,63.7500024318696
264,141,131800,5,0,0:0:0:0:
429,318,131961,1,0,0:0:0:0:
374,54,132121,2,0,L|378:2,1,42.5
275,330,132282,1,0,0:0:0:0:
174,101,132442,6,0,L|148:-8,1,63.7500024318696
110,206,132602,2,0,L|0:231,1,63.7500024318696
264,141,132763,2,0,P|320:109|396:161,1,127.500004863739
320,201,133004,1,0,0:0:0:0:
320,201,133084,2,0,P|309:240|274:271,1,63.7500024318696
156,327,133244,2,0,P|176:362|173:409,1,63.7500024318696
208,170,133405,2,0,P|187:134|190:87,1,63.7500024318696
81,203,133565,2,0,P|48:228|35:273,1,63.7500024318696
132,299,133725,6,0,B|227:340|293:277|293:277|247:242|190:287,1,255
87,125,134046,5,0,0:0:0:0:
367,35,134207,1,0,0:0:0:0:
123,16,134367,2,0,L|163:98,1,85
241,246,134528,1,0,0:0:0:0:
395,169,134688,2,0,L|501:112,1,85
277,232,134848,1,0,0:0:0:0:
384,327,135009,6,0,L|477:334,1,85
162,313,135330,2,0,L|158:229,1,63.7500024318696
307,138,135490,6,0,P|319:183|297:250,1,85
408,251,135651,2,0,P|419:164|395:81,1,127.500004863739
272,44,135891,1,0,0:0:0:0:
272,44,135971,2,0,L|360:37,1,63.7500024318696
237,174,136132,2,0,L|148:180,1,63.7500024318696
63,145,136292,6,0,P|51:231|75:314,1,127.500004863739
199,352,136532,1,0,0:0:0:0:
199,352,136612,2,0,L|110:358,1,63.7500024318696
234,222,136773,2,0,L|322:215,1,63.7500024318696
475,225,136934,5,0,0:0:0:0:
359,21,137094,1,0,0:0:0:0:
306,269,137255,2,0,L|297:341,1,63.7500024318696
463,166,137415,2,0,L|391:157,1,63.7500024318696
181,223,137576,6,0,L|253:214,1,63.7500024318696
466,277,137897,6,0,L|342:301,1,63.7500024318696
466,277,138057,2,0,L|342:301,1,63.7500024318696
343,355,138217,2,0,P|312:301|328:241,1,127.500004863739
234,231,138458,1,0,0:0:0:0:
234,231,138538,2,0,L|226:143,1,63.7500024318696
250,71,138699,2,0,L|242:-17,1,63.7500024318696
347,203,138859,6,0,L|355:291,1,63.7500024318696
386,26,139180,1,0,0:0:0:0:
250,188,139340,1,0,0:0:0:0:
476,89,139501,1,0,0:0:0:0:
226,109,139661,1,0,0:0:0:0:
450,180,139822,6,0,L|516:177,1,63.7500024318696
295,259,139982,1,0,0:0:0:0:
156,70,140143,2,0,L|3:65,1,127.500004863739
235,282,140463,2,0,L|243:366,1,63.7500024318696
106,225,140624,2,0,L|98:141,1,63.7500024318696
243,25,140784,6,0,L|251:109,1,63.7500024318696
343,180,141105,2,0,L|451:173,1,63.7500024318696
369,317,141266,2,0,L|261:324,1,63.7500024318696
438,248,141426,6,0,P|362:217|306:243,1,127.500004863739
177,348,141747,6,0,P|146:354|119:339,1,63.7500024318696
177,348,141907,2,0,P|146:354|119:339,1,63.7500024318696
38,172,142068,6,0,P|24:143|32:113,1,63.7500024318696
64,134,142228,2,0,P|59:103|76:76,1,63.7500024318696
280,32,142389,6,0,P|307:18|338:25,1,63.7500024318696
331,78,142549,2,0,P|361:73|388:89,1,63.7500024318696
472,208,142709,6,0,P|484:269|454:323,1,127.500004863739
332,358,143030,2,0,L|242:355,1,63.7500024318696
68,300,143191,2,0,L|158:303,1,63.7500024318696
387,355,143351,6,0,P|410:296|399:232,1,127.500004863739
295,284,143672,1,0,0:0:0:0:
448,176,143832,2,0,L|371:178,1,63.7500024318696
205,182,143993,5,0,0:0:0:0:
205,182,144314,6,0,B|227:141|227:141|196:110,1,85
205,182,144474,6,0,B|251:180|251:180|262:138,1,85
205,182,144635,6,0,B|229:221|229:221|271:210,1,85
205,182,144795,6,0,B|183:223|183:223|214:254,1,85
205,182,144955,6,0,B|158:183|158:183|147:225,1,85
205,182,145116,6,0,B|180:142|180:142|138:153,1,85
205,182,145276,6,0,B|238:120|238:120|191:73,1,127.500004863739
92,162,145597,6,0,B|75:192|75:192|98:216,1,63.7500024318696
181,297,145758,2,0,B|197:327|197:327|174:351,1,63.7500024318696
277,239,145918,2,0,B|243:177|243:177|290:130,1,127.500004863739
453,18,146239,2,0,L|374:25,1,63.7500024318696
204,42,146399,1,0,0:0:0:0:
444,109,146560,5,0,0:0:0:0:
150,192,146720,1,0,0:0:0:0:
450,200,146881,5,0,0:0:0:0:
175,332,147041,1,0,0:0:0:0:
492,362,147201,5,0,0:3:0:0:
274,220,147361,1,0,0:3:0:0:
251,384,147522,5,0,0:3:0:0:
508,269,147682,1,0,0:3:0:0:
190,289,147843,5,0,0:0:0:0:
446,125,148003,1,0,0:0:0:0:
115,240,148164,5,0,0:0:0:0:
307,4,148324,1,0,0:0:0:0:
50,304,148485,5,0,0:0:0:0:
66,0,148645,1,0,0:0:0:0:
123,359,148806,6,0,L|117:282,1,63.7500024318696
160,85,148966,2,0,L|166:162,1,63.7500024318696
213,311,149127,6,0,L|290:305,1,63.7500024318696
431,295,149287,1,0,0:0:0:0:
276,306,149447,1,0,0:0:0:0:
218,200,149608,6,0,L|141:206,1,63.7500024318696
0,216,149768,1,0,0:0:0:0:
169,331,149928,1,0,0:0:0:0:
185,128,150089,1,0,0:0:0:0:
0,234,150249,6,0,L|0:301,1,63.7500024318696
190,308,150410,1,0,0:0:0:0:
160,106,150570,1,0,0:0:0:0:
0,269,150731,5,0,0:0:0:0:
203,248,150891,1,0,0:0:0:0:
85,82,151052,2,0,L|80:18,1,63.7500024318696
132,208,151212,5,0,0:0:0:0:
179,82,151372,1,0,0:0:0:0:
191,108,151533,1,0,0:0:0:0:
237,236,151693,5,0,0:0:0:0:
257,268,151773,1,0,0:0:0:0:
288,290,151853,1,0,0:0:0:0:
325,301,151933,1,0,0:0:0:0:
352,308,152014,2,0,L|358:245,1,42.5
413,153,152175,2,0,L|406:215,1,42.5
376,261,152335,5,0,0:0:0:0:
342,217,152415,1,0,0:0:0:0:
297,190,152495,1,0,0:0:0:0:
244,180,152575,1,0,0:0:0:0:
190,178,152656,2,0,P|178:211|196:245,1,42.5
219,367,152816,2,0,P|230:333|212:299,1,42.5
237,260,152977,5,0,0:0:0:0:
258,185,153057,1,0,0:0:0:0:
303,127,153137,1,0,0:0:0:0:
367,87,153217,1,0,0:0:0:0:
437,57,153298,2,0,L|369:57,1,42.5
198,28,153458,2,0,L|266:28,1,42.5
91,119,153618,6,0,L|159:119,1,42.5
367,87,153779,2,0,L|299:87,1,42.5
275,231,153939,2,0,L|207:231,1,42.5
183,375,154100,2,0,L|115:375,1,42.5
69,256,154260,2,0,B|146:202|86:85|86:85|142:109|196:79|234:83|256:103|328:156|191:264|90:150|202:20|202:20|318:33|370:145|266:242|266:242|295:288|207:351|152:298|175:202|256:234|256:234|279:265|353:277|353:277,1,1232.5
446,314,156827,5,0,0:0:0:0:
453,306,157308,2,0,B|497:202|412:162|303:221|384:322|384:322|284:224|192:323|192:323|46:211|161:94|161:94|166:206|266:215|266:215,1,935
295,85,159394,2,0,B|342:-5|482:34|482:34|479:113|367:108|367:108|454:202|356:278|356:278|370:211|316:180|316:180|290:246|158:329|111:280|86:192|80:86|208:124|287:74|276:321|276:321|217:358|137:335|137:335,1,1402.5000428009
26,340,161961,6,0,L|-7:344,3,21.25
145,288,162282,2,0,L|175:288,3,21.25
95,361,162602,5,0,0:0:0:0:
95,353,162683,1,0,0:0:0:0:
95,345,162763,1,0,0:0:0:0:
96,337,162843,1,0,0:0:0:0:
96,329,162923,5,0,0:0:0:0:
96,321,163004,1,0,0:0:0:0:
96,313,163084,1,0,0:0:0:0:
97,305,163164,1,0,0:0:0:0:
117,221,163244,6,0,L|148:240,1,21.25
243,196,163405,2,0,L|242:155,1,21.25
151,100,163565,2,0,L|118:115,1,21.25
164,229,163725,6,0,L|199:237,1,21.25
310,151,163886,2,0,L|297:112,1,21.25
170,64,164046,2,0,L|134:72,1,21.25
269,221,164207,6,0,L|302:204,1,21.25
336,40,164368,2,0,L|302:18,1,21.25
146,73,164528,6,0,L|63:73,1,76.4999976654053
198,162,165169,2,0,L|117:183,1,76.4999976654053
271,234,165811,2,0,L|199:275,1,76.4999976654053
360,285,166453,2,0,L|301:343,1,76.4999976654053
459,310,167095,2,0,L|417:381,1,76.4999976654053
285,322,167736,6,0,L|213:280,1,76.4999976654053
273,148,168378,2,0,L|314:76,1,76.4999976654053
435,43,169020,2,0,L|506:84,1,76.4999976654053
512,225,169661,6,0,B|508:302|508:302|441:267|441:267|470:248,2,178.499994552612
511,40,170945,2,0,B|434:39|434:39|466:108|466:108|486:80,2,178.499994552612
508,178,172228,6,0,L|379:280,1,152.999995330811
217,379,172870,2,0,L|193:216,1,152.999995330811
175,23,173512,2,0,L|327:83,1,152.999995330811
372,103,174073,5,0,0:0:0:0:
389,110,174153,1,0,0:0:0:0:
407,117,174233,1,0,0:0:0:0:
424,125,174313,1,0,0:0:0:0:
442,132,174393,1,0,0:0:0:0:
459,139,174474,6,0,L|459:182,1,42.5
378,251,174635,2,0,L|378:208,1,42.5
377,68,174795,2,0,L|275:60,1,85
136,57,175276,2,0,L|180:148,1,85
246,271,175758,2,0,L|303:186,1,85
368,85,176399,5,0,0:0:0:0:
293,200,176560,1,0,0:0:0:0:
231,78,176720,5,0,0:0:0:0:
431,208,176881,1,0,0:0:0:0:
231,78,177041,1,0,0:0:0:0:
431,208,177202,1,0,0:0:0:0:
334,321,177362,6,0,L|331:368,1,42.5
409,271,177683,2,0,L|412:318,1,42.5
270,234,178004,2,0,L|267:281,1,42.5
367,182,178324,2,0,L|370:229,1,42.5
226,132,178645,2,0,L|223:179,1,42.5
94,92,178966,2,0,L|97:139,1,42.5
200,48,179287,2,0,L|197:95,1,42.5
335,0,179608,2,0,L|338:47,1,42.5
402,105,179929,6,0,L|405:152,1,42.5
420,209,180169,1,0,0:0:0:0:
426,219,180249,1,0,0:0:0:0:
333,180,180410,1,0,0:0:0:0:
258,199,180570,2,0,L|255:246,1,42.5
138,151,180891,6,0,L|141:198,1,42.5
204,267,181212,1,0,0:0:0:0:
211,281,181372,1,0,0:0:0:0:
268,341,181533,2,0,L|271:388,1,42.5
439,313,181854,5,0,0:0:0:0:
270,383,182014,1,0,0:0:0:0:
439,313,182175,1,0,0:0:0:0:
270,383,182335,1,0,0:0:0:0:
150,378,182495,6,0,L|145:307,1,63.7500024318696
232,299,182816,2,0,L|236:228,1,63.7500024318696
346,270,183137,2,0,L|341:199,1,63.7500024318696
226,223,183458,2,0,L|230:152,1,63.7500024318696
104,168,183779,2,0,L|99:97,1,63.7500024318696
176,216,184100,1,0,0:0:0:0:
207,52,184260,2,0,L|211:122,1,63.7500024318696
288,168,184581,1,0,0:0:0:0:
347,4,184741,2,0,L|342:74,1,63.7500024318696
305,384,185062,6,0,L|301:247,1,127.5
385,290,185864,5,0,0:0:0:0:
315,121,186025,1,0,0:0:0:0:
385,290,186185,1,0,0:0:0:0:
315,121,186346,1,0,0:0:0:0:
385,290,186506,1,0,0:0:0:0:
315,121,186667,2,0,L|339:177,1,42.5
261,216,186987,5,0,0:0:0:0:
221,359,187147,1,0,0:0:0:0:
261,216,187308,1,0,0:0:0:0:
221,359,187468,1,0,0:0:0:0:
128,318,187629,6,0,L|122:266,1,42.5
188,249,187950,2,0,L|182:197,1,42.5
248,180,188271,2,0,L|242:128,1,42.5
308,111,188592,2,0,L|302:59,1,42.5
368,42,188913,2,0,L|362:-10,1,42.5
434,113,189233,1,0,0:0:0:0:
489,192,189394,6,0,L|495:244,1,42.5
507,313,189715,1,0,0:0:0:0:
421,371,189875,1,0,0:0:0:0:
421,371,190036,1,0,0:0:0:0:
303,358,190196,6,0,L|235:353,1,56.6666666666667
124,343,190677,1,0,0:0:0:0:
1,332,190838,1,0,0:0:0:0:
1,332,190998,1,0,0:0:0:0:
132,307,191159,2,0,L|126:255,1,42.5
228,225,191479,5,0,0:0:0:0:
368,172,191640,1,0,0:0:0:0:
274,183,191800,1,0,0:0:0:0:
414,130,191961,1,0,0:0:0:0:
320,141,192121,1,0,0:0:0:0:
460,88,192282,1,0,0:0:0:0:
366,99,192442,1,0,0:0:0:0:
506,46,192602,1,0,0:0:0:0:
412,57,192763,6,0,L|412:14,1,42.5
310,98,193084,2,0,L|311:133,1,31.8750012159348
379,196,193244,2,0,L|378:161,1,31.8750012159348
306,231,193405,5,0,0:0:0:0:
294,257,193485,1,0,0:0:0:0:
290,286,193565,1,0,0:0:0:0:
295,315,193645,1,0,0:0:0:0:
272,296,193725,5,0,0:0:0:0:
261,287,193806,1,0,0:0:0:0:
252,279,193886,1,0,0:0:0:0:
242,270,193966,1,0,0:0:0:0:
227,260,194046,6,0,L|226:224,1,31.8750012159348
164,173,194207,2,0,L|165:209,1,31.8750012159348
228,206,194367,2,0,L|227:170,1,31.8750012159348
165,119,194528,2,0,L|166:155,1,31.8750012159348
230,65,194688,5,0,0:0:0:0:
230,124,194768,1,0,0:0:0:0:
230,171,194848,1,0,0:0:0:0:
230,208,194929,1,0,0:0:0:0:
230,237,195009,1,0,0:0:0:0:
230,260,195089,1,0,0:0:0:0:
230,278,195169,1,0,0:0:0:0:
236,292,195249,1,0,0:0:0:0:
236,292,195330,1,0,0:0:0:0:
236,292,195410,1,0,0:0:0:0:
256,192,195490,12,0,197897,0:0:0:0:
