osu file format v14

[General]
AudioFilename: audio.ogg
AudioLeadIn: 0
PreviewTime: 65496
Countdown: 0
SampleSet: Soft
StackLeniency: 1
Mode: 0
LetterboxInBreaks: 0
WidescreenStoryboard: 0

[Editor]
DistanceSpacing: 0.9
BeatDivisor: 4
GridSize: 8
TimelineZoom: 2.200002

[Metadata]
Title:Toxin
TitleUnicode:蠱中毒
Artist:IDONO KAWAZU
ArtistUnicode:IDONO KAWAZU
Creator:Ryuusei Aika
Version:LD50
Source:
Tags:Pigeons Arsalan allein chaser01 Graphical Celektus Kochuudoku こちゅうどく Japanese Electronic 蛇を睨む蛙 Hebi wo o Niramu Kaeru vocalsynth 音楽的同位体 可不 KAFU KAF+U cevio ai
BeatmapID:3881115
BeatmapSetID:1885005

[Difficulty]
HPDrainRate:5
CircleSize:4
OverallDifficulty:9
ApproachRate:9.5
SliderMultiplier:2
SliderTickRate:1

[Events]
//Background and Video events
0,0,"bg.jpg",0,0
//Break Periods
2,179693,186732
//Storyboard Layer 0 (Background)
//Storyboard Layer 1 (Fail)
//Storyboard Layer 2 (Pass)
//Storyboard Layer 3 (Foreground)
//Storyboard Layer 4 (Overlay)
//Storyboard Sound Samples

[TimingPoints]
325,315.789473684211,4,2,1,70,1,0
2535,-100,4,2,1,40,0,0
2851,-100,4,2,1,50,0,0
7903,-1000,4,2,2,50,0,0
8455,-1000,4,2,2,5,0,0
8535,-666.666666666667,4,2,2,50,0,0
9087,-666.666666666667,4,2,2,5,0,0
9167,-500,4,2,2,50,0,0
9719,-500,4,2,2,5,0,0
9798,-333.333333333333,4,2,2,50,0,0
10350,-333.333333333333,4,2,2,5,0,0
10430,-250,4,2,2,55,0,0
10666,-250,4,2,2,5,0,0
10746,-166.666666666667,4,2,2,55,0,0
10982,-166.666666666667,4,2,2,5,0,0
11061,-125,4,2,2,60,0,0
11298,-125,4,2,2,5,0,0
11377,-100,4,2,2,60,0,0
11613,-100,4,2,2,5,0,0
11693,-100,4,2,2,65,0,0
11771,-100,4,2,2,65,0,0
11851,-100,4,2,2,65,0,0
11929,-100,4,2,2,65,0,0
12009,-100,4,2,2,65,0,0
12087,-100,4,2,2,65,0,0
12167,-100,4,2,2,65,0,0
12245,-100,4,2,2,65,0,0
12325,-66.6666666666667,4,2,2,70,0,0
12640,-8.3333333333333,4,2,2,70,0,0
12956,-83.3333333333333,4,2,3,100,0,0
13192,-83.3333333333333,4,2,3,5,0,0
13272,-83.3333333333333,4,2,3,100,0,0
13350,-83.3333333333333,4,2,3,100,0,0
13430,-83.3333333333333,4,2,3,100,0,0
13666,-83.3333333333333,4,2,3,5,0,0
13746,-83.3333333333333,4,2,3,100,0,0
13903,-83.3333333333333,4,2,1,100,0,0
13981,-83.3333333333333,4,2,1,100,0,0
14061,-83.3333333333333,4,2,1,100,0,0
14139,-83.3333333333333,4,2,1,100,0,0
14219,-83.3333333333333,4,2,3,100,0,0
15167,-83.3333333333333,4,2,1,100,0,0
15324,-83.3333333333333,4,2,3,100,0,0
15403,-83.3333333333333,4,2,1,100,0,0
15482,-83.3333333333333,4,2,3,100,0,0
15718,-83.3333333333333,4,2,3,5,0,0
15798,-83.3333333333333,4,2,3,100,0,0
15876,-83.3333333333333,4,2,3,100,0,0
15956,-83.3333333333333,4,2,3,100,0,0
16192,-83.3333333333333,4,2,3,5,0,0
16272,-83.3333333333333,4,2,3,100,0,0
16430,-83.3333333333333,4,2,1,100,0,0
16508,-83.3333333333333,4,2,1,100,0,0
16588,-83.3333333333333,4,2,1,100,0,0
16746,-83.3333333333333,4,2,3,100,0,0
16982,-83.3333333333333,4,2,3,5,0,0
17061,-83.3333333333333,4,2,3,100,0,0
18245,-83.3333333333333,4,2,3,5,0,0
18325,-83.3333333333333,4,2,3,100,0,0
18403,-83.3333333333333,4,2,3,100,0,0
18482,-83.3333333333333,4,2,3,100,0,0
18718,-83.3333333333333,4,2,3,5,0,0
18798,-83.3333333333333,4,2,3,100,0,0
18956,-83.3333333333333,4,2,1,100,0,0
19034,-83.3333333333333,4,2,1,100,0,0
19114,-83.3333333333333,4,2,1,100,0,0
19272,-83.3333333333333,4,2,3,100,0,0
20219,-83.3333333333333,4,2,1,100,0,0
20376,-83.3333333333333,4,2,3,100,0,0
20771,-83.3333333333333,4,2,3,5,0,0
20851,-83.3333333333333,4,2,3,100,0,0
20929,-83.3333333333333,4,2,3,100,0,0
21009,-83.3333333333333,4,2,3,100,0,0
21482,-83.3333333333333,4,2,1,100,0,0
21560,-83.3333333333333,4,2,1,100,0,0
21640,-83.3333333333333,4,2,1,100,0,0
21798,-100,4,2,1,100,0,0
21876,-100,4,2,1,100,0,0
21956,-100,4,2,1,100,0,0
22192,-100,4,2,1,100,0,0
22272,-100,4,2,1,100,0,0
23061,-76.9230769230769,4,2,3,100,0,0
23297,-76.9230769230769,4,2,3,5,0,0
23377,-76.9230769230769,4,2,3,100,0,0
23613,-76.9230769230769,4,2,3,5,0,0
23693,-76.9230769230769,4,2,3,100,0,0
23771,-76.9230769230769,4,2,3,100,0,0
23851,-76.9230769230769,4,2,3,100,0,0
24087,-76.9230769230769,4,2,3,100,0,0
24167,-76.9230769230769,4,2,3,100,0,0
24245,-76.9230769230769,4,2,3,100,0,0
24325,-76.9230769230769,4,2,3,100,0,0
25508,-76.9230769230769,4,2,3,5,0,0
25588,-76.9230769230769,4,2,3,100,0,0
26139,-76.9230769230769,4,2,3,5,0,0
26219,-76.9230769230769,4,2,3,100,0,0
26297,-76.9230769230769,4,2,3,100,0,0
26377,-76.9230769230769,4,2,3,100,0,0
26613,-76.9230769230769,4,2,3,100,0,0
26693,-76.9230769230769,4,2,3,100,0,0
26929,-76.9230769230769,4,2,3,5,0,0
27009,-76.9230769230769,4,2,3,100,0,0
28350,-76.9230769230769,4,2,3,5,0,0
28430,-76.9230769230769,4,2,3,100,0,0
28666,-76.9230769230769,4,2,3,5,0,0
28746,-76.9230769230769,4,2,3,100,0,0
29139,-76.9230769230769,4,2,3,100,0,0
29219,-76.9230769230769,4,2,3,100,0,0
31666,-76.9230769230769,4,2,3,100,0,0
31746,-76.9230769230769,4,2,3,100,0,0
31982,-76.9230769230769,4,2,3,5,0,0
32061,-76.9230769230769,4,2,3,100,0,0
32297,-76.9230769230769,4,2,3,100,0,0
32377,-76.9230769230769,4,2,3,100,0,0
32455,-76.9230769230769,4,2,3,100,0,0
32535,-76.9230769230769,4,2,1,100,0,0
33167,-133.333333333333,4,2,3,60,0,0
33245,-133.333333333333,4,2,3,60,0,0
33325,-133.333333333333,4,2,3,60,0,0
34114,-133.333333333333,4,2,2,60,0,0
34192,-133.333333333333,4,2,2,60,0,0
34272,-133.333333333333,4,2,3,60,0,0
34508,-133.333333333333,4,2,3,60,0,0
34903,-133.333333333333,4,2,3,60,0,0
35377,-133.333333333333,4,2,2,60,0,0
35534,-133.333333333333,4,2,3,60,0,0
36402,-133.333333333333,4,2,3,60,0,0
36482,-133.333333333333,4,2,3,60,0,0
36640,-133.333333333333,4,2,2,60,0,0
36718,-133.333333333333,4,2,2,60,0,0
36798,-133.333333333333,4,2,3,60,0,0
37903,-133.333333333333,4,2,2,60,0,0
38219,-133.333333333333,4,2,3,60,0,0
39087,-133.333333333333,4,2,3,60,0,0
39167,-133.333333333333,4,2,2,60,0,0
39325,-133.333333333333,4,2,3,60,0,0
40192,-133.333333333333,4,2,3,5,0,0
40272,-133.333333333333,4,2,3,60,0,0
40350,-133.333333333333,4,2,3,60,0,0
40430,-133.333333333333,4,2,2,60,0,0
40587,-133.333333333333,4,2,3,60,0,0
41455,-133.333333333333,4,2,3,5,0,0
41535,-133.333333333333,4,2,3,60,0,0
41613,-133.333333333333,4,2,3,60,0,0
41693,-133.333333333333,4,2,2,60,0,0
41771,-133.333333333333,4,2,2,60,0,0
41851,-133.333333333333,4,2,3,60,0,0
42956,-83.3333333333333,4,2,2,60,0,0
43113,-83.3333333333333,4,2,3,60,0,0
43272,-83.3333333333333,4,2,3,70,0,0
43588,-83.3333333333333,4,2,2,70,0,0
43746,-100,4,2,2,70,0,0
43824,-100,4,2,2,70,0,0
43903,-100,4,2,3,70,0,0
44219,-100,4,2,2,70,0,0
44297,-100,4,2,2,70,0,0
44377,-100,4,2,2,70,0,0
44534,-100,4,2,3,70,0,0
44851,-100,4,2,2,70,0,0
45167,-100,4,2,3,70,0,0
45403,-100,4,2,3,5,0,0
45482,-100,4,2,2,70,0,0
45798,-100,4,2,3,70,0,0
45876,-100,4,2,3,70,0,0
45956,-100,4,2,3,70,0,0
46034,-100,4,2,3,70,0,0
46114,-100,4,2,2,70,0,0
46350,-100,4,2,2,70,0,0
46430,-100,4,2,3,70,0,0
46746,-100,4,2,2,70,0,0
47060,-100,4,2,3,70,0,0
47297,-100,4,2,3,70,0,0
47377,-100,4,2,2,70,0,0
47455,-100,4,2,2,70,0,0
47535,-100,4,2,2,70,0,0
47613,-100,4,2,2,70,0,0
47693,-100,4,2,3,70,0,0
48009,-100,4,2,2,70,0,0
48167,-100,4,2,1,70,0,0
48325,-100,4,2,3,70,0,0
48403,-100,4,2,3,70,0,0
48482,-100,4,2,3,70,0,0
48640,-100,4,2,2,70,0,0
48876,-100,4,2,2,70,0,0
48956,-100,4,2,3,70,0,0
49272,-100,4,2,2,70,0,0
49350,-100,4,2,2,70,0,0
49430,-100,4,2,2,70,0,0
49587,-100,4,2,3,70,0,0
49903,-100,4,2,2,70,0,0
50219,-100,4,2,3,70,0,0
50535,-100,4,2,2,70,0,0
50851,-100,4,2,3,70,0,0
50929,-100,4,2,3,70,0,0
51009,-100,4,2,3,70,0,0
51087,-100,4,2,3,70,0,0
51167,-100,4,2,2,70,0,0
51403,-100,4,2,2,70,0,0
51482,-100,4,2,3,70,0,0
51798,-100,4,2,2,70,0,0
51876,-100,4,2,2,70,0,0
51956,-100,4,2,2,70,0,0
52114,-100,4,2,3,70,0,0
52430,-100,4,2,2,70,0,0
52508,-100,4,2,2,70,0,0
52588,-100,4,2,2,70,0,0
52666,-100,4,2,2,70,0,0
52746,-100,4,2,4,70,0,0
52825,-100,4,2,2,70,0,0
53061,-100,4,2,4,70,0,0
53140,-100,4,2,2,70,0,0
53377,-250,4,2,3,50,0,0
53929,-250,4,2,3,5,0,0
54009,-250,4,2,3,50,0,0
54561,-250,4,2,3,5,0,0
54640,-250,4,2,3,50,0,0
55192,-250,4,2,3,5,0,0
55272,-250,4,2,3,50,0,0
55824,-250,4,2,3,5,0,0
55903,-250,4,2,3,50,0,0
56455,-250,4,2,3,5,0,0
56535,-250,4,2,3,50,0,0
57087,-250,4,2,3,5,0,0
57167,-250,4,2,3,50,0,0
57719,-250,4,2,3,5,0,0
57798,-250,4,2,3,50,0,0
58350,-250,4,2,3,5,0,0
58430,-133.333333333333,4,2,3,55,0,0
58587,-133.333333333333,4,2,1,55,0,0
58746,-133.333333333333,4,2,3,55,0,0
58903,-133.333333333333,4,2,1,55,0,0
59061,-133.333333333333,4,2,3,55,0,0
59218,-133.333333333333,4,2,1,55,0,0
59377,-133.333333333333,4,2,3,55,0,0
59535,-133.333333333333,4,2,1,55,0,0
59693,-133.333333333333,4,2,3,60,0,0
59772,-133.333333333333,4,2,1,60,0,0
59851,-133.333333333333,4,2,3,60,0,0
59930,-133.333333333333,4,2,1,60,0,0
60009,-133.333333333333,4,2,3,60,0,0
60088,-133.333333333333,4,2,1,60,0,0
60167,-133.333333333333,4,2,3,60,0,0
60246,-133.333333333333,4,2,1,60,0,0
60325,-133.333333333333,4,2,3,60,0,0
60403,-133.333333333333,4,2,1,60,0,0
60482,-133.333333333333,4,2,3,60,0,0
60560,-133.333333333333,4,2,1,60,0,0
60640,-133.333333333333,4,2,3,60,0,0
60718,-133.333333333333,4,2,1,60,0,0
60798,-133.333333333333,4,2,3,60,0,0
60876,-133.333333333333,4,2,1,60,0,0
60956,-133.333333333333,4,2,3,65,0,0
61035,-133.333333333333,4,2,1,65,0,0
61114,-133.333333333333,4,2,3,65,0,0
61193,-133.333333333333,4,2,1,65,0,0
61272,-133.333333333333,4,2,3,65,0,0
61351,-133.333333333333,4,2,1,65,0,0
61430,-133.333333333333,4,2,3,65,0,0
61508,-133.333333333333,4,2,1,65,0,0
61588,-133.333333333333,4,2,3,65,0,0
61667,-133.333333333333,4,2,1,65,0,0
61746,-133.333333333333,4,2,3,65,0,0
61825,-133.333333333333,4,2,1,65,0,0
61904,-133.333333333333,4,2,3,65,0,0
61982,-133.333333333333,4,2,1,65,0,0
62061,-133.333333333333,4,2,3,65,0,0
62140,-133.333333333333,4,2,1,65,0,0
62219,-133.333333333333,4,2,3,70,0,0
62259,-133.333333333333,4,2,1,70,0,0
62297,-133.333333333333,4,2,3,70,0,0
62338,-133.333333333333,4,2,1,70,0,0
62377,-133.333333333333,4,2,3,70,0,0
62417,-133.333333333333,4,2,1,70,0,0
62455,-133.333333333333,4,2,3,70,0,0
62496,-133.333333333333,4,2,1,70,0,0
62535,-133.333333333333,4,2,3,70,0,0
62575,-133.333333333333,4,2,1,70,0,0
62613,-133.333333333333,4,2,3,70,0,0
62653,-133.333333333333,4,2,1,70,0,0
62693,-133.333333333333,4,2,3,70,0,0
62732,-133.333333333333,4,2,1,70,0,0
62771,-133.333333333333,4,2,3,70,0,0
62811,-133.333333333333,4,2,1,70,0,0
62851,-133.333333333333,4,2,3,70,0,0
62890,-133.333333333333,4,2,1,70,0,0
62929,-133.333333333333,4,2,3,70,0,0
62969,-133.333333333333,4,2,1,70,0,0
63009,-133.333333333333,4,2,3,70,0,0
63048,-133.333333333333,4,2,1,70,0,0
63087,-133.333333333333,4,2,3,70,0,0
63127,-133.333333333333,4,2,1,70,0,0
63167,-133.333333333333,4,2,3,70,0,0
63206,-133.333333333333,4,2,1,70,0,0
63245,-133.333333333333,4,2,3,70,0,0
63285,-133.333333333333,4,2,1,70,0,0
63325,-133.333333333333,4,2,3,70,0,0
63364,-133.333333333333,4,2,1,70,0,0
63403,-133.333333333333,4,2,3,70,0,0
63443,-133.333333333333,4,2,1,70,0,0
63482,-80,4,2,3,75,0,0
63521,-80,4,2,1,75,0,0
63560,-80,4,2,3,75,0,0
63600,-80,4,2,1,75,0,0
63639,-80,4,2,3,75,0,0
63679,-80,4,2,1,75,0,0
63718,-80,4,2,3,75,0,0
63759,-80,4,2,1,75,0,0
63798,-57.1428571428571,4,2,3,77,0,0
63837,-57.1428571428571,4,2,1,77,0,0
63876,-57.1428571428571,4,2,3,77,0,0
63916,-57.1428571428571,4,2,1,77,0,0
63955,-57.1428571428571,4,2,3,77,0,0
63995,-57.1428571428571,4,2,1,77,0,0
64034,-57.1428571428571,4,2,3,77,0,0
64075,-57.1428571428571,4,2,1,77,0,0
64114,-40,4,2,3,79,0,0
64153,-40,4,2,1,79,0,0
64192,-40,4,2,3,79,0,0
64232,-40,4,2,1,79,0,0
64271,-40,4,2,3,79,0,0
64311,-40,4,2,1,79,0,0
64350,-40,4,2,3,79,0,0
64390,-40,4,2,1,79,0,0
64430,-28.5714285714286,4,2,3,81,0,0
64469,-28.5714285714286,4,2,1,81,0,0
64508,-28.5714285714286,4,2,3,81,0,0
64548,-28.5714285714286,4,2,1,81,0,0
64587,-28.5714285714286,4,2,3,81,0,0
64627,-28.5714285714286,4,2,1,81,0,0
64666,-28.5714285714286,4,2,3,81,0,0
64706,-28.5714285714286,4,2,1,81,0,0
64746,-83.3333333333333,4,2,2,50,0,0
64824,-83.3333333333333,4,2,2,50,0,0
64903,-83.3333333333333,4,2,2,50,0,0
66009,-76.9230769230769,4,2,3,100,0,0
66087,-76.9230769230769,4,2,3,100,0,0
66167,-76.9230769230769,4,2,3,100,0,0
66245,-76.9230769230769,4,2,3,100,0,0
66325,-76.9230769230769,4,2,3,100,0,0
66403,-76.9230769230769,4,2,3,100,0,0
66482,-76.9230769230769,4,2,3,100,0,0
66876,-76.9230769230769,4,2,3,5,0,0
66956,-76.9230769230769,4,2,3,100,0,0
67114,-133.333333333333,4,2,3,100,0,0
67192,-133.333333333333,4,2,3,100,0,0
67272,-76.9230769230769,4,2,3,100,0,0
67350,-76.9230769230769,4,2,3,100,0,0
67430,-76.9230769230769,4,2,3,100,0,0
67508,-76.9230769230769,4,2,3,100,0,0
67588,-76.9230769230769,4,2,3,100,0,0
67666,-76.9230769230769,4,2,3,100,0,0
67746,-76.9230769230769,4,2,3,100,0,0
68139,-76.9230769230769,4,2,3,100,0,0
68219,-76.9230769230769,4,2,3,100,0,0
68613,-76.9230769230769,4,2,3,100,0,0
68693,-76.9230769230769,4,2,3,100,0,0
68771,-76.9230769230769,4,2,3,100,0,0
68851,-76.9230769230769,4,2,3,100,0,0
68929,-76.9230769230769,4,2,3,100,0,0
69009,-76.9230769230769,4,2,3,100,0,0
69245,-76.9230769230769,4,2,3,5,0,0
69325,-76.9230769230769,4,2,3,100,0,0
69403,-76.9230769230769,4,2,3,100,0,0
69482,-76.9230769230769,4,2,3,100,0,0
69718,-76.9230769230769,4,2,3,100,0,0
69798,-76.9230769230769,4,2,3,100,0,0
70192,-76.9230769230769,4,2,3,5,0,0
70272,-76.9230769230769,4,2,3,100,0,0
70350,-76.9230769230769,4,2,3,100,0,0
70430,-76.9230769230769,4,2,3,100,0,0
70508,-76.9230769230769,4,2,3,100,0,0
70588,-76.9230769230769,4,2,3,100,0,0
70666,-76.9230769230769,4,2,3,100,0,0
70746,-76.9230769230769,4,2,3,100,0,0
70824,-76.9230769230769,4,2,3,100,0,0
70903,-76.9230769230769,4,2,3,100,0,0
70981,-76.9230769230769,4,2,3,100,0,0
71061,-76.9230769230769,4,2,3,100,0,1
71140,-400,4,2,3,100,0,1
71535,-100,4,2,3,100,0,0
71613,-100,4,2,3,100,0,0
71693,-90.9090909090909,4,2,3,100,0,0
72087,-90.9090909090909,4,2,3,100,0,0
72167,-90.9090909090909,4,2,3,100,0,0
72403,-90.9090909090909,4,2,3,100,0,0
72561,-90.9090909090909,4,2,3,100,0,0
73034,-90.9090909090909,4,2,3,100,0,0
73114,-90.9090909090909,4,2,3,100,0,0
73588,-83.3333333333333,4,2,3,100,0,0
73981,-83.3333333333333,4,2,3,100,0,0
74061,-83.3333333333333,4,2,3,100,0,0
74851,-76.9230769230769,4,2,3,100,0,0
75009,-76.9230769230769,4,2,3,5,0,0
75088,-76.9230769230769,4,2,3,100,0,0
75245,-76.9230769230769,4,2,3,5,0,0
75325,-76.9230769230769,4,2,3,100,0,0
75482,-76.9230769230769,4,2,2,100,0,0
76114,-76.9230769230769,4,2,3,100,0,0
76192,-76.9230769230769,4,2,3,100,0,0
76272,-76.9230769230769,4,2,3,100,0,0
76350,-76.9230769230769,4,2,3,100,0,0
76430,-76.9230769230769,4,2,3,100,0,0
76508,-76.9230769230769,4,2,3,100,0,0
76588,-76.9230769230769,4,2,3,100,0,0
76824,-76.9230769230769,4,2,3,5,0,0
76903,-76.9230769230769,4,2,3,100,0,0
77219,-133.333333333333,4,2,3,100,0,0
77297,-133.333333333333,4,2,3,100,0,0
77377,-76.9230769230769,4,2,3,100,0,0
77455,-76.9230769230769,4,2,3,100,0,0
77535,-76.9230769230769,4,2,3,100,0,0
77613,-76.9230769230769,4,2,3,100,0,0
77693,-76.9230769230769,4,2,3,100,0,0
77771,-76.9230769230769,4,2,3,100,0,0
77851,-76.9230769230769,4,2,3,100,0,0
78087,-76.9230769230769,4,2,3,5,0,0
78167,-76.9230769230769,4,2,3,100,0,0
78245,-76.9230769230769,4,2,3,100,0,0
78325,-76.9230769230769,4,2,3,100,0,0
78718,-76.9230769230769,4,2,3,100,0,0
78798,-76.9230769230769,4,2,3,100,0,0
78876,-76.9230769230769,4,2,3,100,0,0
78956,-76.9230769230769,4,2,3,100,0,0
79034,-76.9230769230769,4,2,3,100,0,0
79114,-76.9230769230769,4,2,3,100,0,0
79508,-76.9230769230769,4,2,3,100,0,0
79588,-76.9230769230769,4,2,3,100,0,0
79824,-76.9230769230769,4,2,3,100,0,0
79903,-76.9230769230769,4,2,3,100,0,0
80455,-76.9230769230769,4,2,3,100,0,0
80535,-76.9230769230769,4,2,3,100,0,0
80613,-76.9230769230769,4,2,3,100,0,0
80693,-76.9230769230769,4,2,3,100,0,0
80929,-76.9230769230769,4,2,3,100,0,0
81009,-76.9230769230769,4,2,3,100,0,0
81087,-76.9230769230769,4,2,3,100,0,0
81167,-66.6666666666667,4,2,3,100,0,0
81798,-100,4,2,3,100,0,0
81876,-100,4,2,3,100,0,0
81956,-100,4,2,3,100,0,0
82034,-100,4,2,3,100,0,0
82114,-100,4,2,3,100,0,0
82192,-100,4,2,3,100,0,0
82272,-100,4,2,3,100,0,0
82350,-100,4,2,3,100,0,0
82430,-90.9090909090909,4,2,3,100,0,0
82824,-90.9090909090909,4,2,3,100,0,0
82903,-90.9090909090909,4,2,3,100,0,0
83139,-90.9090909090909,4,2,3,100,0,0
83219,-90.9090909090909,4,2,3,100,0,0
83297,-90.9090909090909,4,2,3,100,0,0
83377,-90.9090909090909,4,2,3,100,0,0
83455,-90.9090909090909,4,2,3,100,0,0
83535,-90.9090909090909,4,2,3,100,0,0
83613,-90.9090909090909,4,2,3,100,0,0
83693,-66.6666666666667,4,2,3,100,0,0
83929,-66.6666666666667,4,2,3,5,0,0
84009,-66.6666666666667,4,2,3,100,0,0
84245,-66.6666666666667,4,2,3,5,0,0
84325,-66.6666666666667,4,2,3,100,0,0
84561,-66.6666666666667,4,2,3,5,0,0
84640,-66.6666666666667,4,2,3,100,0,0
84876,-66.6666666666667,4,2,3,5,0,0
84956,-66.6666666666667,4,2,3,100,0,0
85034,-66.6666666666667,4,2,3,100,0,0
85114,-66.6666666666667,4,2,3,100,0,0
85192,-66.6666666666667,4,2,3,100,0,0
85272,-66.6666666666667,4,2,3,100,0,0
85350,-66.6666666666667,4,2,3,100,0,0
85430,-66.6666666666667,4,2,3,100,0,0
85508,-66.6666666666667,4,2,3,100,0,0
85588,-66.6666666666667,4,2,2,100,0,0
86219,-66.6666666666667,4,2,3,80,0,0
91035,-66.6666666666667,4,2,3,5,0,0
91114,-83.3333333333333,4,2,3,80,0,0
91192,-83.3333333333333,4,2,3,80,0,0
91272,-83.3333333333333,4,2,3,80,0,0
91981,-83.3333333333333,4,2,3,80,0,0
92061,-83.3333333333333,4,2,3,80,0,0
92139,-83.3333333333333,4,2,3,80,0,0
92219,-83.3333333333333,4,2,3,80,0,0
92455,-83.3333333333333,4,2,3,80,0,0
92535,-83.3333333333333,4,2,3,80,0,0
93245,-83.3333333333333,4,2,3,80,0,0
93325,-83.3333333333333,4,2,3,80,0,0
93718,-83.3333333333333,4,2,3,80,0,0
93798,-83.3333333333333,4,2,3,80,0,0
93876,-83.3333333333333,4,2,3,80,0,0
93956,-83.3333333333333,4,2,3,80,0,0
94034,-83.3333333333333,4,2,3,80,0,0
94114,-83.3333333333333,4,2,3,80,0,0
94192,-83.3333333333333,4,2,3,80,0,0
94272,-83.3333333333333,4,2,3,80,0,0
94666,-83.3333333333333,4,2,3,5,0,0
94746,-83.3333333333333,4,2,3,80,0,0
94981,-83.3333333333333,4,2,3,80,0,0
95061,-83.3333333333333,4,2,3,80,0,0
95297,-83.3333333333333,4,2,3,80,0,0
95377,-83.3333333333333,4,2,3,80,0,0
95613,-83.3333333333333,4,2,3,80,0,0
95693,-83.3333333333333,4,2,2,80,0,0
96325,-83.3333333333333,4,2,3,80,0,0
96403,-83.3333333333333,4,2,3,80,0,0
96482,-83.3333333333333,4,2,3,80,0,0
96560,-83.3333333333333,4,2,3,80,0,0
96640,-83.3333333333333,4,2,3,80,0,0
97034,-83.3333333333333,4,2,3,80,0,0
97114,-83.3333333333333,4,2,3,80,0,0
98297,-83.3333333333333,4,2,3,80,0,0
98377,-83.3333333333333,4,2,3,80,0,0
98929,-83.3333333333333,4,2,3,80,0,0
99009,-83.3333333333333,4,2,3,80,0,0
99403,-83.3333333333333,4,2,3,5,0,0
99482,-83.3333333333333,4,2,3,80,0,0
99560,-83.3333333333333,4,2,3,80,0,0
99640,-83.3333333333333,4,2,3,80,0,0
101139,-83.3333333333333,4,2,3,5,0,0
101219,-83.3333333333333,4,2,3,80,0,0
101297,-83.3333333333333,4,2,3,80,0,0
101377,-83.3333333333333,4,2,3,80,0,0
102087,-83.3333333333333,4,2,3,80,0,0
102167,-83.3333333333333,4,2,3,80,0,0
102245,-83.3333333333333,4,2,3,80,0,0
102325,-83.3333333333333,4,2,3,80,0,0
102560,-83.3333333333333,4,2,3,80,0,0
102640,-83.3333333333333,4,2,3,80,0,0
103666,-83.3333333333333,4,2,3,80,0,0
103746,-83.3333333333333,4,2,3,80,0,0
103824,-83.3333333333333,4,2,3,80,0,0
103903,-83.3333333333333,4,2,3,80,0,0
103981,-83.3333333333333,4,2,3,80,0,0
104061,-83.3333333333333,4,2,3,80,0,0
104139,-83.3333333333333,4,2,3,80,0,0
104219,-83.3333333333333,4,2,3,80,0,0
105167,-83.3333333333333,4,2,4,80,0,0
105325,-83.3333333333333,4,2,1,80,0,0
105403,-83.3333333333333,4,2,1,80,0,0
105482,-83.3333333333333,4,2,4,80,0,0
105640,-83.3333333333333,4,2,1,80,0,0
105798,-55.5555555555556,4,2,4,80,0,0
105956,-55.5555555555556,4,2,3,80,0,0
106430,-133.333333333333,4,2,5,60,0,0
106746,-133.333333333333,4,2,1,60,0,0
110429,-133.333333333333,4,2,2,60,0,0
110535,-133.333333333333,4,2,1,60,0,0
110746,-133.333333333333,4,2,5,60,0,0
110851,-133.333333333333,4,2,1,60,0,0
111167,-133.333333333333,4,2,5,60,0,0
111377,-133.333333333333,4,2,1,60,0,0
111482,-133.333333333333,4,2,2,60,0,0
111798,-133.333333333333,4,2,1,60,0,0
113903,-133.333333333333,4,2,2,60,0,0
114009,-133.333333333333,4,2,1,60,0,0
114325,-133.333333333333,4,2,5,60,0,0
114535,-133.333333333333,4,2,1,60,0,0
114851,-133.333333333333,4,2,2,60,0,0
114956,-133.333333333333,4,2,1,60,0,0
115903,-133.333333333333,4,2,1,50,0,0
116535,-100,4,2,3,70,0,0
116613,-100,4,2,3,70,0,0
116693,-100,4,2,3,70,0,0
116851,-100,4,2,2,70,0,0
117087,-100,4,2,2,5,0,0
117167,-100,4,2,3,70,0,0
117245,-100,4,2,3,70,0,0
117325,-100,4,2,3,70,0,0
117403,-100,4,2,3,70,0,0
117482,-100,4,2,2,70,0,0
117797,-100,4,2,3,70,0,0
118114,-100,4,2,2,70,0,0
118430,-100,4,2,3,70,0,0
118746,-100,4,2,2,70,0,0
119060,-100,4,2,3,70,0,0
119377,-100,4,2,2,70,0,0
119693,-100,4,2,3,70,0,0
120009,-100,4,2,2,70,0,0
121272,-76.9230769230769,4,2,2,70,0,0
121429,-76.9230769230769,4,2,3,70,0,0
121903,-76.9230769230769,4,2,2,70,0,0
122219,-100,4,2,3,70,0,0
122535,-100,4,2,2,70,0,0
122613,-100,4,2,2,70,0,0
122693,-100,4,2,2,70,0,0
122851,-100,4,2,3,70,0,0
122929,-100,4,2,2,5,0,0
123009,-100,4,2,3,70,0,0
123167,-100,4,2,2,70,0,0
123245,-100,4,2,2,70,0,0
123325,-100,4,2,2,70,0,0
123482,-100,4,2,3,70,0,0
123798,-100,4,2,2,70,0,0
123876,-100,4,2,2,70,0,0
123956,-100,4,2,2,70,0,0
124113,-100,4,2,3,70,0,0
124430,-100,4,2,2,70,0,0
124746,-100,4,2,3,70,0,0
125061,-100,4,2,2,70,0,0
125219,-100,4,2,3,70,0,0
125613,-100,4,2,3,70,0,0
125693,-100,4,2,2,70,0,0
125851,-100,4,2,3,70,0,0
125929,-100,4,2,3,70,0,0
126009,-100,4,2,2,70,0,0
126167,-100,4,2,3,70,0,0
126640,-133.333333333333,4,2,3,50,0,0
131693,-133.333333333333,4,2,3,55,0,0
131851,-133.333333333333,4,2,1,55,0,0
132009,-133.333333333333,4,2,3,55,0,0
132167,-133.333333333333,4,2,1,55,0,0
132325,-133.333333333333,4,2,3,55,0,0
132482,-133.333333333333,4,2,1,55,0,0
132640,-133.333333333333,4,2,3,55,0,0
132718,-133.333333333333,4,2,3,55,0,0
132798,-133.333333333333,4,2,1,55,0,0
132876,-133.333333333333,4,2,1,55,0,0
132956,-133.333333333333,4,2,3,60,0,0
133034,-133.333333333333,4,2,1,60,0,0
133114,-133.333333333333,4,2,3,60,0,0
133193,-133.333333333333,4,2,1,60,0,0
133271,-133.333333333333,4,2,3,60,0,0
133351,-133.333333333333,4,2,1,60,0,0
133430,-133.333333333333,4,2,3,60,0,0
133509,-133.333333333333,4,2,1,60,0,0
133588,-133.333333333333,4,2,3,60,0,0
133667,-133.333333333333,4,2,1,60,0,0
133745,-133.333333333333,4,2,3,60,0,0
133825,-133.333333333333,4,2,1,60,0,0
133903,-133.333333333333,4,2,3,60,0,0
133982,-133.333333333333,4,2,1,60,0,0
134061,-133.333333333333,4,2,3,60,0,0
134140,-133.333333333333,4,2,1,60,0,0
134219,-133.333333333333,4,2,3,65,0,0
134298,-133.333333333333,4,2,1,65,0,0
134377,-133.333333333333,4,2,3,65,0,0
134456,-133.333333333333,4,2,1,65,0,0
134535,-133.333333333333,4,2,3,65,0,0
134614,-133.333333333333,4,2,1,65,0,0
134693,-133.333333333333,4,2,3,65,0,0
134772,-133.333333333333,4,2,1,65,0,0
134851,-133.333333333333,4,2,3,65,0,0
134930,-133.333333333333,4,2,1,65,0,0
135009,-133.333333333333,4,2,3,65,0,0
135088,-133.333333333333,4,2,1,65,0,0
135167,-133.333333333333,4,2,3,65,0,0
135246,-133.333333333333,4,2,1,65,0,0
135325,-133.333333333333,4,2,3,65,0,0
135403,-133.333333333333,4,2,1,65,0,0
135482,-133.333333333333,4,2,1,40,0,0
136430,-50,4,2,1,60,0,0
136666,-50,4,2,1,5,0,0
136746,-76.9230769230769,4,2,3,100,0,0
136824,-76.9230769230769,4,2,3,100,0,0
136903,-76.9230769230769,4,2,3,100,0,0
136981,-76.9230769230769,4,2,3,100,0,0
137061,-76.9230769230769,4,2,3,100,0,0
137139,-76.9230769230769,4,2,3,100,0,0
137219,-76.9230769230769,4,2,3,100,0,0
137771,-76.9230769230769,4,2,3,100,0,0
137851,-76.9230769230769,4,2,3,100,0,0
138087,-76.9230769230769,4,2,3,100,0,0
138167,-76.9230769230769,4,2,3,100,0,0
138245,-76.9230769230769,4,2,3,100,0,0
138325,-76.9230769230769,4,2,3,100,0,0
138403,-76.9230769230769,4,2,3,100,0,0
138482,-76.9230769230769,4,2,3,100,0,0
138876,-76.9230769230769,4,2,3,100,0,0
138956,-76.9230769230769,4,2,3,100,0,0
139350,-76.9230769230769,4,2,3,100,0,0
139430,-76.9230769230769,4,2,3,100,0,0
139508,-76.9230769230769,4,2,3,100,0,0
139588,-76.9230769230769,4,2,3,100,0,0
139666,-76.9230769230769,4,2,3,100,0,0
139746,-76.9230769230769,4,2,3,100,0,0
139982,-76.9230769230769,4,2,3,5,0,0
140061,-76.9230769230769,4,2,3,100,0,0
140139,-76.9230769230769,4,2,3,100,0,0
140219,-76.9230769230769,4,2,3,100,0,0
140455,-76.9230769230769,4,2,3,100,0,0
140535,-76.9230769230769,4,2,3,100,0,0
140929,-76.9230769230769,4,2,3,5,0,0
141009,-76.9230769230769,4,2,3,100,0,0
141087,-76.9230769230769,4,2,3,100,0,0
141167,-76.9230769230769,4,2,3,100,0,0
141403,-76.9230769230769,4,2,3,100,0,0
141482,-76.9230769230769,4,2,3,100,0,0
141718,-76.9230769230769,4,2,3,100,0,0
141798,-76.9230769230769,4,2,3,100,0,1
141877,-400,4,2,3,100,0,1
142272,-100,4,2,3,100,0,0
142350,-100,4,2,3,100,0,0
142430,-100,4,2,3,100,0,0
142825,-90.9090909090909,4,2,3,100,0,0
142982,-90.9090909090909,4,2,3,5,0,0
143061,-90.9090909090909,4,2,3,100,0,0
143139,-90.9090909090909,4,2,3,100,0,0
143219,-90.9090909090909,4,2,3,100,0,0
143613,-90.9090909090909,4,2,3,100,0,0
143693,-90.9090909090909,4,2,3,100,0,0
144325,-83.3333333333333,4,2,3,100,0,0
144718,-83.3333333333333,4,2,3,5,0,0
144798,-83.3333333333333,4,2,3,100,0,0
144876,-83.3333333333333,4,2,3,100,0,0
144956,-83.3333333333333,4,2,3,100,0,0
145192,-83.3333333333333,4,2,3,100,0,0
145272,-83.3333333333333,4,2,3,100,0,0
145588,-76.9230769230769,4,2,3,100,0,0
145982,-76.9230769230769,4,2,3,5,0,0
146061,-76.9230769230769,4,2,3,100,0,0
146139,-76.9230769230769,4,2,3,100,0,0
146219,-76.9230769230769,4,2,2,100,0,0
146851,-76.9230769230769,4,2,3,100,0,0
146929,-76.9230769230769,4,2,3,100,0,0
147009,-76.9230769230769,4,2,3,100,0,0
147087,-76.9230769230769,4,2,3,100,0,0
147167,-76.9230769230769,4,2,3,100,0,0
147245,-76.9230769230769,4,2,3,100,0,0
147325,-76.9230769230769,4,2,3,100,0,0
147561,-76.9230769230769,4,2,3,5,0,0
147640,-76.9230769230769,4,2,3,100,0,0
148192,-76.9230769230769,4,2,3,100,0,0
148272,-76.9230769230769,4,2,3,100,0,0
148350,-76.9230769230769,4,2,3,100,0,0
148430,-76.9230769230769,4,2,3,100,0,0
148508,-76.9230769230769,4,2,3,100,0,0
148588,-76.9230769230769,4,2,3,100,0,0
148981,-76.9230769230769,4,2,3,100,0,0
149061,-76.9230769230769,4,2,3,100,0,0
149455,-76.9230769230769,4,2,3,100,0,0
149535,-76.9230769230769,4,2,3,100,0,0
149613,-76.9230769230769,4,2,3,100,0,0
149693,-76.9230769230769,4,2,3,100,0,0
149771,-76.9230769230769,4,2,3,100,0,0
149851,-76.9230769230769,4,2,3,100,0,0
150087,-76.9230769230769,4,2,3,5,0,0
150167,-76.9230769230769,4,2,3,100,0,0
150245,-76.9230769230769,4,2,3,100,0,0
150325,-76.9230769230769,4,2,3,100,0,0
150560,-76.9230769230769,4,2,3,100,0,0
150640,-76.9230769230769,4,2,3,100,0,0
151192,-76.9230769230769,4,2,3,100,0,0
151272,-76.9230769230769,4,2,3,100,0,0
151824,-76.9230769230769,4,2,3,100,0,0
151903,-66.6666666666667,4,2,3,100,0,0
153167,-90.9090909090909,4,2,3,100,0,0
153560,-90.9090909090909,4,2,3,100,0,0
153640,-90.9090909090909,4,2,3,100,0,0
154430,-66.6666666666667,4,2,3,100,0,0
154666,-66.6666666666667,4,2,3,5,0,0
154746,-66.6666666666667,4,2,3,100,0,0
154982,-66.6666666666667,4,2,3,5,0,0
155061,-66.6666666666667,4,2,3,100,0,0
155297,-66.6666666666667,4,2,3,5,0,0
155377,-66.6666666666667,4,2,3,100,0,0
155613,-66.6666666666667,4,2,3,5,0,0
155693,-66.6666666666667,4,2,3,100,0,0
155929,-66.6666666666667,4,2,3,5,0,0
156009,-66.6666666666667,4,2,3,100,0,0
156087,-66.6666666666667,4,2,3,100,0,0
156167,-66.6666666666667,4,2,3,100,0,0
156245,-66.6666666666667,4,2,3,100,0,0
156325,-66.6666666666667,4,2,2,100,0,0
156956,-108.695652173913,4,2,1,50,0,0
159403,-108.695652173913,4,2,1,5,0,0
159482,-108.695652173913,4,2,2,50,0,0
161851,-108.695652173913,4,2,1,50,0,0
162008,-108.695652173913,4,2,2,50,0,0
164535,-250,4,2,2,55,0,0
164771,-250,4,2,2,5,0,0
164851,-166.666666666667,4,2,2,55,0,0
165087,-166.666666666667,4,2,2,5,0,0
165166,-125,4,2,2,60,0,0
165403,-125,4,2,2,5,0,0
165482,-100,4,2,2,60,0,0
165718,-100,4,2,2,5,0,0
165798,-100,4,2,2,65,0,0
165876,-100,4,2,2,65,0,0
165956,-100,4,2,2,65,0,0
166034,-100,4,2,2,65,0,0
166114,-100,4,2,2,65,0,0
166192,-100,4,2,2,65,0,0
166272,-100,4,2,2,65,0,0
166350,-100,4,2,2,65,0,0
166430,-16.6666666666667,4,2,2,70,0,0
166746,-20,4,2,2,100,0,0
166982,-20,4,2,2,5,0,0
167061,-50,4,2,3,100,0,1
167297,-50,4,2,3,5,0,1
167377,-66.6666666666667,4,2,2,100,0,1
167455,-66.6666666666667,4,2,2,100,0,1
167535,-66.6666666666667,4,2,3,100,0,1
167575,-66.6666666666667,4,2,3,5,0,1
167693,-66.6666666666667,4,2,3,100,0,1
168008,-66.6666666666667,4,2,2,100,0,1
168167,-66.6666666666667,4,2,3,100,0,1
168325,-57.1428571428571,4,2,3,100,0,1
168561,-57.1428571428571,4,2,3,5,0,1
168640,-66.6666666666667,4,2,2,100,0,1
168718,-66.6666666666667,4,2,2,100,0,1
168798,-66.6666666666667,4,2,3,100,0,1
169034,-66.6666666666667,4,2,3,100,0,1
169114,-66.6666666666667,4,2,3,100,0,1
169272,-66.6666666666667,4,2,2,100,0,1
169430,-66.6666666666667,4,2,3,100,0,1
169588,-50,4,2,3,100,0,1
169903,-66.6666666666667,4,2,2,100,0,1
169981,-66.6666666666667,4,2,2,100,0,1
170061,-66.6666666666667,4,2,3,100,0,1
170101,-66.6666666666667,4,2,3,5,0,1
170219,-66.6666666666667,4,2,3,100,0,1
170535,-57.1428571428571,4,2,2,100,0,1
170613,-57.1428571428571,4,2,2,100,0,1
170693,-57.1428571428571,4,2,3,100,0,1
170771,-57.1428571428571,4,2,3,100,0,1
170851,-44.4444444444445,4,2,3,100,0,1
171087,-44.4444444444445,4,2,3,5,0,1
171167,-40,4,2,2,100,0,1
171325,-40,4,2,3,100,0,1
171403,-40,4,2,2,5,0,1
171482,-33.3333333333333,4,2,2,100,0,1
171718,-33.3333333333333,4,2,2,5,0,1
171798,-33.3333333333333,4,2,2,100,0,1
171877,-333.333333333333,4,2,2,100,0,1
171956,-333.333333333333,4,2,3,100,0,1
172034,-333.333333333333,4,2,2,5,0,1
172114,-50,4,2,3,100,0,1
172350,-50,4,2,3,5,0,1
172430,-66.6666666666667,4,2,2,100,0,1
172508,-66.6666666666667,4,2,2,100,0,1
172588,-66.6666666666667,4,2,3,100,0,1
172627,-66.6666666666667,4,2,3,5,0,1
172746,-66.6666666666667,4,2,3,100,0,1
173060,-66.6666666666667,4,2,2,100,0,1
173219,-66.6666666666667,4,2,3,100,0,1
173377,-57.1428571428571,4,2,3,100,0,1
173613,-57.1428571428571,4,2,3,5,0,1
173693,-66.6666666666667,4,2,2,100,0,1
173771,-66.6666666666667,4,2,2,100,0,1
173851,-66.6666666666667,4,2,3,100,0,1
174325,-66.6666666666667,4,2,4,100,0,1
174403,-66.6666666666667,4,2,3,100,0,1
174640,-66.6666666666667,4,2,2,100,0,1
174798,-66.6666666666667,4,2,3,100,0,1
174876,-66.6666666666667,4,2,2,5,0,1
174956,-66.6666666666667,4,2,2,100,0,1
175034,-66.6666666666667,4,2,2,100,0,1
175114,-66.6666666666667,4,2,3,100,0,1
175272,-57.1428571428571,4,2,2,100,0,1
175430,-57.1428571428571,4,2,3,100,0,1
175508,-57.1428571428571,4,2,2,5,0,1
175588,-50,4,2,2,100,0,1
175746,-50,4,2,3,100,0,1
175824,-50,4,2,2,5,0,1
175903,-50,4,2,2,100,0,1
175981,-50,4,2,2,100,0,1
176061,-50,4,2,3,100,0,1
176139,-50,4,2,3,100,0,1
176219,-50,4,2,2,100,0,1
176297,-50,4,2,2,100,0,1
176377,-50,4,2,4,100,0,1
176455,-50,4,2,4,100,0,1
176535,-20,4,2,4,100,0,1
176851,-20,4,2,4,100,0,1
176930,-18.1818181818182,4,2,2,100,0,1
177009,-14.2857142857143,4,2,2,100,0,1
177088,-10,4,2,2,100,0,1
177167,-1000,4,2,1,50,0,0
187272,-333.333333333333,4,2,6,60,0,0
188456,-333.333333333333,4,2,6,5,0,0
188535,-400,4,2,3,60,0,0
189719,-400,4,2,3,5,0,0
189798,-500,4,2,3,60,0,0
190982,-500,4,2,3,5,0,0
191061,-666.666666666667,4,2,3,60,0,0
192245,-666.666666666667,4,2,3,5,0,0
192325,-1000,4,2,3,60,0,0
193509,-1000,4,2,3,5,0,0
193588,-50,4,2,3,60,0,0
194377,-200,4,2,3,40,0,0
194851,-71.4285714285714,4,2,3,100,0,0
194929,-71.4285714285714,4,2,3,100,0,0
195009,-71.4285714285714,4,2,3,100,0,0
195087,-71.4285714285714,4,2,3,100,0,0
195167,-71.4285714285714,4,2,3,100,0,0
195245,-71.4285714285714,4,2,3,100,0,0
195325,-71.4285714285714,4,2,3,100,0,0
195718,-71.4285714285714,4,2,3,5,0,0
195798,-71.4285714285714,4,2,3,100,0,0
195956,-117.647058823529,4,2,3,100,0,0
196034,-117.647058823529,4,2,3,100,0,0
196114,-71.4285714285714,4,2,3,100,0,0
196192,-71.4285714285714,4,2,3,100,0,0
196272,-71.4285714285714,4,2,3,100,0,0
196350,-71.4285714285714,4,2,3,100,0,0
196430,-71.4285714285714,4,2,3,100,0,0
196508,-71.4285714285714,4,2,3,100,0,0
196588,-71.4285714285714,4,2,3,100,0,0
196981,-71.4285714285714,4,2,3,100,0,0
197061,-71.4285714285714,4,2,3,100,0,0
197455,-71.4285714285714,4,2,3,100,0,0
197535,-71.4285714285714,4,2,3,100,0,0
197613,-71.4285714285714,4,2,3,100,0,0
197693,-71.4285714285714,4,2,3,100,0,0
197771,-71.4285714285714,4,2,3,100,0,0
197851,-71.4285714285714,4,2,3,100,0,0
198245,-71.4285714285714,4,2,3,100,0,0
198325,-71.4285714285714,4,2,3,100,0,0
198560,-71.4285714285714,4,2,3,100,0,0
198640,-71.4285714285714,4,2,3,100,0,0
199034,-71.4285714285714,4,2,3,5,0,0
199114,-71.4285714285714,4,2,3,100,0,0
199192,-71.4285714285714,4,2,3,100,0,0
199272,-71.4285714285714,4,2,3,100,0,0
199350,-71.4285714285714,4,2,3,100,0,0
199430,-71.4285714285714,4,2,3,100,0,0
199508,-71.4285714285714,4,2,3,100,0,0
199588,-71.4285714285714,4,2,3,100,0,0
199666,-71.4285714285714,4,2,3,100,0,0
199746,-71.4285714285714,4,2,3,100,0,0
199824,-71.4285714285714,4,2,3,100,0,0
199903,-71.4285714285714,4,2,3,100,0,1
199982,-285.714285714286,4,2,3,100,0,1
200377,-90.9090909090909,4,2,3,100,0,0
200455,-90.9090909090909,4,2,3,100,0,0
200535,-83.3333333333333,4,2,3,100,0,0
202192,-83.3333333333333,4,2,3,100,0,0
202272,-83.3333333333333,4,2,3,100,0,0
202430,-76.9230769230769,4,2,3,100,0,0
202824,-76.9230769230769,4,2,3,5,0,0
202903,-76.9230769230769,4,2,3,100,0,0
202981,-76.9230769230769,4,2,3,100,0,0
203061,-76.9230769230769,4,2,3,100,0,0
203613,-76.9230769230769,4,2,3,100,0,0
203693,-71.4285714285714,4,2,3,100,0,0
204087,-71.4285714285714,4,2,3,5,0,0
204167,-71.4285714285714,4,2,3,100,0,0
204245,-71.4285714285714,4,2,3,100,0,0
204325,-71.4285714285714,4,2,2,100,0,0
204956,-71.4285714285714,4,2,3,100,0,0
205034,-71.4285714285714,4,2,3,100,0,0
205114,-71.4285714285714,4,2,3,100,0,0
205192,-71.4285714285714,4,2,3,100,0,0
205272,-71.4285714285714,4,2,3,100,0,0
205350,-71.4285714285714,4,2,3,100,0,0
205430,-71.4285714285714,4,2,3,100,0,0
205666,-71.4285714285714,4,2,3,5,0,0
205746,-71.4285714285714,4,2,3,100,0,0
206297,-71.4285714285714,4,2,3,100,0,0
206377,-71.4285714285714,4,2,3,100,0,0
206455,-71.4285714285714,4,2,3,100,0,0
206535,-71.4285714285714,4,2,3,100,0,0
206613,-71.4285714285714,4,2,3,100,0,0
206693,-71.4285714285714,4,2,3,100,0,0
207560,-71.4285714285714,4,2,3,100,0,0
207640,-71.4285714285714,4,2,3,100,0,0
207718,-71.4285714285714,4,2,3,100,0,0
207798,-71.4285714285714,4,2,3,100,0,0
207876,-71.4285714285714,4,2,3,100,0,0
207956,-71.4285714285714,4,2,3,100,0,0
208192,-71.4285714285714,4,2,3,5,0,0
208272,-71.4285714285714,4,2,3,100,0,0
208350,-71.4285714285714,4,2,3,100,0,0
208430,-71.4285714285714,4,2,3,100,0,0
208666,-71.4285714285714,4,2,3,100,0,0
208746,-71.4285714285714,4,2,3,100,0,0
209297,-71.4285714285714,4,2,3,100,0,0
209377,-71.4285714285714,4,2,3,100,0,0
209455,-71.4285714285714,4,2,3,100,0,0
209535,-71.4285714285714,4,2,3,100,0,0
209613,-71.4285714285714,4,2,3,100,0,0
209693,-71.4285714285714,4,2,3,100,0,0
209771,-71.4285714285714,4,2,3,100,0,0
209851,-71.4285714285714,4,2,3,100,0,0
209929,-71.4285714285714,4,2,3,100,0,0
210009,-62.5,4,2,3,100,0,0
210640,-90.9090909090909,4,2,3,100,0,0
210718,-90.9090909090909,4,2,3,100,0,0
210798,-90.9090909090909,4,2,3,100,0,0
211034,-90.9090909090909,4,2,3,100,0,0
211114,-90.9090909090909,4,2,3,100,0,0
211509,-83.3333333333333,4,2,3,100,0,0
212535,-62.5,4,2,3,100,0,0
212771,-62.5,4,2,3,5,0,0
212851,-62.5,4,2,3,100,0,0
213087,-62.5,4,2,3,5,0,0
213167,-62.5,4,2,3,100,0,0
213403,-62.5,4,2,3,5,0,0
213482,-62.5,4,2,3,100,0,0
213718,-62.5,4,2,3,5,0,0
213798,-62.5,4,2,3,100,0,0
213876,-62.5,4,2,3,100,0,0
213956,-62.5,4,2,3,100,0,0
214034,-62.5,4,2,3,100,0,0
214114,-62.5,4,2,3,100,0,0
214192,-62.5,4,2,3,100,0,0
214272,-62.5,4,2,3,100,0,0
214350,-62.5,4,2,3,100,0,0
214430,-62.5,4,2,2,100,0,0
215061,-62.5,4,2,3,80,0,0
220035,-62.5,4,2,3,5,0,0
220114,-76.9230769230769,4,2,3,80,0,0
220272,-1000,4,2,0,100,0,1
220311,-1000,4,2,0,100,0,0
220351,-1000,4,2,0,100,0,1
220390,-1000,4,2,0,100,0,0
220430,-1000,4,2,0,100,0,1
220469,-1000,4,2,0,100,0,0
220509,-1000,4,2,0,100,0,1
220548,-1000,4,2,0,100,0,0
220588,-1000,4,2,0,100,0,1
220627,-1000,4,2,0,100,0,0
220667,-1000,4,2,0,100,0,1
220706,-1000,4,2,0,100,0,0
220746,-1000,4,2,0,100,0,1
220785,-1000,4,2,0,100,0,0
220825,-1000,4,2,0,100,0,1
220864,-1000,4,2,0,100,0,0
220903,-1000,4,2,0,100,0,1
220942,-1000,4,2,0,100,0,0
220982,-1000,4,2,0,100,0,1
221021,-1000,4,2,0,100,0,0
221061,-1000,4,2,0,100,0,1
221100,-1000,4,2,0,100,0,0
221140,-1000,4,2,0,100,0,1
221179,-1000,4,2,0,100,0,0
221219,-1000,4,2,0,100,0,1
221258,-1000,4,2,0,100,0,0
221298,-1000,4,2,0,100,0,1
221337,-1000,4,2,0,100,0,0
221377,-1000,4,2,0,100,0,1
221416,-1000,4,2,0,100,0,0
221456,-1000,4,2,0,100,0,1
221495,-1000,4,2,0,100,0,0
221535,-1000,4,2,0,100,0,1
221574,-1000,4,2,0,100,0,0
221614,-1000,4,2,0,100,0,1
221653,-1000,4,2,0,100,0,0
221693,-1000,4,2,0,100,0,1
221732,-1000,4,2,0,100,0,0
221772,-1000,4,2,0,100,0,1
221811,-1000,4,2,0,100,0,0
221851,-1000,4,2,0,100,0,1
221890,-1000,4,2,0,100,0,0
221930,-1000,4,2,0,100,0,1
221969,-1000,4,2,0,100,0,0
222009,-1000,4,2,0,100,0,1
222048,-1000,4,2,0,100,0,0
222088,-1000,4,2,0,100,0,1
222127,-1000,4,2,0,100,0,0
222167,-1000,4,2,0,100,0,1
222206,-1000,4,2,0,100,0,0
222246,-1000,4,2,0,100,0,1
222285,-1000,4,2,0,100,0,0
222325,-1000,4,2,0,100,0,1
222364,-1000,4,2,0,100,0,0
222403,-1000,4,2,0,100,0,1
222442,-1000,4,2,0,100,0,0
222482,-1000,4,2,0,100,0,1
222521,-1000,4,2,0,100,0,0
222561,-1000,4,2,0,100,0,1
222600,-1000,4,2,0,100,0,0
222640,-1000,4,2,0,100,0,1
222679,-1000,4,2,0,100,0,0
222719,-1000,4,2,0,100,0,1
222758,-1000,4,2,0,100,0,0
222798,-1000,4,2,0,100,0,1
222837,-1000,4,2,0,100,0,0
222877,-1000,4,2,0,100,0,1
222916,-1000,4,2,0,100,0,0
222956,-1000,4,2,0,100,0,1
222995,-1000,4,2,0,100,0,0
223035,-1000,4,2,0,100,0,1
223074,-1000,4,2,0,100,0,0
223114,-1000,4,2,0,100,0,1
223153,-1000,4,2,0,100,0,0
223193,-1000,4,2,0,100,0,1
223232,-1000,4,2,0,100,0,0
223272,-1000,4,2,0,100,0,1
223311,-1000,4,2,0,100,0,0
223351,-1000,4,2,0,100,0,1
223390,-1000,4,2,0,100,0,0
223430,-1000,4,2,0,100,0,1
223469,-1000,4,2,0,100,0,0
223509,-1000,4,2,0,100,0,1
223548,-1000,4,2,0,100,0,0
223588,-1000,4,2,0,100,0,1
223627,-1000,4,2,0,100,0,0
223667,-1000,4,2,0,100,0,1
223706,-1000,4,2,0,100,0,0
223746,-1000,4,2,0,100,0,1
223785,-1000,4,2,0,100,0,0
223825,-1000,4,2,0,100,0,1
223864,-1000,4,2,0,100,0,0
223903,-1000,4,2,0,100,0,1
223942,-1000,4,2,0,100,0,0
223982,-1000,4,2,0,100,0,1
224021,-1000,4,2,0,100,0,0
224061,-1000,4,2,0,100,0,1
224100,-1000,4,2,0,100,0,0
224140,-1000,4,2,0,100,0,1
224179,-1000,4,2,0,100,0,0
224219,-1000,4,2,0,100,0,1
224258,-1000,4,2,0,100,0,0
224298,-1000,4,2,0,100,0,1
224337,-1000,4,2,0,100,0,0
224377,-1000,4,2,0,100,0,1
224416,-1000,4,2,0,100,0,0
224456,-1000,4,2,0,100,0,1
224495,-1000,4,2,0,100,0,0
224535,-1000,4,2,2,70,0,1
225167,-83.3333333333333,4,2,3,70,0,0
225245,-83.3333333333333,4,2,3,70,0,0
225325,-83.3333333333333,4,2,3,70,0,0
225403,-83.3333333333333,4,2,3,70,0,0
225482,-83.3333333333333,4,2,3,70,0,0
227771,-83.3333333333333,4,2,3,70,0,0
227851,-83.3333333333333,4,2,3,70,0,0
228245,-83.3333333333333,4,2,3,5,0,0
228325,-83.3333333333333,4,2,3,70,0,0
229982,-83.3333333333333,4,2,3,5,0,0
230061,-83.3333333333333,4,2,3,70,0,0
230139,-83.3333333333333,4,2,3,70,0,0
230219,-83.3333333333333,4,2,3,70,0,0
232192,-83.3333333333333,4,2,3,70,0,0
232272,-83.3333333333333,4,2,3,70,0,0
232350,-83.3333333333333,4,2,3,70,0,0
232430,-83.3333333333333,4,2,3,70,0,0
232824,-83.3333333333333,4,2,3,70,0,0
232903,-83.3333333333333,4,2,3,70,0,0
233297,-83.3333333333333,4,2,3,5,0,0
233377,-83.3333333333333,4,2,3,70,0,0
233613,-83.3333333333333,4,2,3,5,0,0
233693,-83.3333333333333,4,2,3,70,0,0
234009,-83.3333333333333,4,2,2,70,0,0
234718,-83.3333333333333,4,2,2,70,0,0
234798,-83.3333333333333,4,2,2,70,0,0
235981,-83.3333333333333,4,2,2,70,0,0
236061,-66.6666666666667,4,2,2,70,0,0
236219,-40,4,2,2,70,0,0
236575,-50,4,2,2,70,0,0
237127,-50,4,2,2,5,0,0
237167,-200,4,2,2,70,0,0
238035,-200,4,2,2,5,0,0
238114,-200,4,2,2,20,0,0
239535,-200,4,2,2,15,0,0
241903,-200,4,2,2,10,0,0

[Colours]
Combo1 : 255,0,0
Combo2 : 192,192,192
Combo3 : 128,128,128
Combo4 : 191,0,0
Combo5 : 128,0,0

[HitObjects]
5,5,325,22,0,P|4:51|18:118,1,100,0|8,1:1|2:3,0:0:0:0:
82,134,561,1,4,2:3:0:0:
82,134,798,54,0,P|62:187|58:250,1,100,0|8,1:1|2:3,0:0:0:0:
110,288,1035,1,4,2:3:0:0:
155,226,1272,6,0,P|205:246|267:256,1,100,0|8,1:1|2:3,0:0:0:0:
321,283,1509,1,4,2:3:0:0:
363,133,1746,54,0,P|373:182|376:248,1,100,0|8,1:1|2:3,0:0:0:0:
321,283,1982,1,4,2:3:0:0:
494,15,2219,5,0,1:1:0:0:
494,15,2298,2,0,L|431:43,1,50,0|8,0:0|2:3,0:0:0:0:
382,0,2456,1,4,2:3:0:0:
398,32,2535,54,0,P|381:52|352:40,5,33.3333333333333,0|0|0|0|0|0,1:1|1:1|1:1|1:1|1:1|1:1,0:0:0:0:
344,61,2851,5,6,2:2:0:0:
0,384,7746,1,8,2:3:0:0:
0,384,7825,1,4,2:3:0:0:
0,384,7903,54,0,L|11:349,1,35,2|0,1:2|2:0,0:0:0:0:
6,275,8535,6,0,L|40:235,1,52.4999983978272,2|0,1:2|2:0,0:0:0:0:
87,345,9167,54,0,L|154:318,1,70,2|0,1:2|2:0,0:0:0:0:
122,237,9798,6,0,L|229:225,1,104.999996795654,2|0,1:2|2:0,0:0:0:0:
224,353,10430,54,0,L|294:362,1,60,2|0,1:2|2:0,0:0:0:0:
264,160,10746,2,0,L|350:204,1,89.9999972534181,2|0,1:2|2:0,0:0:0:0:
293,285,11061,2,0,L|369:388,1,120,2|2,1:2|2:2,0:0:0:0:
364,125,11377,2,0,L|403:291,1,150,2|0,1:2|2:0,0:0:0:0:
512,286,11693,6,0,L|468:337,1,50,2|0,1:2|0:0,0:0:0:0:
479,323,11851,2,0,L|512:286,1,50,2|0,1:2|0:0,0:0:0:0:
512,286,12009,2,0,L|479:323,1,50,2|0,1:2|0:0,0:0:0:0:
479,323,12167,2,0,L|512:286,1,50,2|0,1:2|0:0,0:0:0:0:
496,198,12325,54,0,P|504:179|508:143,1,37.5000014305115,2|0,1:2|0:0,0:0:0:0:
485,124,12403,6,0,P|481:108|463:70,1,37.5000014305115,2|0,1:2|0:0,0:0:0:0:
440,58,12482,54,0,P|430:53|403:50,1,37.5000014305115,2|0,1:2|0:0,0:0:0:0:
373,40,12561,6,0,P|350:39|326:52,1,37.5000014305115,2|0,1:2|0:0,0:0:0:0:
336,44,12640,54,0,B|296:11|195:41|294:69|327:48|337:42,12,125
330,121,12956,6,0,P|234:141|153:173,1,179.999994506836,6|0,1:2|2:0,0:0:0:0:
71,134,13272,2,0,P|49:104|52:64,1,59.9999981689454,10|0,2:2|0:0,0:0:0:0:
124,83,13430,1,2,1:2:0:0:
124,83,13509,2,0,P|180:105|252:126,1,119.999996337891,0|0,0:0|2:0,0:0:0:0:
272,133,13746,1,2,2:2:0:0:
144,249,13903,54,0,L|78:271,1,59.9999981689454,10|0,3:2|0:0,0:0:0:0:
138,266,14061,2,0,L|93:306,1,59.9999981689454,2|0,3:2|0:0,0:0:0:0:
17,349,14219,6,0,P|103:361|184:386,1,119.999996337891,2|2,1:2|2:2,0:0:0:0:
167,349,14456,1,0,0:0:0:0:
202,338,14535,2,0,L|346:365,1,119.999996337891,10|2,2:2|1:2,0:0:0:0:
422,368,14772,1,0,0:0:0:0:
395,365,14851,2,0,P|336:317|302:247,1,119.999996337891,2|0,2:2|1:1,0:0:0:0:
377,25,15167,2,0,P|405:81|425:172,1,119.999996337891,10|0,3:2|1:1,0:0:0:0:
402,168,15403,1,0,3:3:0:0:
376,193,15482,54,0,B|315:171|268:300|175:248,1,179.999994506836,6|0,1:2|2:0,0:0:0:0:
142,194,15798,2,0,P|121:170|89:165,1,59.9999981689454,10|0,2:2|0:0,0:0:0:0:
87,238,15956,2,0,P|176:238|256:200,1,179.999994506836,2|0,1:2|2:0,0:0:0:0:
283,175,16272,1,2,2:2:0:0:
67,26,16430,6,0,P|50:51|50:86,1,59.9999981689454,10|0,3:2|0:0,0:0:0:0:
108,45,16588,2,0,P|110:75|86:90,1,59.9999981689454,2|0,3:2|3:3,0:0:0:0:
10,148,16746,54,0,B|37:256|-28:202|1:331,1,179.999994506836,2|0,1:2|2:0,0:0:0:0:
120,304,17061,2,0,B|209:346|169:172|72:279|62:381,1,239.999992675781,10|2,2:2|1:2,0:0:0:0:
33,307,17482,5,2,1:2:0:0:
69,242,17588,1,2,1:2:0:0:
131,315,17693,54,0,P|185:323|231:341,1,79.9999975585938,10|2,1:2|1:2,0:0:0:0:
286,326,17903,1,2,1:2:0:0:
365,235,18009,6,0,B|314:257|263:325|334:397|399:348,1,179.999994506836,6|0,1:2|2:0,0:0:0:0:
470,331,18325,2,0,L|491:275,1,59.9999981689454,10|0,2:2|0:0,0:0:0:0:
404,306,18482,2,0,P|366:198|368:100,1,179.999994506836,2|0,1:2|2:0,0:0:0:0:
373,98,18798,1,2,2:2:0:0:
187,61,18956,54,0,L|256:85,1,59.9999981689454,10|0,3:2|0:0,0:0:0:0:
201,44,19114,2,0,L|262:44,1,59.9999981689454,2|0,3:2|3:3,0:0:0:0:
352,10,19272,6,0,P|425:65|468:68,1,119.999996337891,2|2,1:2|2:2,0:0:0:0:
481,50,19509,1,0,0:0:0:0:
481,50,19588,2,0,L|458:186,1,119.999996337891,10|2,2:2|1:2,0:0:0:0:
432,337,19903,2,0,P|384:306|296:312,1,119.999996337891,2|0,2:2|1:1,0:0:0:0:
41,334,20219,2,0,P|119:333|161:295,1,119.999996337891,10|0,3:2|1:1,0:0:0:0:
174,281,20456,1,0,0:0:0:0:
178,245,20535,54,0,P|170:149|147:36,1,179.999994506836,6|0,1:2|2:0,0:0:0:0:
23,134,20851,2,0,P|55:154|96:157,1,59.9999981689454,10|0,2:2|0:0,0:0:0:0:
78,81,21009,1,2,1:2:0:0:
78,81,21088,2,0,P|206:129|275:168,1,179.999994506836,0|2,0:0|2:2,0:0:0:0:
483,91,21482,6,0,P|455:111|422:120,1,59.9999981689454,10|0,3:2|0:0,0:0:0:0:
465,63,21640,2,0,P|432:66|417:113,1,59.9999981689454,2|0,3:2|3:3,0:0:0:0:
336,161,21798,54,0,L|344:220,1,50,2|0,3:2|0:0,0:0:0:0:
378,184,21956,1,0,3:3:0:0:
161,204,22114,6,0,L|153:263,1,50,2|0,3:2|0:0,0:0:0:0:
119,227,22272,1,0,3:3:0:0:
297,347,22430,53,2,3:2:0:0:
256,384,22509,1,2,3:2:0:0:
215,349,22588,1,2,3:2:0:0:
256,312,22667,1,2,3:2:0:0:
256,274,22746,5,10,3:2:0:0:
256,232,22825,2,0,L|256:182,1,50,10|10,3:2|3:2,0:0:0:0:
256,108,22982,1,10,3:2:0:0:
256,32,23061,54,0,B|211:-23|102:-11|85:37|164:76,1,194.999991073609,6|0,1:2|2:0,0:0:0:0:
172,145,23377,2,0,P|223:96|379:78,1,194.999991073609,10|0,2:2|2:0,0:0:0:0:
472,18,23693,6,0,L|454:79,1,64.9999970245363,2|0,1:2|0:0,0:0:0:0:
397,160,23851,1,2,2:2:0:0:
420,148,23930,1,2,2:2:0:0:
424,174,24009,2,0,L|377:248,1,64.9999970245363,10|0,2:2|0:0,0:0:0:0:
246,191,24167,2,0,P|250:223|289:265,1,64.9999970245363,2|0,2:2|0:0,0:0:0:0:
320,199,24325,54,0,P|349:271|284:352,1,129.999994049073,2|2,1:2|2:2,0:0:0:0:
54,300,24640,2,0,P|51:261|129:253,1,129.999994049073,10|2,2:2|2:2,0:0:0:0:
124,247,24877,1,0,0:0:0:0:
159,286,24956,5,2,1:2:0:0:
151,335,25035,1,2,2:2:0:0:
115,367,25114,1,2,2:2:0:0:
195,369,25272,53,10,2:2:0:0:
190,364,25351,2,0,P|246:346|334:340,1,129.999994049073,0|0,0:0|2:0,0:0:0:0:
366,273,25588,6,0,P|411:331|500:333,1,129.999994049073,2|0,1:2|0:0,0:0:0:0:
465,35,25903,2,0,B|430:5|377:17|382:90|358:86|416:162,1,194.999991073609,10|0,2:2|2:0,0:0:0:0:
481,132,26219,54,0,L|481:213,1,64.9999970245363,2|0,1:2|0:0,0:0:0:0:
283,214,26377,1,2,2:2:0:0:
315,220,26456,1,2,2:2:0:0:
336,195,26535,2,0,L|282:127,1,64.9999970245363,10|0,2:2|0:0,0:0:0:0:
355,93,26693,6,0,P|261:135|143:142,1,194.999991073609,2|0,2:2|2:0,0:0:0:0:
131,137,27009,1,2,2:2:0:0:
137,0,27167,2,0,P|116:63|62:14,1,129.999994049073,10|2,2:2|2:2,0:0:0:0:
197,186,27482,53,2,1:2:0:0:
175,234,27561,1,2,2:2:0:0:
142,261,27640,2,0,P|112:277|73:285,1,64.9999970245363,2|2,2:2|2:2,0:0:0:0:
213,262,27798,5,8,2:2:0:0:
188,284,27877,1,2,2:2:0:0:
182,316,27956,1,2,2:2:0:0:
201,364,28035,1,2,2:2:0:0:
217,363,28114,54,0,P|323:353|420:340,1,194.999991073609,6|0,1:2|2:0,0:0:0:0:
508,299,28430,2,0,B|559:285|521:235|476:248|397:384|509:411,1,194.999991073609,10|0,2:2|2:0,0:0:0:0:
512,302,28746,6,0,P|508:237|426:214,1,129.999994049073,2|2,1:2|2:2,0:0:0:0:
350,203,28982,1,2,2:2:0:0:
350,203,29061,2,0,P|349:237|367:264,1,64.9999970245363,10|0,2:2|0:0,0:0:0:0:
423,216,29219,1,2,2:2:0:0:
225,122,29377,54,0,P|271:201|262:272,1,129.999994049073,2|2,1:2|2:2,0:0:0:0:
439,55,29693,2,0,P|402:98|315:91,1,129.999994049073,10|2,2:2|2:2,0:0:0:0:
332,101,29930,1,0,0:0:0:0:
316,68,30009,5,2,1:2:0:0:
278,51,30088,1,2,2:2:0:0:
254,13,30167,1,2,2:2:0:0:
199,72,30325,53,10,2:2:0:0:
204,67,30403,2,0,B|184:173|273:138|237:269,1,194.999991073609,0|2,0:0|1:2,0:0:0:0:
18,2,30956,1,10,2:2:0:0:
18,2,31035,2,0,P|-1:35|1:65,1,64.9999970245363
66,202,31272,6,0,P|103:85|79:51,1,129.999994049073,2|2,1:2|2:2,0:0:0:0:
91,53,31509,1,2,2:2:0:0:
69,24,31588,2,0,P|35:54|57:107,1,64.9999970245363,10|0,2:2|0:0,0:0:0:0:
193,142,31746,54,0,B|225:168|253:58|110:136|114:234,1,194.999991073609,2|0,2:2|2:0,0:0:0:0:
136,298,32061,1,2,2:2:0:0:
25,344,32219,2,0,P|13:317|11:282,1,64.9999970245363,10|0,2:2|0:0,0:0:0:0:
106,363,32377,2,0,P|96:333|100:301,1,64.9999970245363,2|0,2:2|0:0,0:0:0:0:
173,324,32535,5,2,3:2:0:0:
226,314,32614,1,2,3:2:0:0:
254,292,32693,2,0,P|266:259|265:224,1,64.9999970245363,2|2,3:2|3:2,0:0:0:0:
192,249,32851,53,8,3:2:0:0:
229,212,32930,1,2,3:2:0:0:
246,162,33009,1,2,3:2:0:0:
248,110,33088,1,2,3:2:0:0:
242,119,33167,6,0,L|202:72,1,37.5000014305115,2|0,1:2|0:0,0:0:0:0:
264,30,33325,1,2,2:2:0:0:
372,169,33640,54,0,P|405:154|460:144,1,75.0000028610231,2|0,1:2|0:0,0:0:0:0:
448,234,33956,1,2,2:2:0:0:
452,241,34035,1,0,0:0:0:0:
447,246,34114,2,0,L|378:259,1,37.5000014305115,10|0,2:2|0:0,0:0:0:0:
334,245,34272,1,2,1:2:0:0:
328,240,34351,1,0,0:0:0:0:
330,232,34430,2,0,L|315:294,1,37.5000014305115,0|0,1:1|0:0,0:0:0:0:
143,361,34903,6,0,P|139:328|122:264,1,75.0000028610231,2|2,1:2|2:2,0:0:0:0:
143,292,35140,2,0,L|153:250,2,37.5000014305115,0|0|0,0:0|1:1|0:0,0:0:0:0:
61,287,35377,2,0,B|45:280|45:280|42:263|42:263|56:266|56:266|49:301,1,75.0000028610231,10|0,2:2|1:1,0:0:0:0:
27,376,35614,1,0,1:1:0:0:
21,366,35693,1,0,1:1:0:0:
127,161,36167,53,2,1:2:0:0:
123,167,36246,1,0,0:0:0:0:
117,161,36324,2,0,P|117:142|134:112,1,37.5000014305115,2|0,2:2|0:0,0:0:0:0:
197,143,36482,1,2,2:2:0:0:
203,146,36561,1,0,0:0:0:0:
209,141,36640,2,0,L|267:155,1,37.5000014305115,10|0,2:2|0:0,0:0:0:0:
319,167,36798,1,2,1:2:0:0:
282,85,36956,1,0,1:1:0:0:
269,364,37430,6,0,P|279:329|286:274,1,75.0000028610231,0|2,1:1|1:2,0:0:0:0:
272,270,37693,53,0,0:0:0:0:
296,260,37798,5,0,0:0:0:0:
257,196,37903,54,0,L|272:102,1,75.0000028610231,10|2,2:2|2:2,0:0:0:0:
360,21,38219,2,0,P|292:42|212:50,1,150.000005722046,2|2,1:2|2:2,0:0:0:0:
143,104,38693,1,0,1:1:0:0:
447,150,39009,6,0,P|437:164|442:205,1,37.5000014305115,2|0,2:2|0:0,0:0:0:0:
434,233,39167,1,10,2:2:0:0:
508,250,39325,2,0,B|480:269|434:241|501:239|512:280,1,75.0000028610231,2|0,1:2|1:1,0:0:0:0:
256,327,39956,54,0,P|317:342|388:377,1,112.500004291535,2|0,1:2|2:0,0:0:0:0:
371,342,40272,2,0,P|356:334|333:328,1,37.5000014305115,0|0,1:1|0:0,0:0:0:0:
329,255,40430,2,0,B|348:237|348:237|325:237|325:237|352:265,1,75.0000028610231,10|0,2:2|1:1,0:0:0:0:
431,251,40746,1,0,1:1:0:0:
124,99,41219,6,0,P|174:113|243:147,1,112.500004291535,0|0,1:1|2:0,0:0:0:0:
254,114,41535,2,0,P|266:126|266:149,1,37.5000014305115
370,155,41693,2,0,L|334:176,1,37.5000014305115,10|0,2:2|0:0,0:0:0:0:
328,179,41851,1,2,1:2:0:0:
245,230,42009,1,0,1:1:0:0:
58,9,42482,54,0,P|71:27|72:52,1,37.5000014305115,0|2,1:1|2:2,0:0:0:0:
41,35,42640,1,2,1:2:0:0:
69,117,42798,1,0,1:1:0:0:
111,243,42956,6,0,P|166:262|191:314,1,119.999996337891,10|0,2:2|1:1,0:0:0:0:
134,362,43193,1,0,1:1:0:0:
61,371,43272,53,4,1:2:0:0:
260,268,43430,1,2,1:2:0:0:
418,362,43588,1,10,2:2:0:0:
405,281,43746,2,0,P|428:264|449:225,1,50,2|0,2:2|0:0,0:0:0:0:
405,355,43903,1,2,1:2:0:0:
307,360,44061,1,2,1:2:0:0:
292,356,44140,1,0,0:0:0:0:
281,366,44219,2,0,P|277:338|290:306,1,50,10|0,2:2|0:0,0:0:0:0:
250,244,44377,6,0,P|295:234|353:187,1,100,2|0,2:2|1:1,0:0:0:0:
420,112,44693,1,2,1:2:0:0:
287,87,44851,2,0,L|363:199,1,100,10|0,2:2|0:0,0:0:0:0:
378,138,45088,1,0,0:0:0:0:
378,138,45167,2,0,B|391:203|484:239|413:102|378:158,1,150,2|0,1:2|2:0,0:0:0:0:
243,162,45482,53,10,2:2:0:0:
225,172,45640,1,0,0:0:0:0:
192,151,45798,2,0,L|209:94,1,50,0|0,1:1|0:0,0:0:0:0:
163,14,45956,6,0,P|149:39|158:81,1,50,2|0,1:2|0:0,0:0:0:0:
221,60,46114,1,10,2:2:0:0:
105,27,46272,2,0,P|122:64|132:93,1,50,2|0,2:2|0:0,0:0:0:0:
115,170,46430,2,0,P|112:174|63:120,1,100,2|2,1:2|2:2,0:0:0:0:
43,135,46667,1,0,0:0:0:0:
34,139,46746,1,10,2:2:0:0:
28,287,46903,54,0,P|84:305|132:324,1,100,2|0,2:2|1:1,0:0:0:0:
122,319,47140,1,0,0:0:0:0:
122,319,47219,2,0,L|181:339,1,50,2|0,1:2|0:0,0:0:0:0:
213,232,47377,2,0,P|244:238|268:259,1,50,10|0,2:2|0:0,0:0:0:0:
248,323,47535,2,0,P|279:333|274:375,1,50,2|0,2:2|0:0,0:0:0:0:
253,357,47693,5,2,1:2:0:0:
335,357,47798,54,0,L|349:287,1,66.6666666666667,2|2,0:0|0:0,0:0:0:0:
425,384,48009,5,10,2:2:0:0:
512,331,48167,1,8,2:3:0:0:
507,319,48246,1,4,2:3:0:0:
497,323,48325,54,0,L|487:265,1,50,0|0,1:1|0:0,0:0:0:0:
512,151,48482,1,2,1:2:0:0:
357,48,48640,1,10,2:2:0:0:
418,90,48798,2,0,L|452:40,1,50,2|0,2:2|0:0,0:0:0:0:
350,68,48956,1,2,1:2:0:0:
271,69,49114,1,2,1:2:0:0:
255,69,49193,1,0,0:0:0:0:
241,62,49272,2,0,P|215:54|192:38,1,50,10|0,2:2|0:0,0:0:0:0:
297,142,49430,6,0,P|227:158|174:177,1,100,2|0,2:2|1:1,0:0:0:0:
99,275,49746,1,2,1:2:0:0:
159,107,49903,2,0,P|121:119|82:203,1,100,10|2,2:2|2:2,0:0:0:0:
112,199,50140,1,0,0:0:0:0:
112,199,50219,2,0,B|175:205|185:131,1,100,2|0,1:2|0:0,0:0:0:0:
23,28,50535,53,10,2:2:0:0:
36,44,50693,1,0,0:0:0:0:
13,76,50851,2,0,P|-1:106|-7:147,1,50,0|0,1:1|0:0,0:0:0:0:
44,269,51009,6,0,L|55:182,1,50,2|0,1:2|0:0,0:0:0:0:
14,153,51167,1,10,2:2:0:0:
15,253,51325,2,0,L|32:299,1,50,2|0,2:2|0:0,0:0:0:0:
106,331,51482,54,0,B|174:369|197:339|176:322,1,100,2|2,1:2|2:2,0:0:0:0:
189,314,51719,1,0,0:0:0:0:
179,302,51798,2,0,L|230:284,1,50,10|0,2:2|0:0,0:0:0:0:
226,285,51956,1,2,2:2:0:0:
389,365,52114,5,0,1:1:0:0:
306,290,52272,1,0,1:1:0:0:
443,232,52430,2,0,L|422:282,1,50,10|0,2:2|0:0,0:0:0:0:
280,174,52588,2,0,P|292:201|317:221,1,50
352,156,52746,53,10,1:2:0:0:
388,175,52825,1,8,2:2:0:0:
383,135,52903,1,8,2:2:0:0:
400,99,52982,1,8,2:2:0:0:
390,60,53061,1,10,1:2:0:0:
426,79,53140,1,8,2:2:0:0:
424,36,53219,2,0,L|469:14,1,50,8|8,2:2|2:2,0:0:0:0:
291,33,53377,5,6,1:2:0:0:
153,57,54009,53,2,1:2:0:0:
133,195,54640,5,2,1:2:0:0:
259,256,55272,53,2,1:2:0:0:
291,33,55903,5,2,1:2:0:0:
356,155,56535,53,2,1:2:0:0:
259,256,57167,5,2,1:2:0:0:
133,194,57798,53,2,1:2:0:0:
151,55,58430,6,0,L|224:42,1,75.0000028610231,2|0,1:2|3:3,0:0:0:0:
353,49,58746,2,0,L|390:120,1,75.0000028610231,2|2,1:2|3:2,0:0:0:0:
421,241,59061,2,0,L|364:299,1,75.0000028610231,2|0,1:2|3:3,0:0:0:0:
258,295,59377,1,2,1:2:0:0:
191,262,59693,53,2,1:2:0:0:
174,220,59772,1,0,3:3:0:0:
205,187,59851,1,2,1:2:0:0:
184,146,59930,1,0,3:3:0:0:
170,147,60009,5,2,1:2:0:0:
136,177,60088,1,0,3:3:0:0:
150,219,60167,1,2,1:2:0:0:
119,252,60246,1,0,3:3:0:0:
108,247,60325,54,0,P|96:269|68:284,1,37.5000014305115,2|0,1:2|3:3,0:0:0:0:
9,290,60482,2,0,P|13:305|41:335,1,37.5000014305115,2|0,1:2|3:3,0:0:0:0:
107,344,60640,2,0,L|84:381,1,37.5000014305115,2|0,1:2|3:3,0:0:0:0:
179,370,60798,2,0,L|192:322,1,37.5000014305115,2|0,1:2|3:3,0:0:0:0:
276,365,60956,5,2,1:2:0:0:
265,321,61035,1,0,3:3:0:0:
301,346,61114,1,0,1:1:0:0:
313,302,61193,1,0,3:3:0:0:
341,331,61272,1,2,1:2:0:0:
406,365,61430,2,0,L|450:350,1,37.5000014305115,2|0,1:2|3:3,0:0:0:0:
336,347,61588,53,2,1:2:0:0:
326,307,61667,1,0,3:3:0:0:
294,340,61746,1,0,1:1:0:0:
275,300,61825,1,0,3:3:0:0:
263,344,61904,1,2,1:2:0:0:
224,332,61982,1,0,3:3:0:0:
255,358,62061,1,2,1:2:0:0:
234,237,62219,6,0,L|224:190,1,37.5000014305115,2|0,1:2|1:1,0:0:0:0:
228,158,62377,2,0,P|205:155|183:147,1,37.5000014305115,2|0,1:2|1:1,0:0:0:0:
155,159,62535,2,0,P|146:134|158:93,1,37.5000014305115,2|0,1:2|1:1,0:0:0:0:
164,36,62693,2,0,P|179:46|206:57,1,37.5000014305115,2|0,1:2|1:1,0:0:0:0:
266,31,62851,54,0,P|282:41|299:90,1,37.5000014305115,2|0,1:2|1:1,0:0:0:0:
330,67,63009,6,0,P|324:89|310:107,1,37.5000014305115,2|0,1:2|1:1,0:0:0:0:
346,107,63167,54,0,P|332:120|314:133,1,37.5000014305115,2|0,1:2|1:1,0:0:0:0:
355,140,63325,6,0,L|298:142,1,37.5000014305115,2|0,1:2|1:1,0:0:0:0:
307,157,63482,54,0,P|313:178|330:186,6,31.25,2|0|0|0|0|0|0,1:2|3:3|1:1|3:3|1:1|3:3|1:1,0:0:0:0:
300,231,63798,6,0,P|320:247|363:249,6,43.7500004172325,2|0|0|0|0|0|0,1:2|3:3|1:1|3:3|1:1|3:3|1:1,0:0:0:0:
344,303,64114,54,0,P|375:306|430:283,6,62.5,2|0|0|0|0|0|0,1:2|3:3|1:1|3:3|1:1|3:3|1:1,0:0:0:0:
458,345,64430,6,0,L|471:229,6,87.500000834465,2|0|0|0|0|0|0,1:2|3:3|1:1|3:3|1:1|3:3|1:1,0:0:0:0:
470,240,64746,54,0,L|478:176,1,59.9999981689454,8|0,2:2|0:0,0:0:0:0:
498,23,64903,1,8,2:2:0:0:
489,98,65219,5,8,2:2:0:0:
23,98,66009,54,0,P|55:106|79:130,1,64.9999970245363,6|0,1:2|0:0,0:0:0:0:
173,10,66167,2,0,P|176:42|190:77,1,64.9999970245363,2|0,2:2|0:0,0:0:0:0:
402,64,66325,2,0,L|329:126,1,64.9999970245363,10|0,2:2|0:0,0:0:0:0:
208,199,66482,5,2,2:2:0:0:
161,198,66561,1,0,0:0:0:0:
148,153,66640,2,0,B|286:139|243:261|342:214,1,194.999991073609,0|0,1:1|2:0,0:0:0:0:
256,0,66956,53,8,2:2:0:0:
256,0,67114,2,0,L|248:50,1,37.5000014305115,2|0,2:2|0:0,0:0:0:0:
56,18,67272,6,0,P|76:43|115:56,1,64.9999970245363,2|0,1:2|0:0,0:0:0:0:
269,12,67430,2,0,P|270:48|256:92,1,64.9999970245363,2|0,2:2|0:0,0:0:0:0:
460,187,67588,2,0,L|387:163,1,64.9999970245363,10|0,2:2|0:0,0:0:0:0:
170,143,67746,54,0,B|174:78|174:78|210:137,1,129.999994049073,2|0,2:2|1:1,0:0:0:0:
297,234,67982,1,0,0:0:0:0:
306,266,68061,2,0,P|323:240|318:209,1,64.9999970245363,2|0,2:2|0:0,0:0:0:0:
280,138,68219,5,8,2:2:0:0:
281,128,68299,1,0,0:0:0:0:
283,119,68378,1,2,2:2:0:0:
284,110,68457,1,0,0:0:0:0:
286,101,68535,54,0,P|311:87|331:46,1,64.9999970245363,2|0,1:2|0:0,0:0:0:0:
393,194,68693,2,0,P|429:181|459:165,1,64.9999970245363,2|0,2:2|0:0,0:0:0:0:
393,351,68851,2,0,L|471:371,1,64.9999970245363,10|0,2:2|0:0,0:0:0:0:
496,232,69009,6,0,B|523:228|517:190|490:174|447:212|456:257|512:326,1,194.999991073609,2|0,2:2|2:0,0:0:0:0:
511,324,69325,2,0,L|460:371,1,64.9999970245363,2|0,2:2|0:0,0:0:0:0:
282,361,69482,1,8,2:2:0:0:
223,294,69640,2,0,P|219:325|197:374,1,64.9999970245363,2|0,2:2|0:0,0:0:0:0:
144,314,69798,54,0,P|99:222|102:160,1,129.999994049073,2|0,1:2|0:0,0:0:0:0:
86,151,70035,2,0,B|69:121|0:99|-48:151|33:171,1,129.999994049073,2|0,2:2|2:0,0:0:0:0:
263,227,70272,2,0,P|282:183|279:136,1,64.9999970245363,2|0,2:2|0:0,0:0:0:0:
187,202,70430,6,0,P|167:170|162:126,1,64.9999970245363,2|0,1:2|0:0,0:0:0:0:
328,160,70588,2,0,P|353:162|352:97,1,64.9999970245363,2|0,2:2|0:0,0:0:0:0:
214,69,70746,2,0,P|176:68|169:36,1,64.9999970245363,10|0,2:2|0:0,0:0:0:0:
307,25,70903,2,0,P|327:13|301:-1,1,64.9999970245363,2|0,2:2|0:0,0:0:0:0:
248,347,71061,53,6,1:2:0:0:
248,347,71140,2,0,B|258:370|243:360|257:389,1,37.5,0|8,0:0|2:2,0:0:0:0:
323,384,71535,6,0,L|331:333,1,50,2|0,2:2|0:0,0:0:0:0:
312,304,71693,2,0,P|362:285|412:259,1,110.000003356934,2|2,1:2|2:2,0:0:0:0:
451,273,71930,1,0,0:0:0:0:
488,288,72009,2,0,L|533:246,1,55.0000016784668,10|0,2:2|0:0,0:0:0:0:
482,92,72167,1,2,2:2:0:0:
468,82,72246,1,0,0:0:0:0:
453,90,72325,2,0,P|444:121|480:159,1,55.0000016784668,2|0,1:2|0:0,0:0:0:0:
229,124,72561,53,2,2:2:0:0:
245,161,72640,2,0,P|297:186|349:205,1,110.000003356934,8|2,2:2|2:2,0:0:0:0:
60,179,72956,2,0,L|129:195,1,55.0000016784668,0|0,1:1|0:0,0:0:0:0:
182,203,73114,5,0,1:1:0:0:
206,207,73193,1,0,0:0:0:0:
241,222,73272,1,8,2:2:0:0:
286,251,73351,1,0,0:0:0:0:
320,284,73430,1,2,2:2:0:0:
345,314,73509,1,0,0:0:0:0:
351,322,73588,54,0,B|372:319|369:258|245:304|218:383,1,179.999994506836,2|2,1:2|2:2,0:0:0:0:
113,297,73903,2,0,P|93:275|65:268,1,59.9999981689454,8|0,2:2|0:0,0:0:0:0:
57,341,74061,1,2,2:2:0:0:
38,235,74219,2,0,P|78:171|80:93,1,119.999996337891,2|0,1:2|0:0,0:0:0:0:
65,104,74456,1,0,0:0:0:0:
80,80,74535,1,8,2:2:0:0:
7,156,74693,1,2,2:2:0:0:
154,165,74851,6,0,L|314:132,1,129.999994049073,2|0,1:2|0:0,0:0:0:0:
224,70,75088,2,0,P|287:95|370:107,1,129.999994049073,2|0,2:2|2:0,0:0:0:0:
297,19,75325,54,0,P|374:83|394:66,1,129.999994049073,2|8,2:2|2:2,0:0:0:0:
427,31,75561,1,8,2:2:0:0:
465,25,75640,1,10,2:2:0:0:
496,47,75719,1,8,2:2:0:0:
460,62,75798,1,10,2:2:0:0:
451,100,75877,1,8,2:2:0:0:
467,135,75956,1,10,2:2:0:0:
500,155,76035,1,8,2:2:0:0:
502,225,76114,6,0,P|488:259|435:279,1,64.9999970245363,6|0,1:2|0:0,0:0:0:0:
315,170,76272,2,0,P|323:203|324:235,1,64.9999970245363,2|0,2:2|0:0,0:0:0:0:
88,252,76430,2,0,L|174:298,1,64.9999970245363,10|0,2:2|0:0,0:0:0:0:
244,384,76588,54,0,B|192:336|206:216|291:323|234:153,1,194.999991073609,2|0,2:2|2:0,0:0:0:0:
168,197,76903,1,2,2:2:0:0:
256,0,77061,5,8,2:2:0:0:
256,0,77219,2,0,L|248:36,1,37.5000014305115,2|0,2:2|0:0,0:0:0:0:
425,142,77377,54,0,P|396:175|392:202,1,64.9999970245363,2|0,1:2|0:0,0:0:0:0:
276,68,77535,2,0,P|266:101|263:141,1,64.9999970245363,2|0,2:2|0:0,0:0:0:0:
43,143,77693,2,0,L|101:174,1,64.9999970245363,10|0,2:2|0:0,0:0:0:0:
292,201,77851,5,2,2:2:0:0:
292,201,77930,2,0,B|315:290|315:290|257:258,1,129.999994049073,0|0,0:0|2:0,0:0:0:0:
196,210,78167,2,0,B|164:214|164:214|180:185,1,64.9999970245363,2|0,2:2|0:0,0:0:0:0:
244,146,78325,53,8,2:2:0:0:
242,129,78403,1,0,0:0:0:0:
240,113,78482,1,2,2:2:0:0:
236,98,78561,1,0,0:0:0:0:
230,82,78640,6,0,P|197:77|176:55,1,64.9999970245363,2|0,1:2|0:0,0:0:0:0:
111,196,78798,2,0,P|83:189|38:159,1,64.9999970245363,2|0,2:2|0:0,0:0:0:0:
136,375,78956,2,0,L|69:380,1,64.9999970245363,10|0,2:2|0:0,0:0:0:0:
44,267,79114,54,0,B|97:214|142:254|116:322,1,129.999994049073,2|0,2:2|1:1,0:0:0:0:
43,318,79351,1,0,0:0:0:0:
43,318,79430,2,0,P|94:326|118:373,1,64.9999970245363,2|0,2:2|0:0,0:0:0:0:
259,379,79588,1,8,2:2:0:0:
307,319,79746,2,0,P|328:338|330:384,1,64.9999970245363,2|0,2:2|0:0,0:0:0:0:
245,365,79903,5,2,1:2:0:0:
304,226,80061,1,2,2:2:0:0:
455,237,80219,1,10,2:2:0:0:
201,298,80377,54,0,P|224:266|230:213,1,64.9999970245363,2|0,2:2|0:0,0:0:0:0:
374,252,80535,2,0,P|381:222|351:178,1,64.9999970245363,2|0,1:2|0:0,0:0:0:0:
512,80,80693,1,2,2:2:0:0:
494,54,80772,1,0,0:0:0:0:
458,65,80851,2,0,P|442:80|421:118,1,64.9999970245363,10|0,2:2|0:0,0:0:0:0:
241,15,81009,2,0,P|235:45|257:67,1,64.9999970245363,2|0,2:2|0:0,0:0:0:0:
248,244,81167,6,0,B|225:227|225:227|259:154|283:146|356:69|356:69|314:21,1,300.000011444092,6|8,1:2|2:2,0:0:0:0:
48,192,81640,53,2,2:2:0:0:
37,181,81719,1,0,0:0:0:0:
28,193,81798,2,0,L|-3:136,1,50,2|0,1:2|0:0,0:0:0:0:
100,187,81956,2,0,L|105:134,1,50,2|0,2:2|0:0,0:0:0:0:
65,47,82114,2,0,P|73:76|74:116,1,50,10|0,2:2|0:0,0:0:0:0:
149,38,82272,2,0,P|157:67|158:107,1,50,2|0,2:2|0:0,0:0:0:0:
265,73,82430,6,0,P|252:112|234:245,1,165.000005035401,2|2,1:2|2:2,0:0:0:0:
310,219,82746,2,0,L|293:288,1,55.0000016784668,8|0,2:2|0:0,0:0:0:0:
239,323,82903,1,2,2:2:0:0:
247,338,82982,1,0,0:0:0:0:
234,361,83061,54,0,P|199:358|158:344,1,55.0000016784668,0|0,1:1|0:0,0:0:0:0:
74,329,83219,2,0,P|43:329|-2:312,1,55.0000016784668
22,345,83377,2,0,P|57:356|76:335,1,55.0000016784668,8|0,2:2|0:0,0:0:0:0:
126,243,83535,2,0,P|151:234|164:196,1,55.0000016784668,2|0,2:2|0:0,0:0:0:0:
143,100,83693,6,0,B|113:118|88:59|153:45|201:88|250:239,1,225.000008583069,2|0,1:2|2:0,0:0:0:0:
303,101,84009,2,0,B|335:52|346:-33|404:142|228:190,1,225.000008583069,14|0,2:2|2:0,0:0:0:0:
478,14,84325,2,0,B|447:29|447:29|418:101|422:159|422:159|357:194,1,225.000008583069,2|0,1:2|2:0,0:0:0:0:
506,163,84640,2,0,B|453:165|404:188|343:277|422:266|359:321,1,225.000008583069,14|0,2:2|2:0,0:0:0:0:
484,308,84956,54,0,L|384:346,1,75.0000028610231,2|0,1:2|0:0,0:0:0:0:
308,219,85114,2,0,P|286:255|284:294,1,75.0000028610231
434,371,85272,2,0,P|406:333|344:354,1,75.0000028610231,14|0,2:2|0:0,0:0:0:0:
184,330,85430,2,0,P|203:360|267:360,1,75.0000028610231
300,332,85588,5,10,2:2:0:0:
251,300,85667,1,8,2:2:0:0:
207,258,85746,1,8,2:2:0:0:
178,205,85825,1,8,2:2:0:0:
156,149,85903,53,8,2:2:0:0:
98,166,85982,1,8,2:2:0:0:
66,114,86061,1,8,2:2:0:0:
42,58,86140,1,8,2:2:0:0:
110,35,86219,5,6,1:2:0:0:
256,192,86298,12,0,91035,2:0:0:0:
6,193,91114,54,0,P|33:182|63:178,1,59.9999981689454,2|0,2:2|0:0,0:0:0:0:
138,131,91272,5,6,1:2:0:0:
170,125,91351,1,2,2:2:0:0:
202,122,91430,2,0,P|230:126|261:136,1,59.9999981689454,2|2,2:2|2:2,0:0:0:0:
371,229,91588,2,0,B|328:271|328:271|328:210,1,119.999996337891,10|2,2:2|2:2,0:0:0:0:
333,199,91825,1,0,0:0:0:0:
344,202,91903,2,0,L|329:127,1,59.9999981689454,2|0,1:2|0:0,0:0:0:0:
424,158,92061,2,0,P|415:132|414:89,1,59.9999981689454,2|0,2:2|0:0,0:0:0:0:
489,19,92219,1,8,2:2:0:0:
489,19,92377,54,0,L|422:35,1,59.9999981689454,2|0,2:2|0:0,0:0:0:0:
246,0,92535,2,0,P|276:20|227:23,1,119.999996337891,2|0,1:2|0:0,0:0:0:0:
353,15,92851,2,0,B|427:139|385:35|334:38,1,119.999996337891,10|2,2:2|2:2,0:0:0:0:
317,36,93088,1,2,2:2:0:0:
317,36,93167,2,0,P|302:66|325:98,1,59.9999981689454,2|0,1:2|0:0,0:0:0:0:
218,154,93325,2,0,B|260:118|267:18|207:104,1,119.999996337891,2|10,2:2|2:2,0:0:0:0:
142,177,93561,1,0,0:0:0:0:
122,162,93640,2,0,P|103:136|93:93,1,59.9999981689454
40,228,93798,6,0,P|59:258|63:301,1,59.9999981689454,2|0,1:2|0:0,0:0:0:0:
153,253,93956,2,0,P|147:282|125:321,1,59.9999981689454,2|0,1:2|0:0,0:0:0:0:
277,323,94114,2,0,L|223:387,1,59.9999981689454,10|0,2:2|0:0,0:0:0:0:
238,368,94272,1,0,0:0:0:0:
402,366,94430,54,0,B|332:302|358:220|417:236,1,179.999994506836,2|0,1:2|2:0,0:0:0:0:
505,265,94746,1,10,2:2:0:0:
486,271,94825,1,0,0:0:0:0:
480,286,94903,2,0,P|486:315|502:354,1,59.9999981689454,2|0,2:2|0:0,0:0:0:0:
506,189,95061,5,2,1:2:0:0:
498,169,95140,1,0,0:0:0:0:
480,148,95219,2,0,P|440:152|446:214,1,59.9999981689454,2|0,2:2|0:0,0:0:0:0:
454,31,95377,1,8,2:2:0:0:
444,60,95456,1,0,0:0:0:0:
433,71,95535,2,0,P|405:90|360:107,1,59.9999981689454,2|0,2:2|0:0,0:0:0:0:
306,100,95693,53,8,2:2:0:0:
252,94,95772,1,8,2:2:0:0:
198,90,95851,1,10,2:2:0:0:
143,90,95930,1,8,2:2:0:0:
104,52,96009,1,8,2:2:0:0:
157,42,96088,1,8,2:2:0:0:
210,39,96167,1,10,2:2:0:0:
263,43,96246,1,8,2:2:0:0:
274,49,96325,6,0,L|363:9,1,59.9999981689454,6|0,1:2|0:0,0:0:0:0:
321,148,96482,2,0,L|364:101,1,59.9999981689454,2|0,2:2|0:0,0:0:0:0:
294,180,96640,2,0,B|304:232|194:282|237:229,1,119.999996337891,10|0,2:2|0:0,0:0:0:0:
219,232,96877,1,0,0:0:0:0:
207,227,96956,2,0,P|171:231|150:259,1,59.9999981689454,2|0,1:2|0:0,0:0:0:0:
100,352,97114,54,0,P|167:318|237:335,1,119.999996337891,2|10,2:2|2:2,0:0:0:0:
230,335,97351,1,0,0:0:0:0:
242,321,97430,1,2,2:2:0:0:
47,241,97588,5,0,1:1:0:0:
40,231,97667,1,0,0:0:0:0:
50,224,97746,1,2,2:2:0:0:
43,213,97825,1,0,0:0:0:0:
50,166,97903,1,10,2:2:0:0:
41,137,97981,1,0,0:0:0:0:
61,115,98060,1,2,2:2:0:0:
51,86,98140,1,0,0:0:0:0:
56,89,98219,54,0,P|89:76|115:58,1,59.9999981689454,2|0,1:2|0:0,0:0:0:0:
208,130,98377,2,0,P|240:133|274:125,1,59.9999981689454,2|2,2:2|2:2,0:0:0:0:
360,50,98535,1,10,2:2:0:0:
397,70,98614,1,0,0:0:0:0:
428,98,98693,1,0,0:0:0:0:
388,111,98772,1,0,0:0:0:0:
347,123,98851,6,0,L|255:148,1,59.9999981689454,2|0,1:2|0:0,0:0:0:0:
225,54,99009,1,2,2:2:0:0:
219,43,99088,1,2,2:2:0:0:
241,31,99167,1,10,2:2:0:0:
251,58,99246,2,0,L|226:205,1,119.999996337891,0|0,0:0|2:0,0:0:0:0:
159,277,99482,54,0,P|149:251|154:203,1,59.9999981689454,2|0,1:2|0:0,0:0:0:0:
245,253,99640,2,0,P|229:311|233:371,1,119.999996337891,2|10,2:2|2:2,0:0:0:0:
257,367,99877,1,0,0:0:0:0:
278,378,99956,1,2,2:2:0:0:
296,362,100035,1,0,0:0:0:0:
316,371,100114,2,0,B|375:376|375:376|450:341,1,119.999996337891,2|0,1:2|0:0,0:0:0:0:
386,127,100430,6,0,B|368:107|368:107|382:200,1,119.999996337891,8|2,2:2|2:2,0:0:0:0:
462,169,100667,1,0,0:0:0:0:
453,158,100746,2,0,P|459:231|418:283,1,119.999996337891,2|0,1:2|0:0,0:0:0:0:
307,173,100982,2,0,P|312:236|348:293,1,119.999996337891,2|0,2:2|2:0,0:0:0:0:
268,277,101219,2,0,B|225:298|249:313|290:296,1,59.9999981689454,2|0,2:2|0:0,0:0:0:0:
103,200,101377,53,6,1:2:0:0:
133,188,101456,1,2,2:2:0:0:
157,210,101535,2,0,L|136:293,1,59.9999981689454,2|2,2:2|2:2,0:0:0:0:
47,252,101693,2,0,P|60:187|30:99,1,119.999996337891,10|2,2:2|2:2,0:0:0:0:
56,124,101930,1,0,0:0:0:0:
44,119,102009,6,0,L|11:61,1,59.9999981689454,2|0,1:2|0:0,0:0:0:0:
178,8,102167,2,0,P|194:45|166:72,1,59.9999981689454,2|0,2:2|0:0,0:0:0:0:
113,45,102325,1,8,2:2:0:0:
113,45,102482,2,0,L|132:129,1,59.9999981689454,2|0,2:2|0:0,0:0:0:0:
202,186,102640,2,0,P|247:147|305:136,1,119.999996337891,2|0,1:2|0:0,0:0:0:0:
92,334,102956,54,0,P|157:346|236:374,1,119.999996337891,10|2,2:2|2:2,0:0:0:0:
225,355,103193,1,2,2:2:0:0:
238,366,103272,2,0,P|297:372|371:346,1,119.999996337891,2|2,1:2|2:2,0:0:0:0:
495,261,103588,2,0,L|484:325,1,59.9999981689454,10|0,2:2|0:0,0:0:0:0:
414,275,103746,2,0,B|389:284|389:284|404:254,1,59.9999981689454
465,156,103903,6,0,P|438:167|394:165,1,59.9999981689454,2|0,1:2|0:0,0:0:0:0:
292,137,104061,2,0,L|363:110,1,59.9999981689454,2|0,2:2|0:0,0:0:0:0:
408,43,104219,2,0,P|378:32|361:101,1,119.999996337891,10|0,2:2|0:0,0:0:0:0:
356,97,104456,1,0,0:0:0:0:
356,97,104535,2,0,P|365:178|316:242,1,119.999996337891,2|0,1:2|0:0,0:0:0:0:
161,210,104851,1,10,2:2:0:0:
145,191,104930,1,0,0:0:0:0:
161,183,105009,1,2,2:2:0:0:
216,14,105167,53,10,1:2:0:0:
245,40,105246,1,2,0:0:0:0:
222,63,105325,2,0,L|239:130,1,59.9999981689454,2|0,2:2|0:0,0:0:0:0:
284,245,105482,1,8,1:2:0:0:
134,362,105640,1,2,2:2:0:0:
220,291,105798,6,0,L|249:331,1,44.999998626709,8|0,1:2|0:0,0:0:0:0:
260,314,105877,54,0,L|322:323,1,44.999998626709
304,339,105956,6,0,L|364:367,1,44.999998626709,2|0,2:2|0:0,0:0:0:0:
347,335,106035,54,0,L|402:314,1,44.999998626709
421,344,106114,5,0,1:1:0:0:
80,25,106430,54,0,P|92:75|99:161,1,100.000003814697,4|0,1:2|0:0,0:0:0:0:
162,35,106746,1,2,2:3:0:0:
287,162,106956,1,0,3:3:0:0:
293,158,107061,2,0,P|242:167|164:201,1,100.000003814697,2|0,2:3|0:0,0:0:0:0:
132,218,107377,1,2,2:3:0:0:
21,156,107588,5,0,0:0:0:0:
21,156,107693,2,0,P|50:207|68:269,1,100.000003814697,2|0,2:3|3:3,0:0:0:0:
136,222,108009,2,0,P|163:274|126:319,1,100.000003814697,2|0,2:3|0:0,0:0:0:0:
122,323,108325,1,2,2:3:0:0:
287,268,108535,1,0,3:3:0:0:
282,297,108640,1,2,2:3:0:0:
412,360,108851,1,0,3:3:0:0:
388,380,108956,2,0,L|397:330,1,50.0000019073487,10|0,2:3|0:0,0:0:0:0:
366,261,109167,53,0,3:3:0:0:
366,261,109272,2,0,B|418:229|418:229|394:114,1,150.000005722046,2|2,3:3|3:3,0:0:0:0:
325,60,109798,1,0,3:3:0:0:
330,60,109903,1,2,2:3:0:0:
275,140,110114,2,0,B|243:65|243:65|305:108,1,150.000005722046,0|8,0:0|2:2,0:0:0:0:
345,160,110535,1,10,2:3:0:0:
228,197,110746,1,0,1:1:0:0:
191,213,110851,2,0,P|183:260|215:312,1,100.000003814697,2|0,2:3|3:3,0:0:0:0:
276,319,111167,2,0,P|279:274|250:192,1,100.000003814697,2|2,1:3|2:3,0:0:0:0:
368,258,111482,6,0,B|373:292|373:292|451:285,1,100.000003814697,4|0,2:2|0:0,0:0:0:0:
509,280,111798,1,2,2:3:0:0:
221,376,112114,1,2,2:3:0:0:
72,306,112430,1,2,2:3:0:0:
44,215,112640,1,0,2:0:0:0:
86,205,112746,2,0,P|53:223|36:156,1,100.000003814697,2|0,2:3|3:3,0:0:0:0:
22,111,113061,2,0,B|91:99|82:135|137:128,1,100.000003814697,2|0,2:3|3:3,0:0:0:0:
149,125,113377,1,10,2:3:0:0:
208,37,113588,1,0,0:0:0:0:
213,38,113693,1,2,2:3:0:0:
295,196,113903,53,8,2:2:0:0:
313,178,114009,2,0,B|314:128|314:128|284:167,1,100.000003814697,2|0,2:3|3:3,0:0:0:0:
263,257,114325,2,0,B|272:293|272:293|287:300|287:300|307:376,1,100.000003814697,2|0,1:3|3:3,0:0:0:0:
370,369,114640,1,2,2:3:0:0:
233,295,114851,1,8,2:2:0:0:
202,324,114956,2,0,P|159:336|88:345,1,100.000003814697,2|2,3:3|2:3,0:0:0:0:
85,0,115903,5,2,2:2:0:0:
122,17,116009,1,0,0:0:0:0:
162,11,116114,1,0,0:0:0:0:
169,67,116219,53,2,2:2:0:0:
140,75,116298,5,2,2:2:0:0:
118,64,116377,53,2,2:2:0:0:
94,76,116456,5,2,2:2:0:0:
48,60,116535,54,0,L|-22:80,1,50,4|0,1:2|0:0,0:0:0:0:
31,218,116693,1,2,1:2:0:0:
24,204,116772,1,0,0:0:0:0:
13,193,116851,2,0,P|99:186|162:147,1,150,10|0,2:2|2:0,0:0:0:0:
84,285,117167,2,0,P|106:285|142:261,1,50,2|0,1:2|0:0,0:0:0:0:
193,224,117325,2,0,P|221:219|202:200,1,50,0|0,1:1|0:0,0:0:0:0:
326,153,117482,5,10,2:2:0:0:
255,299,117640,2,0,P|270:252|310:224,1,100,2|0,2:2|1:1,0:0:0:0:
262,336,117956,53,2,1:2:0:0:
116,331,118114,1,10,2:2:0:0:
195,365,118272,1,2,2:2:0:0:
285,368,118430,2,0,P|326:353|367:284,1,100,2|2,1:2|2:2,0:0:0:0:
353,296,118667,1,0,0:0:0:0:
347,310,118746,1,10,2:2:0:0:
427,366,118903,2,0,P|477:365|528:370,1,100,2|0,2:2|1:1,0:0:0:0:
491,150,119219,5,2,1:2:0:0:
325,229,119377,1,10,2:2:0:0:
480,271,119535,1,2,2:2:0:0:
412,146,119693,2,0,P|416:185|435:146,1,100,2|2,1:2|2:2,0:0:0:0:
446,79,119930,1,0,0:0:0:0:
440,73,120009,1,10,2:2:0:0:
323,130,120167,1,2,2:2:0:0:
150,71,120325,53,8,2:2:0:0:
257,371,120640,5,10,2:2:0:0:
385,7,120956,53,10,2:2:0:0:
1,340,121272,6,0,B|34:359|34:359|94:345|89:271,1,129.999994049073,10|0,2:2|1:1,0:0:0:0:
81,195,121509,1,0,0:0:0:0:
71,188,121588,1,0,1:1:0:0:
170,269,121746,53,2,1:2:0:0:
249,138,121903,1,10,2:2:0:0:
69,108,122061,1,2,2:2:0:0:
184,183,122219,2,0,P|224:214|299:200,1,100,2|0,1:2|0:0,0:0:0:0:
286,212,122456,1,0,0:0:0:0:
300,216,122535,2,0,L|323:265,1,50,10|0,2:2|0:0,0:0:0:0:
277,294,122693,6,0,B|349:293|336:354|427:377,1,150,2|0,2:2|2:0,0:0:0:0:
448,288,123009,1,0,1:1:0:0:
442,301,123088,1,0,0:0:0:0:
435,289,123167,2,0,L|424:230,1,50,10|0,2:2|0:0,0:0:0:0:
481,109,123325,1,2,2:2:0:0:
324,147,123482,53,2,1:2:0:0:
333,150,123561,1,0,0:0:0:0:
344,150,123640,1,2,2:2:0:0:
355,161,123719,1,0,0:0:0:0:
380,161,123798,2,0,L|444:162,1,50,10|0,2:2|0:0,0:0:0:0:
485,113,123956,2,0,P|503:160|509:239,1,100,2|0,2:2|1:1,0:0:0:0:
227,84,124272,5,2,1:2:0:0:
410,13,124430,1,10,2:2:0:0:
298,21,124588,1,2,2:2:0:0:
174,77,124746,2,0,P|208:113|228:201,1,100,2|0,1:2|0:0,0:0:0:0:
143,156,124982,1,0,0:0:0:0:
132,155,125061,1,10,2:2:0:0:
211,12,125219,53,2,1:2:0:0:
211,12,125377,1,0,0:0:0:0:
73,70,125535,2,0,L|32:99,1,50,2|0,1:2|0:0,0:0:0:0:
32,98,125693,1,8,2:2:0:0:
24,200,125851,2,0,P|52:190|64:162,1,50,2|0,1:2|0:0,0:0:0:0:
157,197,126009,1,8,2:2:0:0:
22,270,126167,1,2,1:2:0:0:
16,295,126482,5,2,2:2:0:0:
24,306,126561,1,2,2:2:0:0:
33,311,126640,2,0,L|134:334,1,75.0000028610231,6|0,1:2|0:0,0:0:0:0:
175,302,126956,2,0,P|208:317|276:325,1,75.0000028610231,2|2,2:2|2:2,0:0:0:0:
274,305,127272,2,0,P|312:308|369:348,1,75.0000028610231,2|0,1:2|0:0,0:0:0:0:
419,355,127588,2,0,P|456:345|483:300,1,75.0000028610231,2|2,2:2|2:2,0:0:0:0:
480,313,127903,54,0,P|452:289|416:283,1,75.0000028610231,2|0,1:2|0:0,0:0:0:0:
353,233,128140,1,0,0:0:0:0:
351,247,128219,1,2,2:2:0:0:
282,206,128377,1,2,2:2:0:0:
333,260,128535,1,2,1:2:0:0:
215,232,128693,1,2,2:2:0:0:
179,244,128771,1,0,0:0:0:0:
142,249,128850,1,2,2:2:0:0:
72,270,129009,1,2,2:2:0:0:
10,224,129167,6,0,P|21:252|75:303,1,75.0000028610231,2|0,1:2|0:0,0:0:0:0:
79,192,129403,1,0,0:0:0:0:
79,192,129482,2,0,P|119:178|176:167,1,75.0000028610231,2|2,2:2|2:2,0:0:0:0:
296,139,129798,1,2,1:2:0:0:
187,151,129956,2,0,P|222:177|268:152,1,75.0000028610231,0|2,0:0|2:2,0:0:0:0:
286,156,130272,1,2,2:2:0:0:
373,136,130430,53,2,1:2:0:0:
436,167,130588,1,2,2:2:0:0:
509,147,130746,1,2,2:2:0:0:
363,31,130903,1,2,2:2:0:0:
285,40,131061,2,0,P|248:52|182:56,2,75.0000028610231,2|2|2,1:2|2:2|2:2,0:0:0:0:
232,87,131535,1,2,2:2:0:0:
149,19,131693,5,2,1:2:0:0:
74,61,131851,1,0,3:3:0:0:
64,65,131930,1,0,0:0:0:0:
54,69,132009,1,2,1:2:0:0:
10,130,132167,1,2,3:2:0:0:
86,146,132325,2,0,L|173:169,1,75.0000028610231,2|0,1:2|3:3,0:0:0:0:
158,165,132561,1,0,0:0:0:0:
158,165,132640,2,0,L|194:221,1,37.5000014305115,2|0,1:2|0:0,0:0:0:0:
116,242,132798,2,0,L|122:280,1,37.5000014305115,2|0,3:2|0:0,0:0:0:0:
41,259,132956,54,0,L|32:296,1,37.5000014305115,2|0,1:2|3:3,0:0:0:0:
135,384,133114,2,0,P|158:353|152:286,1,75.0000028610231,2|2,1:2|1:2,0:0:0:0:
258,268,133430,1,2,1:2:0:0:
241,343,133588,2,0,P|237:288|240:242,1,75.0000028610231,2|2,1:2|1:2,0:0:0:0:
369,371,133903,1,2,1:2:0:0:
353,220,134061,1,2,1:2:0:0:
314,362,134219,5,2,1:2:0:0:
343,327,134298,1,0,3:3:0:0:
379,300,134377,1,0,1:1:0:0:
420,281,134456,1,0,3:3:0:0:
432,237,134535,53,2,1:2:0:0:
464,206,134614,1,0,3:3:0:0:
449,163,134693,5,2,1:2:0:0:
422,126,134772,1,0,3:3:0:0:
378,136,134851,53,2,1:2:0:0:
333,133,134930,1,0,3:3:0:0:
294,110,135009,5,0,1:1:0:0:
249,104,135088,1,0,3:3:0:0:
196,53,135167,53,2,1:2:0:0:
206,101,135246,1,0,3:3:0:0:
202,112,135325,2,0,P|197:136|190:170,1,37.5000014305115,2|0,1:2|3:3,0:0:0:0:
0,192,135482,5,2,2:2:0:0:
15,184,135798,53,2,2:2:0:0:
13,197,136114,5,2,2:2:0:0:
11,273,136430,54,0,B|145:206|145:206|284:313,1,300,2|0,2:2|2:0,0:0:0:0:
337,356,136746,6,0,P|373:351|420:368,1,64.9999970245363,6|0,1:2|0:0,0:0:0:0:
344,220,136903,2,0,P|373:239|416:233,1,64.9999970245363,2|0,2:2|0:0,0:0:0:0:
357,21,137061,2,0,P|369:47|417:68,1,64.9999970245363,10|0,2:2|0:0,0:0:0:0:
486,211,137219,53,2,2:2:0:0:
476,173,137298,1,0,0:0:0:0:
445,149,137377,2,0,B|380:118|280:167,1,129.999994049073,0|2,1:1|2:2,0:0:0:0:
231,108,137614,1,0,0:0:0:0:
239,113,137693,2,0,P|213:149|201:180,1,64.9999970245363,8|0,2:2|0:0,0:0:0:0:
194,323,137851,1,2,2:2:0:0:
208,316,137930,1,0,0:0:0:0:
223,328,138009,6,0,P|261:336|300:354,1,64.9999970245363,2|0,1:2|0:0,0:0:0:0:
267,213,138167,2,0,P|296:230|339:228,1,64.9999970245363,2|0,2:2|0:0,0:0:0:0:
275,32,138325,2,0,P|307:48|341:25,1,64.9999970245363,10|0,2:2|0:0,0:0:0:0:
455,0,138482,54,0,B|418:84|418:84|366:106,1,129.999994049073,2|0,2:2|1:1,0:0:0:0:
213,119,138719,1,0,0:0:0:0:
182,142,138798,2,0,P|190:111|207:83,1,64.9999970245363,2|0,2:2|0:0,0:0:0:0:
41,34,138956,5,8,2:2:0:0:
52,50,139035,1,0,0:0:0:0:
58,68,139114,1,2,2:2:0:0:
62,86,139193,1,0,0:0:0:0:
63,105,139272,54,0,P|59:134|43:185,1,64.9999970245363,2|0,1:2|0:0,0:0:0:0:
225,203,139430,2,0,P|202:226|190:273,1,64.9999970245363,2|0,2:2|0:0,0:0:0:0:
414,333,139588,2,0,P|393:359|321:358,1,64.9999970245363,10|0,2:2|0:0,0:0:0:0:
98,364,139746,6,0,P|190:335|293:349,1,194.999991073609,2|0,2:2|2:0,0:0:0:0:
286,346,140061,2,0,P|265:364|206:362,1,64.9999970245363,2|0,2:2|0:0,0:0:0:0:
37,285,140219,1,8,2:2:0:0:
75,349,140377,2,0,L|135:292,1,64.9999970245363,2|0,2:2|0:0,0:0:0:0:
179,245,140535,54,0,B|197:216|197:216|177:176|99:170,1,129.999994049073,2|0,1:2|0:0,0:0:0:0:
114,94,140772,2,0,L|-27:149,1,129.999994049073,2|0,2:2|2:0,0:0:0:0:
27,23,141009,2,0,P|62:14|100:26,1,64.9999970245363,2|0,2:2|0:0,0:0:0:0:
264,54,141167,5,2,1:2:0:0:
225,35,141246,1,0,0:0:0:0:
191,61,141325,2,0,P|200:88|235:126,1,64.9999970245363,2|0,2:2|0:0,0:0:0:0:
297,77,141482,1,10,2:2:0:0:
309,55,141561,1,0,0:0:0:0:
303,30,141640,2,0,L|371:16,1,64.9999970245363,2|0,2:2|0:0,0:0:0:0:
264,347,141798,53,6,1:2:0:0:
264,347,141877,2,0,B|254:370|269:360|255:389,1,37.5,0|8,0:0|2:2,0:0:0:0:
189,384,142272,6,0,L|181:333,1,50,2|0,2:2|0:0,0:0:0:0:
142,168,142430,1,2,1:2:0:0:
19,316,142588,1,2,2:2:0:0:
68,206,142746,1,10,2:2:0:0:
82,219,142825,2,0,P|139:248|219:253,1,110.000003356934,0|0,0:0|2:0,0:0:0:0:
261,266,143061,54,0,L|346:298,1,55.0000016784668,2|0,1:2|0:0,0:0:0:0:
408,321,143219,1,0,0:0:0:0:
255,278,143377,1,8,2:2:0:0:
255,259,143456,1,0,0:0:0:0:
237,252,143535,2,0,L|185:304,1,55.0000016784668,2|0,2:2|0:0,0:0:0:0:
300,191,143693,5,0,1:1:0:0:
338,186,143772,1,0,0:0:0:0:
354,220,143851,1,0,1:1:0:0:
384,196,143930,1,0,0:0:0:0:
417,215,144009,53,8,2:2:0:0:
460,209,144088,1,0,0:0:0:0:
477,162,144167,1,2,2:2:0:0:
443,118,144246,1,0,0:0:0:0:
446,109,144325,6,0,P|398:81|329:74,1,119.999996337891,2|0,1:2|0:0,0:0:0:0:
298,8,144561,2,0,L|162:69,1,119.999996337891,2|0,2:2|2:0,0:0:0:0:
134,9,144798,2,0,B|164:29|164:29|113:40,1,59.9999981689454,2|0,2:2|0:0,0:0:0:0:
14,39,144956,53,2,1:2:0:0:
80,75,145114,2,0,P|57:100|15:114,1,59.9999981689454
120,103,145272,2,0,P|81:148|-17:137,1,119.999996337891,8|2,2:2|2:2,0:0:0:0:
160,206,145509,5,0,0:0:0:0:
138,233,145588,2,0,B|111:268|111:268|80:290|18:241,1,129.999994049073,2|0,1:2|0:0,0:0:0:0:
99,358,145825,2,0,B|114:317|164:288|183:285|214:312|144:327,1,129.999994049073,2|0,2:2|2:0,0:0:0:0:
103,362,146061,2,0,L|17:362,1,64.9999970245363,2|0,2:2|0:0,0:0:0:0:
184,362,146219,53,8,2:2:0:0:
229,362,146298,1,8,2:2:0:0:
272,348,146377,1,10,2:2:0:0:
279,303,146456,1,8,2:2:0:0:
303,265,146535,1,10,2:2:0:0:
347,256,146614,1,8,2:2:0:0:
376,292,146693,1,10,2:2:0:0:
357,334,146772,1,8,2:2:0:0:
428,351,146851,6,0,P|457:358|501:360,1,64.9999970245363,6|0,1:2|0:0,0:0:0:0:
402,203,147009,2,0,P|430:225|472:238,1,64.9999970245363,2|0,2:2|0:0,0:0:0:0:
410,31,147167,2,0,P|417:59|467:98,1,64.9999970245363,10|0,2:2|0:0,0:0:0:0:
493,139,147325,54,0,B|435:136|413:162|413:162|370:207|296:169,1,194.999991073609,2|0,2:2|2:0,0:0:0:0:
230,145,147640,1,2,2:2:0:0:
300,285,147798,1,8,2:2:0:0:
151,252,147956,1,2,2:2:0:0:
139,268,148035,1,0,0:0:0:0:
151,287,148114,6,0,P|182:298|220:305,1,64.9999970245363,2|0,1:2|0:0,0:0:0:0:
227,200,148272,2,0,P|256:215|294:214,1,64.9999970245363,2|0,2:2|0:0,0:0:0:0:
280,14,148430,2,0,P|314:20|347:4,1,64.9999970245363,10|0,2:2|0:0,0:0:0:0:
325,101,148588,54,0,B|314:65|252:39|216:71,1,129.999994049073,2|0,2:2|1:1,0:0:0:0:
52,168,148903,2,0,B|70:185|70:185|66:144,1,64.9999970245363,2|0,2:2|0:0,0:0:0:0:
1,53,149061,5,8,2:2:0:0:
15,62,149139,1,0,0:0:0:0:
30,67,149218,1,2,2:2:0:0:
46,69,149297,1,0,0:0:0:0:
62,68,149377,54,0,P|62:114|54:147,1,64.9999970245363,2|0,1:2|0:0,0:0:0:0:
232,108,149535,2,0,P|218:155|183:164,1,64.9999970245363,2|0,2:2|0:0,0:0:0:0:
409,266,149693,2,0,P|394:290|346:292,1,64.9999970245363,10|0,2:2|0:0,0:0:0:0:
185,230,149851,6,0,B|211:175|279:146|314:234|227:298,1,194.999991073609,2|0,2:2|2:0,0:0:0:0:
231,289,150167,2,0,P|204:275|164:264,1,64.9999970245363,2|0,2:2|0:0,0:0:0:0:
0,250,150325,1,8,2:2:0:0:
0,327,150482,2,0,P|9:358|80:395,1,64.9999970245363,2|0,2:2|0:0,0:0:0:0:
73,324,150640,53,2,1:2:0:0:
112,203,150798,1,2,2:2:0:0:
291,167,150956,1,10,2:2:0:0:
93,329,151114,2,0,P|122:335|162:351,1,64.9999970245363,2|0,2:2|0:0,0:0:0:0:
99,192,151272,5,2,1:2:0:0:
140,174,151351,1,0,0:0:0:0:
178,166,151430,1,2,2:2:0:0:
217,164,151509,1,0,0:0:0:0:
248,172,151588,53,10,2:2:0:0:
270,184,151667,1,0,0:0:0:0:
295,187,151746,2,0,P|325:200|352:217,1,64.9999970245363,2|0,2:2|0:0,0:0:0:0:
478,250,151903,6,0,B|438:258|402:241|402:241|317:287|317:287|272:247|157:277,1,300.000011444092,6|8,1:2|2:2,0:0:0:0:
323,363,152377,53,2,2:2:0:0:
469,327,152535,1,2,1:2:0:0:
398,351,152693,1,2,2:2:0:0:
400,361,152772,1,0,0:0:0:0:
406,370,152851,1,10,2:2:0:0:
477,342,153009,1,2,2:2:0:0:
415,278,153167,6,0,P|408:220|434:155,1,110.000003356934,2|0,1:2|0:0,0:0:0:0:
469,116,153403,1,2,2:2:0:0:
459,109,153482,2,0,P|431:92|409:72,1,55.0000016784668,8|0,2:2|0:0,0:0:0:0:
340,105,153640,1,2,2:2:0:0:
342,117,153719,1,0,0:0:0:0:
339,128,153798,54,0,P|312:138|275:138,1,55.0000016784668
279,10,153956,2,0,P|285:34|255:70,1,55.0000016784668
198,122,154114,1,8,2:2:0:0:
155,133,154193,1,0,0:0:0:0:
182,167,154272,1,2,2:2:0:0:
210,200,154351,1,0,0:0:0:0:
175,213,154430,6,0,B|104:237|60:208|26:188|0:115|86:125|96:191,1,225.000008583069,14|0,2:2|2:0,0:0:0:0:
209,235,154746,2,0,B|181:309|181:309|125:333|75:293|75:293|31:310,1,225.000008583069,14|0,2:2|2:0,0:0:0:0:
302,242,155061,2,0,B|285:236|285:236|177:353|177:353|76:334,1,225.000008583069,14|0,2:2|2:0,0:0:0:0:
372,142,155377,2,0,B|342:163|342:163|343:258|376:308|376:308|334:379,1,225.000008583069,14|0,2:2|2:0,0:0:0:0:
391,147,155693,54,0,B|451:209|393:251|393:251|341:266|289:379,1,225.000008583069,14|0,2:2|2:0,0:0:0:0:
298,384,156009,2,0,P|266:353|303:343,1,75.0000028610231,14|0,2:2|0:0,0:0:0:0:
407,360,156167,2,0,P|407:330|423:360,1,75.0000028610231,0|0,1:1|0:0,0:0:0:0:
479,270,156325,5,10,2:2:0:0:
488,218,156403,1,8,2:2:0:0:
491,165,156482,1,8,2:2:0:0:
488,112,156561,1,8,2:2:0:0:
481,59,156640,53,10,2:2:0:0:
459,106,156719,1,8,2:2:0:0:
460,158,156798,1,8,2:2:0:0:
463,210,156877,1,8,2:2:0:0:
489,278,156956,6,1,B|474:196|382:167|302:202|279:263|325:320|325:320|325:320|325:320|413:299|426:217|370:127|304:102|186:172|158:282|242:235|299:261|263:356|150:399|67:366|32:280|51:221|132:175|132:175|208:254|142:348|46:360|-3:315|-32:255|0:189|64:135,1,1425.99995213013,6|0,2:2|2:0,0:0:0:0:
119,154,159482,1,2,1:2:0:0:
512,0,161851,53,8,2:3:0:0:
512,0,161930,1,4,2:3:0:0:
512,0,162008,5,2,1:2:0:0:
506,109,162640,53,2,1:2:0:0:
425,39,163272,5,2,1:2:0:0:
390,147,163903,53,2,1:2:0:0:
288,31,164535,6,0,L|218:22,1,60,2|0,1:2|2:0,0:0:0:0:
248,224,164851,2,0,L|162:180,1,89.9999972534181,2|0,1:2|2:0,0:0:0:0:
147,2,165166,2,0,L|219:99,1,120,2|2,1:2|2:2,0:0:0:0:
147,257,165482,2,0,L|113:112,1,150,2|0,1:2|2:0,0:0:0:0:
32,60,165798,54,0,L|0:98,1,50,2|0,1:2|0:0,0:0:0:0:
56,167,165956,2,0,P|57:191|35:234,1,50,2|0,1:2|0:0,0:0:0:0:
165,244,166114,2,0,P|187:255|193:296,1,50,2|0,1:2|0:0,0:0:0:0:
400,305,166272,2,0,P|418:336|388:330,1,50,2|0,1:2|0:0,0:0:0:0:
271,282,166430,38,0,B|290:227|290:227|278:249|278:249|278:179,1,150.000005722046,10|0,1:2|0:0,0:0:0:0:
304,216,166509,70,0,B|330:198|330:198|323:161|323:161|311:183|311:183|311:113,1,150.000005722046,10|0,1:2|0:0,0:0:0:0:
371,186,166588,70,0,B|397:168|397:168|390:131|390:131|362:143|362:143|378:141|378:141|378:83,1,150.000005722046,10|0,1:2|0:0,0:0:0:0:
443,160,166667,70,0,B|436:153|436:153|469:142|469:142|486:140|486:140|462:105|462:105|434:117|434:117|450:115|450:115|450:57,1,150.000005722046,10|0,1:2|0:0,0:0:0:0:
508,210,166746,54,2,B|312:142|619:174|491:244|491:244|436:268|341:311|350:182|350:182|264:152|164:155|94:219|85:250|85:250|112:235,1,750,2|0,0:1|2:0,0:1:0:0:
260,63,167061,6,0,B|208:79|208:79|200:139|219:265|219:265|175:304,1,300,6|0,1:2|2:0,0:0:0:0:
2,343,167377,54,0,P|26:317|42:259,1,75.0000028610231,10|0,2:2|0:0,0:0:0:0:
119,366,167535,2,0,P|131:349|136:322,1,37.5000014305115,2|0,1:2|0:0,0:0:0:0:
4,310,167693,6,0,P|51:236|55:112,1,150.000005722046,2|2,2:2|1:2,0:0:0:0:
15,123,167930,2,0,P|33:90|35:35,1,75.0000028610231,2|10,2:2|2:2,0:0:0:0:
143,158,168088,1,0,0:0:0:0:
171,120,168167,1,2,1:2:0:0:
183,85,168246,1,2,2:2:0:0:
173,91,168325,54,0,B|145:60|145:60|246:49|304:119|304:119|388:87,1,262.500002503395,2|0,1:2|2:0,0:0:0:0:
487,31,168640,6,0,P|451:33|376:28,1,75.0000028610231,10|0,2:2|0:0,0:0:0:0:
448,104,168798,1,2,1:2:0:0:
492,133,168877,1,2,2:2:0:0:
491,178,168956,2,0,P|454:175|417:177,1,75.0000028610231,2|0,2:2|0:0,0:0:0:0:
469,319,169114,53,2,1:2:0:0:
431,319,169193,1,2,2:2:0:0:
378,321,169272,1,10,2:2:0:0:
326,333,169351,1,2,2:2:0:0:
276,298,169430,1,2,1:2:0:0:
208,302,169509,1,2,2:2:0:0:
145,265,169588,6,0,B|193:252|193:252|271:281|307:316|307:316|333:289,1,200,2|0,1:2|0:0,0:0:0:0:
37,30,169903,54,0,P|73:44|129:51,1,75.0000028610231,10|0,2:2|0:0,0:0:0:0:
210,25,170061,2,0,P|226:31|258:35,1,37.5000014305115,2|0,1:2|0:0,0:0:0:0:
50,110,170219,2,0,B|124:99|163:141|163:141|222:118,1,150.000005722046,2|2,2:2|1:2,0:0:0:0:
255,106,170456,1,2,2:2:0:0:
268,108,170535,6,0,B|295:122|295:122|297:108|297:108|224:131,1,87.500000834465,10|0,2:2|0:0,0:0:0:0:
396,119,170693,2,0,B|423:133|423:133|425:119|425:119|352:142,1,87.500000834465,2|0,1:2|0:0,0:0:0:0:
192,231,170851,54,0,B|138:229|96:245|96:245|128:159|205:193|205:193|230:254|292:250,1,337.500012874604,2|0,1:2|2:0,0:0:0:0:
375,232,171167,6,0,B|418:209|355:223|355:223|387:249|387:249|327:202|262:275|262:275|219:321|169:309|169:309|137:317,1,375,10|0,2:2|2:0,0:0:0:0:
43,352,171482,54,0,B|48:313|48:313|61:330|61:330|145:337|145:337|148:333|148:333|146:337|146:337|401:361|401:361|433:337,1,450.000017166138,2|0,2:2|2:0,0:0:0:0:
512,308,171798,5,10,2:2:0:0:
442,314,171877,2,0,B|437:328|437:328|454:333,1,29.9999990844727,0|0,0:0|2:0,0:0:0:0:
246,154,172114,54,0,B|301:140|301:140|380:204|488:231|488:231|523:185,1,300,6|0,1:2|2:0,0:0:0:0:
471,22,172430,6,0,B|462:47|462:47|473:94,1,75.0000028610231,10|0,2:2|0:0,0:0:0:0:
359,41,172588,2,0,L|370:88,1,37.5000014305115,2|0,1:2|0:0,0:0:0:0:
443,25,172746,54,0,B|455:71|455:71|395:191,1,150.000005722046,2|2,2:2|1:2,0:0:0:0:
363,190,172982,2,0,L|332:258,1,75.0000028610231,2|10,2:2|2:2,0:0:0:0:
287,85,173140,1,0,0:0:0:0:
285,124,173219,1,2,1:2:0:0:
277,158,173298,1,2,2:2:0:0:
269,149,173377,6,0,B|261:180|261:180|311:234|392:277|392:277|389:313|352:383,1,262.500002503395,2|0,1:2|2:0,0:0:0:0:
175,384,173693,54,0,B|139:328|139:328|149:299,1,75.0000028610231,10|0,2:2|0:0,0:0:0:0:
268,346,173851,1,2,1:2:0:0:
268,332,173930,1,2,2:2:0:0:
268,318,174009,6,0,L|228:296,2,37.5000014305115,2|0|0,1:2|0:0|0:0,0:0:0:0:
233,246,174167,1,2,1:2:0:0:
192,244,174246,1,2,2:2:0:0:
125,210,174325,53,10,1:2:0:0:
114,249,174403,1,2,2:2:0:0:
107,208,174482,1,2,1:2:0:0:
96,247,174560,1,2,2:2:0:0:
36,207,174640,6,0,B|-15:192|-15:192|0:267|0:267|46:308|61:370,1,225.000008583069,10|0,2:2|2:0,0:0:0:0:
124,373,174956,2,0,B|172:373|172:373|132:341,1,75.0000028610231,10|0,2:2|0:0,0:0:0:0:
53,344,175114,1,2,1:2:0:0:
256,294,175272,54,0,B|307:256|290:183|290:183|211:125|269:44,1,262.500002503395,10|0,2:2|2:0,0:0:0:0:
337,0,175588,2,0,B|357:40|357:40|247:75|218:206|218:206|272:175,1,300,10|0,2:2|2:0,0:0:0:0:
351,128,175903,6,0,B|449:63|361:140|291:178,1,100,10|0,2:2|0:0,0:0:0:0:
376,214,176061,2,0,B|410:201|419:227|419:227|397:252|372:226,1,100,0|0,1:1|0:0,0:0:0:0:
431,44,176219,54,0,P|464:116|498:133,1,100,10|0,2:2|0:0,0:0:0:0:
461,208,176377,2,0,P|465:252|495:339,1,100,0|0,1:1|0:0,0:0:0:0:
422,370,176535,6,0,B|392:335|392:335|406:314|406:314|368:368,1,125,10|0,1:2|0:0,0:0:0:0:
359,355,176614,2,0,B|329:320|329:320|343:299|343:299|305:353,1,125,8|0,2:2|0:0,0:0:0:0:
296,340,176693,2,0,B|266:305|266:305|280:284|280:284|242:338,1,125,8|0,2:2|0:0,0:0:0:0:
233,325,176772,2,0,B|203:290|203:290|217:269|217:269|179:323,1,125,8|0,2:2|0:0,0:0:0:0:
170,310,176851,6,0,B|157:289|157:289|172:286|172:286|172:195,1,125,10|0,1:2|0:0,0:0:0:0:
105,286,176930,70,0,B|83:276|83:276|107:264|107:264|102:219|102:219|147:219,1,137.500001311302,8|0,2:2|0:0,0:0:0:0:
50,239,177009,70,0,B|50:192|50:192|35:213|35:213|69:156|69:156|69:210,1,175.00000166893,8|0,2:2|0:0,0:0:0:0:
107,179,177088,70,0,B|107:161|107:161|135:194|135:194|135:132|135:132|182:218|182:218|182:154,1,250,8|0,2:2|0:0,0:0:0:0:
246,162,177167,22,0,B|246:122|246:122|239:129|239:137|239:137|237:150|246:163,1,80,6|2,2:2|2:2,0:0:0:0:
291,32,187272,54,0,L|69:69,1,224.999993133545,6|0,1:2|2:0,0:0:0:0:
69,68,188535,2,0,L|41:253,1,187.5,2|0,2:2|2:0,0:0:0:0:
41,253,189798,2,0,L|175:320,1,150,2|0,2:2|2:0,0:0:0:0:
175,320,191061,2,0,L|255:239,1,112.499996566773,2|0,2:2|2:0,0:0:0:0:
254,239,192325,6,0,L|219:173,1,75,2|0,2:2|2:0,0:0:0:0:
256,192,193588,12,0,194200,0:0:0:0:
102,366,194219,5,0,0:0:0:0:
102,366,194377,38,0,L|140:326,2,50,2|2|2,2:2|2:2|2:2,0:0:0:0:
0,192,194851,22,0,P|26:173|41:119,1,69.9999978637696,6|0,1:2|0:0,0:0:0:0:
139,7,195009,2,0,P|162:33|171:67,1,69.9999978637696,2|0,2:2|0:0,0:0:0:0:
257,285,195167,2,0,L|268:213,1,69.9999978637696,10|0,2:2|0:0,0:0:0:0:
285,94,195325,37,2,2:2:0:0:
277,63,195403,1,0,0:0:0:0:
247,50,195482,2,0,P|206:79|205:251,1,209.999993591309,0|0,1:1|2:0,0:0:0:0:
256,384,195798,21,8,2:2:0:0:
256,384,195956,2,0,L|268:320,1,42.5000008106232,2|0,2:2|0:0,0:0:0:0:
30,231,196114,38,0,P|68:230|101:184,1,69.9999978637696,2|0,1:2|0:0,0:0:0:0:
213,78,196272,2,0,P|245:94|276:120,1,69.9999978637696,2|0,2:2|0:0,0:0:0:0:
356,336,196430,2,0,L|420:276,1,69.9999978637696,10|0,2:2|0:0,0:0:0:0:
498,235,196588,22,0,B|435:241|435:241|416:229|416:229|353:235,1,139.999995727539,2|0,2:2|1:1,0:0:0:0:
225,247,196825,1,0,0:0:0:0:
203,233,196903,2,0,B|174:249|174:249|211:262,1,69.9999978637696,2|0,2:2|0:0,0:0:0:0:
279,329,197061,37,8,2:2:0:0:
280,318,197139,1,0,0:0:0:0:
282,308,197218,1,2,2:2:0:0:
284,297,197297,1,0,0:0:0:0:
286,287,197377,22,0,P|325:275|350:233,1,69.9999978637696,2|0,1:2|0:0,0:0:0:0:
349,64,197535,2,0,P|388:88|416:127,1,69.9999978637696,2|0,2:2|0:0,0:0:0:0:
492,334,197693,2,0,L|485:264,1,69.9999978637696,10|0,2:2|0:0,0:0:0:0:
335,146,197851,38,0,B|268:172|295:245|381:218,1,139.999995727539,2|0,2:2|1:1,0:0:0:0:
478,163,198088,1,0,0:0:0:0:
447,170,198167,2,0,P|420:193|418:243,1,69.9999978637696,2|0,2:2|0:0,0:0:0:0:
438,380,198325,1,8,2:2:0:0:
365,376,198482,2,0,L|268:375,1,69.9999978637696,2|0,2:2|0:0,0:0:0:0:
156,288,198640,22,0,B|196:288|196:288|224:389,1,139.999995727539,2|0,1:2|0:0,0:0:0:0:
123,359,198877,2,0,B|82:321|75:265|75:265|114:228,1,139.999995727539,2|0,2:2|2:0,0:0:0:0:
0,134,199114,2,0,P|-8:103|31:69,1,69.9999978637696,2|0,2:2|0:0,0:0:0:0:
146,15,199272,38,0,P|171:39|175:93,1,69.9999978637696,2|0,1:2|0:0,0:0:0:0:
101,82,199430,2,0,L|80:165,1,69.9999978637696,2|0,2:2|0:0,0:0:0:0:
219,175,199588,2,0,P|184:178|152:191,1,69.9999978637696,10|0,2:2|0:0,0:0:0:0:
44,233,199746,2,0,P|67:242|46:225,1,69.9999978637696,2|0,2:2|0:0,0:0:0:0:
512,192,199903,21,6,1:2:0:0:
512,192,199982,2,0,B|487:189|482:204|460:200,1,52.4999983978272,0|8,0:0|2:2,0:0:0:0:
467,123,200377,38,0,L|412:139,1,55.0000016784668,2|0,2:2|0:0,0:0:0:0:
260,117,200535,2,0,P|341:167|367:204,1,119.999996337891,2|2,1:2|2:2,0:0:0:0:
378,214,200772,1,0,0:0:0:0:
397,244,200851,2,0,P|422:299|438:381,1,119.999996337891,10|2,2:2|2:2,0:0:0:0:
188,357,201167,22,0,B|250:365|250:365|304:344,1,119.999996337891,2|0,1:2|0:0,0:0:0:0:
328,315,201403,1,2,2:2:0:0:
328,315,201482,1,8,2:2:0:0:
329,285,201560,1,0,0:0:0:0:
312,261,201639,1,2,2:2:0:0:
284,252,201718,1,0,0:0:0:0:
239,253,201798,38,0,B|210:312|210:312|108:307,1,119.999996337891,0|0,1:1|1:1,0:0:0:0:
55,301,202035,1,0,0:0:0:0:
44,300,202114,2,0,B|20:288|20:288|52:233,1,59.9999981689454,8|0,2:2|0:0,0:0:0:0:
124,135,202272,1,2,2:2:0:0:
141,151,202351,1,0,0:0:0:0:
141,169,202430,22,0,P|96:169|-18:194,1,129.999994049073,2|0,1:2|0:0,0:0:0:0:
30,68,202667,2,0,P|51:31|155:21,1,129.999994049073,2|0,2:2|2:0,0:0:0:0:
180,14,202903,2,0,L|209:83,1,64.9999970245363,2|0,2:2|0:0,0:0:0:0:
363,86,203061,37,2,1:2:0:0:
271,218,203219,1,0,0:0:0:0:
254,191,203298,1,0,0:0:0:0:
256,159,203377,1,8,2:2:0:0:
283,82,203535,2,0,P|287:61|318:20,1,64.9999970245363,2|0,2:2|0:0,0:0:0:0:
422,9,203693,22,0,B|455:2|455:2|460:177,1,139.999995727539,2|0,1:2|0:0,0:0:0:0:
415,164,203930,2,0,B|421:228|384:220|384:220|386:192|427:180,1,139.999995727539,2|0,2:2|2:0,0:0:0:0:
478,285,204167,2,0,P|468:313|404:307,1,69.9999978637696,2|0,2:2|0:0,0:0:0:0:
411,253,204325,37,8,2:2:0:0:
357,265,204403,1,8,2:2:0:0:
304,283,204482,1,10,2:2:0:0:
255,311,204561,1,8,2:2:0:0:
200,297,204640,1,10,2:2:0:0:
145,282,204719,1,8,2:2:0:0:
89,272,204798,1,10,2:2:0:0:
34,282,204877,1,8,2:2:0:0:
30,290,204956,22,0,P|16:258|30:205,1,69.9999978637696,6|0,1:2|0:0,0:0:0:0:
97,45,205114,2,0,P|114:74|128:130,1,69.9999978637696,2|0,2:2|0:0,0:0:0:0:
259,315,205272,2,0,L|248:220,1,69.9999978637696,10|0,2:2|0:0,0:0:0:0:
287,60,205430,2,0,B|217:51|190:141|190:141|231:173|224:252,1,209.999993591309,2|0,2:2|2:0,0:0:0:0:
143,205,205746,1,2,2:2:0:0:
316,376,205903,38,0,P|264:357|145:359,1,139.999995727539,8|2,2:2|2:2,0:0:0:0:
167,353,206140,1,0,0:0:0:0:
156,348,206219,22,0,P|148:313|176:276,1,69.9999978637696,2|0,1:2|0:0,0:0:0:0:
235,106,206377,2,0,P|270:115|323:149,1,69.9999978637696,2|0,2:2|0:0,0:0:0:0:
401,347,206535,2,0,L|394:275,1,69.9999978637696,10|0,2:2|0:0,0:0:0:0:
431,137,206693,37,2,2:2:0:0:
456,162,206772,2,0,B|382:156|351:181|351:181|343:240|262:240,1,209.999993591309,0|2,0:0|2:2,0:0:0:0:
246,380,207167,21,8,2:2:0:0:
248,363,207245,1,0,0:0:0:0:
256,347,207324,1,2,2:2:0:0:
268,335,207403,1,0,0:0:0:0:
285,330,207482,38,0,P|308:305|311:242,1,69.9999978637696,2|0,1:2|0:0,0:0:0:0:
334,87,207640,2,0,P|373:113|389:148,1,69.9999978637696,2|0,2:2|0:0,0:0:0:0:
469,367,207798,2,0,L|481:289,1,69.9999978637696,10|0,2:2|0:0,0:0:0:0:
317,162,207956,22,0,B|435:138|435:138|392:277,1,209.999993591309,2|0,2:2|2:0,0:0:0:0:
335,242,208272,2,0,P|301:240|255:215,1,69.9999978637696,2|0,2:2|0:0,0:0:0:0:
127,170,208430,1,8,2:2:0:0:
57,142,208588,2,0,P|54:173|80:237,1,69.9999978637696,2|0,2:2|0:0,0:0:0:0:
112,274,208746,37,2,1:2:0:0:
199,178,208903,1,2,2:2:0:0:
139,77,209061,1,10,2:2:0:0:
114,64,209140,1,0,0:0:0:0:
87,64,209219,2,0,P|63:94|68:144,1,69.9999978637696,2|0,2:2|0:0,0:0:0:0:
278,153,209377,22,0,L|297:58,1,69.9999978637696,2|0,1:2|0:0,0:0:0:0:
188,0,209535,2,0,P|204:27|220:5,1,69.9999978637696,2|0,2:2|0:0,0:0:0:0:
295,39,209693,2,0,P|317:65|352:74,1,69.9999978637696,10|0,2:2|0:0,0:0:0:0:
506,152,209851,2,0,L|413:176,1,69.9999978637696,2|0,2:2|0:0,0:0:0:0:
417,22,210009,38,0,B|423:29|457:57|457:57|403:110|404:182|404:182|470:229|471:355,1,320,6|8,1:2|2:2,0:0:0:0:
357,384,210482,21,2,2:2:0:0:
340,381,210561,1,0,0:0:0:0:
325,372,210640,2,0,L|335:299,1,55.0000016784668,2|0,1:2|0:0,0:0:0:0:
280,267,210798,1,2,2:2:0:0:
167,323,210956,2,0,P|181:346|203:361,1,55.0000016784668,10|0,2:2|0:0,0:0:0:0:
244,364,211114,1,2,2:2:0:0:
83,355,211272,37,2,1:2:0:0:
31,258,211430,1,0,0:0:0:0:
17,227,211509,2,0,P|18:199|36:164,1,59.9999981689454,2|8,2:2|2:2,0:0:0:0:
66,142,211667,1,0,0:0:0:0:
84,112,211746,1,2,2:2:0:0:
62,102,211825,1,0,0:0:0:0:
57,105,211903,22,0,P|122:121|193:128,1,119.999996337891,0|0,1:1|0:0,0:0:0:0:
407,32,212219,2,0,P|358:1|271:9,1,119.999996337891,8|2,2:2|2:2,0:0:0:0:
208,55,212456,1,0,0:0:0:0:
238,44,212535,38,0,B|279:29|279:29|363:69|314:206|295:251,1,240,14|0,2:2|2:0,0:0:0:0:
429,56,212851,2,0,B|464:111|503:178|414:240|414:240|362:198,1,240,14|0,2:2|2:0,0:0:0:0:
479,298,213167,2,0,B|423:331|423:331|352:321|299:261|299:261|267:264,1,240,14|0,2:2|2:0,0:0:0:0:
250,383,213482,2,0,B|169:397|99:327|99:327|96:287|155:260,1,240,14|0,2:2|2:0,0:0:0:0:
241,106,213798,22,0,P|263:136|251:173,1,80,14|0,2:2|0:0,0:0:0:0:
176,298,213956,2,0,L|138:215,1,80
155,125,214114,2,0,P|194:130|232:142,1,80,14|0,2:2|0:0,0:0:0:0:
63,93,214272,2,0,P|23:111|-3:141,1,80,0|0,1:1|0:0,0:0:0:0:
9,322,214430,37,10,2:2:0:0:
0,266,214509,1,8,2:2:0:0:
20,213,214588,1,8,2:2:0:0:
68,240,214667,1,8,2:2:0:0:
88,291,214746,22,0,P|63:317|64:356,5,53.3333333333333,10|8|8|8|8|8,2:2|0:0|0:0|2:2|0:0|0:0,0:0:0:0:
107,384,215061,21,6,1:2:0:0:
256,192,215140,12,0,220035,2:0:0:0:
129,72,220114,6,0,P|161:77|168:38,1,64.9999970245363,6|2,1:2|2:2,0:0:0:0:
123,0,220272,54,2,L|388:0,1,265,2|0,2:1|2:1,0:1:0:0:
496,52,224535,5,8,2:2:0:0:
436,52,224613,1,8,2:2:0:0:
376,52,224692,1,10,2:2:0:0:
316,52,224771,1,8,2:2:0:0:
256,52,224851,1,8,2:2:0:0:
196,52,224930,1,8,2:2:0:0:
136,52,225009,1,10,2:2:0:0:
76,52,225088,1,8,2:2:0:0:
16,52,225167,54,0,L|3:130,1,59.9999981689454,6|0,1:2|0:0,0:0:0:0:
21,209,225325,2,0,P|52:215|85:255,1,59.9999981689454,2|0,2:2|0:0,0:0:0:0:
235,200,225482,2,0,P|178:174|110:177,1,119.999996337891,10|0,2:2|0:0,0:0:0:0:
90,145,225719,1,0,0:0:0:0:
98,137,225798,2,0,B|60:148|60:148|93:267,1,119.999996337891,2|2,1:2|2:2,0:0:0:0:
154,325,226035,1,0,0:0:0:0:
162,285,226114,5,10,2:2:0:0:
153,296,226193,1,0,0:0:0:0:
150,281,226272,1,2,2:2:0:0:
141,292,226351,1,0,0:0:0:0:
128,287,226430,2,0,B|179:255|179:255|240:268,1,119.999996337891,0|2,1:1|2:2,0:0:0:0:
418,249,226746,53,10,2:2:0:0:
405,276,226825,1,0,0:0:0:0:
392,262,226903,1,2,2:2:0:0:
386,279,226982,1,0,0:0:0:0:
363,262,227061,2,0,P|285:282|234:345,1,119.999996337891,2|2,1:2|2:2,0:0:0:0:
304,370,227298,2,0,P|341:362|366:347,1,59.9999981689454,2|10,2:2|2:2,0:0:0:0:
442,338,227456,1,0,0:0:0:0:
474,352,227535,1,0,0:0:0:0:
495,324,227614,1,0,0:0:0:0:
468,327,227693,2,0,P|467:298|489:248,1,59.9999981689454,2|0,1:2|0:0,0:0:0:0:
458,123,227851,5,2,2:2:0:0:
482,138,227930,1,2,2:2:0:0:
483,172,228009,1,10,2:2:0:0:
474,181,228088,2,0,L|319:191,1,119.999996337891,0|0,0:0|2:0,0:0:0:0:
170,119,228325,2,0,P|231:142|288:145,1,119.999996337891,2|2,1:2|2:2,0:0:0:0:
30,168,228640,53,10,2:2:0:0:
53,150,228719,1,0,0:0:0:0:
73,170,228798,1,2,2:2:0:0:
93,147,228877,1,0,0:0:0:0:
112,172,228956,2,0,P|128:186|256:221,1,119.999996337891,2|0,1:2|0:0,0:0:0:0:
60,252,229272,6,0,P|83:281|173:354,1,119.999996337891,8|2,2:2|2:2,0:0:0:0:
223,321,229509,1,0,0:0:0:0:
222,311,229588,2,0,B|176:298|176:298|223:372,1,119.999996337891,2|0,1:2|0:0,0:0:0:0:
341,384,229825,2,0,B|334:323|386:338|356:235,1,119.999996337891,2|0,2:2|2:0,0:0:0:0:
309,221,230061,2,0,P|286:247|291:280,1,59.9999981689454,2|0,2:2|0:0,0:0:0:0:
399,333,230219,53,6,1:2:0:0:
423,344,230298,1,2,2:2:0:0:
439,322,230377,2,0,L|519:339,1,59.9999981689454,2|2,2:2|2:2,0:0:0:0:
426,227,230535,2,0,B|401:140|401:140|430:162|453:151,1,119.999996337891,10|2,2:2|2:2,0:0:0:0:
450,83,230772,1,0,0:0:0:0:
450,74,230851,2,0,P|481:135|485:207,1,119.999996337891,2|2,1:2|2:2,0:0:0:0:
282,24,231167,2,0,L|237:33,1,29.9999990844727,8|0,2:2|0:0,0:0:0:0:
332,40,231325,2,0,L|374:53,1,29.9999990844727,2|0,2:2|0:0,0:0:0:0:
241,128,231482,6,0,B|325:82|312:187|285:193,1,119.999996337891,2|0,1:2|0:0,0:0:0:0:
119,219,231798,2,0,P|173:240|203:293,1,119.999996337891,10|2,2:2|2:2,0:0:0:0:
203,196,232035,1,2,2:2:0:0:
203,196,232114,2,0,P|180:175|167:149,1,59.9999981689454,2|0,1:2|0:0,0:0:0:0:
192,19,232272,2,0,P|178:48|143:31,1,59.9999981689454,2|0,2:2|0:0,0:0:0:0:
36,22,232430,54,0,P|79:61|70:125,1,119.999996337891,10|0,2:2|0:0,0:0:0:0:
56,112,232667,1,0,0:0:0:0:
47,127,232746,2,0,L|47:197,1,59.9999981689454,14|0,2:2|0:0,0:0:0:0:
62,326,232903,1,2,2:2:0:0:
19,203,233061,6,0,B|48:248|48:248|143:265|161:350,1,179.999994506836,10|0,2:2|2:0,0:0:0:0:
280,348,233377,2,0,B|296:328|321:343|369:340|297:292|250:322|197:387,1,179.999994506836,14|0,2:2|2:0,0:0:0:0:
174,359,233693,1,10,2:2:0:0:
162,327,233772,1,0,0:0:0:0:
190,307,233851,1,2,2:2:0:0:
172,293,233930,1,0,0:0:0:0:
183,222,234009,54,0,P|189:185|192:80,1,119.999996337891,10|0,2:2|0:0,0:0:0:0:
285,249,234325,6,0,P|306:193|294:107,1,119.999996337891,10|0,2:2|0:0,0:0:0:0:
380,297,234640,54,0,P|394:272|390:224,1,59.9999981689454,10|0,2:2|0:0,0:0:0:0:
376,205,234798,1,0,0:0:0:0:
456,358,234956,5,10,2:2:0:0:
478,324,235034,1,0,0:0:0:0:
472,284,235113,1,0,0:0:0:0:
457,31,235272,53,10,2:2:0:0:
406,50,235351,1,10,2:2:0:0:
419,102,235430,1,10,2:2:0:0:
461,68,235509,1,10,2:2:0:0:
428,24,235588,1,10,2:2:0:0:
375,34,235667,1,10,2:2:0:0:
346,79,235746,1,10,2:2:0:0:
368,128,235825,1,10,2:2:0:0:
416,149,235903,6,0,L|398:206,1,59.9999981689454
296,156,236061,2,0,P|282:163|305:170,2,37.5000014305115
367,226,236219,2,2,B|385:221|385:221|330:264,7,62.5,2|2|2|2|2|2|2|2,0:1|0:1|0:1|0:1|0:1|0:1|0:1|0:1,0:1:0:0:
271,275,236575,54,0,P|246:270|222:270,1,50,2|0,0:1|0:0,0:0:0:0:
114,325,236732,6,0,P|92:312|67:314,1,50,2|0,0:1|0:0,0:0:0:0:
154,232,236890,54,2,B|132:236|132:236|155:214|155:214|119:205|119:205|171:190|171:190|113:179|113:179|183:168|183:168|137:138|145:130,1,300,0|0,0:0|0:0,0:1:0:0:
93,143,237167,6,0,B|70:178|70:178|196:275|209:313|209:313|183:351,1,275,4|0,2:2|2:0,0:0:0:0:
256,384,238114,1,0,1:0:0:0:
256,380,238193,1,0,1:0:0:0:
256,376,238272,1,0,1:0:0:0:
256,372,238351,1,0,1:0:0:0:
260,384,238430,1,0,1:0:0:0:
260,380,238509,1,0,1:0:0:0:
260,376,238588,1,0,1:0:0:0:
260,372,238667,1,0,1:0:0:0:
264,384,238746,1,0,1:0:0:0:
264,380,238825,1,0,1:0:0:0:
264,376,238904,1,0,1:0:0:0:
264,372,238983,1,0,1:0:0:0:
268,384,239061,1,0,1:0:0:0:
268,380,239140,1,0,1:0:0:0:
268,376,239219,1,0,1:0:0:0:
268,372,239298,1,0,1:0:0:0:
272,384,239377,1,0,1:0:0:0:
272,380,239456,1,0,1:0:0:0:
272,376,239535,1,0,1:0:0:0:
272,372,239614,1,0,1:0:0:0:
276,384,239693,1,0,1:0:0:0:
276,380,239772,1,0,1:0:0:0:
276,376,239851,1,0,1:0:0:0:
276,372,239930,1,0,1:0:0:0:
280,384,240009,1,0,1:0:0:0:
280,380,240088,1,0,1:0:0:0:
280,376,240167,1,0,1:0:0:0:
280,372,240246,1,0,1:0:0:0:
284,384,240325,1,0,1:0:0:0:
284,380,240404,1,0,1:0:0:0:
284,376,240483,1,0,1:0:0:0:
284,372,240562,1,0,1:0:0:0:
288,384,240640,1,0,1:0:0:0:
288,380,240719,1,0,1:0:0:0:
288,376,240798,1,0,1:0:0:0:
288,372,240877,1,0,1:0:0:0:
292,384,240956,1,0,1:0:0:0:
292,380,241035,1,0,1:0:0:0:
292,376,241114,1,0,1:0:0:0:
292,372,241193,1,0,1:0:0:0:
296,384,241272,1,0,1:0:0:0:
296,380,241351,1,0,1:0:0:0:
296,376,241430,1,0,1:0:0:0:
296,372,241509,1,0,1:0:0:0:
300,384,241588,1,0,1:0:0:0:
300,380,241667,1,0,1:0:0:0:
300,376,241746,1,0,1:0:0:0:
300,372,241825,1,0,1:0:0:0:
304,384,241903,1,0,1:0:0:0:
308,384,241982,1,0,1:0:0:0:
312,384,242061,1,0,1:0:0:0:
316,384,242140,1,0,1:0:0:0:
320,384,242219,1,0,1:0:0:0:
324,384,242298,1,0,1:0:0:0:
328,384,242377,1,0,1:0:0:0:
332,384,242456,1,0,1:0:0:0:
336,384,242535,1,0,1:0:0:0:
340,384,242614,1,0,1:0:0:0:
344,384,242693,1,0,1:0:0:0:
348,384,242772,1,0,1:0:0:0:
352,384,242851,1,0,1:0:0:0:
356,384,242929,1,0,1:0:0:0:
360,384,243008,1,0,1:0:0:0:
364,384,243087,1,0,1:0:0:0:
368,384,243166,1,0,1:0:0:0:
372,384,243245,1,0,1:0:0:0:
376,384,243324,1,0,1:0:0:0:
380,384,243403,1,0,1:0:0:0:
384,384,243482,1,0,1:0:0:0:
388,384,243561,1,0,1:0:0:0:
392,384,243640,1,0,1:0:0:0:
396,384,243719,1,0,1:0:0:0:
400,384,243798,1,0,1:0:0:0:
404,384,243877,1,0,1:0:0:0:
408,384,243956,1,0,1:0:0:0:
412,384,244035,1,0,1:0:0:0:
416,384,244114,1,0,1:0:0:0:
420,384,244193,1,0,1:0:0:0:
424,384,244272,1,0,1:0:0:0:
