osu file format v14

[General]
AudioFilename: audio.mp3
AudioLeadIn: 0
PreviewTime: 627
Countdown: 0
SampleSet: Soft
StackLeniency: 0.4
Mode: 0
LetterboxInBreaks: 0
WidescreenStoryboard: 0

[Editor]
Bookmarks: 727,13527,26327,39127,51927,71127,83927,103127,115927,128727,141527,155927,168727,187927,200727,213527,227927,243927,256727,275927,285527,300727
DistanceSpacing: 3.1
BeatDivisor: 4
GridSize: 16
TimelineZoom: 1.5

[Metadata]
Title:NATSU * Shiyouze!
TitleUnicode:NATSU☆しようぜ!
Artist:IDOLiSH7 feat. TRIGGER
ArtistUnicode:IDOLiSH7 feat. TRIGGER
Creator:Addy2607
Version:SUMMERTIME!
Source:IDOLiSH7
Tags:collab Mononymous Ryuusei Aika Ryuusei_Aika RsAk arronchu1207 Hazu- Nyantiaz アイドリッシュセブン i7 アイナナ あいなな Ainana トリガー とりがー Nanase Riku 七瀬陸 Izumi Iori 和泉一織 Izumi Mitsuki 和泉三月 Nikaido Nikaidou Nikaidō Yamato 二階堂大和 Yotsuba Tamaki 四葉環 Sogo Sougo Sōgo Osaka Ousaka Ōsaka 逢坂壮五 Rokuya Nagi 六弥ナギ Kensho Kenshou Kenshō Ono 小野賢章 Toshiki Masuda 増田俊樹 Tsubasa Yonaga 代永翼 Yuusuke Yūsuke Yusuke Shirai 白井悠介 KENN Kenichirou Kenichiro Kenichirō Oohashi Ōhashi Ohashi 大橋 賢一郎 Atsushi Abe 阿部敦 Takuya Eguchi 江口拓也 Kujo Kujou Kujō Tenn 九条天 Tsunashi Ryunosuke Ryuunosuke Ryūnosuke 十龍之介 Yaotome Gaku 八乙女楽 Souma Soma Sōma Saito Saitou Saitō 斉藤壮馬 Takuya Satou Sato Satō 佐藤拓也 Wataru Hatano 羽多野渉 japanese pop jpop j-pop rock jrock j-rock anime male idols vocals CV Character Voice insert song 1st first season 1 one
BeatmapID:3176732
BeatmapSetID:1554928

[Difficulty]
HPDrainRate:6
CircleSize:3.8
OverallDifficulty:8
ApproachRate:9
SliderMultiplier:1.8
SliderTickRate:1

[Events]
//Background and Video events
0,0,"NatsuShiyouze.jpg",0,0
//Break Periods
//Storyboard Layer 0 (Background)
//Storyboard Layer 1 (Fail)
//Storyboard Layer 2 (Pass)
//Storyboard Layer 3 (Foreground)
//Storyboard Layer 4 (Overlay)
//Storyboard Sound Samples

[TimingPoints]
727,400,4,2,1,70,1,0
727,-100,4,2,1,70,0,0
3127,-117.647058823529,4,2,1,60,0,0
3927,-100,4,2,1,70,0,0
6327,-117.647058823529,4,2,1,60,0,0
7127,-100,4,2,1,70,0,0
9527,-117.647058823529,4,2,1,60,0,0
10327,-100,4,2,1,70,0,0
13127,-285.714285714286,4,2,1,90,0,0
13427,-285.714285714286,4,2,1,5,0,0
13527,-100,4,2,1,80,0,0
13927,-83.3333333333333,4,2,1,80,0,0
14227,-83.3333333333333,4,2,1,5,0,0
14327,-100,4,2,1,80,0,0
14727,-83.3333333333333,4,2,1,80,0,0
15027,-83.3333333333333,4,2,1,5,0,0
15127,-100,4,2,1,80,0,0
17127,-83.3333333333333,4,2,1,80,0,0
17427,-83.3333333333333,4,2,1,5,0,0
17527,-100,4,2,1,80,0,0
18127,-83.3333333333333,4,2,1,80,0,0
18427,-83.3333333333333,4,2,1,5,0,0
18527,-83.3333333333333,4,2,1,80,0,0
19927,-100,4,2,1,80,0,0
20327,-83.3333333333333,4,2,1,80,0,0
20627,-83.3333333333333,4,2,1,5,0,0
20727,-100,4,2,1,80,0,0
21127,-83.3333333333333,4,2,1,80,0,0
21427,-83.3333333333333,4,2,1,5,0,0
21527,-100,4,2,1,80,0,0
23527,-83.3333333333333,4,2,1,80,0,0
23827,-83.3333333333333,4,2,1,5,0,0
23927,-100,4,2,1,80,0,0
24527,-83.3333333333333,4,2,1,80,0,0
24827,-83.3333333333333,4,2,1,5,0,0
24927,-83.3333333333333,4,2,1,80,0,0
25927,-133.333333333333,4,2,1,50,0,0
26227,-133.333333333333,4,2,1,5,0,0
26327,-111.111111111111,4,2,1,60,0,0
32527,-111.111111111111,4,2,1,70,0,0
32727,-111.111111111111,4,2,1,60,0,0
35727,-111.111111111111,4,2,1,70,0,0
35927,-111.111111111111,4,2,1,60,0,0
37527,-111.111111111111,4,2,1,70,0,0
39127,-111.111111111111,4,2,1,60,0,0
42127,-83.3333333333333,4,2,1,70,0,0
42327,-83.3333333333333,4,2,1,60,0,0
42427,-83.3333333333333,4,2,1,5,0,0
42527,-111.111111111111,4,2,1,60,0,0
43927,-111.111111111111,4,2,1,70,0,0
45527,-111.111111111111,4,2,1,60,0,0
48827,-111.111111111111,4,2,1,5,0,0
48927,-111.111111111111,4,2,1,60,0,0
50327,-111.111111111111,4,2,1,70,0,0
51527,-83.3333333333333,4,2,1,70,0,0
51827,-83.3333333333333,4,2,1,5,0,0
51927,-111.111111111111,4,2,1,50,0,0
55127,-111.111111111111,4,2,1,60,0,0
58327,-111.111111111111,4,2,1,50,0,0
61427,-111.111111111111,4,2,1,5,0,0
61527,-111.111111111111,4,2,1,60,0,0
61727,-99.9999999999999,4,2,1,60,0,0
62927,-99.9999999999999,4,2,1,70,0,0
64627,-99.9999999999999,4,2,1,5,0,0
64727,-133.333333333333,4,2,1,60,0,0
65527,-83.3333333333333,4,2,1,80,0,0
66127,-83.3333333333333,4,2,1,80,0,0
66327,-133.333333333333,4,2,1,60,0,0
67527,-100,4,2,1,60,0,0
69327,-83.3333333333333,4,2,1,70,0,0
71127,-83.3333333333333,4,2,1,80,0,1
73927,-62.5,4,2,1,80,0,1
74227,-62.5,4,2,1,5,0,1
74327,-83.3333333333333,4,2,1,80,0,1
77527,-100,4,2,1,80,0,1
77827,-100,4,2,1,5,0,1
77927,-100,4,2,1,80,0,1
80727,-100,4,2,1,90,0,1
80927,-62.5,4,2,1,90,0,1
81127,-100,4,2,1,90,0,1
81527,-62.5,4,2,1,90,0,1
81727,-100,4,2,1,90,0,1
83927,-83.3333333333333,4,2,1,80,0,1
86727,-62.5,4,2,1,80,0,1
87027,-62.5,4,2,1,5,0,1
87127,-83.3333333333333,4,2,1,80,0,1
90327,-100,4,2,1,80,0,1
90627,-100,4,2,1,5,0,1
90727,-100,4,2,1,80,0,1
93527,-100,4,2,1,90,0,1
93727,-62.5,4,2,1,90,0,1
93927,-100,4,2,1,90,0,1
94327,-62.5,4,2,1,90,0,1
94527,-100,4,2,1,90,0,1
95927,-83.3333333333333,4,2,1,90,0,1
96227,-83.3333333333333,4,2,1,5,0,1
96327,-83.3333333333333,4,2,1,90,0,1
96727,-125,4,2,1,70,0,0
99927,-100,4,2,1,70,0,0
100127,-100,4,2,1,80,0,0
101627,-100,4,2,1,5,0,0
101727,-100,4,2,1,80,0,0
102727,-66.6666666666667,4,2,1,90,0,1
103027,-66.6666666666667,4,2,1,5,0,1
103127,-100,4,2,1,80,0,0
103527,-83.3333333333333,4,2,1,80,0,0
103827,-83.3333333333333,4,2,1,5,0,0
103927,-100,4,2,1,80,0,0
104327,-83.3333333333333,4,2,1,80,0,0
104627,-83.3333333333333,4,2,1,5,0,0
104727,-100,4,2,1,80,0,0
106727,-83.3333333333333,4,2,1,80,0,0
107027,-83.3333333333333,4,2,1,5,0,0
107127,-100,4,2,1,80,0,0
107727,-83.3333333333333,4,2,1,80,0,0
108027,-83.3333333333333,4,2,1,5,0,0
108127,-83.3333333333333,4,2,1,80,0,0
109527,-100,4,2,1,80,0,0
109927,-83.3333333333333,4,2,1,80,0,0
110227,-83.3333333333333,4,2,1,5,0,0
110327,-100,4,2,1,80,0,0
110727,-83.3333333333333,4,2,1,80,0,0
111027,-83.3333333333333,4,2,1,5,0,0
111127,-100,4,2,1,80,0,0
113127,-83.3333333333333,4,2,1,80,0,0
113427,-83.3333333333333,4,2,1,5,0,0
113527,-100,4,2,1,80,0,0
114127,-83.3333333333333,4,2,1,80,0,0
114427,-83.3333333333333,4,2,1,5,0,0
114527,-83.3333333333333,4,2,1,80,0,0
115527,-133.333333333333,4,2,1,50,0,0
115827,-133.333333333333,4,2,1,5,0,0
115927,-166.666666666667,4,2,1,60,0,0
122127,-166.666666666667,4,2,1,70,0,0
122327,-166.666666666667,4,2,1,50,0,0
125327,-125,4,2,1,70,0,0
125527,-125,4,2,1,60,0,0
125627,-125,4,2,1,5,0,0
125727,-125,4,2,1,60,0,0
126927,-125,4,2,1,50,0,0
128327,-125,4,2,1,70,0,0
128727,-100,4,2,1,60,0,0
131727,-66.6666666666667,4,2,1,70,0,0
131927,-100,4,2,1,60,0,0
133527,-100,4,2,1,70,0,0
135127,-100,4,2,1,60,0,0
139927,-100,4,2,1,70,0,0
141527,-111.111111111111,4,2,1,50,0,0
144727,-111.111111111111,4,2,1,60,0,0
145027,-111.111111111111,4,2,1,5,0,0
145127,-111.111111111111,4,2,1,60,0,0
146427,-111.111111111111,4,2,1,5,0,0
146527,-111.111111111111,4,2,1,60,0,0
147927,-111.111111111111,4,2,1,50,0,0
148227,-111.111111111111,4,2,1,5,0,0
148327,-111.111111111111,4,2,1,50,0,0
151127,-111.111111111111,4,2,1,60,0,0
151227,-111.111111111111,4,2,1,5,0,0
151327,-100,4,2,1,60,0,0
152527,-100,4,2,1,70,0,0
152827,-100,4,2,1,5,0,0
152927,-100,4,2,1,70,0,0
154327,-100,4,2,1,50,0,0
155327,-100,4,2,1,70,0,0
155527,-66.6666666666667,4,2,1,70,0,0
155827,-66.6666666666667,4,2,1,5,0,0
155927,-83.3333333333333,4,2,1,80,0,1
156227,-83.3333333333333,4,2,1,5,0,1
156327,-83.3333333333333,4,2,1,80,0,1
160227,-83.3333333333333,4,2,1,5,0,1
160327,-83.3333333333333,4,2,1,80,0,1
162227,-83.3333333333333,4,2,1,5,0,1
162327,-83.3333333333333,4,2,1,80,0,1
162627,-83.3333333333333,4,2,1,5,0,1
162727,-83.3333333333333,4,2,1,80,0,1
163427,-83.3333333333333,4,2,1,5,0,1
163527,-83.3333333333333,4,2,1,80,0,1
165427,-83.3333333333333,4,2,1,5,0,1
165527,-83.3333333333333,4,2,1,90,0,1
167227,-83.3333333333333,4,2,1,5,0,1
167327,-83.3333333333333,4,2,1,90,0,1
168727,-83.3333333333333,4,2,1,80,0,1
169027,-83.3333333333333,4,2,1,5,0,1
169127,-83.3333333333333,4,2,1,80,0,1
173027,-83.3333333333333,4,2,1,5,0,1
173127,-83.3333333333333,4,2,1,80,0,1
175027,-83.3333333333333,4,2,1,5,0,1
175127,-83.3333333333333,4,2,1,80,0,1
175427,-83.3333333333333,4,2,1,5,0,1
175527,-83.3333333333333,4,2,1,80,0,1
176227,-83.3333333333333,4,2,1,5,0,1
176327,-83.3333333333333,4,2,1,80,0,1
178327,-83.3333333333333,4,2,1,90,0,1
180027,-83.3333333333333,4,2,1,5,0,1
180127,-83.3333333333333,4,2,1,90,0,1
181527,-125,4,2,1,70,0,0
184727,-100,4,2,1,70,0,0
184927,-100,4,2,1,80,0,0
186427,-100,4,2,1,5,0,0
186527,-100,4,2,1,80,0,0
187527,-66.6666666666667,4,2,1,90,0,1
187827,-66.6666666666667,4,2,1,5,0,1
187927,-166.666666666667,4,2,1,60,0,0
194327,-111.111111111111,4,2,1,60,0,0
197527,-83.3333333333333,4,2,1,70,0,0
198927,-83.3333333333333,4,2,1,80,0,0
199227,-83.3333333333333,4,2,1,5,0,0
199327,-66.6666666666667,4,2,1,80,0,0
199427,-66.6666666666667,4,2,1,5,0,0
199527,-66.6666666666667,4,2,1,80,0,0
199627,-66.6666666666667,4,2,1,5,0,0
199727,-83.3333333333333,4,2,1,80,0,0
200027,-83.3333333333333,4,2,1,5,0,0
200127,-83.3333333333333,4,2,1,80,0,0
200427,-83.3333333333333,4,2,1,5,0,0
200527,-83.3333333333333,4,2,1,80,0,0
200627,-83.3333333333333,4,2,1,5,0,0
200727,-83.3333333333333,4,2,1,70,0,0
203127,-83.3333333333333,4,2,1,60,0,0
203927,-83.3333333333333,4,2,1,70,0,0
206327,-83.3333333333333,4,2,1,60,0,0
207127,-83.3333333333333,4,2,1,70,0,0
209527,-83.3333333333333,4,2,1,60,0,0
210327,-83.3333333333333,4,2,1,70,0,0
213127,-83.3333333333333,4,2,1,90,0,0
213427,-83.3333333333333,4,2,1,5,0,0
213527,-83.3333333333333,4,2,1,80,0,0
224527,-66.6666666666667,4,2,1,80,0,0
224827,-66.6666666666667,4,2,1,5,0,0
224927,-66.6666666666667,4,2,1,80,0,0
225527,-83.3333333333333,4,2,1,80,0,0
226327,-111.111111111111,4,2,1,70,0,0
227027,-111.111111111111,4,2,1,5,0,0
227127,-111.111111111111,4,2,1,60,0,0
227827,-111.111111111111,4,2,1,5,0,0
227927,-142.857142857143,4,2,2,50,0,0
237127,-83.3333333333333,4,2,1,70,0,0
237527,-100,4,2,1,60,0,0
238927,-100,4,2,1,70,0,0
239227,-100,4,2,1,5,0,0
239327,-100,4,2,1,70,0,0
240927,-100,4,2,1,80,0,0
242127,-166.666666666667,4,2,1,80,0,0
243327,-100,4,2,1,80,0,0
243527,-66.6666666666667,4,2,1,90,0,0
243827,-66.6666666666667,4,2,1,5,0,0
243927,-83.3333333333333,4,2,1,80,0,1
246727,-62.5,4,2,1,80,0,1
247027,-62.5,4,2,1,5,0,1
247127,-83.3333333333333,4,2,1,80,0,1
250327,-100,4,2,1,80,0,1
250627,-100,4,2,1,5,0,1
250727,-100,4,2,1,80,0,1
253527,-100,4,2,1,90,0,1
253727,-62.5,4,2,1,90,0,1
253927,-100,4,2,1,90,0,1
254327,-62.5,4,2,1,90,0,1
254527,-100,4,2,1,90,0,1
256727,-83.3333333333333,4,2,1,80,0,1
259527,-62.5,4,2,1,80,0,1
259827,-62.5,4,2,1,5,0,1
259927,-83.3333333333333,4,2,1,80,0,1
263127,-100,4,2,1,80,0,1
263427,-100,4,2,1,5,0,1
263527,-100,4,2,1,80,0,1
266327,-100,4,2,1,90,0,1
266527,-62.5,4,2,1,90,0,1
266727,-100,4,2,1,90,0,1
267127,-62.5,4,2,1,90,0,1
267327,-100,4,2,1,90,0,1
268727,-83.3333333333333,4,2,1,90,0,1
269027,-83.3333333333333,4,2,1,5,0,1
269127,-83.3333333333333,4,2,1,90,0,1
269527,-100,4,2,1,80,0,1
273027,-100,4,2,1,5,0,1
273127,-100,4,2,1,80,0,1
275127,-83.3333333333333,4,2,1,80,0,1
275927,-125,4,2,1,70,0,0
279127,-100,4,2,1,70,0,0
280927,-100,4,2,1,80,0,0
282427,-100,4,2,1,5,0,0
282527,-100,4,2,1,80,0,0
283127,-285.714285714286,4,2,1,70,0,0
285127,-66.6666666666667,4,2,1,90,0,1
285427,-66.6666666666667,4,2,1,5,0,1
285527,-100,4,2,1,80,0,0
285927,-83.3333333333333,4,2,1,80,0,0
286227,-83.3333333333333,4,2,1,5,0,0
286327,-100,4,2,1,80,0,0
286727,-83.3333333333333,4,2,1,80,0,0
287027,-83.3333333333333,4,2,1,5,0,0
287127,-100,4,2,1,80,0,0
289127,-83.3333333333333,4,2,1,80,0,0
289427,-83.3333333333333,4,2,1,5,0,0
289527,-100,4,2,1,80,0,0
290127,-83.3333333333333,4,2,1,80,0,0
290427,-83.3333333333333,4,2,1,5,0,0
290527,-83.3333333333333,4,2,1,80,0,0
291927,-100,4,2,1,80,0,0
292327,-83.3333333333333,4,2,1,80,0,0
292627,-83.3333333333333,4,2,1,5,0,0
292727,-100,4,2,1,80,0,0
293127,-83.3333333333333,4,2,1,80,0,0
293427,-83.3333333333333,4,2,1,5,0,0
293527,-100,4,2,1,80,0,0
295527,-83.3333333333333,4,2,1,80,0,0
295827,-83.3333333333333,4,2,1,5,0,0
295927,-100,4,2,1,80,0,0
296527,-83.3333333333333,4,2,1,80,0,0
296827,-83.3333333333333,4,2,1,5,0,0
296927,-83.3333333333333,4,2,1,80,0,0
297927,-142.857142857143,4,2,1,70,0,0
299727,-83.3333333333333,4,2,1,80,0,0
300027,-83.3333333333333,4,2,1,5,0,0
300127,-83.3333333333333,4,2,1,80,0,0
300827,-83.3333333333333,4,2,1,70,0,0
301127,-83.3333333333333,4,2,1,60,0,0
301527,-83.3333333333333,4,2,1,50,0,0
301927,-83.3333333333333,4,2,1,40,0,0
302327,-83.3333333333333,4,2,1,30,0,0
302727,-83.3333333333333,4,2,1,20,0,0
302927,-83.3333333333333,4,2,1,10,0,0
303127,-83.3333333333333,4,2,1,5,0,0

[Colours]
Combo1 : 255,255,15
Combo2 : 255,0,0
Combo3 : 0,103,230
Combo4 : 255,157,60
Combo5 : 3,245,39
Combo6 : 4,230,255
Combo7 : 143,32,255

[HitObjects]
275,81,727,5,10,3:2:0:0:
69,50,927,1,10,3:2:0:0:
69,50,1327,5,10,3:2:0:0:
145,243,1527,1,10,3:2:0:0:
145,243,1927,5,10,3:2:0:0:
275,81,2127,1,10,3:2:0:0:
275,81,2527,5,10,3:2:0:0:
34,161,2727,1,10,3:2:0:0:
251,179,3127,6,0,L|249:228,1,38.2500007295609,8|0,0:3|0:0,0:0:0:0:
243,350,3327,2,0,L|245:301,1,38.2500007295609,8|0,0:3|0:0,0:0:0:0:
334,203,3527,2,0,L|332:252,1,38.2500007295609,4|0,0:3|0:0,0:0:0:0:
326,374,3727,2,0,L|328:325,1,38.2500007295609,4|0,0:3|0:0,0:0:0:0:
336,105,3927,5,10,3:2:0:0:
446,264,4127,1,10,3:2:0:0:
446,264,4527,5,10,3:2:0:0:
480,59,4727,1,10,3:2:0:0:
480,59,5127,5,10,3:2:0:0:
334,203,5327,1,10,3:2:0:0:
334,203,5727,5,10,3:2:0:0:
153,32,5927,1,10,3:2:0:0:
167,250,6327,6,0,L|163:160,1,76.5000014591217,14|2,0:0|3:2,0:0:0:0:
153,32,6727,1,10,0:0:0:0:
163,173,6927,1,10,0:0:0:0:
51,17,7127,5,10,3:2:0:0:
250,91,7327,1,10,3:2:0:0:
250,91,7727,5,10,3:2:0:0:
51,165,7927,1,10,3:2:0:0:
51,165,8327,5,10,3:2:0:0:
250,239,8527,1,10,3:2:0:0:
250,239,8927,5,10,3:2:0:0:
316,27,9127,1,10,3:2:0:0:
478,105,9327,5,0,3:0:0:0:
478,105,9427,1,0,3:0:0:0:
478,105,9527,2,0,L|393:98,1,76.5000014591217,14|8,0:0|0:3,0:0:0:0:
275,140,9827,1,8,0:3:0:0:
275,140,9927,2,0,L|318:136,1,38.2500007295609,4|4,0:3|0:3,0:0:0:0:
435,200,10127,2,0,L|391:196,1,38.2500007295609,0|0,3:0|3:0,0:0:0:0:
277,320,10327,5,10,3:2:0:0:
143,142,10527,1,10,3:2:0:0:
143,142,10927,5,10,3:2:0:0:
56,348,11127,1,10,3:2:0:0:
56,348,11527,5,10,3:2:0:0:
277,320,11727,1,10,3:2:0:0:
92,245,12927,5,0,3:0:0:0:
92,245,13027,1,0,3:0:0:0:
92,245,13127,2,0,L|39:242,1,47.2499985580445,14|0,0:0|0:0,0:0:0:0:
70,161,13527,6,0,L|160:164,1,90,4|0,3:2|0:0,0:0:0:0:
57,150,13927,2,0,B|184:155|184:155|221:120,1,161.999995056153,10|0,0:0|0:0,0:0:0:0:
256,71,14327,1,0,3:0:0:0:
278,253,14527,1,0,0:0:0:0:
426,96,14727,2,0,P|399:26|362:83,1,161.999995056153,10|0,0:0|0:0,0:0:0:0:
365,145,15127,5,0,3:2:0:0:
512,17,15327,1,2,0:0:0:0:
414,214,15527,1,10,0:0:0:0:
428,1,15727,1,2,0:0:0:0:
493,235,15927,2,0,L|488:337,1,90,2|0,3:2|0:0,0:0:0:0:
347,139,16327,2,0,L|342:49,1,90,10|0,0:0|0:0,0:0:0:0:
227,232,16727,6,0,P|187:237|110:213,1,90,4|0,3:2|0:0,0:0:0:0:
252,217,17127,2,0,P|170:224|89:195,1,161.999995056153,10|0,0:0|0:0,0:0:0:0:
87,117,17527,1,0,3:2:0:0:
271,71,17727,1,0,0:0:0:0:
57,101,17927,1,8,0:0:0:0:
294,43,18127,6,0,B|321:100|321:100|307:137|307:137|336:213,1,161.999995056153,2|0,0:0|0:0,0:0:0:0:
361,264,18527,1,2,0:0:0:0:
407,69,18727,1,10,0:0:0:0:
204,128,18927,1,2,0:0:0:0:
445,191,19127,2,0,L|527:89,1,107.999996704102,2|0,3:2|0:0,0:0:0:0:
328,192,19527,1,10,0:0:0:0:
461,6,19727,1,8,0:3:0:0:
350,218,19927,6,0,L|245:232,1,90,4|0,3:2|0:0,0:0:0:0:
367,194,20327,2,0,B|237:213|237:213|266:164,1,161.999995056153,10|0,0:0|0:0,0:0:0:0:
286,116,20727,1,0,3:0:0:0:
326,304,20927,1,0,0:0:0:0:
361,91,21127,2,0,P|324:46|222:69,1,161.999995056153,10|0,0:0|0:0,0:0:0:0:
286,116,21527,5,0,3:0:0:0:
429,10,21727,1,2,0:0:0:0:
360,197,21927,1,10,0:0:0:0:
155,144,22127,1,2,0:0:0:0:
326,12,22327,2,0,P|357:54|350:124,1,90,2|0,3:2|0:0,0:0:0:0:
241,240,22727,1,10,0:0:0:0:
468,169,22927,1,8,0:3:0:0:
229,59,23127,6,0,B|233:96|233:96|240:109|240:109|245:162,1,90,4|0,3:2|0:0,0:0:0:0:
216,37,23527,2,0,B|219:91|219:91|235:147|235:147|239:198,1,161.999995056153,10|0,0:0|0:0,0:0:0:0:
230,271,23927,1,4,3:2:0:0:
73,124,24127,1,0,0:0:0:0:
126,311,24327,1,10,0:0:0:0:
144,63,24527,6,0,B|236:91|216:29|350:61,1,161.999995056153,6|0,3:2|0:0,0:0:0:0:
377,80,24927,1,2,3:2:0:0:
315,302,25127,1,2,3:2:0:0:
237,14,25327,1,2,3:2:0:0:
126,311,25527,1,10,0:0:0:0:
126,311,25927,6,0,P|170:281|219:291,1,101.250003862381,2|0,0:0|0:0,0:0:0:0:
226,303,26327,6,0,P|264:310|318:320,1,80.9999975280763,6|0,3:2|0:0,0:0:0:0:
383,197,26727,2,0,P|340:201|311:235,1,80.9999975280763,10|0,0:0|0:0,0:0:0:0:
455,337,27127,2,0,P|468:275|482:214,1,121.499996292114,2|2,3:2|0:0,0:0:0:0:
494,211,27527,1,8,0:0:0:0:
354,286,27727,6,0,B|308:296|278:258|298:259|260:204|201:229,1,161.999995056153,2|2,0:0|0:0,0:0:0:0:
65,297,28327,1,10,0:0:0:0:
177,360,28527,1,2,0:0:0:0:
173,155,28727,2,0,P|164:201|143:297,1,121.499996292114,2|2,3:2|0:0,0:0:0:0:
138,287,29127,1,8,0:0:0:0:
80,179,29327,1,2,0:0:0:0:
251,209,29527,6,0,P|258:248|269:313,1,80.9999975280763,2|0,3:2|0:0,0:0:0:0:
391,170,29927,2,0,P|351:173|315:141,1,80.9999975280763,10|0,0:0|0:0,0:0:0:0:
502,93,30327,2,0,P|495:132|473:227,1,121.499996292114,2|2,3:2|0:0,0:0:0:0:
480,224,30727,1,8,0:0:0:0:
294,129,30927,1,2,0:0:0:0:
484,67,31127,5,4,3:2:0:0:
381,17,31327,2,0,P|387:57|396:119,1,80.9999975280763,2|10,0:0|0:0,0:0:0:0:
476,163,31727,1,2,0:0:0:0:
305,139,31927,2,0,P|252:149|175:162,1,121.499996292114,2|2,3:2|0:0,0:0:0:0:
179,173,32327,1,8,0:0:0:0:
26,86,32527,2,0,B|48:83|48:83|61:96,1,40.4999987640381,8|8,0:3|0:3,0:0:0:0:
85,179,32727,6,0,P|96:98|107:4,2,161.999995056153,4|10|0,3:2|0:0|3:2,0:0:0:0:
258,176,33727,2,0,P|229:148|189:149,1,80.9999975280763,2|8,0:0|0:0,0:0:0:0:
44,273,34127,6,0,P|129:258|234:240,1,161.999995056153,2|2,0:0|0:0,0:0:0:0:
349,336,34727,1,10,0:0:0:0:
209,265,34927,1,2,0:0:0:0:
348,135,35127,2,0,P|337:194|319:287,1,121.499996292114,2|2,3:2|0:0,0:0:0:0:
311,265,35527,1,8,0:0:0:0:
231,119,35727,2,0,P|226:82|222:56,1,40.4999987640381,2|0,0:0|0:0,0:0:0:0:
288,19,35927,5,0,3:0:0:0:
136,98,36127,2,0,P|84:88|35:79,1,80.9999975280763,2|10,0:0|0:0,0:0:0:0:
182,11,36527,1,2,0:0:0:0:
236,174,36727,2,0,P|221:242|208:302,1,121.499996292114,2|2,3:2|0:0,0:0:0:0:
220,308,37127,1,8,0:0:0:0:
93,186,37327,1,2,0:0:0:0:
289,111,37527,5,4,3:2:0:0:
182,55,37727,2,0,P|192:110|202:163,1,80.9999975280763,2|10,0:0|0:0,0:0:0:0:
271,218,38127,1,2,0:0:0:0:
82,147,38327,1,6,3:2:0:0:
199,104,38527,1,8,0:3:0:0:
197,116,38627,1,8,0:3:0:0:
195,127,38727,1,8,0:0:0:0:
78,50,38927,2,0,B|97:40|97:40|136:51,1,40.4999987640381,10|10,0:0|0:0,0:0:0:0:
199,104,39127,5,6,3:2:0:0:
272,47,39327,1,2,0:0:0:0:
285,137,39527,1,10,0:0:0:0:
426,29,39727,6,0,P|408:54|402:76,1,40.4999987640381,2|2,0:0|0:0,0:0:0:0:
432,136,39927,1,2,3:2:0:0:
366,260,40127,1,2,0:0:0:0:
285,137,40327,1,8,0:0:0:0:
432,136,40527,1,2,0:0:0:0:
365,259,40727,6,0,P|331:239|291:240,1,80.9999975280763,2|2,3:2|0:0,0:0:0:0:
202,308,41127,1,10,0:0:0:0:
85,165,41327,6,0,P|96:187|107:199,1,40.4999987640381,2|2,0:0|0:0,0:0:0:0:
179,227,41527,2,0,P|205:196|238:173,1,80.9999975280763,2|2,3:2|0:0,0:0:0:0:
343,106,41927,1,8,0:0:0:0:
155,123,42127,6,0,P|137:60|211:69,1,161.999995056153,2|0,0:0|0:0,0:0:0:0:
265,120,42527,1,2,0:0:0:0:
221,265,42727,2,0,P|202:211|205:172,1,80.9999975280763,10|2,0:0|0:0,0:0:0:0:
369,101,43127,2,0,P|364:165|326:227,1,121.499996292114,2|2,3:2|0:0,0:0:0:0:
318,231,43527,1,8,0:0:0:0:
437,306,43727,5,2,0:0:0:0:
372,349,43927,2,0,P|336:333|296:330,1,80.9999975280763,4|2,3:2|0:0,0:0:0:0:
159,214,44327,2,0,P|185:244|220:264,1,80.9999975280763,14|2,0:0|0:0,0:0:0:0:
76,365,44727,2,0,P|63:326|39:294,1,80.9999975280763,6|2,3:2|0:0,0:0:0:0:
15,266,45027,1,2,0:0:0:0:
15,266,45127,2,0,L|26:184,1,80.9999975280763,14|8,0:0|0:3,0:0:0:0:
141,58,45527,5,6,3:2:0:0:
146,73,45627,1,2,0:0:0:0:
150,88,45727,1,2,0:0:0:0:
57,23,45927,2,0,L|40:69,1,40.4999987640381,10|0,0:0|0:0,0:0:0:0:
14,133,46127,1,2,0:0:0:0:
126,228,46327,5,2,3:2:0:0:
241,128,46527,1,2,0:0:0:0:
225,133,46627,1,2,0:0:0:0:
209,138,46727,1,10,0:0:0:0:
300,208,46927,2,0,P|299:238|289:257,1,40.4999987640381,2|0,0:0|0:0,0:0:0:0:
233,356,47127,6,0,L|317:333,1,80.9999975280763,2|2,3:2|0:0,0:0:0:0:
327,336,47427,1,2,0:0:0:0:
343,337,47527,1,8,0:0:0:0:
470,263,47727,1,2,0:0:0:0:
347,199,47927,1,2,3:2:0:0:
343,337,48127,1,2,0:0:0:0:
470,263,48327,1,10,0:0:0:0:
347,199,48527,6,0,B|396:166|396:166|425:102,1,121.499996292114,2|0,0:0|0:0,0:0:0:0:
423,92,48927,1,2,0:0:0:0:
270,17,49127,2,0,P|291:60|330:72,1,80.9999975280763,10|2,0:0|0:0,0:0:0:0:
512,21,49527,2,0,P|505:74|495:157,1,121.499996292114,2|2,3:2|0:0,0:0:0:0:
503,164,49927,1,8,0:0:0:0:
422,279,50127,2,0,L|407:234,1,40.4999987640381,2|2,0:0|0:0,0:0:0:0:
340,194,50327,5,4,3:2:0:0:
313,360,50527,1,2,0:0:0:0:
422,279,50727,1,10,0:0:0:0:
292,349,50927,2,0,L|245:339,1,40.4999987640381,10|8,0:0|0:0,0:0:0:0:
191,277,51127,2,0,L|144:287,1,40.4999987640381,8|8,0:3|0:3,0:0:0:0:
65,330,51327,5,8,0:3:0:0:
170,180,51527,2,0,P|140:113|72:141,1,161.999995056153,10|0,0:0|0:0,0:0:0:0:
138,58,51927,6,0,P|145:131|73:141,1,161.999995056153,4|10,3:2|0:0,0:0:0:0:
60,320,52527,1,2,0:0:0:0:
82,236,52727,1,0,3:0:0:0:
10,188,52927,2,0,B|-8:225|-8:225|2:280,1,80.9999975280763,2|10,0:0|0:0,0:0:0:0:
60,320,53327,5,2,0:0:0:0:
213,325,53527,2,0,B|133:313|133:313|29:358,1,161.999995056153,0|8,3:0|0:0,0:0:0:0:
213,325,54127,1,2,0:0:0:0:
286,376,54327,2,0,L|297:286,1,80.9999975280763,0|2,3:0|0:0,0:0:0:0:
460,303,54727,2,0,L|450:383,1,80.9999975280763,8|2,0:0|0:0,0:0:0:0:
286,376,55127,5,4,3:2:0:0:
286,376,55527,2,0,P|317:297|394:290,1,161.999995056153,10|2,0:0|3:2,0:0:0:0:
386,287,56127,2,0,L|421:197,1,80.9999975280763,0|8,0:0|0:0,0:0:0:0:
445,138,56527,5,2,0:0:0:0:
496,203,56727,1,0,3:0:0:0:
364,150,56927,1,2,0:0:0:0:
333,226,57127,1,10,0:0:0:0:
394,73,57327,1,2,0:0:0:0:
241,12,57527,5,2,3:2:0:0:
234,156,57727,1,0,0:0:0:0:
195,82,57927,1,8,0:0:0:0:
150,152,58127,1,8,0:0:0:0:
147,182,58227,1,8,0:0:0:0:
144,212,58327,1,4,3:2:0:0:
144,212,58727,6,0,L|47:236,1,80.9999975280763,10|2,0:0|0:0,0:0:0:0:
71,131,59127,1,2,3:2:0:0:
5,276,59327,1,2,0:0:0:0:
71,131,59527,1,10,0:0:0:0:
152,300,59727,2,0,P|127:222|38:230,1,161.999995056153,2|2,0:0|0:0,0:0:0:0:
5,276,60327,1,8,0:0:0:0:
163,381,60527,2,0,B|199:365|199:365|254:370,1,80.9999975280763,2|0,0:0|3:0,0:0:0:0:
240,368,60927,1,4,0:3:0:0:
422,293,61127,2,0,B|366:317|366:317|305:311,1,121.499996292114,12|0,0:0|0:0,0:0:0:0:
293,310,61527,1,0,3:0:0:0:
469,358,61727,5,14,0:0:0:0:
388,136,61927,2,0,L|374:225,1,90,14|0,0:0|3:0,0:0:0:0:
209,291,62327,1,14,0:0:0:0:
289,69,62527,2,0,L|303:158,1,90,14|0,0:0|3:0,0:0:0:0:
511,58,62927,6,0,P|471:134|385:136,1,180,14|10,0:0|0:0,0:0:0:0:
378,123,63427,1,8,0:0:0:0:
382,108,63527,2,0,L|389:59,1,45,8|8,0:3|0:3,0:0:0:0:
322,21,63727,1,4,0:3:0:0:
309,12,63827,1,4,0:3:0:0:
296,3,63927,2,0,L|289:47,1,45,4|0,3:2|0:0,0:0:0:0:
283,133,64127,1,4,0:3:0:0:
283,133,64227,1,8,0:3:0:0:
283,133,64327,2,0,L|112:182,1,135,8|0,0:3|0:0,0:0:0:0:
153,170,64727,6,0,L|144:234,1,33.7500012874604,2|2,3:2|0:0,0:0:0:0:
148,203,64927,2,0,L|139:267,1,33.7500012874604,2|2,0:0|0:0,0:0:0:0:
143,236,65127,2,0,L|134:300,1,33.7500012874604,2|2,3:2|0:0,0:0:0:0:
138,269,65327,2,0,L|129:333,1,33.7500012874604,2|2,0:0|0:0,0:0:0:0:
84,379,65527,6,0,P|113:282|214:278,1,215.999993408203,2|2,3:2|3:2,0:0:0:0:
214,278,66127,2,0,B|243:284|243:284|280:272,1,53.9999983520508,8|0,0:0|0:0,0:0:0:0:
335,240,66327,6,0,L|355:290,1,33.7500012874604,10|2,3:2|0:0,0:0:0:0:
397,170,66627,1,2,0:0:0:0:
397,170,66727,6,0,L|417:220,1,33.7500012874604,2|2,3:2|0:0,0:0:0:0:
409,201,66927,2,0,L|429:251,1,33.7500012874604,2|2,0:0|0:0,0:0:0:0:
421,232,67127,2,0,L|441:282,1,33.7500012874604,2|2,3:2|0:0,0:0:0:0:
433,263,67327,2,0,L|453:313,1,33.7500012874604,2|2,0:0|0:0,0:0:0:0:
477,365,67527,5,2,3:2:0:0:
504,211,67727,5,8,0:0:0:0:
421,72,67927,6,0,L|314:86,1,90,10|2,3:2|0:0,0:0:0:0:
322,73,68227,1,2,0:0:0:0:
325,75,68327,6,0,P|303:92|293:132,1,45,2|2,3:2|0:0,0:0:0:0:
295,107,68527,2,0,P|266:111|238:140,1,45,2|2,0:0|0:0,0:0:0:0:
253,120,68727,2,0,P|231:138|221:177,1,45,2|2,3:2|0:0,0:0:0:0:
223,152,68927,2,0,P|194:156|166:185,1,45,2|0,0:0|0:0,0:0:0:0:
147,234,69127,1,2,3:2:0:0:
147,234,69327,6,0,P|186:282|249:258,1,107.999996704102,14|2,3:2|3:2,0:0:0:0:
294,239,69627,1,2,3:2:0:0:
294,239,69727,2,0,P|327:242|361:262,1,53.9999983520508,2|2,3:2|3:2,0:0:0:0:
402,307,69927,1,10,0:0:0:0:
232,355,70127,1,2,3:2:0:0:
68,221,70327,1,10,3:2:0:0:
45,103,70527,6,0,B|68:108|81:121|81:121|102:83|148:65,1,107.999996704102,2|2,0:0|0:0,0:0:0:0:
137,74,71127,5,6,3:2:0:0:
275,150,71327,1,2,0:0:0:0:
346,84,71527,5,10,0:0:0:0:
493,11,71727,1,2,0:0:0:0:
380,201,71927,6,0,P|372:146|360:87,1,107.999996704102,2|0,3:2|0:0,0:0:0:0:
483,138,72327,1,8,0:0:0:0:
307,302,72527,6,0,P|355:293|402:334,1,107.999996704102,2|0,0:0|3:0,0:0:0:0:
217,365,72927,1,2,0:0:0:0:
90,180,73127,5,10,0:0:0:0:
192,218,73327,1,2,0:0:0:0:
37,325,73527,5,2,3:2:0:0:
29,327,73727,1,0,0:0:0:0:
198,204,73927,2,0,B|252:167|362:175|352:234|255:237|269:151,1,216,8|0,0:0|0:0,0:0:0:0:
265,154,74327,6,0,P|273:100|284:44,1,107.999996704102,2|0,3:2|0:0,0:0:0:0:
163,88,74727,1,10,0:0:0:0:
380,123,74927,1,2,0:0:0:0:
163,88,75127,6,0,P|106:86|72:135,1,107.999996704102,2|0,3:2|0:0,0:0:0:0:
253,291,75527,1,10,0:0:0:0:
154,357,75727,6,0,P|148:303|137:251,1,107.999996704102,2|0,0:0|3:0,0:0:0:0:
369,114,76127,1,2,0:0:0:0:
279,48,76327,6,0,P|252:101|269:157,1,107.999996704102,10|2,0:0|0:0,0:0:0:0:
389,283,76727,2,0,B|436:287|484:260|509:209|509:209|489:241|500:280,1,215.999993408203,2|8,3:2|0:0,0:0:0:0:
277,372,77327,1,2,0:3:0:0:
227,315,77427,1,2,0:3:0:0:
159,347,77527,6,0,B|77:353|118:323|22:333,1,135,4|0,3:2|0:0,0:0:0:0:
16,340,77927,1,10,0:0:0:0:
145,169,78127,1,2,0:0:0:0:
41,139,78327,2,0,L|58:236,1,90,2|0,3:2|0:0,0:0:0:0:
231,100,78727,1,10,0:0:0:0:
145,54,78927,6,0,P|189:14|301:30,1,180,2|2,0:0|0:0,0:0:0:0:
431,180,79527,1,10,0:0:0:0:
434,174,79727,1,2,0:0:0:0:
495,254,79927,5,2,3:2:0:0:
340,198,80127,1,2,0:0:0:0:
465,91,80327,1,8,0:0:0:0:
318,318,80527,1,2,0:3:0:0:
294,311,80627,1,2,0:3:0:0:
277,326,80727,5,4,3:2:0:0:
41,228,80927,2,0,B|75:217|75:217|106:240,1,72,10|0,0:0|0:0,0:0:0:0:
270,336,81127,2,0,L|166:348,1,90,10|0,0:0|3:0,0:0:0:0:
48,218,81527,6,0,B|82:207|82:207|113:230,1,72,10|0,0:0|0:0,0:0:0:0:
277,326,81727,2,0,L|173:338,1,90,10|0,0:0|3:0,0:0:0:0:
95,380,82127,1,6,0:0:0:0:
228,238,82327,5,0,3:0:0:0:
230,231,82527,1,14,0:0:0:0:
42,44,82727,5,10,0:0:0:0:
122,243,82927,1,2,3:2:0:0:
353,0,83127,5,14,0:0:0:0:
161,158,83327,2,0,L|107:149,1,45,8|8,0:3|0:3,0:0:0:0:
157,61,83527,5,10,0:0:0:0:
197,41,83627,1,8,0:0:0:0:
241,41,83727,1,8,0:0:0:0:
279,64,83827,1,8,0:0:0:0:
300,103,83927,5,6,3:2:0:0:
229,312,84127,1,2,0:0:0:0:
306,363,84327,5,10,0:0:0:0:
251,176,84527,1,2,0:0:0:0:
476,266,84727,6,0,L|358:262,1,107.999996704102,2|0,3:2|0:0,0:0:0:0:
251,176,85127,1,8,0:0:0:0:
383,56,85327,6,0,P|416:92|400:161,1,107.999996704102,2|0,0:0|3:0,0:0:0:0:
291,252,85727,1,2,0:0:0:0:
181,54,85927,5,10,0:0:0:0:
332,119,86127,1,2,0:0:0:0:
168,192,86327,5,2,3:2:0:0:
160,198,86527,1,0,0:0:0:0:
0,50,86727,6,0,P|39:18|48:121,1,216,8|0,0:0|0:0,0:0:0:0:
47,127,87127,6,0,P|3:177|15:223,1,107.999996704102,2|2,3:2|0:0,0:0:0:0:
123,357,87527,1,10,0:0:0:0:
242,186,87727,1,2,0:0:0:0:
90,269,87927,5,2,3:2:0:0:
84,272,88027,1,2,0:3:0:0:
79,275,88127,1,2,0:3:0:0:
292,350,88327,1,10,0:0:0:0:
290,113,88527,6,0,P|239:95|183:121,1,107.999996704102,2|0,0:0|3:0,0:0:0:0:
395,237,88927,1,2,0:0:0:0:
315,16,89127,1,10,0:0:0:0:
242,186,89327,1,2,0:0:0:0:
504,104,89527,2,0,B|478:91|455:51|455:51|479:220,1,215.999993408203,2|8,3:2|0:0,0:0:0:0:
415,361,90127,1,2,0:3:0:0:
357,311,90227,1,2,0:3:0:0:
292,350,90327,6,0,P|216:312|224:256,1,135,4|0,3:2|0:0,0:0:0:0:
221,258,90727,1,10,0:0:0:0:
329,89,90927,1,2,0:0:0:0:
237,43,91127,2,0,L|251:149,1,90,2|0,3:2|0:0,0:0:0:0:
77,272,91527,1,10,0:0:0:0:
17,183,91727,6,0,B|88:171|88:171|122:194|122:194|205:182,1,180,2|2,0:0|0:0,0:0:0:0:
351,103,92327,1,10,0:0:0:0:
348,94,92527,1,2,0:0:0:0:
419,186,92727,5,2,3:2:0:0:
252,145,92927,1,2,0:0:0:0:
366,4,93127,1,8,0:0:0:0:
312,253,93327,1,2,0:3:0:0:
313,262,93427,1,2,0:3:0:0:
314,271,93527,5,4,3:2:0:0:
120,183,93727,2,0,P|148:185|178:231,1,72,10|0,0:0|0:0,0:0:0:0:
106,356,93927,2,0,P|81:325|108:269,1,90,10|0,0:0|3:0,0:0:0:0:
126,174,94327,6,0,P|154:176|184:222,1,72,10|0,0:0|0:0,0:0:0:0:
95,360,94527,2,0,P|70:329|97:273,1,90,10|0,0:0|3:0,0:0:0:0:
187,306,94927,1,6,0:0:0:0:
13,197,95127,5,0,3:0:0:0:
1,202,95327,1,10,0:0:0:0:
228,34,95527,5,10,0:0:0:0:
182,207,95727,1,2,3:2:0:0:
89,0,95927,2,0,P|147:63|220:42,1,161.999995056153,14|0,0:0|0:0,0:0:0:0:
228,34,96327,2,0,L|297:43,1,53.9999983520508,10|8,0:0|0:0,0:0:0:0:
429,88,96527,2,0,L|498:79,1,53.9999983520508,8|8,0:0|0:0,0:0:0:0:
308,164,96727,6,0,P|270:207|291:291,1,144,4|2,3:2|0:0,0:0:0:0:
363,347,97327,1,2,3:2:0:0:
459,241,97527,2,0,L|378:236,2,72,10|2|2,0:0|0:0|0:0,0:0:0:0:
308,164,98127,6,0,B|255:158|255:158|222:174|222:174|162:168,1,144,6|2,3:2|3:2,0:0:0:0:
7,89,98727,1,0,0:0:0:0:
98,27,98927,2,0,L|92:116,1,72,2|12,3:2|0:0,0:0:0:0:
0,285,99327,1,10,0:0:0:0:
34,316,99427,1,8,0:0:0:0:
81,317,99527,1,8,0:3:0:0:
118,288,99627,5,8,0:3:0:0:
132,278,99727,1,4,0:3:0:0:
149,274,99827,1,4,0:3:0:0:
162,282,99927,2,0,L|159:337,1,45,0|0,3:0|0:0,0:0:0:0:
171,167,100127,5,10,3:2:0:0:
311,316,100327,1,10,3:2:0:0:
311,316,100727,5,14,3:2:0:0:
371,121,100927,1,10,3:2:0:0:
371,121,101327,6,0,P|323:102|263:157,1,135,14|0,3:2|0:0,0:0:0:0:
263,165,101727,1,2,3:2:0:0:
131,0,101927,1,10,0:0:0:0:
294,67,102127,1,2,3:2:0:0:
30,142,102327,1,10,0:0:0:0:
30,142,102727,6,0,P|89:115|114:220,1,202.500007724762,2|0,0:0|0:0,0:0:0:0:
29,260,103127,6,0,P|60:224|114:234,1,90,4|0,3:2|0:0,0:0:0:0:
255,280,103527,2,0,P|176:265|72:248,1,161.999995056153,10|0,0:0|0:0,0:0:0:0:
52,322,103927,1,0,3:0:0:0:
223,193,104127,1,0,0:0:0:0:
71,73,104327,2,0,P|6:122|42:210,1,161.999995056153,10|0,0:0|0:0,0:0:0:0:
85,244,104727,5,0,3:0:0:0:
296,187,104927,1,2,0:0:0:0:
140,145,105127,1,10,0:0:0:0:
279,309,105327,1,2,0:0:0:0:
334,68,105527,2,0,P|282:68|250:102,1,90,2|0,3:2|0:0,0:0:0:0:
104,144,105927,2,0,P|156:144|188:178,1,90,10|0,0:0|0:0,0:0:0:0:
223,333,106327,6,0,P|232:280|242:218,1,90,4|0,3:2|0:0,0:0:0:0:
305,55,106727,2,0,P|316:128|334:242,1,161.999995056153,10|0,0:0|0:0,0:0:0:0:
399,269,107127,1,0,3:0:0:0:
215,156,107327,1,0,0:0:0:0:
405,67,107527,1,10,0:0:0:0:
287,309,107727,6,0,P|300:224|312:139,1,161.999995056153,2|0,0:0|0:0,0:0:0:0:
283,69,108127,1,2,0:0:0:0:
399,266,108327,1,10,0:0:0:0:
185,178,108527,1,2,0:0:0:0:
381,56,108727,2,0,P|391:116|401:182,1,107.999996704102,2|0,3:2|0:0,0:0:0:0:
443,354,109127,1,10,0:0:0:0:
221,193,109327,1,8,0:3:0:0:
225,184,109427,1,8,0:3:0:0:
230,176,109527,6,0,P|274:169|326:221,1,90,4|0,3:2|0:0,0:0:0:0:
421,354,109927,2,0,P|331:338|338:263,1,161.999995056153,10|0,0:0|0:0,0:0:0:0:
391,221,110327,1,0,3:0:0:0:
509,347,110527,1,0,0:0:0:0:
297,294,110727,2,0,P|229:307|125:324,1,161.999995056153,10|0,0:0|0:0,0:0:0:0:
63,367,111127,5,0,3:2:0:0:
237,216,111327,1,2,0:0:0:0:
57,138,111527,1,10,0:0:0:0:
269,208,111727,1,2,0:0:0:0:
99,336,111927,2,0,P|109:278|118:215,1,90,2|0,3:2|0:0,0:0:0:0:
177,61,112327,2,0,P|187:119|196:182,1,90,10|8,0:0|0:3,0:0:0:0:
254,206,112627,1,8,0:3:0:0:
264,214,112727,6,0,P|318:217|360:188,1,90,4|0,3:2|0:0,0:0:0:0:
409,11,113127,2,0,P|346:26|351:129,1,161.999995056153,10|0,0:0|0:0,0:0:0:0:
416,153,113527,1,4,3:2:0:0:
234,90,113727,1,0,0:0:0:0:
356,283,113927,1,10,0:0:0:0:
471,87,114127,6,0,P|419:63|331:153,1,161.999995056153,6|0,3:2|0:0,0:0:0:0:
307,192,114527,1,2,3:2:0:0:
251,380,114727,1,2,3:2:0:0:
177,83,114927,1,2,3:2:0:0:
413,240,115127,1,10,0:0:0:0:
413,240,115527,6,0,P|358:234|319:274,1,101.250003862381,2|0,0:0|0:0,0:0:0:0:
331,274,115927,6,0,P|257:300|193:255,1,161.999995056153,6|0,3:2|3:2,0:0:0:0:
147,94,116727,1,10,0:0:0:0:
147,94,117327,5,2,3:2:0:0:
53,184,117627,5,0,3:0:0:0:
117,298,117927,5,2,3:2:0:0:
52,259,118127,1,2,3:2:0:0:
53,184,118327,2,0,L|70:87,1,80.9999975280763,10|2,0:0|0:0,0:0:0:0:
193,50,118927,5,2,0:0:0:0:
193,50,119127,2,0,P|260:16|345:34,1,161.999995056153,2|0,3:2|3:0,0:0:0:0:
392,215,119927,1,10,0:0:0:0:
392,215,120527,5,2,3:2:0:0:
394,84,120827,5,0,3:0:0:0:
268,49,121127,5,2,3:2:0:0:
342,32,121327,1,2,3:2:0:0:
394,84,121527,2,0,L|450:164,1,80.9999975280763,10|2,0:0|0:0,0:0:0:0:
338,297,122127,1,8,0:3:0:0:
326,313,122227,1,8,0:3:0:0:
315,330,122327,1,4,3:2:0:0:
319,334,125327,6,0,P|362:295|365:232,1,108,6|0,3:2|0:0,0:0:0:0:
360,230,125727,1,2,3:2:0:0:
222,274,125927,2,0,P|257:276|287:256,1,72,10|2,0:0|3:2,0:0:0:0:
148,215,126327,2,0,L|134:308,1,72,10|8,0:0|0:3,0:0:0:0:
137,286,126627,1,8,0:3:0:0:
137,286,126727,1,8,0:3:0:0:
9,365,126927,1,2,3:2:0:0:
9,365,128127,6,0,L|18:319,1,36,2|2,0:3|0:3,0:0:0:0:
56,261,128327,1,4,3:2:0:0:
56,261,128527,2,0,L|70:220,1,36,2|2,0:0|0:0,0:0:0:0:
138,166,128727,5,6,3:2:0:0:
105,39,128927,1,2,0:0:0:0:
138,166,129127,1,10,0:0:0:0:
324,8,129327,1,2,0:0:0:0:
311,15,129427,1,2,0:0:0:0:
298,20,129527,2,0,P|257:15|201:-1,1,90,2|2,3:2|0:0,0:0:0:0:
297,144,129827,1,2,0:0:0:0:
305,129,129927,2,0,P|354:104|390:114,1,90,8|2,0:0|0:0,0:0:0:0:
477,328,130327,5,2,3:2:0:0:
506,204,130527,1,2,0:0:0:0:
477,328,130727,1,10,0:0:0:0:
288,235,130927,1,2,0:0:0:0:
303,244,131027,1,2,0:0:0:0:
317,251,131127,2,0,L|413:237,1,90,2|2,3:2|0:0,0:0:0:0:
271,348,131427,1,2,0:0:0:0:
250,357,131527,1,8,0:0:0:0:
104,154,131727,6,0,P|78:155|104:148,1,67.5000025749208,2|0,0:0|0:0,0:0:0:0:
210,25,131927,6,0,P|200:71|194:123,1,90,0|2,3:2|0:0,0:0:0:0:
323,267,132327,1,10,0:0:0:0:
190,214,132527,1,0,0:0:0:0:
375,80,132727,6,0,P|413:55|466:73,1,90,2|0,3:2|0:0,0:0:0:0:
508,136,133027,1,2,0:0:0:0:
500,154,133127,2,0,P|490:197|488:257,1,90,8|2,0:0|0:0,0:0:0:0:
413,378,133527,5,4,3:2:0:0:
323,267,133727,1,2,0:0:0:0:
383,186,133927,5,14,0:0:0:0:
271,363,134127,1,2,0:0:0:0:
241,99,134327,5,6,3:2:0:0:
323,267,134527,1,2,0:0:0:0:
241,99,134727,2,0,L|252:188,1,90,14|8,0:0|0:3,0:0:0:0:
464,30,135127,6,0,P|419:2|378:15,1,90,4|2,3:2|0:0,0:0:0:0:
339,90,135427,1,2,0:0:0:0:
343,108,135527,1,10,0:0:0:0:
493,253,135727,2,0,L|502:204,1,45,2|2,0:0|0:0,0:0:0:0:
412,320,135927,5,2,3:2:0:0:
416,338,136027,1,2,0:0:0:0:
420,356,136127,1,2,0:0:0:0:
248,231,136327,2,0,P|209:215|195:218,1,45,10|2,0:0|0:0,0:0:0:0:
330,177,136527,1,2,0:0:0:0:
349,174,136627,1,2,0:0:0:0:
363,165,136727,5,2,3:2:0:0:
224,2,136927,2,0,L|229:51,1,45,2|0,0:0|0:0,0:0:0:0:
120,142,137127,1,10,0:0:0:0:
96,148,137227,1,2,0:0:0:0:
56,137,137327,1,2,0:0:0:0:
27,97,137427,1,2,0:0:0:0:
35,44,137527,5,2,3:2:0:0:
126,13,137727,1,2,0:0:0:0:
246,148,137927,5,10,0:0:0:0:
214,239,138127,1,2,0:0:0:0:
43,368,138327,5,0,3:0:0:0:
21,277,138527,1,2,0:0:0:0:
186,340,138727,2,0,P|228:347|277:323,1,90,10|2,0:0|0:0,0:0:0:0:
421,206,139127,2,0,P|411:250|406:302,1,90,2|0,3:2|0:0,0:0:0:0:
469,373,139427,1,2,0:0:0:0:
488,358,139527,2,0,P|506:315|492:259,1,90,8|2,0:0|0:0,0:0:0:0:
330,108,139927,5,4,3:2:0:0:
239,123,140127,1,2,0:0:0:0:
355,208,140327,5,10,0:0:0:0:
402,34,140527,1,2,0:0:0:0:
239,123,140727,5,2,3:2:0:0:
298,307,140927,1,8,0:3:0:0:
478,252,141127,5,10,0:0:0:0:
456,212,141227,1,8,0:0:0:0:
413,196,141327,1,8,0:3:0:0:
368,200,141427,1,4,0:3:0:0:
354,209,141527,6,0,P|304:229|272:140,1,161.999995056153,6|10,3:2|0:0,0:0:0:0:
340,94,142127,1,2,0:0:0:0:
340,94,142327,2,0,P|348:52|365:16,2,80.9999975280763,0|2|10,3:0|0:0|0:0,0:0:0:0:
266,148,142927,2,0,P|215:117|110:72,1,161.999995056153,2|2,0:0|0:0,0:0:0:0:
18,245,143527,1,8,0:0:0:0:
18,245,143727,2,0,P|92:213|162:172,1,161.999995056153,2|2,0:0|0:0,0:0:0:0:
252,31,144327,1,8,0:0:0:0:
252,31,144527,1,2,0:0:0:0:
412,114,144727,6,0,P|355:119|335:173,1,121.499996292114,4|0,3:2|0:0,0:0:0:0:
354,209,145127,1,10,0:0:0:0:
208,285,145327,1,2,0:0:0:0:
260,221,145527,5,2,3:2:0:0:
93,180,145727,1,2,0:0:0:0:
278,207,145927,1,10,0:0:0:0:
176,281,146127,2,0,P|193:331|265:341,1,121.499996292114,2|0,0:0|0:0,0:0:0:0:
287,321,146527,5,2,0:0:0:0:
450,348,146727,1,10,0:0:0:0:
380,380,146927,1,2,0:0:0:0:
499,226,147127,1,2,3:2:0:0:
391,158,147327,1,2,3:2:0:0:
391,158,147427,1,0,3:0:0:0:
391,158,147527,2,0,L|339:172,1,40.4999987640381,10|0,0:0|0:0,0:0:0:0:
262,104,147727,1,8,0:0:0:0:
262,104,147827,1,8,0:0:0:0:
261,104,147927,6,0,P|216:142|158:134,1,121.499996292114,4|0,3:2|0:0,0:0:0:0:
124,111,148327,2,0,P|47:129|60:210,1,161.999995056153,10|2,0:0|3:2,0:0:0:0:
157,268,148927,1,2,0:0:0:0:
157,268,149127,1,10,0:0:0:0:
27,355,149327,2,0,P|93:324|182:284,1,161.999995056153,2|2,0:0|0:0,0:0:0:0:
210,161,149927,1,8,0:0:0:0:
210,161,150127,2,0,P|159:140|129:227,1,161.999995056153,2|2,0:0|0:0,0:0:0:0:
261,361,150727,1,12,0:0:0:0:
261,361,150827,1,8,0:0:0:0:
261,361,150927,2,0,P|256:304|306:275,1,121.499996292114,8|0,0:3|0:0,0:0:0:0:
349,288,151327,5,14,0:0:0:0:
492,201,151527,2,0,L|477:99,1,90,14|0,0:0|3:0,0:0:0:0:
349,288,151927,5,14,0:0:0:0:
230,185,152127,2,0,P|192:209|105:259,1,135,14|0,0:0|0:0,0:0:0:0:
58,186,152527,2,0,P|94:137|168:146,1,135,14|0,0:0|0:0,0:0:0:0:
230,185,152927,1,10,0:0:0:0:
414,110,153127,1,2,3:2:0:0:
320,37,153327,5,2,3:2:0:0:
313,44,153427,1,0,3:0:0:0:
306,49,153527,2,0,L|313:95,1,45,12|0,0:0|0:0,0:0:0:0:
329,165,153727,2,0,L|336:119,1,45,8|8,0:0|0:0,0:0:0:0:
235,185,153927,2,0,L|242:231,1,45,8|8,0:3|0:3,0:0:0:0:
304,290,154127,5,4,0:3:0:0:
298,309,154227,1,4,0:3:0:0:
292,332,154327,2,0,B|320:307|321:263|287:229|233:224|196:264|196:264|171:297|127:325|80:322|48:299,1,360,2|0,3:2|0:0,0:0:0:0:
26,266,155327,6,0,P|16:277|31:268,1,45,2|0,0:0|0:0,0:0:0:0:
109,232,155527,6,0,P|130:150|203:49,1,202.500007724762,4|0,0:1|0:0,0:0:0:0:
139,10,155927,6,0,P|221:57|338:55,1,161.999995056153,6|0,3:2|0:0,0:0:0:0:
305,38,156327,1,10,0:0:0:0:
280,218,156527,1,2,0:0:0:0:
493,172,156727,2,0,P|465:137|379:120,1,107.999996704102,2|0,3:2|0:0,0:0:0:0:
376,283,157127,1,8,0:0:0:0:
208,141,157327,6,0,L|189:256,1,107.999996704102,2|0,0:0|3:2,0:0:0:0:
324,142,157727,1,2,0:0:0:0:
105,193,157927,1,10,0:0:0:0:
279,218,158127,1,2,0:0:0:0:
113,13,158327,2,0,L|132:128,1,107.999996704102,2|0,3:2|0:0,0:0:0:0:
261,324,158727,2,0,L|278:217,1,107.999996704102,8|0,0:0|0:0,0:0:0:0:
32,163,159127,6,0,P|37:235|76:271,1,107.999996704102,2|2,3:2|0:0,0:0:0:0:
256,128,159527,1,10,0:0:0:0:
105,193,159727,1,2,0:0:0:0:
303,240,159927,2,0,B|354:250|385:223|385:223|412:198|456:205,1,161.999995056153,2|0,3:2|0:0,0:0:0:0:
477,227,160327,1,10,0:0:0:0:
331,50,160527,6,0,L|253:130,1,107.999996704102,2|0,0:0|3:2,0:0:0:0:
417,94,160927,1,2,0:0:0:0:
200,43,161127,1,10,0:0:0:0:
341,159,161327,1,2,0:0:0:0:
105,193,161527,1,2,3:2:0:0:
255,127,161727,1,0,0:0:0:0:
219,358,161927,2,0,B|183:288|183:288|202:183,1,161.999995056153,8|0,0:0|0:0,0:0:0:0:
226,215,162327,6,0,L|402:255,1,161.999995056153,4|0,3:2|0:0,0:0:0:0:
408,238,162727,1,10,0:0:0:0:
345,346,162927,1,2,0:0:0:0:
358,153,163127,2,0,P|412:140|503:206,1,161.999995056153,2|0,3:2|0:0,0:0:0:0:
493,236,163527,1,10,0:0:0:0:
432,53,163727,6,0,L|313:78,1,107.999996704102,2|0,0:0|3:0,0:0:0:0:
80,53,164127,2,0,L|199:78,1,107.999996704102,2|10,0:0|0:0,0:0:0:0:
358,153,164527,1,2,0:0:0:0:
135,179,164727,1,2,3:2:0:0:
277,314,164927,1,2,0:0:0:0:
275,67,165127,2,0,P|278:30|252:78,1,161.999995056153,8|0,0:0|0:0,0:0:0:0:
269,148,165527,5,4,3:2:0:0:
143,264,165727,2,0,P|95:256|70:239,1,53.9999983520508,10|0,0:0|0:0,0:0:0:0:
136,179,165927,2,0,B|189:197|189:197|228:237,1,107.999996704102,10|0,0:0|3:0,0:0:0:0:
413,167,166327,6,0,L|408:91,1,53.9999983520508,8|0,0:0|0:0,0:0:0:0:
357,234,166527,2,0,B|385:237|409:255|409:255|447:236|480:237,1,107.999996704102,8|0,0:0|3:0,0:0:0:0:
269,148,166927,6,0,L|276:355,1,161.999995056153,6|0,0:0|0:0,0:0:0:0:
277,340,167327,1,6,0:0:0:0:
413,167,167527,1,8,0:0:0:0:
186,230,167727,1,0,0:0:0:0:
329,92,167927,5,6,3:2:0:0:
334,55,168027,1,0,3:0:0:0:
312,26,168127,1,4,0:3:0:0:
275,21,168227,1,8,0:3:0:0:
247,44,168327,5,10,0:0:0:0:
222,92,168427,1,8,0:0:0:0:
177,121,168527,1,8,0:0:0:0:
124,123,168627,1,8,0:0:0:0:
77,99,168727,6,0,P|110:160|80:260,1,161.999995056153,6|0,3:2|0:0,0:0:0:0:
64,265,169127,1,10,0:0:0:0:
193,384,169327,1,2,0:0:0:0:
312,173,169527,2,0,L|329:285,1,107.999996704102,2|0,3:2|0:0,0:0:0:0:
194,243,169927,1,8,0:0:0:0:
342,70,170127,6,0,P|398:46|446:78,1,107.999996704102,2|0,0:0|3:0,0:0:0:0:
312,173,170527,1,2,0:0:0:0:
231,8,170727,1,10,0:0:0:0:
434,153,170927,1,2,0:0:0:0:
194,243,171127,2,0,L|204:130,1,107.999996704102,2|0,3:2|0:0,0:0:0:0:
367,238,171527,2,0,L|377:351,1,107.999996704102,8|0,0:0|0:0,0:0:0:0:
115,301,171927,6,0,P|90:251|109:197,1,107.999996704102,2|0,3:2|0:0,0:0:0:0:
367,238,172327,1,10,0:0:0:0:
194,243,172527,1,2,0:0:0:0:
398,102,172727,2,0,B|338:107|338:107|308:138|308:138|236:144,1,161.999995056153,2|0,3:2|0:0,0:0:0:0:
219,131,173127,1,10,0:0:0:0:
449,15,173327,6,0,P|478:33|489:115,1,107.999996704102,2|0,0:0|3:0,0:0:0:0:
367,238,173727,1,2,0:0:0:0:
283,43,173927,1,10,0:0:0:0:
480,189,174127,1,2,0:0:0:0:
243,270,174327,1,2,3:2:0:0:
398,102,174527,1,0,0:0:0:0:
460,347,174727,2,0,P|407:303|316:328,1,161.999995056153,8|0,0:0|0:0,0:0:0:0:
310,352,175127,6,0,L|143:346,1,161.999995056153,4|0,3:2|0:0,0:0:0:0:
119,361,175527,1,10,0:0:0:0:
323,192,175727,1,2,0:0:0:0:
17,133,175927,2,0,P|70:166|66:271,1,161.999995056153,2|0,3:2|0:0,0:0:0:0:
52,282,176327,1,10,0:0:0:0:
135,79,176527,6,0,P|187:60|240:98,1,107.999996704102,2|0,0:0|3:0,0:0:0:0:
324,193,176927,1,2,0:0:0:0:
291,9,177127,1,10,0:0:0:0:
181,221,177327,1,2,0:0:0:0:
294,0,177527,1,2,3:2:0:0:
438,219,177727,2,0,P|386:238|333:200,1,107.999996704102,2|8,0:0|0:0,0:0:0:0:
231,83,178127,1,0,0:0:0:0:
152,285,178327,5,4,3:2:0:0:
17,177,178527,2,0,L|80:171,1,53.9999983520508,10|0,0:0|0:0,0:0:0:0:
231,83,178727,2,0,B|182:63|182:63|128:93,1,107.999996704102,10|0,0:0|3:0,0:0:0:0:
19,187,179127,6,0,L|82:181,1,53.9999983520508,10|0,0:0|0:0,0:0:0:0:
233,93,179327,2,0,B|184:73|184:73|130:103,1,107.999996704102,10|0,0:0|3:0,0:0:0:0:
0,289,179727,6,0,L|171:272,1,161.999995056153,6|0,0:0|0:0,0:0:0:0:
182,249,180127,1,10,0:0:0:0:
294,383,180327,1,10,0:0:0:0:
434,270,180527,1,2,3:2:0:0:
311,96,180727,1,14,0:0:0:0:
300,273,180927,2,0,L|303:208,1,53.9999983520508,8|8,0:3|0:3,0:0:0:0:
392,62,181127,1,10,0:0:0:0:
359,19,181227,1,8,0:0:0:0:
309,2,181327,1,8,0:0:0:0:
257,15,181427,1,8,0:0:0:0:
221,54,181527,6,0,P|184:93|98:84,1,144,4|2,3:2|0:0,0:0:0:0:
21,4,182127,1,2,3:2:0:0:
13,175,182327,2,0,L|15:91,2,72,10|2|2,0:0|0:0|0:0,0:0:0:0:
6,315,182927,6,0,P|37:270|136:285,1,144,6|2,3:2|3:2,0:0:0:0:
182,348,183527,1,0,0:0:0:0:
338,245,183727,1,2,3:2:0:0:
187,146,183927,1,12,0:0:0:0:
275,307,184127,1,10,0:0:0:0:
309,338,184227,1,8,0:0:0:0:
356,339,184327,1,8,0:3:0:0:
393,310,184427,5,8,0:3:0:0:
407,300,184527,1,4,0:3:0:0:
424,296,184627,1,4,0:3:0:0:
437,304,184727,2,0,L|434:359,1,45,0|0,3:0|0:0,0:0:0:0:
448,187,184927,5,10,3:2:0:0:
331,13,185127,1,10,3:2:0:0:
331,13,185527,5,14,3:2:0:0:
240,201,185727,1,10,3:2:0:0:
240,201,186127,6,0,B|189:195|189:195|161:207|161:207|97:203,1,135,14|0,3:2|0:0,0:0:0:0:
94,202,186527,1,2,3:2:0:0:
280,78,186727,1,10,0:0:0:0:
76,200,186927,1,2,3:2:0:0:
314,302,187127,1,10,0:0:0:0:
314,302,187527,6,0,P|373:354|483:299,1,202.500007724762,2|0,0:0|0:0,0:0:0:0:
462,142,187927,6,0,B|422:176|403:222|403:222|393:181|367:113|367:113|345:160|299:204,1,323.999990112305,6|2,3:2|0:0,0:0:0:0:
131,110,189527,6,0,B|126:69|145:26|184:0|184:0|227:13|254:55|259:100|251:103|251:103|244:107|212:95|220:53,1,323.999990112305,2|2,0:0|0:0,0:0:0:0:
0,238,191127,6,0,B|45:246|97:237|143:218|175:164|119:155|23:220|77:293|107:351,1,323.999990112305,6|2,3:2|0:0,0:0:0:0:
307,194,192727,6,0,B|255:188|208:234|259:335|292:269|345:238|357:347|340:416|240:381|220:351,1,323.999990112305,2|2,0:0|0:0,0:0:0:0:
52,145,194327,5,6,3:2:0:0:
52,145,194727,2,0,B|11:214|58:285|161:321|212:104|137:93|101:217|154:276,1,323.999990112305,8|4,0:3|0:3,0:0:0:0:
362,35,195927,5,2,0:0:0:0:
362,35,196327,2,0,B|403:104|356:175|253:211|202:-6|277:-17|313:107|260:166,1,323.999990112305,8|4,0:3|0:3,0:0:0:0:
154,329,197527,5,6,3:2:0:0:
154,329,197927,1,2,3:2:0:0:
250,299,198127,1,10,0:0:0:0:
124,132,198327,5,10,0:0:0:0:
89,251,198527,1,10,0:0:0:0:
54,42,198727,5,10,0:0:0:0:
227,168,198927,2,0,P|314:158|395:151,1,161.999995056153,6|0,3:2|0:0,0:0:0:0:
441,264,199327,6,0,B|469:263|482:271|482:271|475:257|448:246,1,67.5000025749208,8|0,0:0|0:0,0:0:0:0:
321,44,199527,2,0,B|293:45|280:37|280:37|287:51|314:62,1,67.5000025749208,8|0,0:0|0:0,0:0:0:0:
388,151,199727,6,0,B|417:128|422:96|422:96|437:142|393:188,1,161.999995056153,6|0,3:2|0:0,0:0:0:0:
313,248,200127,1,8,0:0:0:0:
305,253,200227,1,8,0:0:0:0:
297,257,200327,2,0,P|265:262|234:253,1,53.9999983520508,8|0,0:3|0:0,0:0:0:0:
144,180,200527,2,0,P|123:154|115:123,1,53.9999983520508,8|0,0:3|0:0,0:0:0:0:
176,58,200727,5,10,3:2:0:0:
33,288,200927,1,10,3:2:0:0:
89,360,201327,5,10,3:2:0:0:
26,95,201527,1,10,3:2:0:0:
67,163,201927,5,10,3:2:0:0:
286,77,202127,1,10,3:2:0:0:
223,25,202527,5,10,3:2:0:0:
134,225,202727,1,10,3:2:0:0:
243,18,203127,5,8,0:3:0:0:
257,12,203227,1,0,0:0:0:0:
270,6,203327,2,0,L|325:23,1,53.9999983520508,8|0,0:3|0:0,0:0:0:0:
400,81,203527,1,4,0:3:0:0:
400,81,203727,2,0,L|369:149,1,53.9999983520508,4|0,0:3|0:0,0:0:0:0:
254,189,203927,5,10,3:2:0:0:
472,146,204127,1,10,3:2:0:0:
431,223,204527,5,10,3:2:0:0:
195,114,204727,1,10,3:2:0:0:
271,66,205127,5,10,3:2:0:0:
180,288,205327,1,10,3:2:0:0:
137,210,205727,5,10,3:2:0:0:
351,353,205927,1,10,3:2:0:0:
123,204,206327,6,0,P|146:156|138:93,1,107.999996704102,10|2,0:0|3:2,0:0:0:0:
71,40,206627,1,0,3:0:0:0:
71,40,206727,1,10,0:0:0:0:
227,138,206927,1,10,0:0:0:0:
227,138,207127,5,10,3:2:0:0:
13,274,207327,1,10,3:2:0:0:
74,211,207727,5,10,3:2:0:0:
340,281,207927,1,10,3:2:0:0:
273,331,208327,5,10,3:2:0:0:
389,135,208527,1,10,3:2:0:0:
348,62,208927,5,10,3:2:0:0:
135,127,209127,1,10,3:2:0:0:
218,52,209327,5,0,3:0:0:0:
234,73,209427,1,0,3:0:0:0:
250,93,209527,2,0,L|234:150,1,53.9999983520508,8|0,0:0|0:0,0:0:0:0:
138,284,209727,2,0,L|122:227,1,53.9999983520508,8|8,0:3|0:3,0:0:0:0:
260,252,209927,1,4,0:3:0:0:
266,271,210027,1,4,0:3:0:0:
276,289,210127,2,0,L|343:274,1,53.9999983520508,0|0,3:0|3:0,0:0:0:0:
441,236,210327,5,10,3:2:0:0:
504,20,210527,1,10,3:2:0:0:
407,56,210927,5,10,3:2:0:0:
497,303,211127,1,10,3:2:0:0:
512,206,211527,5,10,3:2:0:0:
266,271,211727,1,10,3:2:0:0:
43,52,212927,5,0,3:0:0:0:
43,52,213027,1,0,3:0:0:0:
43,52,213127,2,0,P|106:50|140:142,1,161.999995056153,4|0,0:1|0:0,0:0:0:0:
127,124,213527,2,0,B|101:173|101:173|123:228,1,107.999996704102,6|0,3:2|0:0,0:0:0:0:
203,299,213927,1,10,0:0:0:0:
84,299,214127,2,0,L|201:284,1,107.999996704102,2|2,0:0|3:2,0:0:0:0:
427,115,214627,1,2,0:0:0:0:
427,115,214727,2,0,P|441:167|415:218,1,107.999996704102,8|0,0:0|0:0,0:0:0:0:
291,351,215127,5,2,3:2:0:0:
314,329,215227,1,2,0:0:0:0:
294,305,215327,1,2,0:0:0:0:
313,280,215427,1,2,0:0:0:0:
303,261,215527,1,10,0:0:0:0:
303,261,215627,2,0,L|310:204,1,53.9999983520508,2|2,0:0|0:0,0:0:0:0:
159,101,215927,5,2,3:2:0:0:
180,77,216027,1,2,0:0:0:0:
208,96,216127,1,2,0:0:0:0:
229,72,216227,1,2,0:0:0:0:
229,72,216327,2,0,P|242:127|236:183,1,107.999996704102,8|0,0:0|0:0,0:0:0:0:
442,25,216727,6,0,L|333:31,1,107.999996704102,4|2,3:2|0:0,0:0:0:0:
317,21,217027,1,2,0:0:0:0:
317,21,217127,2,0,P|296:70|297:149,1,107.999996704102,8|2,0:0|0:0,0:0:0:0:
343,184,217427,1,2,0:0:0:0:
378,165,217527,1,2,3:2:0:0:
418,171,217627,1,2,0:0:0:0:
450,196,217727,1,2,0:0:0:0:
208,288,217927,6,0,P|267:278|289:240,1,107.999996704102,10|2,0:0|0:0,0:0:0:0:
195,305,218227,1,2,0:0:0:0:
196,303,218327,2,0,L|210:191,1,107.999996704102,0|2,3:0|0:0,0:0:0:0:
288,337,218727,2,0,L|302:225,1,107.999996704102,10|2,0:0|0:0,0:0:0:0:
384,375,219127,5,0,3:0:0:0:
292,341,219327,1,0,0:0:0:0:
200,307,219527,1,8,0:0:0:0:
108,273,219727,1,8,0:3:0:0:
16,239,219927,5,6,3:2:0:0:
47,206,220027,1,2,0:0:0:0:
56,167,220127,1,2,0:0:0:0:
49,134,220227,1,2,0:0:0:0:
32,112,220327,1,10,0:0:0:0:
22,88,220427,1,2,0:0:0:0:
26,72,220527,1,2,0:0:0:0:
37,66,220627,1,2,0:0:0:0:
41,70,220727,6,0,L|98:91,1,53.9999983520508,2|2,3:2|0:0,0:0:0:0:
145,145,220927,2,0,L|202:166,1,53.9999983520508,2|2,0:0|0:0,0:0:0:0:
249,220,221127,1,10,0:0:0:0:
264,216,221227,1,0,0:0:0:0:
279,212,221327,2,0,P|300:266|284:316,1,107.999996704102,2|0,0:0|3:0,0:0:0:0:
176,336,221627,5,2,0:0:0:0:
162,310,221727,1,2,0:0:0:0:
197,323,221827,1,2,0:0:0:0:
213,357,221927,5,10,0:0:0:0:
243,336,222027,1,2,0:0:0:0:
276,333,222127,1,2,0:0:0:0:
309,344,222227,1,2,0:0:0:0:
326,355,222327,1,2,3:2:0:0:
341,363,222427,1,2,0:0:0:0:
354,359,222527,1,2,0:0:0:0:
362,353,222627,1,2,0:0:0:0:
366,357,222727,2,0,P|389:307|388:241,1,107.999996704102,10|8,0:0|0:3,0:0:0:0:
356,182,223027,5,8,0:3:0:0:
356,182,223127,2,0,B|405:159|405:159|467:177,1,107.999996704102,6|2,3:2|0:0,0:0:0:0:
284,30,223527,2,0,B|235:7|235:7|173:25,1,107.999996704102,10|2,0:0|0:0,0:0:0:0:
346,83,223927,2,0,L|478:73,2,107.999996704102,6|2|10,3:2|0:0|0:0,0:0:0:0:
163,5,224527,6,0,B|235:-7|274:79|361:84,1,202.500007724762,6|0,3:2|0:0,0:0:0:0:
361,73,224927,5,2,3:2:0:0:
243,91,225127,5,2,3:2:0:0:
175,206,225327,5,2,3:2:0:0:
138,350,225527,5,10,0:0:0:0:
49,319,225727,5,8,0:0:0:0:
74,277,225827,1,8,0:0:0:0:
50,231,225927,1,8,0:3:0:0:
74,195,226027,1,8,0:3:0:0:
49,169,226127,1,4,0:3:0:0:
67,149,226227,1,4,0:3:0:0:
67,149,226327,2,0,P|218:214|224:325,1,283.499991348267,4|0,3:2|0:0,0:0:0:0:
431,216,227127,2,0,P|280:281|274:392,1,283.499991348267,4|0,3:2|0:0,0:0:0:0:
337,183,227927,6,0,B|349:58|349:58|303:111,1,188.999994232178,6|2,3:2|3:2,0:0:0:0:
239,39,228727,2,0,B|200:9|154:32|158:47|100:101|46:40,1,188.999994232178,8|2,0:0|0:0,0:0:0:0:
0,142,229527,6,0,B|11:221|11:221|-3:252|-3:252|11:338,1,188.999994232178,0|2,3:2|3:2,0:0:0:0:
105,375,230327,1,8,0:0:0:0:
195,311,230527,1,0,3:0:0:0:
195,311,230627,1,8,0:0:0:0:
195,311,230727,1,0,3:0:0:0:
88,169,230927,1,8,0:0:0:0:
204,115,231127,6,0,B|157:72|157:72|176:218,1,188.999994232178,2|2,3:2|3:2,0:0:0:0:
195,311,231927,2,0,P|263:259|372:301,1,188.999994232178,10|2,0:0|0:0,0:0:0:0:
488,358,232727,6,0,P|440:284|455:175,1,188.999994232178,0|2,3:0|3:2,0:0:0:0:
502,118,233527,1,10,0:0:0:0:
444,33,233727,1,0,3:0:0:0:
444,33,233827,1,8,0:0:0:0:
444,33,233927,1,0,3:0:0:0:
304,112,234127,1,8,0:0:0:0:
245,22,234327,6,0,B|207:65|207:65|232:205,1,188.999994232178,4|2,3:2|3:2,0:0:0:0:
330,231,235127,2,0,P|378:256|368:338,1,125.999996154785,8|2,0:0|0:0,0:0:0:0:
277,349,235727,2,0,B|231:347|231:347|204:361|204:361|147:357,1,125.999996154785,2|2,0:0|0:0,0:0:0:0:
52,263,236327,2,0,L|45:338,1,62.9999980773926,2|2,0:0|3:2,0:0:0:0:
173,264,236727,1,10,0:0:0:0:
20,177,236927,1,0,3:0:0:0:
20,177,237027,1,0,3:0:0:0:
20,177,237127,6,0,P|-13:117|104:85,1,215.999993408203,8|0,0:0|0:0,0:0:0:0:
93,73,237727,6,0,L|159:72,1,45,10|0,0:0|0:0,0:0:0:0:
254,25,237927,2,0,P|277:60|260:110,1,90,10|0,0:0|0:0,0:0:0:0:
92,79,238327,6,0,L|158:78,1,45,10|0,0:0|0:0,0:0:0:0:
265,23,238527,2,0,P|288:58|271:108,1,90,10|0,0:0|0:0,0:0:0:0:
225,326,238927,6,0,P|191:266|231:199,1,135,12|0,0:0|0:0,0:0:0:0:
228,204,239327,1,10,0:0:0:0:
368,264,239527,1,10,0:0:0:0:
476,74,239927,5,10,0:0:0:0:
347,154,240127,1,8,0:0:0:0:
170,10,240527,5,8,0:0:0:0:
30,224,240927,5,8,0:0:0:0:
0,51,241127,1,8,0:0:0:0:
221,264,241527,5,8,0:0:0:0:
264,71,241727,1,8,0:0:0:0:
19,307,242127,6,0,B|77:252|138:305|129:319|207:390|267:333,1,269.999991760254,8|0,0:0|0:0,0:0:0:0:
291,323,243327,6,0,P|275:332|293:336,1,45,2|0,0:0|0:0,0:0:0:0:
376,368,243527,6,0,P|449:284|438:189,1,202.500007724762,4|0,0:1|0:0,0:0:0:0:
361,141,243927,6,0,P|299:132|229:122,1,107.999996704102,6|0,3:2|0:0,0:0:0:0:
82,303,244327,1,10,0:0:0:0:
256,208,244527,1,2,0:0:0:0:
100,94,244727,6,0,P|112:144|127:222,1,107.999996704102,2|0,3:2|0:0,0:0:0:0:
164,347,245127,1,8,0:0:0:0:
319,154,245327,6,0,P|274:124|221:129,1,107.999996704102,2|0,0:0|3:2,0:0:0:0:
34,300,245727,1,2,0:0:0:0:
218,237,245927,5,10,0:0:0:0:
50,101,246127,1,2,0:0:0:0:
104,205,246327,5,2,3:2:0:0:
111,209,246527,1,0,0:0:0:0:
229,42,246727,2,0,B|229:12|203:-18|138:-17|109:48|133:100|182:129,1,216,8|0,0:0|0:0,0:0:0:0:
183,129,247127,5,2,3:2:0:0:
399,155,247327,1,2,0:0:0:0:
171,254,247527,5,10,0:0:0:0:
387,280,247727,1,2,0:0:0:0:
263,84,247927,6,0,P|270:132|279:196,1,107.999996704102,2|0,3:2|0:0,0:0:0:0:
307,364,248327,1,10,0:0:0:0:
89,202,248527,6,0,P|135:162|189:170,1,107.999996704102,2|0,0:0|3:2,0:0:0:0:
391,222,248927,1,2,0:0:0:0:
280,278,249127,6,0,P|290:225|300:168,1,107.999996704102,10|2,0:0|0:0,0:0:0:0:
117,307,249527,2,0,B|170:280|228:324|185:344|258:405|329:351,1,215.999993408203,2|8,3:2|0:0,0:0:0:0:
426,204,250127,1,2,0:3:0:0:
379,145,250227,1,2,0:3:0:0:
302,149,250327,6,0,P|267:183|276:278,1,135,4|0,3:2|0:0,0:0:0:0:
280,278,250727,1,10,0:0:0:0:
120,168,250927,1,2,0:0:0:0:
73,272,251127,2,0,P|127:263|190:254,1,90,2|0,3:2|0:0,0:0:0:0:
315,121,251527,1,10,0:0:0:0:
267,39,251727,6,0,P|220:111|250:193,1,180,2|2,0:0|0:0,0:0:0:0:
445,292,252327,1,10,0:0:0:0:
395,211,252527,1,2,0:0:0:0:
355,353,252727,1,2,3:2:0:0:
486,205,252927,1,2,0:0:0:0:
300,133,253127,1,8,0:0:0:0:
366,261,253327,1,2,0:3:0:0:
369,251,253427,1,2,0:3:0:0:
373,242,253527,5,4,3:2:0:0:
250,338,253727,2,0,P|265:350|257:323,1,72,10|0,0:0|0:0,0:0:0:0:
146,295,253927,2,0,P|108:302|38:313,1,90,10|0,0:0|3:0,0:0:0:0:
242,353,254327,6,0,P|257:365|249:338,1,72,10|0,0:0|0:0,0:0:0:0:
138,310,254527,2,0,P|100:317|30:328,1,90,10|0,0:0|3:0,0:0:0:0:
82,229,254927,1,6,0:0:0:0:
246,311,255127,5,0,3:0:0:0:
244,318,255327,1,14,0:0:0:0:
150,141,255527,5,10,0:0:0:0:
61,369,255727,1,2,3:2:0:0:
298,207,255927,5,14,0:0:0:0:
46,74,256127,2,0,B|36:100|36:100|49:129,1,45,8|8,0:3|0:3,0:0:0:0:
178,214,256327,5,10,0:0:0:0:
138,194,256427,1,8,0:0:0:0:
94,194,256527,1,8,0:0:0:0:
56,217,256627,1,8,0:0:0:0:
35,256,256727,6,0,L|46:366,1,107.999996704102,6|0,3:2|0:0,0:0:0:0:
321,350,257127,1,10,0:0:0:0:
121,279,257327,1,2,0:0:0:0:
313,148,257527,6,0,L|302:258,1,107.999996704102,2|0,3:2|0:0,0:0:0:0:
138,194,257927,1,8,0:0:0:0:
273,67,258127,6,0,P|322:50|369:75,1,107.999996704102,2|0,0:0|3:0,0:0:0:0:
496,0,258527,1,2,0:0:0:0:
424,149,258727,5,10,0:0:0:0:
512,221,258927,1,2,0:0:0:0:
445,366,259127,5,2,3:2:0:0:
448,375,259327,1,0,0:0:0:0:
284,232,259527,6,0,P|355:224|307:312,1,216,8|0,0:0|0:0,0:0:0:0:
303,313,259927,6,0,L|172:313,1,107.999996704102,2|0,3:2|0:0,0:0:0:0:
20,241,260327,1,10,0:0:0:0:
183,312,260527,1,2,0:0:0:0:
9,376,260727,5,2,3:2:0:0:
9,376,260827,1,2,0:3:0:0:
9,376,260927,1,2,0:3:0:0:
208,228,261127,1,10,0:0:0:0:
4,134,261327,6,0,L|23:265,1,107.999996704102,2|0,0:0|3:0,0:0:0:0:
96,15,261727,1,2,0:0:0:0:
228,142,261927,1,10,0:0:0:0:
2,122,262127,1,2,0:0:0:0:
212,31,262327,2,0,B|263:-9|320:40|306:54|362:100|420:46,1,215.999993408203,2|8,3:2|0:0,0:0:0:0:
488,205,262927,1,2,0:3:0:0:
509,277,263027,1,2,0:3:0:0:
457,338,263127,6,0,P|411:312|346:354,1,135,4|0,3:2|0:0,0:0:0:0:
345,362,263527,1,10,0:0:0:0:
395,166,263727,1,2,0:0:0:0:
300,135,263927,2,0,L|318:245,1,90,2|0,3:2|0:0,0:0:0:0:
116,297,264327,1,10,0:0:0:0:
168,380,264527,6,0,P|209:327|178:219,1,180,2|2,0:0|0:0,0:0:0:0:
65,109,265127,1,10,0:0:0:0:
71,117,265327,1,2,0:0:0:0:
167,126,265527,5,2,3:2:0:0:
26,29,265727,1,2,0:0:0:0:
14,201,265927,1,8,0:0:0:0:
202,29,266127,1,2,0:3:0:0:
217,30,266227,1,2,0:3:0:0:
232,31,266327,5,4,3:2:0:0:
386,90,266527,2,0,B|350:104|350:104|307:86,1,72,10|0,0:0|0:0,0:0:0:0:
452,11,266727,2,0,P|486:40|485:100,1,90,10|0,0:0|3:0,0:0:0:0:
388,98,267127,6,0,B|352:112|352:112|309:94,1,72,10|0,0:0|0:0,0:0:0:0:
460,5,267327,2,0,P|494:34|493:94,1,90,10|0,0:0|3:0,0:0:0:0:
395,185,267727,1,6,0:0:0:0:
505,357,267927,5,0,3:2:0:0:
501,365,268127,1,10,0:0:0:0:
395,172,268327,1,10,0:0:0:0:
289,366,268527,1,2,3:2:0:0:
512,277,268727,2,0,B|446:273|446:273|421:290|421:290|345:286,1,161.999995056153,14|0,0:0|0:0,0:0:0:0:
344,278,269127,2,0,L|280:284,1,53.9999983520508,10|8,0:0|0:0,0:0:0:0:
186,359,269327,2,0,L|122:353,1,53.9999983520508,8|8,0:0|0:0,0:0:0:0:
179,175,269527,6,0,B|200:216|200:216|175:265,1,90,4|0,3:2|0:0,0:0:0:0:
34,257,269927,2,0,B|12:215|12:215|37:166,1,90,10|0,0:0|0:0,0:0:0:0:
100,30,270327,5,2,3:2:0:0:
100,38,270527,1,2,0:0:0:0:
179,175,270727,1,10,0:0:0:0:
300,71,270927,6,0,L|199:66,1,90,2|0,0:0|3:0,0:0:0:0:
386,18,271327,2,0,B|428:-1|428:-1|482:23,1,90,2|8,0:0|0:0,0:0:0:0:
426,125,271727,1,2,0:0:0:0:
512,303,271927,5,0,3:0:0:0:
510,312,272127,1,2,0:0:0:0:
308,285,272327,5,8,0:0:0:0:
508,206,272527,1,0,0:0:0:0:
295,150,272727,6,0,L|309:305,1,135,4|0,3:2|0:0,0:0:0:0:
308,297,273127,1,10,0:0:0:0:
219,382,273327,1,2,0:0:0:0:
42,261,273527,1,2,3:2:0:0:
127,311,273727,2,0,L|132:222,1,90,2|8,0:0|0:0,0:0:0:0:
51,78,274127,6,0,P|30:111|48:156,1,90,2|0,0:0|3:0,0:0:0:0:
225,36,274527,2,0,L|120:32,1,90,2|8,0:0|0:0,0:0:0:0:
295,121,274927,2,0,B|335:139|335:139|389:118,1,90,2|12,0:0|0:0,0:0:0:0:
488,25,275327,5,10,0:0:0:0:
490,58,275427,1,8,0:0:0:0:
492,92,275527,2,0,L|497:172,1,53.9999983520508,8|8,0:3|0:3,0:0:0:0:
411,254,275727,2,0,L|416:173,1,53.9999983520508,4|4,0:3|0:3,0:0:0:0:
512,345,275927,6,0,B|455:338|455:338|423:353|423:353|357:346,1,144,4|2,3:2|0:0,0:0:0:0:
272,384,276527,1,2,3:2:0:0:
213,228,276727,2,0,P|201:257|218:301,2,72,10|2|2,0:0|0:0|0:0,0:0:0:0:
295,121,277327,6,0,B|348:116|348:116|380:135|380:135|439:131,1,144,6|2,3:2|3:2,0:0:0:0:
512,263,277927,1,0,0:0:0:0:
420,318,278127,2,0,L|414:225,1,72,2|12,3:2|0:0,0:0:0:0:
373,29,278527,1,10,0:0:0:0:
337,32,278627,1,8,0:0:0:0:
301,36,278727,1,8,0:3:0:0:
265,39,278827,5,8,0:3:0:0:
245,40,278927,1,4,0:3:0:0:
226,42,279027,1,4,0:3:0:0:
207,44,279127,2,0,L|152:48,1,45,0|0,3:0|0:0,0:0:0:0:
8,62,279327,5,8,0:0:0:0:
177,157,279527,5,8,0:3:0:0:
180,142,279627,1,8,0:3:0:0:
90,0,279827,5,4,0:3:0:0:
87,15,279927,1,4,0:3:0:0:
3,189,280127,5,8,0:3:0:0:
8,233,280227,1,4,0:3:0:0:
39,256,280327,5,0,3:0:0:0:
35,282,280427,1,8,0:0:0:0:
18,317,280527,5,8,0:0:0:0:
19,330,280627,1,8,0:0:0:0:
19,330,280927,5,10,3:2:0:0:
180,142,281127,1,10,3:2:0:0:
180,142,281527,5,14,3:2:0:0:
262,375,281727,1,10,3:2:0:0:
262,375,282127,6,0,P|224:339|246:265,1,135,14|0,3:2|0:0,0:0:0:0:
256,258,282527,1,2,3:2:0:0:
398,335,282727,1,10,0:0:0:0:
507,195,282927,1,2,3:2:0:0:
408,65,283127,6,0,B|342:10|276:72|284:81|214:157|152:97,1,283.499991348267,14|0,0:0|0:0,0:0:0:0:
13,26,285127,6,0,P|89:53|85:165,1,202.500007724762,2|0,0:0|0:0,0:0:0:0:
83,171,285527,6,0,P|61:228|74:264,1,90,4|0,3:2|0:0,0:0:0:0:
13,357,285927,2,0,P|71:293|145:323,1,161.999995056153,10|0,0:0|0:0,0:0:0:0:
187,382,286327,1,0,3:0:0:0:
332,297,286527,1,0,0:0:0:0:
246,154,286727,2,0,B|199:117|199:117|221:223,1,161.999995056153,10|0,0:0|0:0,0:0:0:0:
238,302,287127,5,0,3:0:0:0:
361,160,287327,1,2,0:0:0:0:
501,372,287527,1,10,0:0:0:0:
357,288,287727,1,2,0:0:0:0:
484,128,287927,2,0,L|475:236,1,90,2|0,3:2|0:0,0:0:0:0:
330,50,288327,2,0,P|371:37|423:72,1,90,10|0,0:0|0:0,0:0:0:0:
249,115,288727,6,0,P|206:136|150:107,1,90,4|0,3:2|0:0,0:0:0:0:
17,15,289127,2,0,P|73:54|57:158,1,161.999995056153,10|0,0:0|0:0,0:0:0:0:
14,207,289527,1,0,3:0:0:0:
167,125,289727,1,0,0:0:0:0:
0,209,289927,1,10,0:0:0:0:
196,296,290127,6,0,B|259:288|259:288|291:306|291:306|355:300,1,161.999995056153,2|0,0:0|0:0,0:0:0:0:
421,356,290527,1,2,0:0:0:0:
512,182,290727,1,10,0:0:0:0:
422,365,290927,1,2,0:0:0:0:
317,160,291127,5,2,3:2:0:0:
408,226,291327,1,0,0:0:0:0:
505,62,291527,5,10,0:0:0:0:
414,128,291727,1,8,0:3:0:0:
261,0,291927,6,0,L|250:101,1,90,4|0,3:2|0:0,0:0:0:0:
156,240,292327,2,0,L|137:68,1,161.999995056153,10|0,0:0|0:0,0:0:0:0:
71,22,292727,1,0,3:0:0:0:
251,89,292927,1,0,0:0:0:0:
16,166,293127,2,0,B|-20:208|-20:208|3:318,1,161.999995056153,10|0,0:0|0:0,0:0:0:0:
69,368,293527,5,0,3:0:0:0:
180,157,293727,1,2,0:0:0:0:
302,355,293927,1,10,0:0:0:0:
85,279,294127,1,2,0:0:0:0:
280,161,294327,6,0,L|269:262,1,90,2|0,3:2|0:0,0:0:0:0:
439,376,294727,2,0,L|428:275,1,90,10|8,0:0|0:3,0:0:0:0:
493,225,295027,1,8,0:3:0:0:
493,225,295127,6,0,P|508:182|482:140,1,90,4|0,3:2|0:0,0:0:0:0:
505,4,295527,2,0,P|454:71|363:45,1,161.999995056153,10|0,0:0|0:0,0:0:0:0:
322,0,295927,1,4,3:2:0:0:
186,136,296127,1,0,0:0:0:0:
350,246,296327,1,10,0:0:0:0:
222,42,296527,6,0,P|167:6|71:37,1,161.999995056153,6|0,3:2|0:0,0:0:0:0:
25,98,296927,1,2,3:2:0:0:
193,219,297127,1,2,3:2:0:0:
12,352,297327,1,2,3:2:0:0:
100,154,297527,1,10,0:0:0:0:
100,154,297927,6,0,B|37:142|-13:196|2:282|78:293|78:293|158:303|209:198|290:293,1,440.999986541748,6|2,3:2|0:3,0:0:0:0:
288,295,299427,1,2,0:3:0:0:
288,295,299527,1,2,0:3:0:0:
443,164,299727,6,0,B|484:126|484:126|475:257,1,161.999995056153,6|0,3:2|0:0,0:0:0:0:
469,320,300127,1,2,3:2:0:0:
266,171,300327,1,2,3:2:0:0:
507,46,300527,1,2,3:2:0:0:
378,248,300727,1,10,0:0:0:0:
256,192,300827,12,0,303127,0:0:0:0:
