osu file format v14

[General]
AudioFilename: IDOL_COLLEGE-Ichizu_Recipe.mp3
AudioLeadIn: 0
PreviewTime: 54533
Countdown: 0
SampleSet: Soft
StackLeniency: 0.9
Mode: 0
LetterboxInBreaks: 0
WidescreenStoryboard: 1

[Editor]
DistanceSpacing: 0.9
BeatDivisor: 4
GridSize: 32
TimelineZoom: 1.6

[Metadata]
Title:Ichizu Recipe (TV Size)
TitleUnicode:イチズレシピ (TV Size)
Artist:Idol College
ArtistUnicode:アイドルカレッジ
Creator:Princess Kisses
Version:Normal
Source:俺がお嬢様学校に『庶民サンプル』としてゲッツされた件
Tags:Shomin Sample OP Opening ore ga ojousama gakkou ni shomin sample toshite gets sareta ken Kisses
BeatmapID:1727086
BeatmapSetID:823918

[Difficulty]
HPDrainRate:4
CircleSize:3.5
OverallDifficulty:5
ApproachRate:6
SliderMultiplier:1.2
SliderTickRate:1

[Events]
//Background and Video events
0,0,"fg.jpg",0,0
//Break Periods
//Storyboard Layer 0 (Background)
//Storyboard Layer 1 (Fail)
//Storyboard Layer 2 (Pass)
//Storyboard Layer 3 (Foreground)
//Storyboard Sound Samples

[TimingPoints]
1430,352.941176470588,4,2,0,60,1,0
12724,-100,4,2,0,75,0,0
24018,-100,4,2,0,60,0,0
28253,-100,4,2,0,30,0,0
29665,-100,4,2,0,60,0,0
55077,-100,4,2,0,75,0,1
76077,-100,4,2,0,65,0,0

[Colours]
Combo1 : 242,238,83
Combo2 : 0,217,217
Combo3 : 254,107,130

[HitObjects]
116,69,1430,6,0,P|165:41|226:49,1,120,6|0,0:0|0:0,0:0:0:0:
275,27,1959,1,2,0:0:0:0:
275,27,2135,2,0,L|260:171,1,120,2|0,0:0|0:0,0:0:0:0:
230,249,2841,2,0,L|90:264,2,120,2|2|2,0:0|0:0|0:0,0:0:0:0:
428,163,4253,6,0,P|370:164|312:132,1,120,2|0,0:0|0:0,0:0:0:0:
270,106,4782,1,2,0:0:0:0:
270,106,4959,2,0,L|284:250,1,120,2|0,0:0|0:0,0:0:0:0:
260,275,5488,2,0,P|339:230|421:252,1,180,2|2,0:0|0:0,0:0:0:0:
455,149,6371,1,2,0:0:0:0:
259,57,7077,6,0,B|400:42,1,120,10|10,0:0|0:0,0:0:0:0:
428,22,7606,1,2,0:0:0:0:
428,22,7782,2,0,P|398:67|405:137,1,120,10|10,0:0|0:0,0:0:0:0:
318,200,8488,6,0,B|198:188,2,120,10|10|10,0:0|0:0|0:0,0:0:0:0:
423,173,9547,1,10,0:0:0:0:
423,173,9900,2,0,P|416:209|414:240,1,60,2|2,0:0|0:0,0:0:0:0:
370,264,10253,2,0,P|374:304|378:331,1,60,2|2,0:0|0:0,0:0:0:0:
411,365,10606,2,0,P|354:342|287:359,1,120,2|2,0:0|0:0,0:0:0:0:
254,376,11135,1,2,0:0:0:0:
446,48,12724,6,0,P|395:79|331:68,1,120,6|2,0:0|1:2,0:0:0:0:
285,56,13253,1,0,0:0:0:0:
235,34,13429,2,0,P|192:2|113:20,1,120,2|0,0:0|1:2,0:0:0:0:
80,32,13959,1,0,0:0:0:0:
52,78,14135,2,0,L|68:218,2,120,2|2|2,0:0|1:2|0:0,0:0:0:0:
153,114,15194,1,2,1:2:0:0:
162,221,15547,6,0,L|279:195,1,120,2|2,0:0|1:2,0:0:0:0:
332,205,16077,1,0,0:0:0:0:
382,224,16253,2,0,P|419:182|414:113,1,120,2|2,0:0|1:2,0:0:0:0:
444,73,16782,2,0,L|324:90,1,120,2|0,0:0|0:0,0:0:0:0:
284,126,17312,2,0,L|224:115,1,60,0|0,1:2|0:0,0:0:0:0:
171,105,17665,1,2,0:0:0:0:
89,176,18018,1,2,1:2:0:0:
89,176,18371,6,0,B|64:38,1,120,2|2,0:0|1:2,0:0:0:0:
178,21,19077,1,2,0:0:0:0:
220,54,19253,2,0,P|235:112|204:172,1,120
194,216,19782,2,0,P|227:210|258:208,1,60,2|0,0:0|0:0,0:0:0:0:
299,237,20135,2,0,P|332:238|362:244,1,60,0|0,1:2|0:0,0:0:0:0:
410,259,20488,2,0,P|379:215|394:141,1,120,2|0,0:0|1:0,0:0:0:0:
413,46,21194,6,0,L|350:32,2,60,2|0|0,0:0|0:0|1:0,0:0:0:0:
466,36,21724,1,2,0:0:0:0:
508,68,21900,2,0,B|485:204,1,120,2|2,0:0|1:2,0:0:0:0:
453,228,22429,2,0,P|442:285|484:337,2,120,2|2|2,0:0|0:0|0:0,0:0:0:0:
422,183,23312,1,2,0:0:0:0:
394,78,23665,1,2,1:2:0:0:
288,98,24018,6,0,P|202:175|81:140,3,240,4|2|2|2,0:0|0:0|0:0|0:0,0:0:0:0:
195,336,26841,2,0,L|460:300,2,240,4|4|0,0:0|0:0|0:0,0:0:0:0:
380,347,29665,6,0,L|402:215,1,120,6|0,0:0|1:0,0:0:0:0:
326,148,30371,2,0,P|274:176|217:162,1,120,2|0,0:0|1:0,0:0:0:0:
147,80,31077,1,2,0:0:0:0:
64,148,31429,1,0,1:0:0:0:
136,228,31782,1,2,0:0:0:0:
136,228,32135,1,0,1:0:0:0:
86,324,32488,6,0,P|147:310|205:302,1,120,2|0,0:0|1:0,0:0:0:0:
271,217,33194,2,0,P|329:210|379:240,1,120,2|0,0:0|1:0,0:0:0:0:
416,280,33724,1,2,0:0:0:0:
468,268,33900,2,0,P|477:208|490:150,1,120,2|0,0:0|1:0,0:0:0:0:
433,57,34606,2,0,P|362:50|326:82,1,120,2|0,0:0|1:0,0:0:0:0:
299,125,35135,1,2,0:0:0:0:
248,104,35312,5,6,0:0:0:0:
248,104,35665,2,0,B|261:223,2,120,0|2|0,1:2|0:0|1:0,0:0:0:0:
153,62,36724,1,2,0:0:0:0:
153,62,37077,1,0,1:0:0:0:
240,0,37429,1,2,0:0:0:0:
334,51,37782,1,2,1:2:0:0:
334,51,37959,1,2,0:0:0:0:
334,51,38135,6,0,P|393:64|454:70,1,120,2|0,0:0|1:0,0:0:0:0:
494,166,38841,2,0,P|434:155|381:183,1,120,2|0,0:0|1:0,0:0:0:0:
288,219,39547,2,0,P|304:258|314:305,1,60,2|0,0:0|0:0,0:0:0:0:
361,286,39900,2,0,P|346:320|336:357,1,60,2|0,0:0|0:0,0:0:0:0:
300,380,40253,1,2,0:0:0:0:
196,190,40959,6,0,P|110:207|16:217,2,180,4|4|0,0:0|0:3|1:0,0:0:0:0:
248,176,42194,1,4,0:3:0:0:
297,272,42547,1,4,0:3:0:0:
297,272,42724,2,0,P|233:324|135:293,1,180,8|4,3:0|0:3,0:0:0:0:
109,260,43429,1,0,1:0:0:0:
208,217,43782,6,0,P|236:165|220:106,1,120,4|2,3:0|0:0,0:0:0:0:
189,64,44312,1,4,3:0:0:0:
226,25,44488,1,4,3:0:0:0:
314,87,44841,2,0,B|444:119|444:119|421:98|421:57,1,180,0|8,1:0|3:0,0:0:0:0:
458,38,45547,1,4,3:0:0:0:
315,0,46077,2,0,P|284:8|242:18,2,60,4|0|4,0:3|1:0|3:0,0:0:0:0:
356,34,46606,6,0,P|289:90|322:184,2,180,6|4|0,0:0|3:0|1:0,0:0:0:0:
410,34,47841,2,0,P|397:97|387:169,1,120,4|4,3:0|3:0,0:0:0:0:
378,205,48371,1,4,3:0:0:0:
303,282,48724,2,0,L|236:261,1,60,0|0,1:0|3:0,0:0:0:0:
195,244,49077,1,0,1:0:0:0:
180,137,49429,6,0,P|232:111|286:132,1,120,4|0,0:0|1:0,0:0:0:0:
389,100,50135,2,0,P|397:72|407:34,2,60,0|0|0,3:0|3:0|1:0,0:0:0:0:
404,207,50841,2,0,P|344:213|279:225,1,120,4|0,0:0|1:0,0:0:0:0:
192,280,51547,2,0,L|179:221,2,60,0|0|0,3:0|3:0|1:0,0:0:0:0:
255,367,52253,6,0,P|323:366|374:318,1,120,6|2,0:0|0:0,0:0:0:0:
408,306,52782,2,0,P|348:301|290:286,2,120,2|2|6,0:0|0:0|0:0,0:0:0:0:
408,306,55077,6,0,P|356:293|288:287,1,120,6|0,0:0|1:0,0:0:0:0:
238,305,55606,1,2,0:0:0:0:
188,283,55782,2,0,P|156:247|160:174,1,120,2|0,0:0|1:0,0:0:0:0:
196,139,56312,1,2,0:0:0:0:
245,159,56488,2,0,P|277:153|330:145,1,60,2|0,0:0|0:0,0:0:0:0:
352,123,56841,2,0,P|409:142|471:154,1,120,2|2,1:2|0:0,0:0:0:0:
407,243,57547,1,0,1:0:0:0:
390,349,57900,6,0,P|451:352|501:301,1,120,2|0,0:0|1:0,0:0:0:0:
485,262,58429,1,2,0:0:0:0:
506,212,58606,2,0,P|491:160|490:93,1,120,2|0,0:0|1:0,0:0:0:0:
451,56,59135,2,0,P|463:34|473:-16,2,60,2|2|0,0:0|0:0|0:0,0:0:0:0:
403,82,59665,1,0,1:0:0:0:
301,44,60018,2,0,P|237:58|157:69,1,120,2|0,0:0|1:0,0:0:0:0:
150,169,60724,6,0,P|208:154|262:184,1,120,6|0,0:0|1:0,0:0:0:0:
312,169,61253,1,2,0:0:0:0:
354,201,61429,2,0,B|331:351,1,120,2|0,0:0|1:0,0:0:0:0:
368,362,61959,1,2,0:0:0:0:
420,349,62135,2,0,P|439:321|453:286,1,60,2|0,0:0|0:0,0:0:0:0:
490,262,62488,2,0,P|480:230|473:191,1,60,2|0,1:2|0:0,0:0:0:0:
487,151,62841,2,0,P|445:184|374:177,1,120,2|0,0:0|1:0,0:0:0:0:
297,111,63547,6,0,L|436:95,2,120,2|0|2,0:0|1:1|0:0,0:0:0:0:
212,179,64606,1,0,1:0:0:0:
308,226,64959,2,0,L|447:210,2,120,2|0|2,0:0|1:1|0:0,0:0:0:0:
223,294,66018,1,0,1:0:0:0:
200,188,66371,6,0,P|149:217|91:206,1,120,6|0,0:0|1:0,0:0:0:0:
59,162,66900,1,2,0:0:0:0:
11,188,67077,2,0,L|27:331,1,120,2|0,0:0|1:0,0:0:0:0:
55,351,67606,1,2,0:0:0:0:
108,351,67782,2,0,L|126:283,1,60,2|0,0:0|0:0,0:0:0:0:
171,269,68135,2,0,L|162:209,1,60,2|0,1:2|0:0,0:0:0:0:
139,160,68488,2,0,P|187:198|243:191,1,120,2|0,0:0|1:0,0:0:0:0:
326,123,69194,6,0,P|266:116|207:105,1,120,2|0,0:0|1:0,0:0:0:0:
167,68,69724,1,2,0:0:0:0:
192,20,69900,2,0,P|242:-7|302:10,1,120,2|0,0:0|1:0,0:0:0:0:
353,6,70429,2,0,P|337:67|325:128,1,120,2|0,0:0|0:0,0:0:0:0:
283,157,70959,2,0,P|295:188|304:229,1,60,2|0,1:2|0:0,0:0:0:0:
323,263,71312,1,2,0:0:0:0:
269,356,71665,1,8,1:2:0:0:
269,356,72018,6,0,B|404:340,1,120,6|0,0:0|1:0,0:0:0:0:
465,266,72724,1,2,0:0:0:0:
465,266,72900,2,0,P|421:230|349:253,1,120,2|0,0:0|0:0,0:0:0:0:
309,251,73429,2,0,P|294:228|286:190,1,60,2|0,0:0|0:0,0:0:0:0:
315,151,73782,2,0,P|324:122|352:91,1,60,2|0,1:2|0:0,0:0:0:0:
374,55,74135,2,0,P|308:70|233:73,1,120,2|0,0:0|1:0,0:0:0:0:
161,21,74841,5,0,1:0:0:0:
171,128,75194,1,0,1:0:0:0:
188,243,75547,1,4,3:0:0:0:
188,243,75724,1,4,3:0:0:0:
188,243,75900,2,0,L|197:330,1,60,4|0,3:0|0:0,0:0:0:0:
194,302,77665,6,0,P|168:259|208:190,1,120,6|0,0:0|1:0,0:0:0:0:
245,187,78194,1,2,0:0:0:0:
295,167,78371,2,0,P|318:113|293:61,1,120,2|0,0:0|1:0,0:0:0:0:
259,18,78900,1,2,0:0:0:0:
209,40,79077,2,0,B|78:57,1,120,2|2,0:0|1:2,0:0:0:0:
49,155,79782,2,0,B|168:139,1,120,2|2,0:0|1:3,0:0:0:0:
237,221,80488,6,0,P|284:257|344:241,1,120,2|2,0:0|1:2,0:0:0:0:
387,219,81018,1,2,0:0:0:0:
432,247,81194,2,0,L|501:236,2,60,2|0|2,0:0|0:0|1:2,0:0:0:0:
421,300,81724,1,2,0:0:0:0:
379,334,81900,2,0,P|275:313|301:206,1,240,2|2,0:0|0:0,0:0:0:0:
458,59,83312,6,0,P|393:108|296:94,1,180,2|0,0:0|0:0,0:0:0:0:
245,90,84018,2,0,P|258:122|267:166,1,60,2|0,0:0|0:0,0:0:0:0:
305,182,84371,2,0,P|292:209|285:238,1,60,2|0,0:0|0:0,0:0:0:0:
294,291,84724,2,0,P|227:242|140:270,1,180,4|0,0:3|0:0,0:0:0:0:
93,296,85429,2,0,P|143:240|94:148,1,180,8|0,3:0|0:0,0:0:0:0:
55,130,86135,5,4,0:3:0:0:
28,26,86488,1,4,0:3:0:0:
136,12,86841,1,4,0:3:0:0:
152,114,87194,1,4,0:3:0:0:
237,48,87547,2,0,L|374:27,2,120,4|0|4,3:0|1:0|3:0,0:0:0:0:
300,135,88606,1,0,1:0:0:0:
254,233,88959,5,4,0:0:0:0:
