osu file format v14

[General]
AudioFilename: IDOL_COLLEGE-Ichizu_Recipe.mp3
AudioLeadIn: 0
PreviewTime: 54533
Countdown: 0
SampleSet: Soft
StackLeniency: 0.9
Mode: 0
LetterboxInBreaks: 0
WidescreenStoryboard: 1

[Editor]
DistanceSpacing: 1.2
BeatDivisor: 4
GridSize: 32
TimelineZoom: 2.3

[Metadata]
Title:Ichizu Recipe (TV Size)
TitleUnicode:イチズレシピ (TV Size)
Artist:Idol College
ArtistUnicode:アイドルカレッジ
Creator:Princess Kisses
Version:Insane
Source:俺がお嬢様学校に『庶民サンプル』としてゲッツされた件
Tags:Shomin Sample OP Opening ore ga ojousama gakkou ni shomin sample toshite gets sareta ken Kisses
BeatmapID:1758030
BeatmapSetID:823918

[Difficulty]
HPDrainRate:6
CircleSize:4
OverallDifficulty:8
ApproachRate:9
SliderMultiplier:1.7
SliderTickRate:1

[Events]
//Background and Video events
0,0,"shomin_background.jpg",0,0
//Break Periods
//Storyboard Layer 0 (Background)
//Storyboard Layer 1 (Fail)
//Storyboard Layer 2 (Pass)
//Storyboard Layer 3 (Foreground)
//Storyboard Sound Samples

[TimingPoints]
1430,352.941176470588,4,2,0,60,1,0
12724,-83.3333333333333,4,2,0,75,0,0
18282,-100,4,2,0,75,0,0
18371,-83.3333333333333,4,2,0,75,0,0
28253,-100,4,2,0,30,0,0
29312,-100,4,2,0,30,0,0
29665,-100,4,2,0,60,0,0
55077,-83.3333333333333,4,2,0,75,0,1
71929,-83.3333333333333,4,2,0,75,0,1
72018,-83.3333333333333,4,2,0,75,0,1
76077,-100,4,2,0,70,0,0
85253,-100,4,2,0,10,0,0
85429,-100,4,3,0,70,0,0
85959,-100,4,2,0,10,0,0
86135,-100,4,3,0,70,0,0

[Colours]
Combo1 : 242,238,83
Combo2 : 0,217,217
Combo3 : 254,107,130

[HitObjects]
39,136,1430,6,0,P|105:89|194:128,1,170,2|0,0:0|0:0,0:0:0:0:
181,245,1959,1,2,0:0:0:0:
181,245,2135,2,0,P|258:271|325:224,1,170,2|0,0:0|0:0,0:0:0:0:
454,123,2664,1,2,0:0:0:0:
454,123,2841,6,0,P|364:117|270:91,2,170,2|2|2,0:0|0:0|0:0,0:0:0:0:
412,271,3724,1,8,0:0:0:0:
412,271,3900,1,8,0:0:0:0:
512,215,4077,1,2,0:0:0:0:
319,207,4253,6,0,P|234:204|160:243,1,170,2|0,0:0|0:0,0:0:0:0:
42,102,4782,1,2,0:0:0:0:
42,102,4959,2,0,P|116:133|189:72,1,170,2|0,0:0|0:0,0:0:0:0:
332,21,5488,6,0,P|322:68|315:116,2,85,2|0|0,0:0|0:0|0:0,0:0:0:0:
202,71,6018,1,2,0:0:0:0:
305,208,6194,1,2,0:0:0:0:
399,150,6371,1,2,0:0:0:0:
436,310,6547,1,8,3:0:0:0:
443,316,6635,1,8,3:0:0:0:
443,315,6724,2,0,L|346:293,1,85,8|0,3:0|0:0,0:0:0:0:
410,60,7077,6,0,P|478:105|480:187,1,170,10|8,0:0|0:0,0:0:0:0:
230,171,7606,1,2,0:0:0:0:
230,171,7782,2,0,P|306:159|404:149,1,170,10|8,0:0|0:0,0:0:0:0:
264,56,8312,1,0,0:0:0:0:
154,248,8488,6,0,P|128:211|122:169,1,85,8|0,0:0|0:0,0:0:0:0:
49,24,8841,2,0,P|41:65|16:99,1,85,8|0,0:0|0:0,0:0:0:0:
0,337,9194,2,0,L|109:321,1,85,8|0,0:0|0:0,0:0:0:0:
268,211,9547,2,0,P|257:258|246:309,1,85,8|0,0:0|0:0,0:0:0:0:
372,357,9900,5,0,3:3:0:0:
372,357,10077,1,0,3:3:0:0:
154,259,10253,1,0,3:3:0:0:
154,259,10429,1,0,3:3:0:0:
265,52,10606,1,0,3:3:0:0:
381,229,10782,1,0,3:3:0:0:
461,98,10959,1,0,3:3:0:0:
171,135,11135,1,0,3:3:0:0:
464,178,12371,5,8,0:0:0:0:
464,178,12724,6,0,P|365:208|293:133,1,203.999993774414,6|0,0:0|1:0,0:0:0:0:
19,58,13253,1,2,0:0:0:0:
19,58,13429,2,0,B|99:48|99:48|136:72|136:72|231:58,1,203.999993774414,2|0,0:0|1:0,0:0:0:0:
52,175,13959,1,2,0:0:0:0:
188,341,14135,6,0,P|216:305|222:232,1,101.999996887207,2|0,0:0|0:0,0:0:0:0:
332,108,14488,1,2,1:2:0:0:
392,249,14665,1,2,0:0:0:0:
441,76,14841,2,0,L|340:90,1,101.999996887207,2|8,0:0|0:0,0:0:0:0:
429,341,15194,1,8,1:2:0:0:
500,205,15371,1,2,0:0:0:0:
296,350,15547,6,0,P|296:251|220:188,1,203.999993774414,2|0,0:0|1:0,0:0:0:0:
21,50,16077,1,2,0:0:0:0:
21,50,16253,2,0,P|75:66|233:6,1,203.999993774414,2|0,0:0|1:0,0:0:0:0:
432,68,16782,6,0,L|308:87,1,101.999996887207,2|0,0:0|0:0,0:0:0:0:
204,191,17135,1,2,0:0:0:0:
360,336,17312,1,2,1:2:0:0:
204,166,17488,1,2,0:0:0:0:
47,348,17665,2,0,L|193:325,1,101.999996887207,2|0,0:0|0:0,0:0:0:0:
439,294,18018,2,0,P|381:250|307:268,1,152.999995330811,0|0,1:0|0:0,0:0:0:0:
289,273,18371,6,0,L|308:164,1,101.999996887207,6|0,0:0|0:0,0:0:0:0:
70,33,18724,2,0,L|89:137,1,101.999996887207,2|0,1:2|0:0,0:0:0:0:
197,338,19077,1,2,0:0:0:0:
197,338,19253,2,0,L|69:358,1,101.999996887207,2|0,0:0|1:0,0:0:0:0:
214,148,19606,6,0,P|277:81|376:108,1,203.999993774414,2|0,0:0|0:0,0:0:0:0:
456,329,20135,2,0,L|355:311,1,101.999996887207,2|0,1:2|0:0,0:0:0:0:
97,182,20488,2,0,P|208:184|296:233,1,203.999993774414,2|0,0:0|1:0,0:0:0:0:
482,55,21018,6,0,P|412:114|300:73,1,203.999993774414,2|0,0:0|0:0,0:0:0:0:
176,47,21547,1,2,1:2:0:0:
200,219,21724,1,2,0:0:0:0:
13,163,21900,2,0,L|122:143,1,101.999996887207,2|0,0:0|0:0,0:0:0:0:
285,80,22253,1,2,1:2:0:0:
152,30,22429,1,2,0:0:0:0:
302,223,22606,6,0,P|288:276|277:330,1,101.999996887207,0|0,3:3|0:0,0:0:0:0:
279,332,22871,1,0,3:0:0:0:
278,342,22959,1,0,3:0:0:0:
401,377,23135,1,0,3:0:0:0:
169,247,23312,1,0,3:0:0:0:
355,127,23488,1,0,3:3:0:0:
355,127,23577,1,0,3:3:0:0:
355,127,23665,1,0,3:3:0:0:
234,66,23841,1,0,3:3:0:0:
311,252,24018,6,0,P|405:221|509:212,3,203.999993774414,6|0|0|0,0:0|0:0|0:0|0:0,0:0:0:0:
212,48,25429,2,0,P|153:117|48:105,3,203.999993774414,2|0|2|0,0:0|0:0|0:0|0:0,0:0:0:0:
239,264,26841,6,0,B|350:296|428:199|428:199|399:262|404:311|404:311|447:308|494:347,2,407.999987548829,4|4|0,0:3|0:3|0:0,0:0:0:0:
296,105,29312,5,8,0:0:0:0:
296,105,29488,1,8,0:0:0:0:
248,224,29665,6,0,L|146:200,1,85,4|0,0:0|0:0,0:0:0:0:
287,348,30018,2,0,P|328:337|375:331,1,85,4|0,1:3|0:0,0:0:0:0:
492,182,30371,2,0,P|461:215|458:268,1,85,4|0,3:0|0:0,0:0:0:0:
362,163,30724,2,0,P|356:124|348:75,1,85,4|0,1:3|0:0,0:0:0:0:
147,17,31077,6,0,P|180:41|245:36,1,85,4|0,0:3|0:0,0:0:0:0:
421,0,31429,1,4,1:3:0:0:
421,0,31606,1,0,3:0:0:0:
472,192,31782,2,0,L|484:107,1,85,4|0,3:0|0:0,0:0:0:0:
343,244,32135,2,0,L|357:159,1,85,4|0,1:3|0:0,0:0:0:0:
246,327,32488,6,0,P|168:353|103:304,2,170,4|4|4,3:0|1:3|3:0,0:0:0:0:
343,244,33371,1,2,0:0:0:0:
264,146,33547,2,0,P|226:143|181:129,1,85,2|0,1:2|0:0,0:0:0:0:
75,211,33900,5,2,0:0:0:0:
45,53,34077,1,2,0:0:0:0:
75,238,34253,2,0,L|193:221,1,85,2|0,1:2|0:0,0:0:0:0:
267,336,34606,1,2,0:0:0:0:
309,184,34782,1,2,0:0:0:0:
268,362,34959,2,0,P|225:355|183:346,1,85,2|0,1:2|0:0,0:0:0:0:
421,294,35312,5,4,0:3:0:0:
421,294,35665,2,0,L|445:188,1,85,4|0,1:3|0:0,0:0:0:0:
339,30,36018,2,0,P|359:69|363:112,1,85,4|0,3:0|0:0,0:0:0:0:
178,209,36371,2,0,L|290:188,1,85,4|0,1:3|0:0,0:0:0:0:
180,334,36724,6,0,P|141:332|97:308,1,85,4|0,3:0|0:0,0:0:0:0:
44,179,37077,1,4,1:3:0:0:
44,179,37253,1,0,3:0:0:0:
173,31,37429,2,0,L|156:125,1,85,4|0,3:0|0:0,0:0:0:0:
276,109,37782,2,0,L|260:201,1,85,4|0,1:3|0:0,0:0:0:0:
367,54,38135,6,0,P|432:5|520:34,2,170,4|4|0,3:0|1:3|3:0,0:0:0:0:
450,97,39018,1,0,3:0:0:0:
262,11,39194,2,0,P|221:25|179:28,1,85,4|0,1:3|0:0,0:0:0:0:
285,186,39547,5,4,3:0:0:0:
359,39,39724,1,6,3:0:0:0:
492,180,39900,1,4,3:0:0:0:
250,110,40077,1,8,3:0:0:0:
250,110,40165,1,8,0:3:0:0:
250,110,40253,1,8,3:0:0:0:
378,165,40429,1,2,3:0:0:0:
290,278,40606,1,2,3:0:0:0:
396,333,40782,1,2,3:0:0:0:
184,203,40959,6,0,P|211:139|145:53,1,170,4|0,3:3|0:0,0:0:0:0:
37,154,41488,1,4,0:3:0:0:
37,154,41577,1,4,0:3:0:0:
37,154,41665,2,0,P|81:146|121:140,1,85,4|0,0:3|0:0,0:0:0:0:
274,347,42018,1,0,1:0:0:0:
209,272,42194,2,0,P|173:255|111:248,1,85,4|0,3:0|0:0,0:0:0:0:
324,186,42547,5,4,3:3:0:0:
324,186,42724,2,0,P|410:198|482:138,1,170,8|8,3:0|1:0,0:0:0:0:
382,91,43253,1,8,0:0:0:0:
185,133,43429,1,8,0:0:0:0:
276,17,43606,1,8,0:0:0:0:
133,219,43782,6,0,P|139:133|87:71,1,170,4|0,0:3|0:0,0:0:0:0:
11,170,44312,1,4,3:0:0:0:
11,170,44400,1,4,3:0:0:0:
11,170,44488,1,4,3:0:0:0:
50,281,44665,1,0,3:0:0:0:
15,30,44841,1,0,1:0:0:0:
147,132,45018,2,0,P|231:126|313:103,1,170,4|8,3:0|3:0,3:0:0:0:
512,55,45547,6,0,P|457:4|367:24,1,170,4|0,3:0|0:0,0:0:0:0:
430,89,46077,1,4,3:0:0:0:
343,238,46253,1,0,1:0:0:0:
486,208,46429,1,4,0:3:0:0:
281,91,46606,6,0,P|198:74|94:61,1,170,4|0,0:3|0:3,0:0:0:0:
10,204,47135,1,4,3:0:0:0:
10,204,47224,1,4,3:0:0:0:
10,204,47312,2,0,P|51:201|106:180,1,85,4|0,3:0|0:0,0:0:0:0:
304,271,47665,1,0,1:0:0:0:
273,357,47841,2,0,P|173:349|145:273,1,170,4|4,3:0|3:0,0:0:0:0:
261,171,48371,1,4,0:3:0:0:
261,171,48724,5,0,1:0:0:0:
400,135,48900,1,8,1:2:0:0:
260,170,49077,2,0,P|268:100|280:27,1,127.5,0|0,1:1|0:0,0:0:0:0:
257,25,49429,6,0,P|210:19|161:-5,1,85,4|0,0:0|0:0,0:0:0:0:
6,104,49782,2,0,L|101:84,1,85,4|0,1:3|0:0,0:0:0:0:
172,209,50135,1,0,3:0:0:0:
172,209,50224,1,0,3:0:0:0:
172,209,50312,1,0,3:0:0:0:
65,324,50488,2,0,L|49:240,1,85,4|0,1:3|0:0,0:0:0:0:
133,0,50841,6,0,P|120:53|111:92,1,85,4|0,0:0|0:0,0:0:0:0:
276,154,51194,2,0,P|319:145|384:137,1,85,4|0,1:3|0:0,0:0:0:0:
402,25,51547,1,0,3:3:0:0:
402,25,51635,1,0,3:0:0:0:
402,25,51724,1,0,3:0:0:0:
487,188,51900,2,0,L|462:283,1,85,4|0,1:3|0:0,0:0:0:0:
286,44,52253,5,0,1:0:0:0:
485,101,52429,1,4,0:3:0:0:
485,101,52606,1,0,1:0:0:0:
343,323,52782,1,4,3:0:0:0:
222,154,53135,1,4,3:0:0:0:
65,325,53488,1,0,1:0:0:0:
65,325,55077,6,0,P|174:313|286:286,1,203.999993774414,4|0,0:0|1:0,0:0:0:0:
512,144,55606,1,2,0:0:0:0:
512,144,55782,2,0,P|444:212|343:174,1,203.999993774414,2|0,0:0|1:0,0:0:0:0:
421,119,56312,1,2,0:0:0:0:
386,353,56488,5,2,0:0:0:0:
500,226,56665,1,2,0:0:0:0:
263,210,56841,2,0,P|212:224|162:235,1,101.999996887207,2|0,1:2|0:0,0:0:0:0:
10,78,57194,1,2,0:0:0:0:
238,27,57371,1,8,0:0:0:0:
238,27,57547,1,8,1:2:0:0:
100,0,57724,1,2,0:0:0:0:
313,111,57900,6,0,P|418:103|506:52,1,203.999993774414,2|0,0:0|1:0,0:0:0:0:
508,302,58429,1,2,0:0:0:0:
508,302,58606,2,0,P|447:243|322:258,1,203.999993774414,2|0,0:0|1:0,0:0:0:0:
153,130,59135,6,0,L|186:345,1,203.999993774414,2|0,0:0|0:0,0:0:0:0:
318,255,59665,2,0,L|335:134,1,101.999996887207,2|0,1:2|0:0,0:0:0:0:
297,27,60018,1,2,0:0:0:0:
124,126,60194,1,8,0:0:0:0:
124,126,60371,1,8,1:2:0:0:
205,231,60547,1,2,0:0:0:0:
27,78,60724,6,0,P|103:17|196:48,1,203.999993774414,6|0,0:0|1:0,0:0:0:0:
456,186,61253,1,2,0:0:0:0:
456,186,61429,2,0,P|386:118|294:159,1,203.999993774414,2|0,0:0|1:0,0:0:0:0:
207,243,61959,1,2,0:0:0:0:
291,32,62135,5,2,0:0:0:0:
370,206,62312,1,2,0:0:0:0:
208,121,62488,1,2,1:2:0:0:
404,75,62665,1,2,0:0:0:0:
205,15,62841,2,0,P|114:40|2:59,1,203.999993774414,2|0,0:0|1:0,0:0:0:0:
162,321,63371,6,0,P|90:312|56:192,1,203.999993774414,2|0,0:0|0:0,0:0:0:0:
138,233,63900,2,0,P|238:255|340:266,2,203.999993774414,2|2|0,1:2|0:0|1:0,0:0:0:0:
367,34,64782,6,0,P|446:90|409:194,1,203.999993774414,2|0,0:0|0:0,0:0:0:0:
500,382,65312,2,0,P|492:333|485:281,1,101.999996887207,2|0,1:2|0:0,0:0:0:0:
367,120,65665,1,2,0:0:0:0:
273,317,65841,1,8,0:0:0:0:
273,317,66018,1,8,1:2:0:0:
112,173,66194,1,2,0:0:0:0:
183,370,66371,6,0,L|406:344,1,203.999993774414,6|0,0:0|1:0,0:0:0:0:
70,264,66900,1,2,0:0:0:0:
70,264,67077,2,0,P|14:187|56:88,1,203.999993774414,2|0,0:0|1:0,0:0:0:0:
311,101,67606,1,2,0:0:0:0:
112,173,67782,5,2,0:0:0:0:
210,281,67959,1,2,0:0:0:0:
204,85,68135,2,0,P|300:69|415:56,1,203.999993774414,2|0,1:2|0:0,0:0:0:0:
229,0,68665,1,8,0:0:0:0:
229,0,68841,1,8,1:2:0:0:
261,187,69018,1,2,0:0:0:0:
117,20,69194,6,0,P|19:61|28:162,1,203.999993774414,2|0,0:0|1:0,0:0:0:0:
222,271,69724,1,2,0:0:0:0:
222,271,69900,2,0,L|20:304,1,203.999993774414,2|0,0:0|1:0,0:0:0:0:
99,107,70429,6,0,P|149:126|204:141,1,101.999996887207,2|2,0:0|0:0,0:0:0:0:
388,179,70782,1,0,0:0:0:0:
307,23,70959,1,2,1:2:0:0:
369,204,71135,1,2,0:0:0:0:
490,64,71312,2,0,L|365:86,1,101.999996887207,2|0,0:0|0:0,0:0:0:0:
279,291,71665,2,0,P|244:230|268:135,1,152.999995330811,0|0,1:2|0:0,0:0:0:0:
245,130,72018,6,0,P|195:125|146:106,1,101.999996887207,6|0,0:0|0:0,0:0:0:0:
0,298,72371,2,0,P|49:284|99:278,1,101.999996887207,2|0,1:2|0:0,0:0:0:0:
352,222,72724,1,2,0:0:0:0:
352,222,72900,2,0,L|332:322,1,101.999996887207,2|0,0:0|1:0,0:0:0:0:
512,109,73253,6,0,P|453:40|348:72,1,203.999993774414,2|0,0:0|0:0,0:0:0:0:
150,56,73782,2,0,P|207:48|275:34,1,101.999996887207,2|0,1:2|0:0,0:0:0:0:
208,239,74135,2,0,L|-8:192,1,203.999993774414,2|0,0:0|1:0,0:0:0:0:
127,46,74665,1,2,0:0:0:0:
327,109,74841,6,0,L|301:228,1,101.999996887207,4|0,1:2|0:0,0:0:0:0:
32,17,75194,2,0,L|52:117,1,101.999996887207,0|0,1:0|0:0,0:0:0:0:
213,18,75547,1,4,1:3:0:0:
411,241,75724,1,4,0:3:0:0:
473,82,75900,1,4,1:3:0:0:
203,183,76077,5,2,3:3:0:0:
256,192,76253,12,0,77488,0:0:0:0:
203,183,77665,5,4,0:0:0:0:
344,243,77841,1,2,0:0:0:0:
344,243,77929,1,2,0:0:0:0:
344,243,78018,2,0,L|322:348,1,85,2|0,1:2|0:0,0:0:0:0:
306,137,78371,1,2,0:0:0:0:
306,137,78459,1,2,0:0:0:0:
306,137,78547,1,2,0:0:0:0:
444,199,78724,1,0,1:0:0:0:
250,247,78900,1,0,3:3:0:0:
369,59,79077,5,2,0:2:0:0:
327,30,79165,1,2,0:0:0:0:
276,26,79253,1,2,0:0:0:0:
230,48,79341,1,2,0:0:0:0:
201,90,79430,1,0,1:0:0:0:
8,217,79782,5,2,0:2:0:0:
50,188,79870,1,2,0:0:0:0:
101,184,79958,1,2,0:0:0:0:
147,206,80046,1,2,0:0:0:0:
176,248,80135,1,0,1:0:0:0:
362,180,80488,5,2,0:0:0:0:
291,329,80665,1,2,0:0:0:0:
291,329,80753,1,2,0:0:0:0:
291,329,80841,1,0,1:0:0:0:
246,211,81018,1,2,0:0:0:0:
434,284,81194,5,2,3:0:0:0:
478,142,81371,1,2,2:2:0:0:
434,284,81547,5,2,1:3:0:0:
478,142,81724,1,2,0:2:0:0:
235,194,81900,5,2,0:0:0:0:
204,149,81988,5,2,0:0:0:0:
209,96,82076,5,2,0:0:0:0:
246,58,82164,5,2,0:0:0:0:
299,53,82252,5,2,1:2:0:0:
343,82,82341,5,2,0:0:0:0:
357,133,82429,5,2,0:0:0:0:
337,183,82517,5,2,0:0:0:0:
290,206,82606,6,0,L|301:293,1,85,2|0,0:0|0:0,0:0:0:0:
186,361,82959,2,0,L|175:276,1,85,0|0,1:0|0:0,0:0:0:0:
79,234,83224,1,0,3:0:0:0:
62,216,83312,6,0,B|48:187|50:161|50:161|66:115|134:92|134:92|77:80|64:18,1,255,4|0,0:3|3:0,0:0:0:0:
150,6,83929,1,0,3:0:0:0:
174,23,84018,2,0,L|277:5,1,85,4|0,3:0|0:0,0:0:0:0:
442,36,84371,2,0,L|358:49,1,85,0|0,1:0|0:0,0:0:0:0:
245,190,84724,6,0,P|323:136|317:256,1,255,4|0,0:3|0:0,0:0:0:0:
80,302,85429,2,0,B|120:277|128:211|128:211|153:277|193:302|249:304,1,255,4|4,0:3|0:3,0:0:0:0:
446,40,86135,6,0,L|356:54,1,85,6|0,0:0|0:0,0:0:0:0:
70,53,86488,2,0,P|114:65|156:76,1,85,6|0,0:3|0:0,0:0:0:0:
424,227,86841,2,0,P|380:202|337:195,1,85,6|0,0:0|0:0,0:0:0:0:
87,278,87194,2,0,P|128:272|166:253,1,85,6|0,0:0|0:0,0:0:0:0:
508,274,87547,6,0,P|460:321|354:297,2,170,4|0|4,3:0|1:0|3:0,0:0:0:0:
471,57,88606,1,0,1:0:0:0:
256,174,88959,5,4,0:2:0:0:
