osu file format v14

[General]
AudioFilename: IDOL_COLLEGE-Ichizu_Recipe.mp3
AudioLeadIn: 0
PreviewTime: 54533
Countdown: 0
SampleSet: Soft
StackLeniency: 0.9
Mode: 0
LetterboxInBreaks: 0
WidescreenStoryboard: 1

[Editor]
DistanceSpacing: 1.2
BeatDivisor: 4
GridSize: 32
TimelineZoom: 2.3

[Metadata]
Title:Ichizu Recipe (TV Size)
TitleUnicode:イチズレシピ (TV Size)
Artist:Idol College
ArtistUnicode:アイドルカレッジ
Creator:Princess Kisses
Version:Hard
Source:俺がお嬢様学校に『庶民サンプル』としてゲッツされた件
Tags:Shomin Sample OP Opening ore ga ojousama gakkou ni shomin sample toshite gets sareta ken Kisses
BeatmapID:1726496
BeatmapSetID:823918

[Difficulty]
HPDrainRate:5
CircleSize:3.6
OverallDifficulty:6
ApproachRate:8
SliderMultiplier:1.5
SliderTickRate:1

[Events]
//Background and Video events
0,0,"shomin_background.jpg",0,0
//Break Periods
//Storyboard Layer 0 (Background)
//Storyboard Layer 1 (Fail)
//Storyboard Layer 2 (Pass)
//Storyboard Layer 3 (Foreground)
//Storyboard Sound Samples

[TimingPoints]
1430,352.941176470588,4,2,0,60,1,0
12724,-100,4,2,0,75,0,0
18282,-100,4,2,0,75,0,0
18371,-100,4,2,0,75,0,0
24018,-100,4,2,0,40,0,0
28253,-100,4,2,0,30,0,0
29665,-100,4,2,0,60,0,0
44665,-100,4,2,0,10,0,0
44841,-100,4,2,0,60,0,0
55077,-100,4,2,0,75,0,1
71929,-100,4,2,0,75,0,1
72018,-100,4,2,0,75,0,1
76077,-100,4,2,0,70,0,0
85253,-100,4,2,0,10,0,0
85429,-100,4,2,0,70,0,0
85959,-100,4,2,0,10,0,0
86135,-100,4,2,0,70,0,0

[Colours]
Combo1 : 242,238,83
Combo2 : 0,217,217
Combo3 : 254,107,130

[HitObjects]
213,146,1430,6,0,P|273:106|345:135,1,150,2|0,0:0|0:0,0:0:0:0:
325,219,1959,1,2,0:0:0:0:
325,219,2135,2,0,P|385:259|457:230,1,150,2|0,0:0|0:0,0:0:0:0:
502,165,2665,1,2,0:0:0:0:
502,165,2841,6,0,B|489:333,2,150,2|0|0,0:0|0:0|0:0,0:0:0:0:
356,57,3900,1,8,0:0:0:0:
205,156,4253,6,0,P|256:203|242:292,1,150,2|0,0:0|0:0,0:0:0:0:
165,306,4782,1,2,0:0:0:0:
165,306,4959,2,0,P|114:259|128:170,1,150,2|0,0:0|0:0,0:0:0:0:
199,142,5488,6,0,L|49:127,1,150,2|0,0:0|0:0,0:0:0:0:
16,42,6018,2,0,L|90:48,2,75,2|2|0,0:0|0:0|0:0,0:0:0:0:
80,210,6724,1,8,0:0:0:0:
249,38,7077,6,0,P|307:81|299:156,1,150,10|8,0:0|0:0,0:0:0:0:
226,203,7606,1,2,0:0:0:0:
226,203,7782,2,0,L|400:188,1,150,10|8,0:0|0:0,0:0:0:0:
415,271,8312,1,2,0:0:0:0:
415,271,8488,6,0,L|331:278,1,75,10|0,0:0|0:0,0:0:0:0:
269,333,8841,2,0,P|235:319|196:317,1,75,10|0,0:0|0:0,0:0:0:0:
125,371,9194,2,0,P|73:341|78:252,1,150,10|8,0:0|0:0,0:0:0:0:
234,178,9900,5,0,3:0:0:0:
138,25,10253,1,0,3:0:0:0:
234,178,10606,1,0,3:0:0:0:
305,123,10782,1,0,3:0:0:0:
371,183,10959,1,0,3:0:0:0:
459,169,11135,1,0,3:0:0:0:
256,283,12371,5,8,1:2:0:0:
256,283,12724,6,0,P|199:237|119:263,1,150,6|0,0:0|1:0,0:0:0:0:
97,338,13253,1,2,0:0:0:0:
97,338,13429,2,0,L|82:188,1,150,2|0,0:0|1:0,0:0:0:0:
162,145,13959,1,2,0:0:0:0:
55,37,14135,6,0,P|91:43|124:61,1,75,2|0,0:0|0:0,0:0:0:0:
206,24,14488,2,0,P|242:17|275:0,2,75,2|0|0,1:2|0:0|0:0,0:0:0:0:
196,114,15018,1,8,0:0:0:0:
277,151,15194,1,8,1:2:0:0:
277,151,15371,1,2,0:0:0:0:
199,196,15547,6,0,L|49:213,1,150,2|0,0:0|1:0,0:0:0:0:
118,293,16077,1,2,0:0:0:0:
118,293,16253,2,0,L|267:275,1,150,2|0,0:0|1:0,0:0:0:0:
451,314,16782,6,0,P|403:360|327:338,1,150,0|2,0:0|0:0,0:0:0:0:
351,251,17312,1,2,1:2:0:0:
438,229,17488,1,2,0:0:0:0:
267,275,17665,5,2,0:0:0:0:
267,275,18018,2,0,L|136:257,1,112.5,0|0,1:0|0:0,0:0:0:0:
154,241,18371,6,0,L|146:167,1,75,6|0,0:0|0:0,0:0:0:0:
59,139,18724,2,0,L|71:231,1,75,2|0,1:2|0:0,0:0:0:0:
17,349,19077,1,2,0:0:0:0:
17,349,19253,2,0,L|7:274,1,75,2|0,0:0|1:0,0:0:0:0:
92,236,19606,6,0,B|170:222|163:301|254:271,1,150,2|0,0:0|0:0,0:0:0:0:
297,176,20135,2,0,L|222:185,1,75,2|0,1:2|0:0,0:0:0:0:
365,241,20488,2,0,P|391:167|359:104,1,150,2|0,0:0|1:0,0:0:0:0:
276,73,21018,6,0,L|449:54,1,150,2|0,0:0|0:0,0:0:0:0:
502,119,21547,1,2,1:2:0:0:
502,119,21724,1,2,0:0:0:0:
457,255,21900,2,0,P|439:229|440:169,1,75,2|0,0:0|0:0,0:0:0:0:
365,127,22253,2,0,L|290:136,1,75,2|0,1:2|0:0,0:0:0:0:
215,86,22606,5,2,0:0:0:0:
283,27,22782,2,0,L|319:36,2,37.5,0|0|0,3:3|3:3|3:3,3:3:0:0:
169,20,23135,2,8,L|190:171,1,150,0|0,3:0|0:0,0:0:0:0:
193,187,23577,1,0,3:0:0:0:
197,205,23665,1,0,3:0:0:0:
93,271,24018,6,0,P|201:360|74:214,1,1050,4|0,1:0|0:0,0:0:0:0:
256,186,26841,6,0,P|387:152|451:298,2,300,4|4|0,0:0|0:0|0:0,0:0:0:0:
119,189,29665,5,4,0:0:0:0:
119,189,30018,2,0,L|136:279,1,75,2|0,1:2|0:0,0:0:0:0:
211,307,30371,2,0,P|246:290|301:292,1,75,2|0,0:0|0:0,0:0:0:0:
338,217,30724,1,2,1:2:0:0:
338,217,30900,6,0,P|342:182|370:136,1,75,2|0,0:0|0:0,0:0:0:0:
313,69,31253,2,0,P|367:116|440:108,1,150,2|0,0:0|0:0,0:0:0:0:
427,205,31782,2,0,L|435:303,1,75,2|0,0:0|0:0,0:0:0:0:
344,303,32135,2,0,P|338:339|335:377,1,75,2|0,1:2|0:0,0:0:0:0:
293,228,32488,6,0,P|225:206|163:262,2,150,2|0|0,0:0|1:0|3:0,0:0:0:0:
358,165,33371,1,2,0:0:0:0:
358,165,33547,2,0,L|350:86,1,75,2|0,1:2|0:0,0:0:0:0:
263,48,33900,5,0,3:0:0:0:
259,51,34077,1,2,0:0:0:0:
255,54,34253,2,0,L|265:142,1,75,2|0,1:2|0:0,0:0:0:0:
194,199,34606,5,0,3:0:0:0:
190,196,34782,1,2,0:0:0:0:
186,193,34959,2,0,L|177:118,1,75,2|0,1:2|0:0,0:0:0:0:
79,61,35312,5,4,0:3:0:0:
79,61,35665,2,0,P|60:91|56:135,2,75,2|0|2,1:2|0:0|0:0,0:0:0:0:
156,14,36194,2,0,L|229:30,1,75,2|0,0:0|1:0,0:0:0:0:
280,104,36547,6,0,P|315:91|352:85,1,75,2|0,0:0|0:0,0:0:0:0:
379,6,36900,2,0,P|386:75|405:155,1,150,2|0,0:0|0:0,0:0:0:0:
467,218,37429,2,0,L|448:298,1,75,2|0,0:0|0:0,0:0:0:0:
385,360,37782,2,0,P|363:330|356:283,1,75,2|0,1:2|0:0,0:0:0:0:
315,208,38135,6,0,P|263:252|181:226,2,150,2|0|0,0:0|1:0|0:0,0:0:0:0:
384,150,39018,1,2,0:0:0:0:
335,74,39194,2,0,P|297:71|252:57,1,75,0|0,1:0|0:0,0:0:0:0:
161,6,39547,5,2,3:2:0:0:
155,11,39724,1,2,3:2:0:0:
151,17,39900,2,0,L|168:100,1,75,2|8,3:2|3:0,0:0:0:0:
148,132,40165,1,8,0:3:0:0:
163,171,40253,2,0,P|232:189|288:143,1,150,8|2,0:3|1:2,0:0:0:0:
265,56,40782,1,2,0:0:0:0:
381,85,40959,6,0,B|402:54|433:60|433:60|380:134|385:225,2,225,4|4|0,0:3|3:0|1:0,0:0:0:0:
280,17,42194,1,4,3:0:0:0:
280,17,42547,5,4,3:3:0:0:
193,65,42724,2,8,P|127:31|53:38,1,150,8|8,3:0|1:0,0:0:0:0:
52,129,43253,1,8,0:0:0:0:
130,172,43429,1,8,0:0:0:0:
75,243,43606,1,8,0:0:0:0:
69,331,43782,6,0,P|145:338|193:276,1,150,4|0,0:3|0:0,0:0:0:0:
348,301,44312,2,0,P|277:317|249:384,1,150,4|0,3:0|0:0,0:0:0:0:
191,262,44841,2,0,B|230:107|230:107|205:134|156:134,1,225,0|8,1:0|3:0,0:0:0:0:
157,42,45547,6,0,P|219:3|289:25,1,150,4|0,3:0|0:0,0:0:0:0:
341,100,46077,1,4,3:0:0:0:
419,55,46253,1,0,1:0:0:0:
467,130,46429,1,4,0:3:0:0:
391,180,46606,6,0,B|320:195|247:237|247:237|255:206|232:169,2,225,4|4|0,0:3|0:3|1:0,0:0:0:0:
341,98,47841,2,0,P|262:94|178:76,1,150,4|4,3:0|3:0,0:0:0:0:
117,155,48371,1,4,0:3:0:0:
117,155,48724,2,0,L|131:232,1,75,0|0,1:0|0:0,0:0:0:0:
237,281,49077,2,0,L|224:207,1,75,0|0,1:0|0:0,0:0:0:0:
283,124,49429,6,0,P|364:113|432:158,1,150,4|4,0:0|3:0,0:0:0:0:
392,323,50135,1,4,0:3:0:0:
392,323,50488,1,4,0:3:0:0:
219,271,50841,2,0,P|148:290|38:306,1,150,4|4,0:0|3:0,0:0:0:0:
12,132,51547,1,4,0:3:0:0:
12,132,51900,1,4,0:3:0:0:
162,33,52253,6,0,P|210:82|213:164,1,150,0|0,1:0|0:0,0:0:0:0:
167,237,52782,1,4,3:0:0:0:
322,327,53135,1,4,3:0:0:0:
451,201,53488,1,0,1:0:0:0:
451,201,55077,6,0,P|374:213|314:175,1,150,4|0,0:0|1:0,0:0:0:0:
231,144,55606,1,2,0:0:0:0:
231,144,55782,2,0,P|311:133|386:122,1,150,2|0,0:0|1:0,0:0:0:0:
438,54,56312,1,2,0:0:0:0:
363,4,56488,6,0,P|325:8|289:17,1,75,2|0,0:0|0:0,0:0:0:0:
202,41,56841,2,0,P|161:34|124:25,2,75,0|0|0,1:0|0:0|0:0,0:0:0:0:
269,112,57371,1,8,0:0:0:0:
269,112,57547,1,8,1:2:0:0:
208,178,57724,1,2,0:0:0:0:
134,126,57900,6,0,P|154:193|172:302,1,150,2|0,0:0|1:0,0:0:0:0:
102,343,58429,1,2,0:0:0:0:
102,343,58606,2,0,P|151:305|240:314,1,150,2|0,0:0|1:0,0:0:0:0:
347,237,59135,6,0,P|330:313|321:387,1,150,2|0,0:0|0:0,0:0:0:0:
241,301,59665,2,0,P|235:264|228:227,2,75,2|0|0,1:2|0:0|0:0,0:0:0:0:
160,361,60194,1,8,0:0:0:0:
160,361,60371,1,8,1:2:0:0:
86,289,60547,1,2,0:0:0:0:
136,199,60724,6,0,P|214:198|290:165,1,150,6|0,0:0|1:0,0:0:0:0:
415,102,61253,1,2,0:0:0:0:
415,102,61429,2,0,P|367:59|285:81,1,150,2|0,0:0|1:0,0:0:0:0:
209,32,61959,1,2,0:0:0:0:
132,78,62135,6,0,P|94:68|38:63,2,75,2|0|0,0:0|0:0|1:0,0:0:0:0:
169,160,62665,1,2,0:0:0:0:
99,223,62841,2,0,P|170:206|262:196,1,150,2|0,0:0|1:0,0:0:0:0:
354,182,63371,6,0,P|282:173|236:106,1,150,2|0,0:0|0:0,0:0:0:0:
324,72,63900,2,0,P|260:66|154:51,2,150,2|0|0,1:2|0:0|1:0,0:0:0:0:
443,160,64782,6,0,P|454:85|395:34,1,150,2|0,0:0|0:0,0:0:0:0:
332,91,65312,2,0,P|328:133|325:183,2,75,2|0|0,1:2|0:0|0:0,0:0:0:0:
260,35,65841,1,8,0:0:0:0:
260,35,66018,1,8,1:2:0:0:
181,78,66194,1,2,0:0:0:0:
121,18,66371,6,0,P|144:84|144:168,1,150,6|0,0:0|1:0,0:0:0:0:
242,275,66900,1,2,0:0:0:0:
242,275,67077,2,0,P|221:207|267:149,1,150,2|0,0:0|1:0,0:0:0:0:
331,87,67606,1,2,0:0:0:0:
393,150,67782,6,0,P|384:194|379:238,1,75,2|0,0:0|0:0,0:0:0:0:
488,208,68135,2,0,P|482:173|477:126,2,75,2|0|0,1:2|0:0|0:0,0:0:0:0:
444,288,68665,1,8,0:0:0:0:
444,288,68841,1,8,1:2:0:0:
487,367,69018,1,2,0:0:0:0:
360,338,69194,6,0,P|294:341|204:364,1,150,2|0,0:0|1:0,0:0:0:0:
141,274,69724,1,2,0:0:0:0:
141,274,69900,2,0,P|218:255|280:301,1,150,2|0,0:0|1:0,0:0:0:0:
190,362,70429,6,0,P|119:382|57:344,1,150,2|2,0:0|0:0,0:0:0:0:
121,263,70959,1,2,1:2:0:0:
210,276,71135,1,2,0:0:0:0:
39,252,71312,5,2,0:0:0:0:
39,252,71665,2,0,P|18:202|26:143,1,112.5,0|0,1:2|0:0,0:0:0:0:
41,130,72018,6,0,P|78:126|116:118,1,75,6|0,0:0|0:0,0:0:0:0:
201,206,72371,2,0,P|163:210|127:217,1,75,2|0,1:2|0:0,0:0:0:0:
173,46,72724,1,2,0:0:0:0:
173,46,72900,2,0,P|213:50|244:73,1,75,2|0,0:0|1:0,0:0:0:0:
326,112,73253,6,0,P|257:110|189:156,1,150,2|0,0:0|0:0,0:0:0:0:
127,217,73782,2,0,L|143:290,1,75,2|0,1:2|0:0,0:0:0:0:
22,308,74135,2,0,P|37:238|48:148,1,150,2|0,0:0|1:0,0:0:0:0:
102,40,74665,6,0,P|161:68|169:151,1,150,2|0,0:0|0:0,0:0:0:0:
230,225,75194,2,0,L|241:313,1,75,2|0,1:2|0:0,0:0:0:0:
149,360,75547,2,0,L|139:285,1,75,2|0,0:0|0:0,0:0:0:0:
65,210,75900,1,0,1:0:0:0:
128,125,76077,5,2,3:0:0:0:
128,125,77665,5,4,0:0:0:0:
204,196,77841,1,2,0:0:0:0:
204,196,77929,1,2,0:0:0:0:
204,196,78018,2,0,L|185:283,1,75,2|0,1:2|0:0,0:0:0:0:
112,320,78371,2,0,L|99:259,2,37.5,2|2|2,0:0|0:0|0:2,0:0:0:0:
197,368,78724,2,0,L|299:353,1,75,0|0,1:0|0:0,0:0:0:0:
353,295,79077,5,2,0:0:0:0:
342,293,79165,1,2,0:0:0:0:
331,291,79253,1,2,0:0:0:0:
276,219,79429,1,0,1:0:0:0:
444,168,79782,2,0,L|480:161,2,37.5,2|2|2,0:0|0:0|0:0,0:0:0:0:
387,97,80135,1,0,1:0:0:0:
285,225,80488,5,2,0:0:0:0:
285,225,80577,1,2,0:0:0:0:
285,225,80665,2,0,L|299:318,2,75,2|0|0,0:0|1:2|0:0,0:0:0:0:
200,193,81194,1,2,3:0:0:0:
200,193,81371,1,2,2:2:0:0:
141,261,81547,1,2,1:3:0:0:
141,261,81724,1,2,0:2:0:0:
78,196,81900,6,2,L|88:138,3,37.5
118,128,82253,2,2,L|126:78,3,37.5,2|2|2|2,1:2|0:0|0:0|0:0,0:0:0:0:
148,52,82606,1,2,0:0:0:0:
247,210,82959,1,0,1:0:0:0:
247,210,83312,6,0,B|277:167|277:167|399:186|399:186|360:136,1,225,4|0,0:3|3:0,0:0:0:0:
361,118,83929,1,0,3:0:0:0:
374,90,84018,2,0,L|472:76,1,75,4|0,3:0|0:0,0:0:0:0:
360,0,84371,2,0,L|262:14,1,75,0|0,1:0|0:0,0:0:0:0:
206,69,84724,6,0,P|128:15|111:108,1,225,4|0,0:3|0:0,0:0:0:0:
82,193,85429,2,0,B|201:225|180:121|293:147,1,225,8|0,3:0|0:0,0:0:0:0:
340,223,86135,6,0,P|302:226|266:235,1,75,6|0,3:0|0:0,0:0:0:0:
379,208,86488,2,0,P|416:220|459:229,1,75,6|0,3:0|0:0,0:0:0:0:
322,331,86841,2,0,P|284:334|248:343,1,75,6|0,3:0|0:0,0:0:0:0:
360,315,87194,2,0,P|397:327|440:336,1,75,6|0,3:0|0:0,0:0:0:0:
351,211,87547,6,0,P|399:164|472:187,2,150,4|0|4,3:0|1:0|3:0,0:0:0:0:
220,102,88606,1,0,1:0:0:0:
388,39,88959,5,4,0:0:0:0:
