osu file format v14

[General]
AudioFilename: IDOL_COLLEGE-Ichizu_Recipe.mp3
AudioLeadIn: 0
PreviewTime: 54533
Countdown: 0
SampleSet: Soft
StackLeniency: 0.9
Mode: 0
LetterboxInBreaks: 0
WidescreenStoryboard: 1

[Editor]
DistanceSpacing: 1
BeatDivisor: 4
GridSize: 32
TimelineZoom: 1.6

[Metadata]
Title:Ichizu Recipe (TV Size)
TitleUnicode:イチズレシピ (TV Size)
Artist:Idol College
ArtistUnicode:アイドルカレッジ
Creator:Princess Kisses
Version:Easy
Source:俺がお嬢様学校に『庶民サンプル』としてゲッツされた件
Tags:Shomin Sample OP Opening ore ga ojousama gakkou ni shomin sample toshite gets sareta ken Kisses
BeatmapID:1758029
BeatmapSetID:823918

[Difficulty]
HPDrainRate:3
CircleSize:3.2
OverallDifficulty:3
ApproachRate:5
SliderMultiplier:1
SliderTickRate:1

[Events]
//Background and Video events
0,0,"fg.jpg",0,0
//Break Periods
//Storyboard Layer 0 (Background)
//Storyboard Layer 1 (Fail)
//Storyboard Layer 2 (Pass)
//Storyboard Layer 3 (Foreground)
//Storyboard Sound Samples

[TimingPoints]
1430,352.941176470588,4,2,0,60,1,0
11135,-100,4,2,0,25,0,0
12724,-100,4,2,0,75,0,0
24018,-100,4,2,0,60,0,0
28253,-100,4,2,0,30,0,0
29665,-100,4,2,0,60,0,0
55077,-100,4,2,0,75,0,1
76077,-100,4,2,0,60,0,0

[Colours]
Combo1 : 242,238,83
Combo2 : 0,217,217
Combo3 : 254,107,130

[HitObjects]
98,104,1430,6,0,L|205:87,1,100,2|0,0:0|0:0,0:0:0:0:
246,175,2135,2,0,L|147:189,1,100,2|0,0:0|0:0,0:0:0:0:
78,262,2841,2,0,P|154:320|255:303,1,200,2|0,0:0|0:0,0:0:0:0:
436,228,4253,6,0,L|420:332,1,100,2|0,0:0|0:0,0:0:0:0:
344,262,4959,2,0,L|357:162,1,100,2|0,0:0|0:0,0:0:0:0:
295,84,5665,2,0,P|200:67|138:139,1,200,2|0,0:0|0:0,0:0:0:0:
201,330,7077,6,0,L|314:310,1,100,10|8,0:0|0:0,0:0:0:0:
358,231,7782,2,0,P|313:209|264:213,1,100,10|8,0:0|0:0,0:0:0:0:
167,187,8488,1,10,0:0:0:0:
97,258,8841,1,8,0:0:0:0:
24,188,9194,2,0,L|37:86,1,100,10|8,0:0|0:0,0:0:0:0:
108,19,9900,5,0,3:0:0:0:
207,12,10253,1,0,3:0:0:0:
267,91,10606,2,0,P|339:111|381:57,1,150,0|0,3:0|0:0,0:0:0:0:
380,60,12724,6,0,P|403:102|397:166,1,100,6|0,0:0|1:0,0:0:0:0:
360,244,13429,2,0,L|477:222,1,100,2|0,0:0|1:0,0:0:0:0:
457,325,14135,2,0,L|335:348,2,100,2|0|2,0:0|1:0|0:0,0:0:0:0:
458,225,15194,1,0,1:0:0:0:
373,171,15547,6,0,B|355:55,1,100,2|0,0:0|1:0,0:0:0:0:
287,0,16253,2,0,P|259:44|259:95,1,100,2|0,0:0|1:0,0:0:0:0:
214,181,16959,2,0,P|117:193|53:124,1,200,2|2,0:0|0:0,0:0:0:0:
0,206,18018,2,0,P|18:253|27:336,1,100,2|4,1:2|0:0,0:0:0:0:
98,371,18724,5,2,1:2:0:0:
176,308,19077,2,0,L|332:289,2,150,2|2|0,0:0|0:0|1:0,0:0:0:0:
103,239,20488,2,0,P|149:213|201:214,1,100,2|0,0:0|1:0,0:0:0:0:
256,133,21194,6,0,L|271:19,2,100,2|0|2,0:0|1:0|0:0,0:0:0:0:
326,204,22253,1,2,1:2:0:0:
344,302,22606,1,2,0:0:0:0:
258,353,22959,1,2,1:2:0:0:
171,302,23312,2,0,L|42:322,1,100,2|0,0:0|1:0,0:0:0:0:
38,223,24018,6,0,P|262:81|395:333,1,600,6|0,0:0|0:0,0:0:0:0:
203,284,26841,2,0,L|-11:324,2,200,6|6|0,0:0|0:0|0:0,0:0:0:0:
493,39,29665,6,0,L|480:158,1,100,6|0,0:0|1:0,0:0:0:0:
397,192,30371,2,0,P|389:142|360:87,1,100,2|0,0:0|1:0,0:0:0:0:
277,54,31077,2,0,L|166:74,2,100,2|0|2,0:0|1:0|0:0,0:0:0:0:
363,3,32135,1,0,1:0:0:0:
448,55,32488,6,0,P|498:139|474:249,1,200,2|0,0:0|0:0,0:0:0:0:
407,302,33547,1,2,1:2:0:0:
327,240,33900,2,0,L|216:216,1,100,2|0,0:0|1:2,0:0:0:0:
159,147,34606,2,0,P|131:193|137:257,1,100,2|0,0:0|1:0,0:0:0:0:
182,323,35312,5,6,0:0:0:0:
271,366,35665,2,0,L|370:353,1,100,2|0,1:2|0:0,0:0:0:0:
453,296,36371,1,2,1:2:0:0:
396,213,36724,2,0,P|356:190|296:192,2,100,2|0|2,0:0|1:0|0:0,0:0:0:0:
477,155,37782,1,2,1:2:0:0:
419,73,38135,6,0,L|320:89,1,100,2|0,0:0|1:0,0:0:0:0:
233,39,38841,2,0,L|134:22,1,100,2|0,0:0|1:0,0:0:0:0:
57,87,39547,1,2,0:0:0:0:
80,184,39900,1,0,1:0:0:0:
168,137,40253,1,2,0:0:0:0:
353,61,40959,6,0,P|433:67|463:137,1,150,6|2,0:0|0:0,0:0:0:0:
453,272,42018,2,0,B|349:235|282:339|282:339|266:279|214:263,1,300,6|2,0:0|0:0,0:0:0:0:
123,285,43429,1,2,0:0:0:0:
110,185,43782,6,0,B|274:160,1,150,6|2,0:0|0:0,0:0:0:0:
407,142,44841,2,0,P|327:34|182:69,1,300,6|2,0:0|0:0,0:0:0:0:
89,33,46253,1,2,0:0:0:0:
53,126,46606,6,0,B|79:323,2,150,6|2|2,0:0|0:0|0:0,0:0:0:0:
162,152,48018,2,0,B|185:320,2,150,2|2|2,0:0|0:0|0:0,0:0:0:0:
231,80,49429,6,0,P|330:84|438:37,1,200,6|2,0:0|0:0,0:0:0:0:
497,114,50488,1,2,0:0:0:0:
441,197,50841,2,0,B|467:325,1,100,2|2,0:0|0:0,0:0:0:0:
393,368,51547,1,2,0:0:0:0:
293,355,51900,1,2,0:0:0:0:
296,255,52253,6,0,L|146:266,1,150,6|2,1:2|0:0,0:0:0:0:
78,192,53135,1,2,0:0:0:0:
42,285,53488,1,4,0:0:0:0:
42,285,55077,6,0,L|244:265,1,200,6|2,0:0|0:0,0:0:0:0:
305,188,56135,1,2,1:2:0:0:
228,123,56488,2,0,P|206:79|209:28,2,100,2|0|2,0:0|1:0|0:0,0:0:0:0:
302,57,57547,1,2,1:2:0:0:
381,117,57900,6,0,B|492:142,1,100,2|0,0:0|1:2,0:0:0:0:
485,239,58606,2,0,L|387:216,1,100,2|0,0:0|1:0,0:0:0:0:
314,285,59312,2,0,L|334:407,2,100,2|0|2,0:0|1:0|0:0,0:0:0:0:
246,210,60371,1,0,1:0:0:0:
172,142,60724,6,0,P|122:141|68:171,1,100,6|0,0:2|1:0,0:0:0:0:
66,261,61429,2,0,P|110:282|160:281,1,100,2|0,0:2|1:0,0:0:0:0:
246,210,62135,2,0,B|257:325,2,100,2|0|2,0:0|1:0|0:0,0:0:0:0:
303,127,63194,1,2,1:2:0:0:
242,47,63547,6,0,L|134:24,1,100,2|0,0:0|1:0,0:0:0:0:
56,74,64253,1,2,0:0:0:0:
121,149,64606,1,2,1:2:0:0:
101,247,64959,2,0,L|209:224,1,100,2|2,0:0|1:2,0:0:0:0:
275,160,65665,1,2,0:0:0:0:
240,66,66018,1,2,1:2:0:0:
321,8,66371,6,0,P|429:4|472:88,1,200,6|2,0:0|0:0,0:0:0:0:
387,128,67429,1,2,1:2:0:0:
413,224,67782,2,0,L|511:207,2,100,2|0|2,0:0|1:0|0:0,0:0:0:0:
328,169,68841,1,2,1:2:0:0:
245,226,69194,6,0,L|271:341,1,100,6|0,0:0|1:0,0:0:0:0:
196,384,69900,2,0,P|147:360|92:364,1,100,2|0,0:0|1:0,0:0:0:0:
75,264,70606,2,0,B|93:122|93:122|33:154,1,200,2|2,0:0|0:0,0:0:0:0:
35,48,71665,2,0,P|85:27|142:42,1,100,2|6,1:2|0:0,0:0:0:0:
201,103,72371,5,2,1:2:0:0:
283,46,72724,2,0,B|452:23,2,150,2|2|2,0:0|0:0|1:2,0:0:0:0:
289,145,74135,2,0,L|395:131,1,100,2|2,0:0|1:2,0:0:0:0:
450,210,74841,5,0,1:0:0:0:
468,308,75194,1,0,1:0:0:0:
368,326,75547,1,0,1:0:0:0:
352,227,75900,1,4,3:0:0:0:
352,227,77665,6,0,L|376:122,2,100,6|0|2,0:0|1:0|0:0,0:0:0:0:
276,292,78724,1,2,1:2:0:0:
203,223,79077,2,0,P|154:220|110:256,1,100,2|2,0:0|1:3,0:0:0:0:
112,348,79782,2,0,P|161:345|205:381,1,100,2|2,0:0|1:3,0:0:0:0:
276,292,80488,6,0,L|382:276,2,100,2|2|2,2:0|1:2|2:0,2:0:0:0:
205,220,81547,1,2,1:2:0:0:
272,146,81900,2,0,B|374:136|364:216|469:197,1,200,2|2,2:0|2:0,2:0:0:0:
331,44,83312,6,0,B|195:13|195:13|160:66,1,200,2|2,2:0|2:0,2:0:0:0:
185,161,84371,1,2,1:2:0:0:
124,240,84724,2,0,L|-8:214,1,100,2|2,0:0|1:2,0:0:0:0:
1,317,85429,2,0,P|54:321|105:367,1,100,2|2,0:0|1:2,0:0:0:0:
190,328,86135,5,6,3:0:0:0:
245,244,86488,1,6,3:0:0:0:
165,171,86841,1,6,3:0:0:0:
236,84,87194,1,6,3:0:0:0:
155,24,87547,2,0,L|35:36,2,100,4|0|4,3:0|1:0|3:0,0:0:0:0:
236,84,88606,1,0,1:0:0:0:
317,26,88959,5,4,0:0:0:0:
