osu file format v14

[General]
AudioFilename: audio.mp3
AudioLeadIn: 0
PreviewTime: 22598
Countdown: 0
SampleSet: Normal
StackLeniency: 0.7
Mode: 1
LetterboxInBreaks: 0
WidescreenStoryboard: 1

[Editor]
DistanceSpacing: 1.5
BeatDivisor: 4
GridSize: 16
TimelineZoom: 2.4

[Metadata]
Title:Porno (Saint Punk Remix) (Nightcore Mix)
TitleUnicode:Porno (Saint Punk Remix) (Nightcore Mix)
Artist:IDK
ArtistUnicode:IDK
Creator:ler1211
Version:Muzukashii
Source:
Tags:[zeth] Rinze english electronic instrumental Pusha T J.I.D Grunge Bass House Dance sped up ver. speed version
BeatmapID:4033512
BeatmapSetID:1948607

[Difficulty]
HPDrainRate:6
CircleSize:5
OverallDifficulty:5
ApproachRate:5
SliderMultiplier:1.4
SliderTickRate:1

[Events]
//Background and Video events
0,0,"uwu.jpg",0,-65
//Break Periods
2,78861,83146
//Storyboard Layer 0 (Background)
//Storyboard Layer 1 (Fail)
//Storyboard Layer 2 (Pass)
//Storyboard Layer 3 (Foreground)
//Storyboard Layer 4 (Overlay)
//Storyboard Sound Samples

[TimingPoints]
690,342.857142857143,4,1,0,80,1,8
2061,342.857142857143,4,1,0,80,1,0
2061,-111.111111111111,4,1,0,80,0,0
7461,-100,4,1,0,90,0,0
13032,-100,4,1,0,90,0,0
24003,-100,4,1,0,100,0,1
44575,-100,4,1,0,70,0,0
44746,-100,4,1,0,70,0,0
45861,-100,4,1,0,90,0,0
56403,-111.111111111111,4,1,0,90,0,0
56918,-111.111111111111,4,1,0,100,0,1
77146,-111.111111111111,4,1,0,100,0,0
77446,-111.111111111111,4,1,0,70,0,0
78859,-133.333333333333,4,1,0,50,0,0
84175,-111.111111111111,4,1,0,80,0,0
89745,-100,4,1,0,90,0,0
106289,-100,4,1,0,100,0,1
106461,-100,4,1,0,100,0,0
106975,-100,4,1,0,100,0,1
107146,-100,4,1,0,100,0,0
107661,-100,4,1,0,100,0,1
107832,-100,4,1,0,100,0,0
109032,-100,4,1,0,100,0,1
109203,-100,4,1,0,100,0,0
109718,-100,4,1,0,100,0,1
109889,-100,4,1,0,100,0,0
110401,-100,4,1,0,90,0,0
111775,-100,4,1,0,100,0,1
126861,-100,4,1,0,70,0,0
127032,-100,4,1,0,70,0,0

[HitObjects]
256,192,2061,5,4,0:0:0:0:
256,192,2575,1,8,0:0:0:0:
256,192,2746,1,0,0:0:0:0:
256,192,3089,1,8,0:0:0:0:
256,192,3432,1,0,0:0:0:0:
256,192,3946,1,0,0:0:0:0:
256,192,4118,1,8,0:0:0:0:
256,192,4461,1,8,0:0:0:0:
256,192,4803,1,4,0:0:0:0:
256,192,5318,1,8,0:0:0:0:
256,192,5489,1,0,0:0:0:0:
256,192,5832,1,8,0:0:0:0:
256,192,6175,1,0,0:0:0:0:
256,192,6518,1,8,0:0:0:0:
256,192,6689,1,0,0:0:0:0:
256,192,6861,1,8,0:0:0:0:
256,192,7203,1,8,0:0:0:0:
256,192,7546,1,4,0:0:0:0:
256,192,7889,1,8,0:0:0:0:
256,192,8061,1,8,0:0:0:0:
256,192,8232,1,0,0:0:0:0:
256,192,8318,1,0,0:0:0:0:
256,192,8403,1,0,0:0:0:0:
256,192,8575,1,8,0:0:0:0:
256,192,8918,1,8,0:0:0:0:
256,192,9089,1,8,0:0:0:0:
256,192,9261,1,0,0:0:0:0:
256,192,9432,1,8,0:0:0:0:
256,192,9603,1,0,0:0:0:0:
256,192,9775,1,0,0:0:0:0:
256,192,9946,1,8,0:0:0:0:
256,192,10289,1,4,0:0:0:0:
256,192,10632,1,8,0:0:0:0:
256,192,10803,1,8,0:0:0:0:
256,192,10975,1,0,0:0:0:0:
256,192,11061,1,0,0:0:0:0:
256,192,11146,1,0,0:0:0:0:
256,192,11318,1,8,0:0:0:0:
256,192,11661,1,8,0:0:0:0:
256,192,11832,1,8,0:0:0:0:
256,192,12003,1,0,0:0:0:0:
256,192,12175,1,8,0:0:0:0:
256,192,12346,1,0,0:0:0:0:
256,192,12518,1,0,0:0:0:0:
256,192,12689,1,8,0:0:0:0:
256,192,13032,1,4,0:0:0:0:
256,192,13375,1,0,0:0:0:0:
256,192,13718,1,8,0:0:0:0:
256,192,13889,1,8,0:0:0:0:
256,192,14061,1,0,0:0:0:0:
256,192,14403,1,0,0:0:0:0:
256,192,14575,1,8,0:0:0:0:
256,192,14746,1,0,0:0:0:0:
256,192,14918,1,0,0:0:0:0:
256,192,15089,1,8,0:0:0:0:
256,192,15261,1,8,0:0:0:0:
256,192,15432,1,0,0:0:0:0:
256,192,15775,1,0,0:0:0:0:
256,192,15946,1,8,0:0:0:0:
256,192,16118,1,0,0:0:0:0:
256,192,16289,1,0,0:0:0:0:
256,192,16461,1,8,0:0:0:0:
256,192,16546,1,8,0:0:0:0:
256,192,16632,1,8,0:0:0:0:
256,192,16803,1,0,0:0:0:0:
256,192,17146,1,0,0:0:0:0:
256,192,17318,1,8,0:0:0:0:
256,192,17489,1,0,0:0:0:0:
256,192,17661,1,0,0:0:0:0:
256,192,17832,1,8,0:0:0:0:
256,192,18175,1,8,0:0:0:0:
256,192,18518,1,4,0:0:0:0:
256,192,18861,1,8,0:0:0:0:
256,192,19032,1,8,0:0:0:0:
256,192,19203,1,0,0:0:0:0:
256,192,19546,1,8,0:0:0:0:
256,192,19718,1,8,0:0:0:0:
256,192,19889,1,0,0:0:0:0:
256,192,20232,1,8,0:0:0:0:
256,192,20403,1,8,0:0:0:0:
256,192,20575,1,0,0:0:0:0:
256,192,20746,1,0,0:0:0:0:
256,192,20918,1,8,0:0:0:0:
256,192,21261,1,0,0:0:0:0:
256,192,21346,1,0,0:0:0:0:
256,192,21432,1,0,0:0:0:0:
256,192,21603,1,8,0:0:0:0:
256,192,21775,1,8,0:0:0:0:
256,192,21946,1,0,0:0:0:0:
256,192,22032,1,0,0:0:0:0:
256,192,22118,1,0,0:0:0:0:
256,192,22289,1,8,0:0:0:0:
256,192,22461,1,8,0:0:0:0:
256,192,22632,1,0,0:0:0:0:
256,192,23661,1,8,0:0:0:0:
256,192,24003,1,4,0:0:0:0:
256,192,24346,1,0,0:0:0:0:
256,192,24518,1,8,0:0:0:0:
256,192,24689,1,0,0:0:0:0:
256,192,24775,1,0,0:0:0:0:
256,192,24861,1,0,0:0:0:0:
256,192,25032,1,0,0:0:0:0:
256,192,25203,1,8,0:0:0:0:
256,192,25375,1,0,0:0:0:0:
256,192,25718,1,0,0:0:0:0:
256,192,25889,1,8,0:0:0:0:
256,192,26061,1,0,0:0:0:0:
256,192,26403,1,8,0:0:0:0:
256,192,26575,1,8,0:0:0:0:
256,192,26746,1,0,0:0:0:0:
256,192,27089,1,0,0:0:0:0:
256,192,27261,1,8,0:0:0:0:
256,192,27432,1,0,0:0:0:0:
256,192,27518,1,0,0:0:0:0:
256,192,27603,1,0,0:0:0:0:
256,192,27775,1,0,0:0:0:0:
256,192,27946,1,8,0:0:0:0:
256,192,28118,1,0,0:0:0:0:
256,192,28461,1,8,0:0:0:0:
256,192,28803,1,8,0:0:0:0:
256,192,29146,1,8,0:0:0:0:
256,192,29318,1,8,0:0:0:0:
256,192,29489,1,4,0:0:0:0:
256,192,29832,1,8,0:0:0:0:
256,192,30003,1,8,0:0:0:0:
256,192,30175,1,0,0:0:0:0:
256,192,30261,1,0,0:0:0:0:
256,192,30346,1,0,0:0:0:0:
256,192,30518,1,8,0:0:0:0:
256,192,30689,1,8,0:0:0:0:
256,192,30861,1,0,0:0:0:0:
256,192,31203,1,8,0:0:0:0:
256,192,31375,1,8,0:0:0:0:
256,192,31546,1,0,0:0:0:0:
256,192,31889,1,0,0:0:0:0:
256,192,32061,1,8,0:0:0:0:
256,192,32232,1,0,0:0:0:0:
256,192,32575,1,8,0:0:0:0:
256,192,32746,1,8,0:0:0:0:
256,192,32918,1,0,0:0:0:0:
256,192,33003,1,0,0:0:0:0:
256,192,33089,1,0,0:0:0:0:
256,192,33261,1,8,0:0:0:0:
256,192,33432,1,8,0:0:0:0:
256,192,33603,1,0,0:0:0:0:
256,192,34632,1,0,0:0:0:0:
256,192,34975,1,12,0:0:0:0:
256,192,35318,1,8,0:0:0:0:
256,192,35489,1,0,0:0:0:0:
256,192,35661,1,8,0:0:0:0:
256,192,35746,1,8,0:0:0:0:
256,192,35832,1,8,0:0:0:0:
256,192,36003,1,8,0:0:0:0:
256,192,36175,1,0,0:0:0:0:
256,192,36346,1,8,0:0:0:0:
256,192,36689,1,8,0:0:0:0:
256,192,36861,1,0,0:0:0:0:
256,192,37032,1,8,0:0:0:0:
256,192,37375,1,0,0:0:0:0:
256,192,37546,1,0,0:0:0:0:
256,192,37718,1,8,0:0:0:0:
256,192,38061,1,8,0:0:0:0:
256,192,38232,1,0,0:0:0:0:
256,192,38403,1,8,0:0:0:0:
256,192,38489,1,8,0:0:0:0:
256,192,38575,1,8,0:0:0:0:
256,192,38746,1,8,0:0:0:0:
256,192,38918,1,0,0:0:0:0:
256,192,39089,1,8,0:0:0:0:
256,192,39432,1,0,0:0:0:0:
256,192,39775,1,0,0:0:0:0:
256,192,40118,1,0,0:0:0:0:
256,192,40289,1,0,0:0:0:0:
256,192,40461,1,12,0:0:0:0:
256,192,40803,1,0,0:0:0:0:
256,192,40975,1,0,0:0:0:0:
256,192,41146,1,8,0:0:0:0:
256,192,41232,1,8,0:0:0:0:
256,192,41318,1,8,0:0:0:0:
256,192,41489,1,8,0:0:0:0:
256,192,41661,1,0,0:0:0:0:
256,192,41832,1,8,0:0:0:0:
256,192,42175,1,0,0:0:0:0:
256,192,42346,1,0,0:0:0:0:
256,192,42518,1,8,0:0:0:0:
256,192,42861,1,8,0:0:0:0:
256,192,43032,1,0,0:0:0:0:
256,192,43203,1,8,0:0:0:0:
256,192,43546,1,0,0:0:0:0:
256,192,43718,1,0,0:0:0:0:
256,192,43889,1,8,0:0:0:0:
256,192,43975,1,8,0:0:0:0:
256,192,44061,1,8,0:0:0:0:
256,192,44232,1,8,0:0:0:0:
256,192,44403,1,0,0:0:0:0:
256,192,45261,1,0,0:0:0:0:
256,192,45346,1,0,0:0:0:0:
256,192,45432,1,0,0:0:0:0:
256,192,45603,1,8,0:0:0:0:
256,192,45775,1,8,0:0:0:0:
256,192,45946,1,4,0:0:0:0:
256,192,46203,1,0,0:0:0:0:
256,192,46461,1,8,0:0:0:0:
256,192,46803,1,0,0:0:0:0:
256,192,47146,1,8,0:0:0:0:
256,192,47318,1,0,0:0:0:0:
256,192,47575,1,0,0:0:0:0:
256,192,47832,1,8,0:0:0:0:
256,192,48175,1,0,0:0:0:0:
256,192,48689,1,0,0:0:0:0:
256,192,48946,1,8,0:0:0:0:
256,192,49203,1,8,0:0:0:0:
256,192,49546,1,0,0:0:0:0:
256,192,49889,1,8,0:0:0:0:
256,192,50061,1,0,0:0:0:0:
256,192,50318,1,8,0:0:0:0:
256,192,50575,1,8,0:0:0:0:
256,192,50918,1,0,0:0:0:0:
256,192,51432,1,0,0:0:0:0:
256,192,51603,1,0,0:0:0:0:
256,192,51775,1,8,0:0:0:0:
256,192,52118,1,0,0:0:0:0:
256,192,52289,1,0,0:0:0:0:
256,192,52461,1,8,0:0:0:0:
256,192,52803,1,0,0:0:0:0:
256,192,52975,1,0,0:0:0:0:
256,192,53146,1,8,0:0:0:0:
256,192,53318,1,8,0:0:0:0:
256,192,53489,1,0,0:0:0:0:
256,192,53661,1,8,0:0:0:0:
256,192,53832,1,0,0:0:0:0:
256,192,54175,1,8,0:0:0:0:
256,192,54261,1,8,0:0:0:0:
256,192,54346,1,8,0:0:0:0:
256,192,54518,1,0,0:0:0:0:
256,192,54689,1,0,0:0:0:0:
256,192,54861,1,8,0:0:0:0:
256,192,54946,1,8,0:0:0:0:
256,192,55032,1,8,0:0:0:0:
256,192,55203,1,0,0:0:0:0:
256,192,55375,1,0,0:0:0:0:
256,192,55546,1,8,0:0:0:0:
256,192,56575,1,0,0:0:0:0:
256,192,56918,1,12,0:0:0:0:
256,192,57261,1,8,0:0:0:0:
256,192,57432,1,0,0:0:0:0:
256,192,57603,1,8,0:0:0:0:
256,192,57946,1,0,0:0:0:0:
256,192,58118,1,0,0:0:0:0:
256,192,58289,1,8,0:0:0:0:
256,192,58375,1,8,0:0:0:0:
256,192,58461,1,8,0:0:0:0:
256,192,58632,1,0,0:0:0:0:
256,192,58803,1,0,0:0:0:0:
256,192,58975,1,12,0:0:0:0:
256,192,59318,1,0,0:0:0:0:
256,192,59661,1,12,0:0:0:0:
256,192,60003,1,8,0:0:0:0:
256,192,60175,1,0,0:0:0:0:
256,192,60346,1,8,0:0:0:0:
256,192,60689,1,0,0:0:0:0:
256,192,60861,1,0,0:0:0:0:
256,192,61032,1,8,0:0:0:0:
256,192,61375,1,0,0:0:0:0:
256,192,61718,1,8,0:0:0:0:
256,192,61889,1,0,0:0:0:0:
256,192,62403,1,4,0:0:0:0:
256,192,62746,1,0,0:0:0:0:
256,192,62918,1,8,0:0:0:0:
256,192,63089,1,0,0:0:0:0:
256,192,63432,1,8,0:0:0:0:
256,192,63603,1,8,0:0:0:0:
256,192,63775,1,0,0:0:0:0:
256,192,63861,1,0,0:0:0:0:
256,192,63946,1,0,0:0:0:0:
256,192,64118,1,8,0:0:0:0:
256,192,64289,1,8,0:0:0:0:
256,192,64461,1,4,0:0:0:0:
256,192,64803,1,8,0:0:0:0:
256,192,65146,1,4,0:0:0:0:
256,192,65489,1,0,0:0:0:0:
256,192,65661,1,8,0:0:0:0:
256,192,65832,1,0,0:0:0:0:
256,192,66175,1,8,0:0:0:0:
256,192,66346,1,8,0:0:0:0:
256,192,66518,1,0,0:0:0:0:
256,192,66689,1,8,0:0:0:0:
256,192,66861,1,0,0:0:0:0:
256,192,66946,1,0,0:0:0:0:
256,192,67032,1,0,0:0:0:0:
256,192,67203,1,8,0:0:0:0:
256,192,67375,1,0,0:0:0:0:
256,192,67546,1,8,0:0:0:0:
256,192,67889,1,4,0:0:0:0:
256,192,68061,1,4,0:0:0:0:
256,192,68232,1,4,0:0:0:0:
256,192,68575,1,8,0:0:0:0:
256,192,68918,1,0,0:0:0:0:
256,192,69089,1,0,0:0:0:0:
256,192,69261,1,8,0:0:0:0:
256,192,69603,1,8,0:0:0:0:
256,192,69775,1,8,0:0:0:0:
256,192,69946,1,0,0:0:0:0:
256,192,70032,1,0,0:0:0:0:
256,192,70118,1,0,0:0:0:0:
256,192,70632,1,0,0:0:0:0:
256,192,70803,1,0,0:0:0:0:
256,192,71146,1,0,0:0:0:0:
256,192,71318,1,8,0:0:0:0:
256,192,71403,1,8,0:0:0:0:
256,192,71489,1,8,0:0:0:0:
256,192,71661,1,0,0:0:0:0:
256,192,71832,1,0,0:0:0:0:
256,192,72003,1,8,0:0:0:0:
256,192,72346,1,0,0:0:0:0:
256,192,72689,1,8,0:0:0:0:
256,192,72861,1,0,0:0:0:0:
256,192,73375,1,4,0:0:0:0:
256,192,73718,1,0,0:0:0:0:
256,192,73889,1,8,0:0:0:0:
256,192,74061,1,0,0:0:0:0:
256,192,74403,1,8,0:0:0:0:
256,192,74575,1,8,0:0:0:0:
256,192,74746,1,0,0:0:0:0:
256,192,74832,1,0,0:0:0:0:
256,192,74918,1,0,0:0:0:0:
256,192,75089,1,8,0:0:0:0:
256,192,75261,1,8,0:0:0:0:
256,192,75432,1,4,0:0:0:0:
256,192,75775,1,8,0:0:0:0:
256,192,76118,1,4,0:0:0:0:
256,192,76461,1,0,0:0:0:0:
256,192,76632,1,8,0:0:0:0:
256,192,76803,1,0,0:0:0:0:
256,192,77146,1,8,0:0:0:0:
256,192,84346,5,4,0:0:0:0:
256,192,84861,1,8,0:0:0:0:
256,192,85032,1,0,0:0:0:0:
256,192,85375,1,8,0:0:0:0:
256,192,85718,1,0,0:0:0:0:
256,192,86232,1,0,0:0:0:0:
256,192,86403,1,8,0:0:0:0:
256,192,86746,1,8,0:0:0:0:
256,192,87089,1,4,0:0:0:0:
256,192,87603,1,8,0:0:0:0:
256,192,87775,1,0,0:0:0:0:
256,192,88118,1,8,0:0:0:0:
256,192,88461,1,0,0:0:0:0:
256,192,88803,1,8,0:0:0:0:
256,192,88975,1,0,0:0:0:0:
256,192,89146,1,8,0:0:0:0:
256,192,89489,1,8,0:0:0:0:
256,192,89832,1,4,0:0:0:0:
256,192,90175,1,8,0:0:0:0:
256,192,90346,1,8,0:0:0:0:
256,192,90518,1,0,0:0:0:0:
256,192,90603,1,0,0:0:0:0:
256,192,90689,1,0,0:0:0:0:
256,192,90861,1,8,0:0:0:0:
256,192,91203,1,8,0:0:0:0:
256,192,91375,1,8,0:0:0:0:
256,192,91546,1,0,0:0:0:0:
256,192,91718,1,8,0:0:0:0:
256,192,91889,1,0,0:0:0:0:
256,192,92061,1,0,0:0:0:0:
256,192,92232,1,8,0:0:0:0:
256,192,92575,1,4,0:0:0:0:
256,192,92918,1,8,0:0:0:0:
256,192,93089,1,8,0:0:0:0:
256,192,93261,1,0,0:0:0:0:
256,192,93346,1,0,0:0:0:0:
256,192,93432,1,0,0:0:0:0:
256,192,93603,1,8,0:0:0:0:
256,192,93946,1,8,0:0:0:0:
256,192,94118,1,8,0:0:0:0:
256,192,94289,1,0,0:0:0:0:
256,192,94461,1,8,0:0:0:0:
256,192,94632,1,0,0:0:0:0:
256,192,94803,1,0,0:0:0:0:
256,192,94975,1,8,0:0:0:0:
256,192,95318,1,4,0:0:0:0:
256,192,95661,1,0,0:0:0:0:
256,192,96003,1,8,0:0:0:0:
256,192,96175,1,8,0:0:0:0:
256,192,96346,1,0,0:0:0:0:
256,192,96689,1,0,0:0:0:0:
256,192,96861,1,8,0:0:0:0:
256,192,97032,1,0,0:0:0:0:
256,192,97203,1,0,0:0:0:0:
256,192,97375,1,8,0:0:0:0:
256,192,97546,1,8,0:0:0:0:
256,192,97718,1,0,0:0:0:0:
256,192,98061,1,0,0:0:0:0:
256,192,98232,1,8,0:0:0:0:
256,192,98403,1,0,0:0:0:0:
256,192,98575,1,0,0:0:0:0:
256,192,98746,1,8,0:0:0:0:
256,192,98832,1,8,0:0:0:0:
256,192,98918,1,8,0:0:0:0:
256,192,99089,1,0,0:0:0:0:
256,192,99432,1,0,0:0:0:0:
256,192,99603,1,8,0:0:0:0:
256,192,99775,1,0,0:0:0:0:
256,192,99946,1,0,0:0:0:0:
256,192,100118,1,8,0:0:0:0:
256,192,100461,1,8,0:0:0:0:
256,192,100803,1,4,0:0:0:0:
256,192,101146,1,8,0:0:0:0:
256,192,101318,1,8,0:0:0:0:
256,192,101489,1,0,0:0:0:0:
256,192,101832,1,8,0:0:0:0:
256,192,102003,1,8,0:0:0:0:
256,192,102175,1,0,0:0:0:0:
256,192,102518,1,8,0:0:0:0:
256,192,102689,1,8,0:0:0:0:
256,192,102861,1,0,0:0:0:0:
256,192,103032,1,0,0:0:0:0:
256,192,103203,1,8,0:0:0:0:
256,192,103546,1,0,0:0:0:0:
256,192,103632,1,0,0:0:0:0:
256,192,103718,1,0,0:0:0:0:
256,192,103889,1,8,0:0:0:0:
256,192,104061,1,8,0:0:0:0:
256,192,104232,1,0,0:0:0:0:
256,192,104318,1,0,0:0:0:0:
256,192,104403,1,0,0:0:0:0:
256,192,104575,1,8,0:0:0:0:
256,192,104746,1,8,0:0:0:0:
256,192,104918,5,0,0:0:0:0:
256,192,105946,5,8,0:0:0:0:
256,192,106289,1,4,0:0:0:0:
256,192,106975,1,4,0:0:0:0:
256,192,107661,1,4,0:0:0:0:
256,192,108346,1,0,0:0:0:0:
256,192,108689,1,0,0:0:0:0:
256,192,109032,1,4,0:0:0:0:
256,192,109718,1,4,0:0:0:0:
256,192,110403,1,0,0:0:0:0:
256,192,111432,1,8,0:0:0:0:
256,192,111603,1,8,0:0:0:0:
256,192,111775,1,4,0:0:0:0:
256,192,112118,1,8,0:0:0:0:
256,192,112289,1,8,0:0:0:0:
256,192,112461,1,0,0:0:0:0:
256,192,112546,1,0,0:0:0:0:
256,192,112632,1,0,0:0:0:0:
256,192,112803,1,8,0:0:0:0:
256,192,112975,1,8,0:0:0:0:
256,192,113146,1,0,0:0:0:0:
256,192,113489,1,8,0:0:0:0:
256,192,113661,1,8,0:0:0:0:
256,192,113832,1,0,0:0:0:0:
256,192,114175,1,0,0:0:0:0:
256,192,114346,1,8,0:0:0:0:
256,192,114518,1,0,0:0:0:0:
256,192,114861,1,8,0:0:0:0:
256,192,115032,1,8,0:0:0:0:
256,192,115203,1,0,0:0:0:0:
256,192,115289,1,0,0:0:0:0:
256,192,115375,1,0,0:0:0:0:
256,192,115546,1,8,0:0:0:0:
256,192,115718,1,8,0:0:0:0:
256,192,115889,1,0,0:0:0:0:
256,192,116918,1,0,0:0:0:0:
256,192,117261,1,12,0:0:0:0:
256,192,117603,1,8,0:0:0:0:
256,192,117775,1,0,0:0:0:0:
256,192,117946,1,8,0:0:0:0:
256,192,118032,1,8,0:0:0:0:
256,192,118118,1,8,0:0:0:0:
256,192,118289,1,8,0:0:0:0:
256,192,118461,1,0,0:0:0:0:
256,192,118632,1,8,0:0:0:0:
256,192,118975,1,8,0:0:0:0:
256,192,119146,1,0,0:0:0:0:
256,192,119318,1,8,0:0:0:0:
256,192,119661,1,0,0:0:0:0:
256,192,119832,1,0,0:0:0:0:
256,192,120003,1,8,0:0:0:0:
256,192,120346,1,8,0:0:0:0:
256,192,120518,1,0,0:0:0:0:
256,192,120689,1,8,0:0:0:0:
256,192,120775,1,8,0:0:0:0:
256,192,120861,1,8,0:0:0:0:
256,192,121032,1,8,0:0:0:0:
256,192,121203,1,0,0:0:0:0:
256,192,121375,1,8,0:0:0:0:
256,192,121718,1,0,0:0:0:0:
256,192,122061,1,0,0:0:0:0:
256,192,122403,1,0,0:0:0:0:
256,192,122575,1,0,0:0:0:0:
256,192,122746,1,12,0:0:0:0:
256,192,123089,1,0,0:0:0:0:
256,192,123261,1,0,0:0:0:0:
256,192,123432,1,8,0:0:0:0:
256,192,123518,1,8,0:0:0:0:
256,192,123603,1,8,0:0:0:0:
256,192,123775,1,8,0:0:0:0:
256,192,123946,1,0,0:0:0:0:
256,192,124118,1,8,0:0:0:0:
256,192,124461,1,0,0:0:0:0:
256,192,124632,1,0,0:0:0:0:
256,192,124803,1,8,0:0:0:0:
256,192,125146,1,8,0:0:0:0:
256,192,125318,1,0,0:0:0:0:
256,192,125489,1,8,0:0:0:0:
256,192,125832,1,0,0:0:0:0:
256,192,126003,1,0,0:0:0:0:
256,192,126175,1,8,0:0:0:0:
256,192,126261,1,8,0:0:0:0:
256,192,126346,1,8,0:0:0:0:
256,192,126518,1,8,0:0:0:0:
256,192,126689,1,0,0:0:0:0:
256,192,127546,1,0,0:0:0:0:
256,192,127632,1,0,0:0:0:0:
256,192,127718,1,0,0:0:0:0:
256,192,127889,1,8,0:0:0:0:
256,192,128061,1,8,0:0:0:0:
256,192,128232,1,4,0:0:0:0:
