osu file format v14

[General]
AudioFilename: audio.mp3
AudioLeadIn: 0
PreviewTime: 22598
Countdown: 0
SampleSet: Normal
StackLeniency: 0.7
Mode: 1
LetterboxInBreaks: 0
WidescreenStoryboard: 1

[Editor]
DistanceSpacing: 1.5
BeatDivisor: 4
GridSize: 16
TimelineZoom: 2.4

[Metadata]
Title:Porno (Saint Punk Remix) (Nightcore Mix)
TitleUnicode:Porno (Saint Punk Remix) (Nightcore Mix)
Artist:IDK
ArtistUnicode:IDK
Creator:ler1211
Version:Addiction
Source:
Tags:[zeth] Rinze english electronic instrumental Pusha T J.I.D Grunge Bass House Dance sped up ver. speed version
BeatmapID:4033419
BeatmapSetID:1948607

[Difficulty]
HPDrainRate:6.9
CircleSize:5
OverallDifficulty:6.9
ApproachRate:5
SliderMultiplier:1.6
SliderTickRate:1

[Events]
//Background and Video events
0,0,"uwu.jpg",0,-65
//Break Periods
2,78861,82461
//Storyboard Layer 0 (Background)
//Storyboard Layer 1 (Fail)
//Storyboard Layer 2 (Pass)
//Storyboard Layer 3 (Foreground)
//Storyboard Layer 4 (Overlay)
//Storyboard Sound Samples

[TimingPoints]
690,342.857142857143,4,1,0,80,1,8
2061,342.857142857143,4,1,0,80,1,0
2061,-125,4,1,0,80,0,0
7461,-111.111111111111,4,1,0,90,0,0
13032,-100,4,1,0,90,0,0
18516,-90.9090909090909,4,1,0,90,0,0
18545,-90.7569695529972,4,1,0,90,0,0
18573,-90.6051027468803,4,1,0,90,0,0
18602,-90.4534900647928,4,1,0,90,0,0
18630,-90.3021310815,4,1,0,90,0,0
18659,-90.1510253724791,4,1,0,90,0,0
18687,-90.0001725139172,4,1,0,90,0,0
18716,-89.8495720827109,4,1,0,90,0,0
18745,-89.6992236564646,4,1,0,91,0,0
18773,-89.5491268134897,4,1,0,91,0,0
18802,-89.399281132803,4,1,0,91,0,0
18830,-89.2496861941261,4,1,0,91,0,0
18859,-89.1003415778834,4,1,0,91,0,0
18887,-88.9512468652018,4,1,0,91,0,0
18916,-88.8024016379088,4,1,0,91,0,0
18945,-88.6538054785319,4,1,0,91,0,0
18973,-88.505457970297,4,1,0,91,0,0
19002,-88.3573586971275,4,1,0,91,0,0
19030,-88.209507243643,4,1,0,91,0,0
19059,-88.0619031951581,4,1,0,91,0,0
19087,-87.9145461376815,4,1,0,91,0,0
19116,-87.7674356579144,4,1,0,91,0,0
19145,-87.6205713432497,4,1,0,92,0,0
19173,-87.4739527817709,4,1,0,92,0,0
19202,-87.3275795622504,4,1,0,92,0,0
19230,-87.1814512741491,4,1,0,92,0,0
19259,-87.0355675076147,4,1,0,92,0,0
19287,-86.8899278534806,4,1,0,92,0,0
19316,-86.7445319032651,4,1,0,92,0,0
19345,-86.5993792491699,4,1,0,92,0,0
19373,-86.4544694840791,4,1,0,92,0,0
19402,-86.309802201558,4,1,0,92,0,0
19430,-86.1653769958521,4,1,0,92,0,0
19459,-86.0211934618858,4,1,0,92,0,0
19487,-85.8772511952614,4,1,0,92,0,0
19516,-85.7335497922577,4,1,0,92,0,0
19545,-85.5900888498293,4,1,0,93,0,0
19573,-85.4468679656052,4,1,0,93,0,0
19602,-85.3038867378874,4,1,0,93,0,0
19630,-85.1611447656504,4,1,0,93,0,0
19659,-85.0186416485398,4,1,0,93,0,0
19687,-84.8763769868707,4,1,0,93,0,0
19716,-84.7343503816275,4,1,0,93,0,0
19745,-84.592561434462,4,1,0,93,0,0
19773,-84.4510097476927,4,1,0,93,0,0
19802,-84.3096949243034,4,1,0,93,0,0
19830,-84.1686165679423,4,1,0,93,0,0
19859,-84.027774282921,4,1,0,93,0,0
19887,-83.887167674213,4,1,0,93,0,0
19916,-83.7467963474529,4,1,0,93,0,0
19945,-83.6066599089353,4,1,0,93,0,0
19973,-83.4667579656133,4,1,0,94,0,0
20002,-83.3270901250981,4,1,0,94,0,0
20030,-83.1876559956572,4,1,0,94,0,0
20059,-83.0484551862137,4,1,0,94,0,0
20087,-82.9094873063452,4,1,0,94,0,0
20116,-82.7707519662824,4,1,0,94,0,0
20145,-82.6322487769083,4,1,0,94,0,0
20173,-82.4939773497571,4,1,0,94,0,0
20202,-82.355937297013,4,1,0,94,0,0
20230,-82.2181282315091,4,1,0,94,0,0
20259,-82.0805497667264,4,1,0,94,0,0
20287,-81.9432015167927,4,1,0,94,0,0
20316,-81.8060830964814,4,1,0,94,0,0
20345,-81.6691941212105,4,1,0,94,0,0
20373,-81.5325342070417,4,1,0,95,0,0
20402,-81.3961029706791,4,1,0,95,0,0
20430,-81.259900029468,4,1,0,95,0,0
20459,-81.1239250013942,4,1,0,95,0,0
20487,-80.9881775050828,4,1,0,95,0,0
20516,-80.8526571597969,4,1,0,95,0,0
20545,-80.7173635854367,4,1,0,95,0,0
20573,-80.5822964025385,4,1,0,95,0,0
20602,-80.4474552322736,4,1,0,95,0,0
20630,-80.3128396964472,4,1,0,95,0,0
20659,-80.1784494174972,4,1,0,95,0,0
20687,-80.0442840184935,4,1,0,95,0,0
20716,-79.9103431231366,4,1,0,95,0,0
20745,-79.7766263557568,4,1,0,95,0,0
20773,-79.6431333413128,4,1,0,95,0,0
20802,-79.509863705391,4,1,0,96,0,0
20830,-79.3768170742044,4,1,0,96,0,0
20859,-79.2439930745914,4,1,0,96,0,0
20887,-79.1113913340148,4,1,0,96,0,0
20916,-78.9790114805607,4,1,0,96,0,0
20945,-78.8468531429376,4,1,0,96,0,0
20973,-78.7149159504756,4,1,0,96,0,0
21002,-78.5831995331245,4,1,0,96,0,0
21030,-78.4517035214537,4,1,0,96,0,0
21059,-78.3204275466508,4,1,0,96,0,0
21087,-78.1893712405201,4,1,0,96,0,0
21116,-78.0585342354827,4,1,0,96,0,0
21145,-77.9279161645742,4,1,0,96,0,0
21173,-77.7975166614446,4,1,0,96,0,0
21202,-77.6673353603567,4,1,0,97,0,0
21230,-77.5373718961855,4,1,0,97,0,0
21259,-77.4076259044168,4,1,0,97,0,0
21287,-77.2780970211465,4,1,0,97,0,0
21316,-77.1487848830793,4,1,0,97,0,0
21345,-77.019689127528,4,1,0,97,0,0
21373,-76.890809392412,4,1,0,97,0,0
21402,-76.7621453162569,4,1,0,97,0,0
21430,-76.6336965381931,4,1,0,97,0,0
21459,-76.5054626979545,4,1,0,97,0,0
21487,-76.3774434358785,4,1,0,97,0,0
21516,-76.2496383929037,4,1,0,97,0,0
21545,-76.1220472105699,4,1,0,97,0,0
21573,-75.9946695310165,4,1,0,97,0,0
21602,-75.8675049969821,4,1,0,98,0,0
21630,-75.7405532518026,4,1,0,98,0,0
21659,-75.6138139394112,4,1,0,98,0,0
21687,-75.4872867043365,4,1,0,98,0,0
21716,-75.3609711917022,4,1,0,98,0,0
21745,-75.2348670472258,4,1,0,98,0,0
21773,-75.1089739172175,4,1,0,98,0,0
21802,-74.9832914485794,4,1,0,98,0,0
21830,-74.8578192888046,4,1,0,98,0,0
21859,-74.7325570859759,4,1,0,98,0,0
21887,-74.6075044887649,4,1,0,98,0,0
21916,-74.4826611464314,4,1,0,98,0,0
21945,-74.3580267088217,4,1,0,98,0,0
21973,-74.2336008263683,4,1,0,98,0,0
22002,-74.1093831500886,4,1,0,98,0,0
22030,-73.985373331584,4,1,0,99,0,0
22059,-73.8615710230387,4,1,0,99,0,0
22087,-73.737975877219,4,1,0,99,0,0
22116,-73.6145875474725,4,1,0,99,0,0
22145,-73.4914056877265,4,1,0,99,0,0
22173,-73.3684299524876,4,1,0,99,0,0
22202,-73.2456599968403,4,1,0,99,0,0
22230,-73.1230954764467,4,1,0,99,0,0
22259,-73.0007360475446,4,1,0,99,0,0
22287,-72.8785813669473,4,1,0,99,0,0
22316,-72.7566310920423,4,1,0,99,0,0
22345,-72.6348848807904,4,1,0,99,0,0
22373,-72.5133423917249,4,1,0,99,0,0
22402,-72.3920032839502,4,1,0,99,0,0
22430,-72.2708672171414,4,1,0,100,0,0
22459,-72.1499338515428,4,1,0,100,0,0
22487,-72.0292028479676,4,1,0,100,0,0
22516,-71.9086738677962,4,1,0,100,0,0
22545,-71.7883465729758,4,1,0,100,0,0
22573,-71.6682206260193,4,1,0,100,0,0
22602,-71.5482956900044,4,1,0,100,0,0
22630,-71.4285714285723,4,1,0,100,0,0
23318,-111.111111111111,4,1,0,90,0,0
24003,-66.6666666666667,4,1,0,100,0,1
24032,-68.4931506849315,4,1,0,100,0,1
24089,-70.4225352112676,4,1,0,100,0,1
24146,-72.463768115942,4,1,0,100,0,1
24303,-83.3333333333333,4,1,0,100,0,1
24389,-80.6451612903226,4,1,0,100,0,1
24475,-78.125,4,1,0,100,0,1
24561,-75.7575757575758,4,1,0,100,0,1
24661,-66.6666666666667,4,1,0,100,0,1
24718,-68.4931506849315,4,1,0,100,0,1
24775,-70.4225352112676,4,1,0,100,0,1
24832,-72.463768115942,4,1,0,100,0,1
24989,-68.9655172413793,4,1,0,100,0,1
25161,-74.0740740740741,4,1,0,100,0,1
25246,-76.9230769230769,4,1,0,100,0,1
25346,-66.6666666666667,4,1,0,100,0,1
25403,-68.4931506849315,4,1,0,100,0,1
25460,-70.4225352112676,4,1,0,100,0,1
25517,-72.463768115942,4,1,0,100,0,1
25675,-83.3333333333333,4,1,0,100,0,1
25761,-80.6451612903226,4,1,0,100,0,1
25847,-78.125,4,1,0,100,0,1
25933,-75.7575757575758,4,1,0,100,0,1
26018,-73.5294117647059,4,1,0,100,0,1
26189,-80,4,1,0,100,0,1
26275,-78.125,4,1,0,100,0,1
26361,-76.3358778625954,4,1,0,100,0,1
26446,-74.6268656716418,4,1,0,100,0,1
26618,-71.4285714285714,4,1,0,100,0,1
26718,-66.6666666666667,4,1,0,100,0,1
26775,-68.4931506849315,4,1,0,100,0,1
26832,-70.4225352112676,4,1,0,100,0,1
26889,-72.463768115942,4,1,0,100,0,1
27046,-83.3333333333333,4,1,0,100,0,1
27132,-80.6451612903226,4,1,0,100,0,1
27218,-78.125,4,1,0,100,0,1
27304,-75.7575757575758,4,1,0,100,0,1
27403,-66.6666666666667,4,1,0,100,0,1
27460,-68.4931506849315,4,1,0,100,0,1
27517,-70.4225352112676,4,1,0,100,0,1
27574,-72.463768115942,4,1,0,100,0,1
27732,-68.9655172413793,4,1,0,100,0,1
27904,-72.992700729927,4,1,0,100,0,1
27989,-75.187969924812,4,1,0,100,0,1
28075,-77.5193798449612,4,1,0,100,0,1
28161,-80,4,1,0,100,0,1
28332,-85.4700854700855,4,1,0,100,0,1
28418,-88.4955752212389,4,1,0,100,0,1
28503,-91.743119266055,4,1,0,100,0,1
28675,-99.009900990099,4,1,0,100,0,1
28846,-107.52688172043,4,1,0,100,0,1
28931,-112.359550561798,4,1,0,100,0,1
29017,-117.647058823529,4,1,0,100,0,1
29103,-123.456790123457,4,1,0,100,0,1
29275,-50,4,1,0,100,0,1
29461,-66.6666666666667,4,1,0,100,0,1
29518,-68.4931506849315,4,1,0,100,0,1
29575,-70.4225352112676,4,1,0,100,0,1
29632,-72.463768115942,4,1,0,100,0,1
29789,-83.3333333333333,4,1,0,100,0,1
29875,-80.6451612903226,4,1,0,100,0,1
29961,-78.125,4,1,0,100,0,1
30047,-75.7575757575758,4,1,0,100,0,1
30147,-66.6666666666667,4,1,0,100,0,1
30204,-68.4931506849315,4,1,0,100,0,1
30261,-70.4225352112676,4,1,0,100,0,1
30318,-72.463768115942,4,1,0,100,0,1
30475,-68.9655172413793,4,1,0,100,0,1
30647,-74.0740740740741,4,1,0,100,0,1
30732,-76.9230769230769,4,1,0,100,0,1
30832,-66.6666666666667,4,1,0,100,0,1
30889,-68.4931506849315,4,1,0,100,0,1
30946,-70.4225352112676,4,1,0,100,0,1
31003,-72.463768115942,4,1,0,100,0,1
31161,-83.3333333333333,4,1,0,100,0,1
31247,-80.6451612903226,4,1,0,100,0,1
31333,-78.125,4,1,0,100,0,1
31419,-75.7575757575758,4,1,0,100,0,1
31504,-73.5294117647059,4,1,0,100,0,1
31675,-80,4,1,0,100,0,1
31761,-78.125,4,1,0,100,0,1
31847,-76.3358778625954,4,1,0,100,0,1
31932,-74.6268656716418,4,1,0,100,0,1
32104,-71.4285714285714,4,1,0,100,0,1
32203,-66.6666666666667,4,1,0,100,0,1
32260,-68.4931506849315,4,1,0,100,0,1
32317,-70.4225352112676,4,1,0,100,0,1
32374,-72.463768115942,4,1,0,100,0,1
32531,-83.3333333333333,4,1,0,100,0,1
32617,-80.6451612903226,4,1,0,100,0,1
32703,-78.125,4,1,0,100,0,1
32789,-75.7575757575758,4,1,0,100,0,1
32888,-66.6666666666667,4,1,0,100,0,1
32945,-68.4931506849315,4,1,0,100,0,1
33002,-70.4225352112676,4,1,0,100,0,1
33059,-72.463768115942,4,1,0,100,0,1
33217,-68.9655172413793,4,1,0,100,0,1
33389,-72.992700729927,4,1,0,100,0,1
33474,-75.187969924812,4,1,0,100,0,1
33561,-77.5193798449612,4,1,0,100,0,1
33646,-80,4,1,0,100,0,1
33732,-82.6446280991736,4,1,0,100,0,1
33818,-85.4700854700855,4,1,0,100,0,1
33905,-88.4955752212389,4,1,0,100,0,1
33990,-91.743119266055,4,1,0,100,0,1
34076,-95.2380952380952,4,1,0,100,0,1
34161,-99.009900990099,4,1,0,100,0,1
34248,-103.092783505155,4,1,0,100,0,1
34333,-107.52688172043,4,1,0,100,0,1
34419,-112.359550561798,4,1,0,100,0,1
34503,-117.647058823529,4,1,0,100,0,1
34589,-57.1428571428571,4,1,0,100,0,1
34932,-66.6666666666667,4,1,0,100,0,1
35003,-68.4931506849315,4,1,0,100,0,1
35060,-70.4225352112676,4,1,0,100,0,1
35117,-72.463768115942,4,1,0,100,0,1
35274,-83.3333333333333,4,1,0,100,0,1
35360,-80.6451612903226,4,1,0,100,0,1
35446,-78.125,4,1,0,100,0,1
35532,-75.7575757575758,4,1,0,100,0,1
35632,-66.6666666666667,4,1,0,100,0,1
35689,-68.4931506849315,4,1,0,100,0,1
35746,-70.4225352112676,4,1,0,100,0,1
35803,-72.463768115942,4,1,0,100,0,1
35960,-68.9655172413793,4,1,0,100,0,1
36132,-74.0740740740741,4,1,0,100,0,1
36217,-76.9230769230769,4,1,0,100,0,1
36317,-66.6666666666667,4,1,0,100,0,1
36374,-68.4931506849315,4,1,0,100,0,1
36431,-70.4225352112676,4,1,0,100,0,1
36488,-72.463768115942,4,1,0,100,0,1
36646,-83.3333333333333,4,1,0,100,0,1
36732,-80.6451612903226,4,1,0,100,0,1
36818,-78.125,4,1,0,100,0,1
36904,-75.7575757575758,4,1,0,100,0,1
36989,-73.5294117647059,4,1,0,100,0,1
37160,-80,4,1,0,100,0,1
37246,-78.125,4,1,0,100,0,1
37332,-76.3358778625954,4,1,0,100,0,1
37417,-74.6268656716418,4,1,0,100,0,1
37589,-71.4285714285714,4,1,0,100,0,1
37689,-66.6666666666667,4,1,0,100,0,1
37746,-68.4931506849315,4,1,0,100,0,1
37803,-70.4225352112676,4,1,0,100,0,1
37860,-72.463768115942,4,1,0,100,0,1
38017,-83.3333333333333,4,1,0,100,0,1
38103,-80.6451612903226,4,1,0,100,0,1
38189,-78.125,4,1,0,100,0,1
38275,-75.7575757575758,4,1,0,100,0,1
38374,-66.6666666666667,4,1,0,100,0,1
38431,-68.4931506849315,4,1,0,100,0,1
38488,-70.4225352112676,4,1,0,100,0,1
38545,-72.463768115942,4,1,0,100,0,1
38703,-68.9655172413793,4,1,0,100,0,1
38875,-72.992700729927,4,1,0,100,0,1
38960,-75.187969924812,4,1,0,100,0,1
39046,-77.5193798449612,4,1,0,100,0,1
39132,-80,4,1,0,100,0,1
39303,-85.4700854700855,4,1,0,100,0,1
39389,-88.4955752212389,4,1,0,100,0,1
39474,-91.743119266055,4,1,0,100,0,1
39646,-99.009900990099,4,1,0,100,0,1
39817,-107.52688172043,4,1,0,100,0,1
39902,-112.359550561798,4,1,0,100,0,1
39988,-117.647058823529,4,1,0,100,0,1
40074,-123.456790123457,4,1,0,100,0,1
40246,-50,4,1,0,100,0,1
40432,-66.6666666666667,4,1,0,100,0,1
40489,-68.4931506849315,4,1,0,100,0,1
40546,-70.4225352112676,4,1,0,100,0,1
40603,-72.463768115942,4,1,0,100,0,1
40760,-83.3333333333333,4,1,0,100,0,1
40846,-80.6451612903226,4,1,0,100,0,1
40932,-78.125,4,1,0,100,0,1
41018,-75.7575757575758,4,1,0,100,0,1
41118,-66.6666666666667,4,1,0,100,0,1
41175,-68.4931506849315,4,1,0,100,0,1
41232,-70.4225352112676,4,1,0,100,0,1
41289,-72.463768115942,4,1,0,100,0,1
41446,-68.9655172413793,4,1,0,100,0,1
41618,-74.0740740740741,4,1,0,100,0,1
41703,-76.9230769230769,4,1,0,100,0,1
41803,-66.6666666666667,4,1,0,100,0,1
41860,-68.4931506849315,4,1,0,100,0,1
41917,-70.4225352112676,4,1,0,100,0,1
41974,-72.463768115942,4,1,0,100,0,1
42132,-83.3333333333333,4,1,0,100,0,1
42218,-80.6451612903226,4,1,0,100,0,1
42304,-78.125,4,1,0,100,0,1
42390,-75.7575757575758,4,1,0,100,0,1
42475,-73.5294117647059,4,1,0,100,0,1
42646,-80,4,1,0,100,0,1
42732,-78.125,4,1,0,100,0,1
42818,-76.3358778625954,4,1,0,100,0,1
42903,-74.6268656716418,4,1,0,100,0,1
43075,-71.4285714285714,4,1,0,100,0,1
43174,-66.6666666666667,4,1,0,100,0,1
43231,-68.4931506849315,4,1,0,100,0,1
43288,-70.4225352112676,4,1,0,100,0,1
43345,-72.463768115942,4,1,0,100,0,1
43502,-83.3333333333333,4,1,0,100,0,1
43588,-80.6451612903226,4,1,0,100,0,1
43674,-78.125,4,1,0,100,0,1
43760,-75.7575757575758,4,1,0,100,0,1
43859,-66.6666666666667,4,1,0,100,0,1
43916,-68.4931506849315,4,1,0,100,0,1
43973,-70.4225352112676,4,1,0,100,0,1
44030,-72.463768115942,4,1,0,100,0,1
44189,-68.9655172413793,4,1,0,100,0,1
44361,-71.4285714285714,4,1,0,100,0,1
44446,-74.0740740740741,4,1,0,100,0,1
44573,-76.9230769230769,4,1,0,70,0,1
44575,-76.9230769230769,4,1,0,70,0,0
45218,-111.111111111111,4,1,0,70,0,0
45303,-105.263157894737,4,1,0,70,0,0
45389,-100,4,1,0,70,0,0
45475,-95.2380952380952,4,1,0,70,0,0
45561,-90.9090909090909,4,1,0,70,0,0
45732,-83.3333333333333,4,1,0,70,0,0
45861,-66.6666666666667,4,1,0,90,0,0
46030,-67.3159642914695,4,1,0,90,0,0
46115,-67.971585727356,4,1,0,90,0,0
46201,-68.6335925648589,4,1,0,90,0,0
46287,-69.3020469943696,4,1,0,90,0,0
46373,-69.977011811981,4,1,0,90,0,0
46458,-70.6585504253858,4,1,0,90,0,0
46544,-71.346726859834,4,1,0,90,0,0
46630,-72.0416057641473,4,1,0,90,0,0
46715,-72.743252416792,4,1,0,90,0,0
46801,-73.4517327320118,4,1,0,90,0,0
46887,-74.1671132660201,4,1,0,90,0,0
46973,-74.8894612232518,4,1,0,90,0,0
47058,-75.6188444626771,4,1,0,90,0,0
47144,-76.3553315041765,4,1,0,90,0,0
47230,-77.0989915349769,4,1,0,90,0,0
47315,-77.8498944161523,4,1,0,90,0,0
47401,-78.6081106891857,4,1,0,90,0,0
47487,-79.3737115825967,4,1,0,90,0,0
47573,-80.1467690186322,4,1,0,90,0,0
47658,-80.9273556200235,4,1,0,90,0,0
47744,-81.7155447168084,4,1,0,90,0,0
47830,-82.5114103532198,4,1,0,90,0,0
47915,-83.315027294642,4,1,0,90,0,0
48001,-84.126471034634,4,1,0,90,0,0
48087,-84.9458178020215,4,1,0,90,0,0
48173,-85.7731445680584,4,1,0,90,0,0
48258,-86.6085290536571,4,1,0,90,0,0
48344,-87.4520497366902,4,1,0,90,0,0
48430,-88.3037858593629,4,1,0,90,0,0
48515,-89.1638174356567,4,1,0,90,0,0
48601,-90.0322252588466,4,1,0,90,0,0
48687,-76.9230769230769,4,1,0,90,0,0
48773,-77.8121291652218,4,1,0,90,0,0
48858,-78.711456787927,4,1,0,90,0,0
48944,-79.6211785507443,4,1,0,90,0,0
49030,-80.5414145858101,4,1,0,90,0,0
49116,-81.4722864137095,4,1,0,90,0,0
49201,-82.4139169595236,4,1,0,90,0,0
49287,-83.366430569062,4,1,0,90,0,0
49373,-84.3299530252835,4,1,0,90,0,0
49458,-85.3046115649058,4,1,0,90,0,0
49544,-86.2905348952077,4,1,0,90,0,0
49630,-87.2878532110257,4,1,0,90,0,0
49716,-88.2966982119463,4,1,0,90,0,0
49801,-89.3172031196974,4,1,0,90,0,0
49887,-90.3495026957411,4,1,0,90,0,0
49973,-91.3937332590693,4,1,0,90,0,0
50058,-92.4500327042048,4,1,0,90,0,0
50144,-93.5185405194113,4,1,0,90,0,0
50230,-94.5993978051129,4,1,0,90,0,0
50316,-95.6927472925273,4,1,0,90,0,0
50401,-96.7987333625138,4,1,0,90,0,0
50487,-97.9175020646392,4,1,0,90,0,0
50573,-99.0492011364644,4,1,0,90,0,0
50658,-100.193980023054,4,1,0,90,0,0
50744,-101.35198989671,4,1,0,90,0,0
50830,-102.523383676935,4,1,0,90,0,0
50916,-103.708316050629,4,1,0,90,0,0
51001,-104.906943492509,4,1,0,90,0,0
51087,-106.119424285781,4,1,0,90,0,0
51173,-107.345918543034,4,1,0,90,0,0
51258,-108.586588227389,4,1,0,90,0,0
51344,-109.841597173884,4,1,0,90,0,0
51430,-90.9090909090909,4,1,0,90,0,0
51459,-90.7569695529972,4,1,0,90,0,0
51487,-90.6051027468803,4,1,0,90,0,0
51516,-90.4534900647928,4,1,0,90,0,0
51544,-90.3021310815,4,1,0,90,0,0
51573,-90.1510253724791,4,1,0,90,0,0
51601,-90.0001725139172,4,1,0,90,0,0
51630,-89.8495720827109,4,1,0,90,0,0
51659,-89.6992236564646,4,1,0,91,0,0
51687,-89.5491268134897,4,1,0,91,0,0
51716,-89.399281132803,4,1,0,91,0,0
51744,-89.2496861941261,4,1,0,91,0,0
51773,-89.1003415778834,4,1,0,91,0,0
51801,-88.9512468652018,4,1,0,91,0,0
51830,-88.8024016379088,4,1,0,91,0,0
51859,-88.6538054785319,4,1,0,91,0,0
51887,-88.505457970297,4,1,0,91,0,0
51916,-88.3573586971275,4,1,0,91,0,0
51944,-88.209507243643,4,1,0,91,0,0
51973,-88.0619031951581,4,1,0,91,0,0
52001,-87.9145461376815,4,1,0,91,0,0
52030,-87.7674356579144,4,1,0,91,0,0
52059,-87.6205713432497,4,1,0,92,0,0
52087,-87.4739527817709,4,1,0,92,0,0
52116,-87.3275795622504,4,1,0,92,0,0
52144,-87.1814512741491,4,1,0,92,0,0
52173,-87.0355675076147,4,1,0,92,0,0
52201,-86.8899278534806,4,1,0,92,0,0
52230,-86.7445319032651,4,1,0,92,0,0
52259,-86.5993792491699,4,1,0,92,0,0
52287,-86.4544694840791,4,1,0,92,0,0
52316,-86.309802201558,4,1,0,92,0,0
52344,-86.1653769958521,4,1,0,92,0,0
52373,-86.0211934618858,4,1,0,92,0,0
52401,-85.8772511952614,4,1,0,92,0,0
52430,-85.7335497922577,4,1,0,92,0,0
52459,-85.5900888498293,4,1,0,93,0,0
52487,-85.4468679656052,4,1,0,93,0,0
52516,-85.3038867378874,4,1,0,93,0,0
52544,-85.1611447656504,4,1,0,93,0,0
52573,-85.0186416485398,4,1,0,93,0,0
52601,-84.8763769868707,4,1,0,93,0,0
52630,-84.7343503816275,4,1,0,93,0,0
52659,-84.592561434462,4,1,0,93,0,0
52687,-84.4510097476927,4,1,0,93,0,0
52716,-84.3096949243034,4,1,0,93,0,0
52744,-84.1686165679423,4,1,0,93,0,0
52773,-84.027774282921,4,1,0,93,0,0
52801,-83.887167674213,4,1,0,93,0,0
52830,-83.7467963474529,4,1,0,93,0,0
52859,-83.6066599089353,4,1,0,93,0,0
52887,-83.4667579656133,4,1,0,94,0,0
52916,-83.3270901250981,4,1,0,94,0,0
52944,-83.1876559956572,4,1,0,94,0,0
52973,-83.0484551862137,4,1,0,94,0,0
53001,-82.9094873063452,4,1,0,94,0,0
53030,-82.7707519662824,4,1,0,94,0,0
53059,-82.6322487769083,4,1,0,94,0,0
53087,-82.4939773497571,4,1,0,94,0,0
53116,-82.355937297013,4,1,0,94,0,0
53144,-82.2181282315091,4,1,0,94,0,0
53173,-82.0805497667264,4,1,0,94,0,0
53201,-81.9432015167927,4,1,0,94,0,0
53230,-81.8060830964814,4,1,0,94,0,0
53259,-81.6691941212105,4,1,0,94,0,0
53287,-81.5325342070417,4,1,0,95,0,0
53316,-81.3961029706791,4,1,0,95,0,0
53344,-81.259900029468,4,1,0,95,0,0
53373,-81.1239250013942,4,1,0,95,0,0
53401,-80.9881775050828,4,1,0,95,0,0
53430,-80.8526571597969,4,1,0,95,0,0
53459,-80.7173635854367,4,1,0,95,0,0
53487,-80.5822964025385,4,1,0,95,0,0
53516,-80.4474552322736,4,1,0,95,0,0
53544,-80.3128396964472,4,1,0,95,0,0
53573,-80.1784494174972,4,1,0,95,0,0
53601,-80.0442840184935,4,1,0,95,0,0
53630,-79.9103431231366,4,1,0,95,0,0
53659,-79.7766263557568,4,1,0,95,0,0
53687,-79.6431333413128,4,1,0,95,0,0
53716,-79.509863705391,4,1,0,96,0,0
53744,-79.3768170742044,4,1,0,96,0,0
53773,-79.2439930745914,4,1,0,96,0,0
53801,-79.1113913340148,4,1,0,96,0,0
53830,-78.9790114805607,4,1,0,96,0,0
53859,-78.8468531429376,4,1,0,96,0,0
53887,-78.7149159504756,4,1,0,96,0,0
53916,-78.5831995331245,4,1,0,96,0,0
53944,-78.4517035214537,4,1,0,96,0,0
53973,-78.3204275466508,4,1,0,96,0,0
54001,-78.1893712405201,4,1,0,96,0,0
54030,-78.0585342354827,4,1,0,96,0,0
54059,-77.9279161645742,4,1,0,96,0,0
54087,-77.7975166614446,4,1,0,96,0,0
54116,-77.6673353603567,4,1,0,97,0,0
54144,-77.5373718961855,4,1,0,97,0,0
54173,-77.4076259044168,4,1,0,97,0,0
54201,-77.2780970211465,4,1,0,97,0,0
54230,-77.1487848830793,4,1,0,97,0,0
54259,-77.019689127528,4,1,0,97,0,0
54287,-76.890809392412,4,1,0,97,0,0
54316,-76.7621453162569,4,1,0,97,0,0
54344,-76.6336965381931,4,1,0,97,0,0
54373,-76.5054626979545,4,1,0,97,0,0
54401,-76.3774434358785,4,1,0,97,0,0
54430,-76.2496383929037,4,1,0,97,0,0
54459,-76.1220472105699,4,1,0,97,0,0
54487,-75.9946695310165,4,1,0,97,0,0
54516,-75.8675049969821,4,1,0,98,0,0
54544,-75.7405532518026,4,1,0,98,0,0
54573,-75.6138139394112,4,1,0,98,0,0
54601,-75.4872867043365,4,1,0,98,0,0
54630,-75.3609711917022,4,1,0,98,0,0
54659,-75.2348670472258,4,1,0,98,0,0
54687,-75.1089739172175,4,1,0,98,0,0
54716,-74.9832914485794,4,1,0,98,0,0
54744,-74.8578192888046,4,1,0,98,0,0
54773,-74.7325570859759,4,1,0,98,0,0
54801,-74.6075044887649,4,1,0,98,0,0
54830,-74.4826611464314,4,1,0,98,0,0
54859,-74.3580267088217,4,1,0,98,0,0
54887,-74.2336008263683,4,1,0,98,0,0
54916,-74.1093831500886,4,1,0,98,0,0
54944,-73.985373331584,4,1,0,99,0,0
54973,-73.8615710230387,4,1,0,99,0,0
55001,-73.737975877219,4,1,0,99,0,0
55030,-73.6145875474725,4,1,0,99,0,0
55059,-73.4914056877265,4,1,0,99,0,0
55087,-73.3684299524876,4,1,0,99,0,0
55116,-73.2456599968403,4,1,0,99,0,0
55144,-73.1230954764467,4,1,0,99,0,0
55173,-73.0007360475446,4,1,0,99,0,0
55201,-72.8785813669473,4,1,0,99,0,0
55230,-72.7566310920423,4,1,0,99,0,0
55259,-72.6348848807904,4,1,0,99,0,0
55287,-72.5133423917249,4,1,0,99,0,0
55316,-72.3920032839502,4,1,0,99,0,0
55344,-72.2708672171414,4,1,0,100,0,0
55373,-72.1499338515428,4,1,0,100,0,0
55401,-72.0292028479676,4,1,0,100,0,0
55430,-71.9086738677962,4,1,0,100,0,0
55459,-71.7883465729758,4,1,0,100,0,0
55487,-71.6682206260193,4,1,0,100,0,0
55516,-71.5482956900044,4,1,0,100,0,0
55544,-71.4285714285723,4,1,0,100,0,0
56232,-90.9090909090909,4,1,0,90,0,0
56918,-166.666666666667,4,1,0,100,0,1
62146,-66.6666666666667,4,1,0,100,0,1
62318,-166.666666666667,4,1,0,100,0,1
66516,-142.857142857143,4,1,0,100,0,1
66602,-139.89641570047,4,1,0,100,0,1
66687,-136.997049880872,4,1,0,100,0,1
66773,-134.157773679108,4,1,0,100,0,1
66859,-131.377341732434,4,1,0,100,0,1
66945,-128.654534488364,4,1,0,100,0,1
67030,-125.988157669742,4,1,0,100,0,1
67116,-123.377041750919,4,1,0,100,0,1
67202,-120.820041444766,4,1,0,100,0,1
67287,-118.316035200335,4,1,0,100,0,1
67373,-115.863924710923,4,1,0,100,0,1
67459,-113.462634432331,4,1,0,100,0,1
67545,-111.111111111111,4,1,0,100,0,1
67803,-147.058823529412,4,1,0,100,0,1
67975,-161.290322580645,4,1,0,100,0,1
68146,-178.571428571429,4,1,0,100,0,1
68318,-200,4,1,0,100,0,1
73118,-66.6666666666667,4,1,0,100,0,1
73289,-200,4,1,0,100,0,1
75346,-100,4,1,0,100,0,1
75518,-200,4,1,0,100,0,1
77146,-200,4,1,0,100,0,0
77446,-200,4,1,0,70,0,0
78859,-250,4,1,0,50,0,0
83489,-100,4,1,0,60,0,0
84175,-125,4,1,0,80,0,0
89745,-111.111111111111,4,1,0,90,0,0
95316,-100,4,1,0,90,0,0
100800,-90.9090909090909,4,1,0,90,0,0
100829,-90.7569695529972,4,1,0,90,0,0
100857,-90.6051027468803,4,1,0,90,0,0
100886,-90.4534900647928,4,1,0,90,0,0
100914,-90.3021310815,4,1,0,90,0,0
100943,-90.1510253724791,4,1,0,90,0,0
100971,-90.0001725139172,4,1,0,90,0,0
101000,-89.8495720827109,4,1,0,90,0,0
101029,-89.6992236564646,4,1,0,91,0,0
101057,-89.5491268134897,4,1,0,91,0,0
101086,-89.399281132803,4,1,0,91,0,0
101114,-89.2496861941261,4,1,0,91,0,0
101143,-89.1003415778834,4,1,0,91,0,0
101171,-88.9512468652018,4,1,0,91,0,0
101200,-88.8024016379088,4,1,0,91,0,0
101229,-88.6538054785319,4,1,0,91,0,0
101257,-88.505457970297,4,1,0,91,0,0
101286,-88.3573586971275,4,1,0,91,0,0
101314,-88.209507243643,4,1,0,91,0,0
101343,-88.0619031951581,4,1,0,91,0,0
101371,-87.9145461376815,4,1,0,91,0,0
101400,-87.7674356579144,4,1,0,91,0,0
101429,-87.6205713432497,4,1,0,92,0,0
101457,-87.4739527817709,4,1,0,92,0,0
101486,-87.3275795622504,4,1,0,92,0,0
101514,-87.1814512741491,4,1,0,92,0,0
101543,-87.0355675076147,4,1,0,92,0,0
101571,-86.8899278534806,4,1,0,92,0,0
101600,-86.7445319032651,4,1,0,92,0,0
101629,-86.5993792491699,4,1,0,92,0,0
101657,-86.4544694840791,4,1,0,92,0,0
101686,-86.309802201558,4,1,0,92,0,0
101714,-86.1653769958521,4,1,0,92,0,0
101743,-86.0211934618858,4,1,0,92,0,0
101771,-85.8772511952614,4,1,0,92,0,0
101800,-85.7335497922577,4,1,0,92,0,0
101829,-85.5900888498293,4,1,0,93,0,0
101857,-85.4468679656052,4,1,0,93,0,0
101886,-85.3038867378874,4,1,0,93,0,0
101914,-85.1611447656504,4,1,0,93,0,0
101943,-85.0186416485398,4,1,0,93,0,0
101971,-84.8763769868707,4,1,0,93,0,0
102000,-84.7343503816275,4,1,0,93,0,0
102029,-84.592561434462,4,1,0,93,0,0
102057,-84.4510097476927,4,1,0,93,0,0
102086,-84.3096949243034,4,1,0,93,0,0
102114,-84.1686165679423,4,1,0,93,0,0
102143,-84.027774282921,4,1,0,93,0,0
102171,-83.887167674213,4,1,0,93,0,0
102200,-83.7467963474529,4,1,0,93,0,0
102229,-83.6066599089353,4,1,0,93,0,0
102257,-83.4667579656133,4,1,0,94,0,0
102286,-83.3270901250981,4,1,0,94,0,0
102314,-83.1876559956572,4,1,0,94,0,0
102343,-83.0484551862137,4,1,0,94,0,0
102371,-82.9094873063452,4,1,0,94,0,0
102400,-82.7707519662824,4,1,0,94,0,0
102429,-82.6322487769083,4,1,0,94,0,0
102457,-82.4939773497571,4,1,0,94,0,0
102486,-82.355937297013,4,1,0,94,0,0
102514,-82.2181282315091,4,1,0,94,0,0
102543,-82.0805497667264,4,1,0,94,0,0
102571,-81.9432015167927,4,1,0,94,0,0
102600,-81.8060830964814,4,1,0,94,0,0
102629,-81.6691941212105,4,1,0,94,0,0
102657,-81.5325342070417,4,1,0,95,0,0
102686,-81.3961029706791,4,1,0,95,0,0
102714,-81.259900029468,4,1,0,95,0,0
102743,-81.1239250013942,4,1,0,95,0,0
102771,-80.9881775050828,4,1,0,95,0,0
102800,-80.8526571597969,4,1,0,95,0,0
102829,-80.7173635854367,4,1,0,95,0,0
102857,-80.5822964025385,4,1,0,95,0,0
102886,-80.4474552322736,4,1,0,95,0,0
102914,-80.3128396964472,4,1,0,95,0,0
102943,-80.1784494174972,4,1,0,95,0,0
102971,-80.0442840184935,4,1,0,95,0,0
103000,-79.9103431231366,4,1,0,95,0,0
103029,-79.7766263557568,4,1,0,95,0,0
103057,-79.6431333413128,4,1,0,95,0,0
103086,-79.509863705391,4,1,0,96,0,0
103114,-79.3768170742044,4,1,0,96,0,0
103143,-79.2439930745914,4,1,0,96,0,0
103171,-79.1113913340148,4,1,0,96,0,0
103200,-78.9790114805607,4,1,0,96,0,0
103229,-78.8468531429376,4,1,0,96,0,0
103257,-78.7149159504756,4,1,0,96,0,0
103286,-78.5831995331245,4,1,0,96,0,0
103314,-78.4517035214537,4,1,0,96,0,0
103343,-78.3204275466508,4,1,0,96,0,0
103371,-78.1893712405201,4,1,0,96,0,0
103400,-78.0585342354827,4,1,0,96,0,0
103429,-77.9279161645742,4,1,0,96,0,0
103457,-77.7975166614446,4,1,0,96,0,0
103486,-77.6673353603567,4,1,0,97,0,0
103514,-77.5373718961855,4,1,0,97,0,0
103543,-77.4076259044168,4,1,0,97,0,0
103571,-77.2780970211465,4,1,0,97,0,0
103600,-77.1487848830793,4,1,0,97,0,0
103629,-77.019689127528,4,1,0,97,0,0
103657,-76.890809392412,4,1,0,97,0,0
103686,-76.7621453162569,4,1,0,97,0,0
103714,-76.6336965381931,4,1,0,97,0,0
103743,-76.5054626979545,4,1,0,97,0,0
103771,-76.3774434358785,4,1,0,97,0,0
103800,-76.2496383929037,4,1,0,97,0,0
103829,-76.1220472105699,4,1,0,97,0,0
103857,-75.9946695310165,4,1,0,97,0,0
103886,-75.8675049969821,4,1,0,98,0,0
103914,-75.7405532518026,4,1,0,98,0,0
103943,-75.6138139394112,4,1,0,98,0,0
103971,-75.4872867043365,4,1,0,98,0,0
104000,-75.3609711917022,4,1,0,98,0,0
104029,-75.2348670472258,4,1,0,98,0,0
104057,-75.1089739172175,4,1,0,98,0,0
104086,-74.9832914485794,4,1,0,98,0,0
104114,-74.8578192888046,4,1,0,98,0,0
104143,-74.7325570859759,4,1,0,98,0,0
104171,-74.6075044887649,4,1,0,98,0,0
104200,-74.4826611464314,4,1,0,98,0,0
104229,-74.3580267088217,4,1,0,98,0,0
104257,-74.2336008263683,4,1,0,98,0,0
104286,-74.1093831500886,4,1,0,98,0,0
104314,-73.985373331584,4,1,0,99,0,0
104343,-73.8615710230387,4,1,0,99,0,0
104371,-73.737975877219,4,1,0,99,0,0
104400,-73.6145875474725,4,1,0,99,0,0
104429,-73.4914056877265,4,1,0,99,0,0
104457,-73.3684299524876,4,1,0,99,0,0
104486,-73.2456599968403,4,1,0,99,0,0
104514,-73.1230954764467,4,1,0,99,0,0
104543,-73.0007360475446,4,1,0,99,0,0
104571,-72.8785813669473,4,1,0,99,0,0
104600,-72.7566310920423,4,1,0,99,0,0
104629,-72.6348848807904,4,1,0,99,0,0
104657,-72.5133423917249,4,1,0,99,0,0
104686,-72.3920032839502,4,1,0,99,0,0
104714,-72.2708672171414,4,1,0,100,0,0
104743,-72.1499338515428,4,1,0,100,0,0
104771,-72.0292028479676,4,1,0,100,0,0
104800,-71.9086738677962,4,1,0,100,0,0
104829,-71.7883465729758,4,1,0,100,0,0
104857,-71.6682206260193,4,1,0,100,0,0
104886,-71.5482956900044,4,1,0,100,0,0
104914,-71.4285714285723,4,1,0,100,0,0
105602,-111.111111111111,4,1,0,90,0,0
106289,-100,4,1,0,100,0,1
106461,-100,4,1,0,100,0,0
106975,-100,4,1,0,100,0,1
107146,-100,4,1,0,100,0,0
107661,-100,4,1,0,100,0,1
107832,-100,4,1,0,100,0,0
109032,-100,4,1,0,100,0,1
109203,-100,4,1,0,100,0,0
109718,-100,4,1,0,100,0,1
109889,-100,4,1,0,100,0,0
110401,-125,4,1,0,90,0,0
110487,-121.431697457582,4,1,0,90,0,0
110572,-117.965257179437,4,1,0,90,0,0
110658,-114.597771362554,4,1,0,90,0,0
110744,-111.326415211286,4,1,0,90,0,0
110830,-108.148444567792,4,1,0,90,0,0
110915,-105.061193610113,4,1,0,90,0,0
111001,-102.062072615966,4,1,0,90,0,0
111087,-99.1485657903655,4,1,0,90,0,0
111172,-96.3182291552703,4,1,0,90,0,0
111258,-93.5686884994625,4,1,0,90,0,0
111344,-90.8976373869555,4,1,0,90,0,0
111430,-88.3028352222539,4,1,0,90,0,0
111515,-85.7821053708434,4,1,0,90,0,0
111601,-83.3333333333332,4,1,0,90,0,0
111775,-58.8235294117647,4,1,0,100,0,1
111803,-60.2409638554217,4,1,0,100,0,1
111860,-61.7283950617284,4,1,0,100,0,1
111917,-63.2911392405063,4,1,0,100,0,1
112074,-83.3333333333333,4,1,0,100,0,1
112160,-80.6451612903226,4,1,0,100,0,1
112246,-78.125,4,1,0,100,0,1
112332,-75.7575757575758,4,1,0,100,0,1
112432,-58.8235294117647,4,1,0,100,0,1
112489,-60.2409638554217,4,1,0,100,0,1
112546,-61.7283950617284,4,1,0,100,0,1
112603,-63.2911392405063,4,1,0,100,0,1
112760,-68.9655172413793,4,1,0,100,0,1
112932,-74.0740740740741,4,1,0,100,0,1
113017,-76.9230769230769,4,1,0,100,0,1
113117,-58.8235294117647,4,1,0,100,0,1
113174,-60.2409638554217,4,1,0,100,0,1
113231,-61.7283950617284,4,1,0,100,0,1
113288,-63.2911392405063,4,1,0,100,0,1
113446,-83.3333333333333,4,1,0,100,0,1
113532,-80.6451612903226,4,1,0,100,0,1
113618,-78.125,4,1,0,100,0,1
113704,-75.7575757575758,4,1,0,100,0,1
113789,-73.5294117647059,4,1,0,100,0,1
113960,-80,4,1,0,100,0,1
114046,-78.125,4,1,0,100,0,1
114132,-76.3358778625954,4,1,0,100,0,1
114217,-74.6268656716418,4,1,0,100,0,1
114389,-71.4285714285714,4,1,0,100,0,1
114489,-58.8235294117647,4,1,0,100,0,1
114546,-60.2409638554217,4,1,0,100,0,1
114603,-61.7283950617284,4,1,0,100,0,1
114660,-63.2911392405063,4,1,0,100,0,1
114816,-83.3333333333333,4,1,0,100,0,1
114902,-80.6451612903226,4,1,0,100,0,1
114988,-78.125,4,1,0,100,0,1
115074,-75.7575757575758,4,1,0,100,0,1
115175,-58.8235294117647,4,1,0,100,0,1
115232,-60.2409638554217,4,1,0,100,0,1
115289,-61.7283950617284,4,1,0,100,0,1
115346,-63.2911392405063,4,1,0,100,0,1
115502,-68.9655172413793,4,1,0,100,0,1
115674,-74.0740740740741,4,1,0,100,0,1
115759,-76.9230769230769,4,1,0,100,0,1
115846,-80,4,1,0,100,0,1
115931,-83.3333333333333,4,1,0,100,0,1
116017,-86.9565217391304,4,1,0,100,0,1
116103,-90.9090909090909,4,1,0,100,0,1
116190,-95.2380952380952,4,1,0,100,0,1
116275,-100,4,1,0,100,0,1
116361,-105.263157894737,4,1,0,100,0,1
116446,-111.111111111111,4,1,0,100,0,1
116533,-117.647058823529,4,1,0,100,0,1
116618,-125,4,1,0,100,0,1
116704,-133.333333333333,4,1,0,100,0,1
116788,-142.857142857143,4,1,0,100,0,1
116874,-50,4,1,0,100,0,1
117232,-58.8235294117647,4,1,0,100,0,1
117289,-60.2409638554217,4,1,0,100,0,1
117346,-61.7283950617284,4,1,0,100,0,1
117403,-63.2911392405063,4,1,0,100,0,1
117559,-83.3333333333333,4,1,0,100,0,1
117645,-80.6451612903226,4,1,0,100,0,1
117731,-78.125,4,1,0,100,0,1
117817,-75.7575757575758,4,1,0,100,0,1
117918,-58.8235294117647,4,1,0,100,0,1
117975,-60.2409638554217,4,1,0,100,0,1
118032,-61.7283950617284,4,1,0,100,0,1
118089,-63.2911392405063,4,1,0,100,0,1
118245,-68.9655172413793,4,1,0,100,0,1
118417,-74.0740740740741,4,1,0,100,0,1
118502,-76.9230769230769,4,1,0,100,0,1
118603,-58.8235294117647,4,1,0,100,0,1
118660,-60.2409638554217,4,1,0,100,0,1
118717,-61.7283950617284,4,1,0,100,0,1
118774,-63.2911392405063,4,1,0,100,0,1
118931,-83.3333333333333,4,1,0,100,0,1
119017,-80.6451612903226,4,1,0,100,0,1
119103,-78.125,4,1,0,100,0,1
119189,-75.7575757575758,4,1,0,100,0,1
119274,-73.5294117647059,4,1,0,100,0,1
119445,-80,4,1,0,100,0,1
119531,-78.125,4,1,0,100,0,1
119617,-76.3358778625954,4,1,0,100,0,1
119702,-74.6268656716418,4,1,0,100,0,1
119874,-71.4285714285714,4,1,0,100,0,1
119975,-58.8235294117647,4,1,0,100,0,1
120032,-60.2409638554217,4,1,0,100,0,1
120089,-61.7283950617284,4,1,0,100,0,1
120146,-63.2911392405063,4,1,0,100,0,1
120302,-83.3333333333333,4,1,0,100,0,1
120388,-80.6451612903226,4,1,0,100,0,1
120474,-78.125,4,1,0,100,0,1
120560,-75.7575757575758,4,1,0,100,0,1
120661,-58.8235294117647,4,1,0,100,0,1
120718,-60.2409638554217,4,1,0,100,0,1
120775,-61.7283950617284,4,1,0,100,0,1
120832,-63.2911392405063,4,1,0,100,0,1
120988,-68.9655172413793,4,1,0,100,0,1
121160,-72.992700729927,4,1,0,100,0,1
121245,-75.187969924812,4,1,0,100,0,1
121331,-77.5193798449612,4,1,0,100,0,1
121417,-80,4,1,0,100,0,1
121588,-85.4700854700855,4,1,0,100,0,1
121674,-88.4955752212389,4,1,0,100,0,1
121759,-91.743119266055,4,1,0,100,0,1
121931,-99.009900990099,4,1,0,100,0,1
122102,-107.52688172043,4,1,0,100,0,1
122187,-112.359550561798,4,1,0,100,0,1
122273,-117.647058823529,4,1,0,100,0,1
122359,-123.456790123457,4,1,0,100,0,1
122546,-40,4,1,0,100,0,1
122717,-58.8235294117647,4,1,0,100,0,1
122774,-60.2409638554217,4,1,0,100,0,1
122831,-61.7283950617284,4,1,0,100,0,1
122888,-63.2911392405063,4,1,0,100,0,1
123045,-83.3333333333333,4,1,0,100,0,1
123131,-80.6451612903226,4,1,0,100,0,1
123217,-78.125,4,1,0,100,0,1
123303,-75.7575757575758,4,1,0,100,0,1
123403,-58.8235294117647,4,1,0,100,0,1
123460,-60.2409638554217,4,1,0,100,0,1
123517,-61.7283950617284,4,1,0,100,0,1
123574,-63.2911392405063,4,1,0,100,0,1
123731,-68.9655172413793,4,1,0,100,0,1
123903,-74.0740740740741,4,1,0,100,0,1
123988,-76.9230769230769,4,1,0,100,0,1
124089,-58.8235294117647,4,1,0,100,0,1
124146,-60.2409638554217,4,1,0,100,0,1
124203,-61.7283950617284,4,1,0,100,0,1
124260,-63.2911392405063,4,1,0,100,0,1
124417,-83.3333333333333,4,1,0,100,0,1
124503,-80.6451612903226,4,1,0,100,0,1
124589,-78.125,4,1,0,100,0,1
124675,-75.7575757575758,4,1,0,100,0,1
124760,-73.5294117647059,4,1,0,100,0,1
124931,-80,4,1,0,100,0,1
125017,-78.125,4,1,0,100,0,1
125103,-76.3358778625954,4,1,0,100,0,1
125188,-74.6268656716418,4,1,0,100,0,1
125360,-71.4285714285714,4,1,0,100,0,1
125461,-58.8235294117647,4,1,0,100,0,1
125518,-60.2409638554217,4,1,0,100,0,1
125575,-61.7283950617284,4,1,0,100,0,1
125632,-63.2911392405063,4,1,0,100,0,1
125787,-83.3333333333333,4,1,0,100,0,1
125873,-80.6451612903226,4,1,0,100,0,1
125959,-78.125,4,1,0,100,0,1
126045,-75.7575757575758,4,1,0,100,0,1
126146,-58.8235294117647,4,1,0,100,0,1
126203,-60.2409638554217,4,1,0,100,0,1
126260,-61.7283950617284,4,1,0,100,0,1
126317,-63.2911392405063,4,1,0,100,0,1
126474,-68.9655172413793,4,1,0,100,0,1
126646,-71.4285714285714,4,1,0,100,0,1
126731,-74.0740740740741,4,1,0,100,0,1
126845,-76.9230769230769,4,1,0,70,0,1
126861,-76.9230769230769,4,1,0,70,0,0
127503,-111.111111111111,4,1,0,70,0,0
127588,-105.263157894737,4,1,0,70,0,0
127674,-100,4,1,0,70,0,0
127760,-95.2380952380952,4,1,0,70,0,0
127846,-90.9090909090909,4,1,0,70,0,0
128017,-83.3333333333333,4,1,0,70,0,0
128146,-50,4,1,0,90,0,0

[HitObjects]
256,192,2061,5,4,0:0:0:0:
256,192,2318,1,8,0:0:0:0:
256,192,2575,1,8,0:0:0:0:
256,192,2746,1,0,0:0:0:0:
256,192,3003,1,8,0:0:0:0:
256,192,3261,1,8,0:0:0:0:
256,192,3432,1,0,0:0:0:0:
256,192,3689,1,8,0:0:0:0:
256,192,3946,1,8,0:0:0:0:
256,192,4118,1,0,0:0:0:0:
256,192,4375,1,8,0:0:0:0:
256,192,4632,1,8,0:0:0:0:
256,192,4803,1,4,0:0:0:0:
256,192,5061,1,8,0:0:0:0:
256,192,5318,1,8,0:0:0:0:
256,192,5489,1,0,0:0:0:0:
256,192,5746,1,8,0:0:0:0:
256,192,6003,1,8,0:0:0:0:
256,192,6175,1,0,0:0:0:0:
256,192,6432,1,8,0:0:0:0:
256,192,6689,1,8,0:0:0:0:
256,192,6861,1,0,0:0:0:0:
256,192,7118,1,8,0:0:0:0:
256,192,7375,1,8,0:0:0:0:
256,192,7546,1,4,0:0:0:0:
256,192,7803,1,8,0:0:0:0:
256,192,7889,1,0,0:0:0:0:
256,192,8061,1,8,0:0:0:0:
256,192,8232,1,0,0:0:0:0:
256,192,8318,1,0,0:0:0:0:
256,192,8489,1,8,0:0:0:0:
256,192,8575,1,0,0:0:0:0:
256,192,8746,1,8,0:0:0:0:
256,192,8832,1,8,0:0:0:0:
256,192,8918,1,0,0:0:0:0:
256,192,9003,1,8,0:0:0:0:
256,192,9175,1,8,0:0:0:0:
256,192,9261,1,0,0:0:0:0:
256,192,9432,1,8,0:0:0:0:
256,192,9603,1,0,0:0:0:0:
256,192,9775,1,0,0:0:0:0:
256,192,9861,1,8,0:0:0:0:
256,192,9946,1,0,0:0:0:0:
256,192,10118,1,8,0:0:0:0:
256,192,10289,1,4,0:0:0:0:
256,192,10546,1,8,0:0:0:0:
256,192,10632,1,0,0:0:0:0:
256,192,10803,1,8,0:0:0:0:
256,192,10889,1,8,0:0:0:0:
256,192,10975,1,0,0:0:0:0:
256,192,11061,1,0,0:0:0:0:
256,192,11232,1,8,0:0:0:0:
256,192,11318,1,0,0:0:0:0:
256,192,11489,1,8,0:0:0:0:
256,192,11661,1,0,0:0:0:0:
256,192,11746,1,8,0:0:0:0:
256,192,11918,1,8,0:0:0:0:
256,192,12003,1,0,0:0:0:0:
256,192,12089,1,0,0:0:0:0:
256,192,12175,1,8,0:0:0:0:
256,192,12346,1,0,0:0:0:0:
256,192,12432,1,0,0:0:0:0:
256,192,12518,1,0,0:0:0:0:
256,192,12603,1,8,0:0:0:0:
256,192,12689,1,0,0:0:0:0:
256,192,12861,1,8,0:0:0:0:
256,192,13032,1,4,0:0:0:0:
256,192,13203,1,8,0:0:0:0:
256,192,13375,1,0,0:0:0:0:
256,192,13461,1,0,0:0:0:0:
256,192,13632,1,0,0:0:0:0:
256,192,13718,1,8,0:0:0:0:
256,192,13889,1,8,0:0:0:0:
256,192,14061,1,0,0:0:0:0:
256,192,14146,1,0,0:0:0:0:
256,192,14232,1,8,0:0:0:0:
256,192,14318,1,0,0:0:0:0:
256,192,14489,1,0,0:0:0:0:
256,192,14575,1,8,0:0:0:0:
256,192,14746,1,0,0:0:0:0:
256,192,14832,1,0,0:0:0:0:
256,192,15003,1,0,0:0:0:0:
256,192,15089,1,8,0:0:0:0:
256,192,15261,1,8,0:0:0:0:
256,192,15432,1,0,0:0:0:0:
256,192,15518,1,0,0:0:0:0:
256,192,15689,1,0,0:0:0:0:
256,192,15861,1,0,0:0:0:0:
256,192,15946,1,8,0:0:0:0:
256,192,16032,1,8,0:0:0:0:
256,192,16118,1,0,0:0:0:0:
256,192,16203,1,0,0:0:0:0:
256,192,16375,1,0,0:0:0:0:
256,192,16461,1,8,0:0:0:0:
256,192,16632,1,8,0:0:0:0:
256,192,16718,1,8,0:0:0:0:
256,192,16803,1,0,0:0:0:0:
256,192,16889,1,0,0:0:0:0:
256,192,16975,1,8,0:0:0:0:
256,192,17061,1,0,0:0:0:0:
256,192,17232,1,0,0:0:0:0:
256,192,17318,1,8,0:0:0:0:
256,192,17489,1,0,0:0:0:0:
256,192,17575,1,0,0:0:0:0:
256,192,17746,1,0,0:0:0:0:
256,192,17832,1,8,0:0:0:0:
256,192,17918,1,8,0:0:0:0:
256,192,18089,1,0,0:0:0:0:
256,192,18261,1,8,0:0:0:0:
256,192,18346,1,8,0:0:0:0:
256,192,18518,1,4,0:0:0:0:
256,192,18689,1,8,0:0:0:0:
256,192,18861,1,0,0:0:0:0:
256,192,18946,1,8,0:0:0:0:
256,192,19032,1,8,0:0:0:0:
256,192,19118,1,8,0:0:0:0:
256,192,19203,1,0,0:0:0:0:
256,192,19375,1,8,0:0:0:0:
256,192,19546,1,0,0:0:0:0:
256,192,19632,1,8,0:0:0:0:
256,192,19718,1,8,0:0:0:0:
256,192,19803,1,8,0:0:0:0:
256,192,19889,1,0,0:0:0:0:
256,192,20061,1,8,0:0:0:0:
256,192,20232,1,0,0:0:0:0:
256,192,20318,1,8,0:0:0:0:
256,192,20403,1,8,0:0:0:0:
256,192,20489,1,8,0:0:0:0:
256,192,20575,1,0,0:0:0:0:
256,192,20746,1,8,0:0:0:0:
256,192,20918,1,0,0:0:0:0:
256,192,21003,1,8,0:0:0:0:
256,192,21089,1,8,0:0:0:0:
256,192,21175,1,8,0:0:0:0:
256,192,21261,1,0,0:0:0:0:
256,192,21346,1,0,0:0:0:0:
256,192,21432,1,8,0:0:0:0:
256,192,21518,1,8,0:0:0:0:
256,192,21603,1,0,0:0:0:0:
256,192,21689,1,0,0:0:0:0:
256,192,21775,1,8,0:0:0:0:
256,192,21861,1,8,0:0:0:0:
256,192,21946,1,0,0:0:0:0:
256,192,22032,1,0,0:0:0:0:
256,192,22118,1,0,0:0:0:0:
256,192,22203,1,8,0:0:0:0:
256,192,22289,1,0,0:0:0:0:
256,192,22375,1,0,0:0:0:0:
256,192,22461,1,0,0:0:0:0:
256,192,22546,1,8,0:0:0:0:
256,192,22632,1,0,0:0:0:0:
256,192,23661,1,8,0:0:0:0:
256,192,24003,1,0,0:0:0:0:
256,192,24061,1,0,0:0:0:0:
256,192,24118,1,0,0:0:0:0:
256,192,24175,1,8,0:0:0:0:
256,192,24346,1,0,0:0:0:0:
256,192,24432,1,0,0:0:0:0:
256,192,24518,1,8,0:0:0:0:
256,192,24603,1,8,0:0:0:0:
256,192,24689,1,0,0:0:0:0:
256,192,24746,1,0,0:0:0:0:
256,192,24803,1,0,0:0:0:0:
256,192,24861,1,8,0:0:0:0:
256,192,25032,1,0,0:0:0:0:
256,192,25203,1,8,0:0:0:0:
256,192,25289,1,8,0:0:0:0:
256,192,25375,1,0,0:0:0:0:
256,192,25432,1,0,0:0:0:0:
256,192,25489,1,0,0:0:0:0:
256,192,25546,1,8,0:0:0:0:
256,192,25718,1,0,0:0:0:0:
256,192,25803,1,0,0:0:0:0:
256,192,25889,1,8,0:0:0:0:
256,192,25975,1,8,0:0:0:0:
256,192,26061,1,0,0:0:0:0:
256,192,26232,1,8,0:0:0:0:
256,192,26318,1,8,0:0:0:0:
256,192,26403,1,0,0:0:0:0:
256,192,26489,1,8,0:0:0:0:
256,192,26661,1,8,0:0:0:0:
256,192,26746,1,0,0:0:0:0:
256,192,26803,1,0,0:0:0:0:
256,192,26861,1,0,0:0:0:0:
256,192,26918,1,8,0:0:0:0:
256,192,27089,1,0,0:0:0:0:
256,192,27175,1,0,0:0:0:0:
256,192,27261,1,8,0:0:0:0:
256,192,27346,1,8,0:0:0:0:
256,192,27432,1,0,0:0:0:0:
256,192,27489,1,0,0:0:0:0:
256,192,27546,1,0,0:0:0:0:
256,192,27603,1,8,0:0:0:0:
256,192,27775,1,0,0:0:0:0:
256,192,27946,1,8,0:0:0:0:
256,192,28032,1,8,0:0:0:0:
256,192,28118,1,0,0:0:0:0:
256,192,28203,1,0,0:0:0:0:
256,192,28375,1,0,0:0:0:0:
256,192,28461,1,8,0:0:0:0:
256,192,28546,1,8,0:0:0:0:
256,192,28718,1,0,0:0:0:0:
256,192,28889,1,8,0:0:0:0:
256,192,28975,1,8,0:0:0:0:
256,192,29061,1,8,0:0:0:0:
256,192,29146,1,0,0:0:0:0:
256,192,29318,1,12,0:0:0:0:
256,192,29489,1,0,0:0:0:0:
256,192,29546,1,0,0:0:0:0:
256,192,29603,1,0,0:0:0:0:
256,192,29661,1,8,0:0:0:0:
256,192,29832,1,8,0:0:0:0:
256,192,29918,1,0,0:0:0:0:
256,192,30003,1,8,0:0:0:0:
256,192,30089,1,8,0:0:0:0:
256,192,30175,1,0,0:0:0:0:
256,192,30232,1,0,0:0:0:0:
256,192,30289,1,0,0:0:0:0:
256,192,30346,1,8,0:0:0:0:
256,192,30518,1,0,0:0:0:0:
256,192,30689,1,8,0:0:0:0:
256,192,30775,1,8,0:0:0:0:
256,192,30861,1,0,0:0:0:0:
256,192,30918,1,0,0:0:0:0:
256,192,30975,1,0,0:0:0:0:
256,192,31032,1,8,0:0:0:0:
256,192,31203,1,8,0:0:0:0:
256,192,31289,1,0,0:0:0:0:
256,192,31375,1,8,0:0:0:0:
256,192,31461,1,8,0:0:0:0:
256,192,31546,1,0,0:0:0:0:
256,192,31718,1,8,0:0:0:0:
256,192,31803,1,8,0:0:0:0:
256,192,31889,1,0,0:0:0:0:
256,192,31975,1,8,0:0:0:0:
256,192,32146,1,8,0:0:0:0:
256,192,32232,1,0,0:0:0:0:
256,192,32289,1,0,0:0:0:0:
256,192,32346,1,0,0:0:0:0:
256,192,32403,1,8,0:0:0:0:
256,192,32575,1,8,0:0:0:0:
256,192,32661,1,0,0:0:0:0:
256,192,32746,1,8,0:0:0:0:
256,192,32832,1,8,0:0:0:0:
256,192,32918,1,0,0:0:0:0:
256,192,32975,1,0,0:0:0:0:
256,192,33032,1,0,0:0:0:0:
256,192,33089,1,8,0:0:0:0:
256,192,33261,1,0,0:0:0:0:
256,192,33432,1,8,0:0:0:0:
256,192,33518,1,8,0:0:0:0:
256,192,33603,1,0,0:0:0:0:
256,192,33689,1,0,0:0:0:0:
256,192,33775,1,0,0:0:0:0:
256,192,33861,1,0,0:0:0:0:
256,192,33946,1,0,0:0:0:0:
256,192,34032,1,0,0:0:0:0:
256,192,34118,1,0,0:0:0:0:
256,192,34203,1,0,0:0:0:0:
256,192,34289,1,0,0:0:0:0:
256,192,34375,1,0,0:0:0:0:
256,192,34461,1,0,0:0:0:0:
256,192,34546,1,0,0:0:0:0:
256,192,34632,1,8,0:0:0:0:
256,192,34975,1,8,0:0:0:0:
256,192,35032,1,8,0:0:0:0:
256,192,35089,1,8,0:0:0:0:
256,192,35146,1,0,0:0:0:0:
256,192,35318,1,8,0:0:0:0:
256,192,35403,1,8,0:0:0:0:
256,192,35489,1,0,0:0:0:0:
256,192,35575,1,0,0:0:0:0:
256,192,35661,1,8,0:0:0:0:
256,192,35718,1,8,0:0:0:0:
256,192,35775,1,8,0:0:0:0:
256,192,35832,1,0,0:0:0:0:
256,192,36003,1,8,0:0:0:0:
256,192,36175,1,0,0:0:0:0:
256,192,36261,1,0,0:0:0:0:
256,192,36346,1,8,0:0:0:0:
256,192,36403,1,8,0:0:0:0:
256,192,36461,1,8,0:0:0:0:
256,192,36518,1,0,0:0:0:0:
256,192,36689,1,8,0:0:0:0:
256,192,36775,1,8,0:0:0:0:
256,192,36861,1,0,0:0:0:0:
256,192,36946,1,0,0:0:0:0:
256,192,37032,1,8,0:0:0:0:
256,192,37203,1,0,0:0:0:0:
256,192,37289,1,0,0:0:0:0:
256,192,37375,1,8,0:0:0:0:
256,192,37461,1,0,0:0:0:0:
256,192,37632,1,0,0:0:0:0:
256,192,37718,1,8,0:0:0:0:
256,192,37775,1,8,0:0:0:0:
256,192,37832,1,8,0:0:0:0:
256,192,37889,1,0,0:0:0:0:
256,192,38061,1,8,0:0:0:0:
256,192,38146,1,8,0:0:0:0:
256,192,38232,1,0,0:0:0:0:
256,192,38318,1,0,0:0:0:0:
256,192,38403,1,8,0:0:0:0:
256,192,38461,1,8,0:0:0:0:
256,192,38518,1,8,0:0:0:0:
256,192,38575,1,0,0:0:0:0:
256,192,38746,1,8,0:0:0:0:
256,192,38918,1,0,0:0:0:0:
256,192,39003,1,0,0:0:0:0:
256,192,39089,1,8,0:0:0:0:
256,192,39175,1,8,0:0:0:0:
256,192,39346,1,0,0:0:0:0:
256,192,39432,1,8,0:0:0:0:
256,192,39518,1,8,0:0:0:0:
256,192,39689,1,0,0:0:0:0:
256,192,39861,1,8,0:0:0:0:
256,192,39946,1,8,0:0:0:0:
256,192,40032,1,8,0:0:0:0:
256,192,40118,1,0,0:0:0:0:
256,192,40289,1,12,0:0:0:0:
256,192,40461,1,8,0:0:0:0:
256,192,40518,1,8,0:0:0:0:
256,192,40575,1,8,0:0:0:0:
256,192,40632,1,0,0:0:0:0:
256,192,40803,1,0,0:0:0:0:
256,192,40889,1,8,0:0:0:0:
256,192,40975,1,0,0:0:0:0:
256,192,41061,1,0,0:0:0:0:
256,192,41146,1,8,0:0:0:0:
256,192,41203,1,8,0:0:0:0:
256,192,41261,1,8,0:0:0:0:
256,192,41318,1,0,0:0:0:0:
256,192,41489,1,8,0:0:0:0:
256,192,41661,1,0,0:0:0:0:
256,192,41746,1,0,0:0:0:0:
256,192,41832,1,8,0:0:0:0:
256,192,41889,1,8,0:0:0:0:
256,192,41946,1,8,0:0:0:0:
256,192,42003,1,0,0:0:0:0:
256,192,42175,1,0,0:0:0:0:
256,192,42261,1,8,0:0:0:0:
256,192,42346,1,0,0:0:0:0:
256,192,42432,1,0,0:0:0:0:
256,192,42518,1,8,0:0:0:0:
256,192,42689,1,0,0:0:0:0:
256,192,42775,1,0,0:0:0:0:
256,192,42861,1,8,0:0:0:0:
256,192,42946,1,0,0:0:0:0:
256,192,43118,1,0,0:0:0:0:
256,192,43203,1,8,0:0:0:0:
256,192,43261,1,8,0:0:0:0:
256,192,43318,1,8,0:0:0:0:
256,192,43375,1,0,0:0:0:0:
256,192,43546,1,0,0:0:0:0:
256,192,43632,1,8,0:0:0:0:
256,192,43718,1,0,0:0:0:0:
256,192,43803,1,0,0:0:0:0:
256,192,43889,1,8,0:0:0:0:
256,192,43946,1,8,0:0:0:0:
256,192,44003,1,8,0:0:0:0:
256,192,44061,1,0,0:0:0:0:
256,192,44232,1,8,0:0:0:0:
256,192,44403,1,0,0:0:0:0:
256,192,44489,1,0,0:0:0:0:
256,192,45261,1,8,0:0:0:0:
256,192,45346,1,8,0:0:0:0:
256,192,45432,1,8,0:0:0:0:
256,192,45518,1,8,0:0:0:0:
256,192,45603,1,8,0:0:0:0:
256,192,45775,1,8,0:0:0:0:
256,192,45946,1,4,0:0:0:0:
256,192,46203,1,8,0:0:0:0:
256,192,46289,1,0,0:0:0:0:
256,192,46461,1,8,0:0:0:0:
256,192,46803,1,8,0:0:0:0:
256,192,46889,1,8,0:0:0:0:
256,192,46975,1,0,0:0:0:0:
256,192,47146,1,8,0:0:0:0:
256,192,47318,1,0,0:0:0:0:
256,192,47575,1,8,0:0:0:0:
256,192,47661,1,0,0:0:0:0:
256,192,47832,1,8,0:0:0:0:
256,192,48175,1,8,0:0:0:0:
256,192,48261,1,8,0:0:0:0:
256,192,48346,1,0,0:0:0:0:
256,192,48518,1,8,0:0:0:0:
256,192,48689,1,0,0:0:0:0:
256,192,48946,1,8,0:0:0:0:
256,192,49032,1,0,0:0:0:0:
256,192,49203,1,8,0:0:0:0:
256,192,49546,1,8,0:0:0:0:
256,192,49632,1,8,0:0:0:0:
256,192,49718,1,0,0:0:0:0:
256,192,49889,1,8,0:0:0:0:
256,192,50061,1,0,0:0:0:0:
256,192,50318,1,8,0:0:0:0:
256,192,50403,1,0,0:0:0:0:
256,192,50575,1,8,0:0:0:0:
256,192,50918,1,8,0:0:0:0:
256,192,51003,1,8,0:0:0:0:
256,192,51089,1,0,0:0:0:0:
256,192,51261,1,8,0:0:0:0:
256,192,51432,1,0,0:0:0:0:
256,192,51603,1,0,0:0:0:0:
256,192,51689,1,0,0:0:0:0:
256,192,51775,1,8,0:0:0:0:
256,192,51946,1,8,0:0:0:0:
256,192,52118,1,0,0:0:0:0:
256,192,52289,1,0,0:0:0:0:
256,192,52375,1,0,0:0:0:0:
256,192,52461,1,8,0:0:0:0:
256,192,52632,1,8,0:0:0:0:
256,192,52803,1,0,0:0:0:0:
256,192,52975,1,8,0:0:0:0:
256,192,53061,1,0,0:0:0:0:
256,192,53146,1,8,0:0:0:0:
256,192,53318,1,8,0:0:0:0:
256,192,53489,1,0,0:0:0:0:
256,192,53661,1,8,0:0:0:0:
256,192,53746,1,0,0:0:0:0:
256,192,53832,1,8,0:0:0:0:
256,192,54003,1,0,0:0:0:0:
256,192,54175,1,8,0:0:0:0:
256,192,54261,1,8,0:0:0:0:
256,192,54346,1,0,0:0:0:0:
256,192,54432,1,0,0:0:0:0:
256,192,54518,1,8,0:0:0:0:
256,192,54603,1,8,0:0:0:0:
256,192,54689,1,0,0:0:0:0:
256,192,54775,1,0,0:0:0:0:
256,192,54861,1,8,0:0:0:0:
256,192,54946,1,8,0:0:0:0:
256,192,55032,1,8,0:0:0:0:
256,192,55118,1,0,0:0:0:0:
256,192,55203,1,8,0:0:0:0:
256,192,55289,1,8,0:0:0:0:
256,192,55375,1,8,0:0:0:0:
256,192,55461,1,0,0:0:0:0:
256,192,55546,1,8,0:0:0:0:
256,192,56575,1,8,0:0:0:0:
256,192,56918,1,8,0:0:0:0:
256,192,57003,1,8,0:0:0:0:
256,192,57175,1,0,0:0:0:0:
256,192,57261,1,8,0:0:0:0:
256,192,57432,1,0,0:0:0:0:
256,192,57603,1,8,0:0:0:0:
256,192,57689,1,8,0:0:0:0:
256,192,57861,1,0,0:0:0:0:
256,192,57946,1,8,0:0:0:0:
256,192,58032,1,8,0:0:0:0:
256,192,58118,1,0,0:0:0:0:
256,192,58289,1,8,0:0:0:0:
256,192,58375,1,8,0:0:0:0:
256,192,58546,1,0,0:0:0:0:
256,192,58632,1,8,0:0:0:0:
256,192,58718,1,8,0:0:0:0:
256,192,58803,1,0,0:0:0:0:
256,192,58889,1,0,0:0:0:0:
256,192,58975,1,8,0:0:0:0:
256,192,59146,1,0,0:0:0:0:
256,192,59232,1,0,0:0:0:0:
256,192,59318,1,8,0:0:0:0:
256,192,59403,1,0,0:0:0:0:
256,192,59575,1,0,0:0:0:0:
256,192,59661,1,8,0:0:0:0:
256,192,59746,1,8,0:0:0:0:
256,192,59918,1,0,0:0:0:0:
256,192,60003,1,8,0:0:0:0:
256,192,60175,1,0,0:0:0:0:
256,192,60346,1,8,0:0:0:0:
256,192,60432,1,8,0:0:0:0:
256,192,60603,1,0,0:0:0:0:
256,192,60689,1,8,0:0:0:0:
256,192,60861,1,0,0:0:0:0:
256,192,60946,1,0,0:0:0:0:
256,192,61032,1,8,0:0:0:0:
256,192,61118,1,0,0:0:0:0:
256,192,61289,1,0,0:0:0:0:
256,192,61375,1,8,0:0:0:0:
256,192,61461,1,8,0:0:0:0:
256,192,61632,1,0,0:0:0:0:
256,192,61803,1,8,0:0:0:0:
256,192,61889,1,8,0:0:0:0:
256,192,61975,1,8,0:0:0:0:
256,192,62061,1,0,0:0:0:0:
256,192,62232,1,12,0:0:0:0:
256,192,62403,1,0,0:0:0:0:
256,192,62489,1,0,0:0:0:0:
256,192,62661,1,8,0:0:0:0:
256,192,62746,1,0,0:0:0:0:
256,192,62918,1,8,0:0:0:0:
256,192,63089,1,0,0:0:0:0:
256,192,63175,1,0,0:0:0:0:
256,192,63346,1,8,0:0:0:0:
256,192,63432,1,0,0:0:0:0:
256,192,63518,1,0,0:0:0:0:
256,192,63603,1,8,0:0:0:0:
256,192,63775,1,0,0:0:0:0:
256,192,63861,1,0,0:0:0:0:
256,192,64032,1,8,0:0:0:0:
256,192,64118,1,0,0:0:0:0:
256,192,64203,1,0,0:0:0:0:
256,192,64289,1,8,0:0:0:0:
256,192,64375,1,8,0:0:0:0:
256,192,64461,1,0,0:0:0:0:
256,192,64632,1,8,0:0:0:0:
256,192,64718,1,8,0:0:0:0:
256,192,64803,1,0,0:0:0:0:
256,192,64889,1,8,0:0:0:0:
256,192,65061,1,8,0:0:0:0:
256,192,65146,1,0,0:0:0:0:
256,192,65232,1,0,0:0:0:0:
256,192,65403,1,8,0:0:0:0:
256,192,65489,1,0,0:0:0:0:
256,192,65661,1,8,0:0:0:0:
256,192,65832,1,0,0:0:0:0:
256,192,65918,1,0,0:0:0:0:
256,192,66089,1,8,0:0:0:0:
256,192,66175,1,0,0:0:0:0:
256,192,66346,1,8,0:0:0:0:
256,192,66518,1,0,0:0:0:0:
256,192,66603,1,0,0:0:0:0:
256,192,66689,1,8,0:0:0:0:
256,192,66775,1,8,0:0:0:0:
256,192,66861,1,0,0:0:0:0:
256,192,66946,1,8,0:0:0:0:
256,192,67032,1,0,0:0:0:0:
256,192,67118,1,0,0:0:0:0:
256,192,67203,1,8,0:0:0:0:
256,192,67289,1,8,0:0:0:0:
256,192,67375,1,0,0:0:0:0:
256,192,67461,1,0,0:0:0:0:
256,192,67546,1,8,0:0:0:0:
256,192,67889,1,4,0:0:0:0:
256,192,68061,1,4,0:0:0:0:
256,192,68232,1,4,0:0:0:0:
256,192,68403,1,8,0:0:0:0:
256,192,68489,1,0,0:0:0:0:
256,192,68575,1,8,0:0:0:0:
256,192,68661,1,8,0:0:0:0:
256,192,68832,1,0,0:0:0:0:
256,192,68918,1,8,0:0:0:0:
256,192,69089,1,0,0:0:0:0:
256,192,69175,1,0,0:0:0:0:
256,192,69261,1,8,0:0:0:0:
256,192,69346,1,8,0:0:0:0:
256,192,69518,1,0,0:0:0:0:
256,192,69603,1,8,0:0:0:0:
256,192,69775,1,8,0:0:0:0:
256,192,69946,1,0,0:0:0:0:
256,192,70032,1,0,0:0:0:0:
256,192,70118,1,0,0:0:0:0:
256,192,70289,1,8,0:0:0:0:
256,192,70375,1,8,0:0:0:0:
256,192,70461,1,8,0:0:0:0:
256,192,70546,1,0,0:0:0:0:
256,192,70632,1,8,0:0:0:0:
256,192,70718,1,8,0:0:0:0:
256,192,70803,1,0,0:0:0:0:
256,192,70975,1,8,0:0:0:0:
256,192,71146,1,0,0:0:0:0:
256,192,71232,1,0,0:0:0:0:
256,192,71318,1,8,0:0:0:0:
256,192,71403,1,8,0:0:0:0:
256,192,71575,1,0,0:0:0:0:
256,192,71661,1,8,0:0:0:0:
256,192,71832,1,0,0:0:0:0:
256,192,71918,1,0,0:0:0:0:
256,192,72003,1,8,0:0:0:0:
256,192,72089,1,0,0:0:0:0:
256,192,72261,1,0,0:0:0:0:
256,192,72346,1,8,0:0:0:0:
256,192,72432,1,8,0:0:0:0:
256,192,72603,1,0,0:0:0:0:
256,192,72775,1,8,0:0:0:0:
256,192,72861,1,8,0:0:0:0:
256,192,72946,1,8,0:0:0:0:
256,192,73032,1,0,0:0:0:0:
256,192,73203,1,12,0:0:0:0:
256,192,73375,1,0,0:0:0:0:
256,192,73461,1,0,0:0:0:0:
256,192,73632,1,8,0:0:0:0:
256,192,73718,1,0,0:0:0:0:
256,192,73889,1,8,0:0:0:0:
256,192,74061,1,0,0:0:0:0:
256,192,74146,1,0,0:0:0:0:
256,192,74318,1,8,0:0:0:0:
256,192,74403,1,0,0:0:0:0:
256,192,74489,1,0,0:0:0:0:
256,192,74575,1,8,0:0:0:0:
256,192,74746,1,0,0:0:0:0:
256,192,74832,1,0,0:0:0:0:
256,192,75003,1,8,0:0:0:0:
256,192,75089,1,0,0:0:0:0:
256,192,75261,1,0,0:0:0:0:
256,192,75432,1,4,0:0:0:0:
256,192,75775,1,8,0:0:0:0:
256,192,75861,1,0,0:0:0:0:
256,192,75946,1,8,0:0:0:0:
256,192,76032,1,8,0:0:0:0:
256,192,76118,1,0,0:0:0:0:
256,192,76203,1,0,0:0:0:0:
256,192,76375,1,8,0:0:0:0:
256,192,76461,1,0,0:0:0:0:
256,192,76632,1,8,0:0:0:0:
256,192,76803,1,0,0:0:0:0:
256,192,76889,1,0,0:0:0:0:
256,192,77061,1,8,0:0:0:0:
256,192,77146,1,0,0:0:0:0:
256,192,83661,5,8,0:0:0:0:
256,192,83746,1,8,0:0:0:0:
256,192,83832,1,8,0:0:0:0:
256,192,84003,1,8,0:0:0:0:
256,192,84346,5,4,0:0:0:0:
256,192,84603,1,8,0:0:0:0:
256,192,84861,1,8,0:0:0:0:
256,192,85032,1,0,0:0:0:0:
256,192,85289,1,8,0:0:0:0:
256,192,85546,1,8,0:0:0:0:
256,192,85718,1,0,0:0:0:0:
256,192,85975,1,8,0:0:0:0:
256,192,86232,1,8,0:0:0:0:
256,192,86403,1,0,0:0:0:0:
256,192,86661,1,8,0:0:0:0:
256,192,86918,1,8,0:0:0:0:
256,192,87089,1,4,0:0:0:0:
256,192,87346,1,8,0:0:0:0:
256,192,87603,1,8,0:0:0:0:
256,192,87775,1,0,0:0:0:0:
256,192,88032,1,8,0:0:0:0:
256,192,88289,1,8,0:0:0:0:
256,192,88461,1,0,0:0:0:0:
256,192,88718,1,8,0:0:0:0:
256,192,88975,1,8,0:0:0:0:
256,192,89146,1,0,0:0:0:0:
256,192,89403,1,8,0:0:0:0:
256,192,89661,1,8,0:0:0:0:
256,192,89832,1,4,0:0:0:0:
256,192,90089,1,8,0:0:0:0:
256,192,90175,1,0,0:0:0:0:
256,192,90346,1,8,0:0:0:0:
256,192,90518,1,0,0:0:0:0:
256,192,90603,1,0,0:0:0:0:
256,192,90775,1,8,0:0:0:0:
256,192,90861,1,0,0:0:0:0:
256,192,91032,1,8,0:0:0:0:
256,192,91118,1,8,0:0:0:0:
256,192,91203,1,0,0:0:0:0:
256,192,91289,1,8,0:0:0:0:
256,192,91461,1,8,0:0:0:0:
256,192,91546,1,0,0:0:0:0:
256,192,91718,1,8,0:0:0:0:
256,192,91889,1,0,0:0:0:0:
256,192,92061,1,0,0:0:0:0:
256,192,92146,1,8,0:0:0:0:
256,192,92232,1,0,0:0:0:0:
256,192,92403,1,8,0:0:0:0:
256,192,92575,1,4,0:0:0:0:
256,192,92832,1,8,0:0:0:0:
256,192,92918,1,0,0:0:0:0:
256,192,93089,1,8,0:0:0:0:
256,192,93175,1,8,0:0:0:0:
256,192,93261,1,0,0:0:0:0:
256,192,93346,1,0,0:0:0:0:
256,192,93518,1,8,0:0:0:0:
256,192,93603,1,0,0:0:0:0:
256,192,93775,1,8,0:0:0:0:
256,192,93946,1,0,0:0:0:0:
256,192,94032,1,8,0:0:0:0:
256,192,94203,1,8,0:0:0:0:
256,192,94289,1,0,0:0:0:0:
256,192,94375,1,0,0:0:0:0:
256,192,94461,1,8,0:0:0:0:
256,192,94632,1,0,0:0:0:0:
256,192,94718,1,0,0:0:0:0:
256,192,94803,1,0,0:0:0:0:
256,192,94889,1,8,0:0:0:0:
256,192,94975,1,0,0:0:0:0:
256,192,95146,1,8,0:0:0:0:
256,192,95318,1,4,0:0:0:0:
256,192,95489,1,8,0:0:0:0:
256,192,95661,1,0,0:0:0:0:
256,192,95746,1,0,0:0:0:0:
256,192,95918,1,0,0:0:0:0:
256,192,96003,1,8,0:0:0:0:
256,192,96175,1,8,0:0:0:0:
256,192,96346,1,0,0:0:0:0:
256,192,96432,1,0,0:0:0:0:
256,192,96518,1,8,0:0:0:0:
256,192,96603,1,0,0:0:0:0:
256,192,96775,1,0,0:0:0:0:
256,192,96861,1,8,0:0:0:0:
256,192,97032,1,0,0:0:0:0:
256,192,97118,1,0,0:0:0:0:
256,192,97289,1,0,0:0:0:0:
256,192,97375,1,8,0:0:0:0:
256,192,97546,1,8,0:0:0:0:
256,192,97718,1,0,0:0:0:0:
256,192,97803,1,0,0:0:0:0:
256,192,97975,1,0,0:0:0:0:
256,192,98146,1,0,0:0:0:0:
256,192,98232,1,8,0:0:0:0:
256,192,98318,1,8,0:0:0:0:
256,192,98403,1,0,0:0:0:0:
256,192,98489,1,0,0:0:0:0:
256,192,98661,1,0,0:0:0:0:
256,192,98746,1,8,0:0:0:0:
256,192,98918,1,8,0:0:0:0:
256,192,99003,1,8,0:0:0:0:
256,192,99089,1,0,0:0:0:0:
256,192,99175,1,0,0:0:0:0:
256,192,99261,1,8,0:0:0:0:
256,192,99346,1,0,0:0:0:0:
256,192,99518,1,0,0:0:0:0:
256,192,99603,1,8,0:0:0:0:
256,192,99775,1,0,0:0:0:0:
256,192,99861,1,0,0:0:0:0:
256,192,100032,1,0,0:0:0:0:
256,192,100118,1,8,0:0:0:0:
256,192,100203,1,8,0:0:0:0:
256,192,100375,1,0,0:0:0:0:
256,192,100546,1,8,0:0:0:0:
256,192,100632,1,8,0:0:0:0:
256,192,100803,1,4,0:0:0:0:
256,192,100975,1,8,0:0:0:0:
256,192,101146,1,0,0:0:0:0:
256,192,101232,1,8,0:0:0:0:
256,192,101318,1,8,0:0:0:0:
256,192,101403,1,8,0:0:0:0:
256,192,101489,1,0,0:0:0:0:
256,192,101661,1,8,0:0:0:0:
256,192,101832,1,0,0:0:0:0:
256,192,101918,1,8,0:0:0:0:
256,192,102003,1,8,0:0:0:0:
256,192,102089,1,8,0:0:0:0:
256,192,102175,1,0,0:0:0:0:
256,192,102346,1,8,0:0:0:0:
256,192,102518,1,0,0:0:0:0:
256,192,102603,1,8,0:0:0:0:
256,192,102689,1,8,0:0:0:0:
256,192,102775,1,8,0:0:0:0:
256,192,102861,1,0,0:0:0:0:
256,192,103032,1,8,0:0:0:0:
256,192,103203,1,0,0:0:0:0:
256,192,103289,1,8,0:0:0:0:
256,192,103375,1,8,0:0:0:0:
256,192,103461,1,8,0:0:0:0:
256,192,103546,1,0,0:0:0:0:
256,192,103632,1,0,0:0:0:0:
256,192,103718,1,8,0:0:0:0:
256,192,103803,1,8,0:0:0:0:
256,192,103889,1,0,0:0:0:0:
256,192,103975,1,0,0:0:0:0:
256,192,104061,1,8,0:0:0:0:
256,192,104146,1,8,0:0:0:0:
256,192,104232,1,0,0:0:0:0:
256,192,104318,1,0,0:0:0:0:
256,192,104403,1,0,0:0:0:0:
256,192,104489,1,8,0:0:0:0:
256,192,104575,1,0,0:0:0:0:
256,192,104661,1,0,0:0:0:0:
256,192,104746,1,0,0:0:0:0:
256,192,104832,1,8,0:0:0:0:
256,192,104918,1,0,0:0:0:0:
256,192,105946,1,8,0:0:0:0:
256,192,106289,1,4,0:0:0:0:
256,192,106975,1,4,0:0:0:0:
256,192,107661,1,4,0:0:0:0:
256,192,108346,1,0,0:0:0:0:
256,192,108689,1,0,0:0:0:0:
256,192,109032,1,4,0:0:0:0:
256,192,109718,1,4,0:0:0:0:
256,192,110403,1,8,0:0:0:0:
256,192,110489,1,8,0:0:0:0:
256,192,110575,1,8,0:0:0:0:
256,192,110661,1,8,0:0:0:0:
256,192,110746,1,8,0:0:0:0:
256,192,110832,1,8,0:0:0:0:
256,192,110918,1,8,0:0:0:0:
256,192,111003,1,8,0:0:0:0:
256,192,111089,1,8,0:0:0:0:
256,192,111175,1,8,0:0:0:0:
256,192,111261,1,8,0:0:0:0:
256,192,111346,1,8,0:0:0:0:
256,192,111432,1,0,0:0:0:0:
256,192,111518,1,0,0:0:0:0:
256,192,111603,1,8,0:0:0:0:
256,192,111775,1,0,0:0:0:0:
256,192,111832,1,0,0:0:0:0:
256,192,111889,1,0,0:0:0:0:
256,192,111946,1,8,0:0:0:0:
256,192,112118,1,8,0:0:0:0:
256,192,112203,1,0,0:0:0:0:
256,192,112289,1,8,0:0:0:0:
256,192,112375,1,8,0:0:0:0:
256,192,112461,1,0,0:0:0:0:
256,192,112518,1,0,0:0:0:0:
256,192,112575,1,0,0:0:0:0:
256,192,112632,1,8,0:0:0:0:
256,192,112803,1,0,0:0:0:0:
256,192,112975,1,8,0:0:0:0:
256,192,113061,1,8,0:0:0:0:
256,192,113146,1,0,0:0:0:0:
256,192,113203,1,0,0:0:0:0:
256,192,113261,1,0,0:0:0:0:
256,192,113318,1,8,0:0:0:0:
256,192,113489,1,8,0:0:0:0:
256,192,113575,1,0,0:0:0:0:
256,192,113661,1,8,0:0:0:0:
256,192,113746,1,8,0:0:0:0:
256,192,113832,1,0,0:0:0:0:
256,192,114003,1,8,0:0:0:0:
256,192,114089,1,8,0:0:0:0:
256,192,114175,1,0,0:0:0:0:
256,192,114261,1,8,0:0:0:0:
256,192,114432,1,8,0:0:0:0:
256,192,114518,1,0,0:0:0:0:
256,192,114575,1,0,0:0:0:0:
256,192,114632,1,0,0:0:0:0:
256,192,114689,1,8,0:0:0:0:
256,192,114861,1,8,0:0:0:0:
256,192,114946,1,0,0:0:0:0:
256,192,115032,1,8,0:0:0:0:
256,192,115118,1,8,0:0:0:0:
256,192,115203,1,0,0:0:0:0:
256,192,115261,1,0,0:0:0:0:
256,192,115318,1,0,0:0:0:0:
256,192,115375,1,8,0:0:0:0:
256,192,115546,1,0,0:0:0:0:
256,192,115718,1,8,0:0:0:0:
256,192,115803,1,8,0:0:0:0:
256,192,115889,1,0,0:0:0:0:
256,192,115975,1,0,0:0:0:0:
256,192,116061,1,0,0:0:0:0:
256,192,116146,1,0,0:0:0:0:
256,192,116232,1,0,0:0:0:0:
256,192,116318,1,0,0:0:0:0:
256,192,116403,1,0,0:0:0:0:
256,192,116489,1,0,0:0:0:0:
256,192,116575,1,0,0:0:0:0:
256,192,116661,1,0,0:0:0:0:
256,192,116746,1,0,0:0:0:0:
256,192,116832,1,0,0:0:0:0:
256,192,116918,1,8,0:0:0:0:
256,192,117261,1,8,0:0:0:0:
256,192,117318,1,8,0:0:0:0:
256,192,117375,1,8,0:0:0:0:
256,192,117432,1,0,0:0:0:0:
256,192,117603,1,8,0:0:0:0:
256,192,117689,1,8,0:0:0:0:
256,192,117775,1,0,0:0:0:0:
256,192,117861,1,0,0:0:0:0:
256,192,117946,1,8,0:0:0:0:
256,192,118003,1,8,0:0:0:0:
256,192,118061,1,8,0:0:0:0:
256,192,118118,1,0,0:0:0:0:
256,192,118289,1,8,0:0:0:0:
256,192,118461,1,0,0:0:0:0:
256,192,118546,1,0,0:0:0:0:
256,192,118632,1,8,0:0:0:0:
256,192,118689,1,8,0:0:0:0:
256,192,118746,1,8,0:0:0:0:
256,192,118803,1,0,0:0:0:0:
256,192,118975,1,8,0:0:0:0:
256,192,119061,1,8,0:0:0:0:
256,192,119146,1,0,0:0:0:0:
256,192,119232,1,0,0:0:0:0:
256,192,119318,1,8,0:0:0:0:
256,192,119489,1,0,0:0:0:0:
256,192,119575,1,0,0:0:0:0:
256,192,119661,1,8,0:0:0:0:
256,192,119746,1,0,0:0:0:0:
256,192,119918,1,0,0:0:0:0:
256,192,120003,1,8,0:0:0:0:
256,192,120061,1,8,0:0:0:0:
256,192,120118,1,8,0:0:0:0:
256,192,120175,1,0,0:0:0:0:
256,192,120346,1,8,0:0:0:0:
256,192,120432,1,8,0:0:0:0:
256,192,120518,1,0,0:0:0:0:
256,192,120603,1,0,0:0:0:0:
256,192,120689,1,8,0:0:0:0:
256,192,120746,1,8,0:0:0:0:
256,192,120803,1,8,0:0:0:0:
256,192,120861,1,0,0:0:0:0:
256,192,121032,1,8,0:0:0:0:
256,192,121203,1,0,0:0:0:0:
256,192,121289,1,0,0:0:0:0:
256,192,121375,1,8,0:0:0:0:
256,192,121461,1,8,0:0:0:0:
256,192,121632,1,0,0:0:0:0:
256,192,121718,1,8,0:0:0:0:
256,192,121803,1,8,0:0:0:0:
256,192,121975,1,0,0:0:0:0:
256,192,122146,1,8,0:0:0:0:
256,192,122232,1,8,0:0:0:0:
256,192,122318,1,8,0:0:0:0:
256,192,122403,1,0,0:0:0:0:
256,192,122575,1,12,0:0:0:0:
256,192,122746,1,8,0:0:0:0:
256,192,122803,1,8,0:0:0:0:
256,192,122861,1,8,0:0:0:0:
256,192,122918,1,0,0:0:0:0:
256,192,123089,1,0,0:0:0:0:
256,192,123175,1,8,0:0:0:0:
256,192,123261,1,0,0:0:0:0:
256,192,123346,1,0,0:0:0:0:
256,192,123432,1,8,0:0:0:0:
256,192,123489,1,8,0:0:0:0:
256,192,123546,1,8,0:0:0:0:
256,192,123603,1,0,0:0:0:0:
256,192,123775,1,8,0:0:0:0:
256,192,123946,1,0,0:0:0:0:
256,192,124032,1,0,0:0:0:0:
256,192,124118,1,8,0:0:0:0:
256,192,124175,1,8,0:0:0:0:
256,192,124232,1,8,0:0:0:0:
256,192,124289,1,0,0:0:0:0:
256,192,124461,1,0,0:0:0:0:
256,192,124546,1,8,0:0:0:0:
256,192,124632,1,0,0:0:0:0:
256,192,124718,1,0,0:0:0:0:
256,192,124803,1,8,0:0:0:0:
256,192,124975,1,0,0:0:0:0:
256,192,125061,1,0,0:0:0:0:
256,192,125146,1,8,0:0:0:0:
256,192,125232,1,0,0:0:0:0:
256,192,125403,1,0,0:0:0:0:
256,192,125489,1,8,0:0:0:0:
256,192,125546,1,8,0:0:0:0:
256,192,125603,1,8,0:0:0:0:
256,192,125661,1,0,0:0:0:0:
256,192,125832,1,0,0:0:0:0:
256,192,125918,1,8,0:0:0:0:
256,192,126003,1,0,0:0:0:0:
256,192,126089,1,0,0:0:0:0:
256,192,126175,1,8,0:0:0:0:
256,192,126232,1,8,0:0:0:0:
256,192,126289,1,8,0:0:0:0:
256,192,126346,1,0,0:0:0:0:
256,192,126518,1,8,0:0:0:0:
256,192,126689,1,0,0:0:0:0:
256,192,126775,1,0,0:0:0:0:
256,192,127546,1,8,0:0:0:0:
256,192,127632,1,8,0:0:0:0:
256,192,127718,1,8,0:0:0:0:
256,192,127803,1,8,0:0:0:0:
256,192,127889,1,8,0:0:0:0:
256,192,128061,1,8,0:0:0:0:
256,192,128232,1,4,0:0:0:0:
