osu file format v14

[General]
AudioFilename: audio.mp3
AudioLeadIn: 0
PreviewTime:84766
Countdown: 0
SampleSet: Soft
StackLeniency: 0.7
Mode: 0
LetterboxInBreaks: 0
WidescreenStoryboard: 1

[Editor]
Bookmarks: 72976,85444,97911
DistanceSpacing: 0.7
BeatDivisor: 8
GridSize: 32
TimelineZoom: 1.8

[Metadata]
Title:Qilin's Prance (Czaer, Hwan, Link, Brand_color Remix)
TitleUnicode:麟跃幽岩 (Czaer, Hwan, Link, Brand_color Remix)
Artist:IDIOTAPE
ArtistUnicode:IDIOTAPE
Creator:Present
Version:GlazeE's Hard
Source:原神
Tags:miHoYo Ganyu character demo theme ost soundtrack qilins the stellar moments video game instrumental rock concert 2021 麟躍幽岩 原神 甘雨 輝く星々 version AngelSnow [hatsune miku] [hatsune_miku] CoLouRed GlazeE Yorita Yoshino -ClariS- Erisu Lanzhu Mayuzumi Fuyuko Cubby cubbby Moecho Genshin Impact 陈致逸 @HOYO-MiX Yu-Peng Chen Brand color Brandcolor Brandcolour colour Melodies of an Endless Journey hoyoverse Czaer Hwan Link Brand_color
BeatmapID:3261176
BeatmapSetID:1596468

[Difficulty]
HPDrainRate:4
CircleSize:4
OverallDifficulty:6
ApproachRate:7.5
SliderMultiplier:1.4
SliderTickRate:1

[Events]
//Background and Video events
0,0,"sss.jpg",0,0
//Break Periods
2,50730,59055
//Storyboard Layer 0 (Background)
//Storyboard Layer 1 (Fail)
//Storyboard Layer 2 (Pass)
//Storyboard Layer 3 (Foreground)
//Storyboard Layer 4 (Overlay)
//Storyboard Sound Samples

[TimingPoints]
13098,769.230769230769,4,2,1,30,1,0
14637,821.917808219178,4,2,1,30,1,0
16280,745.341614906832,4,2,1,30,1,0
18609,714.285714285714,4,2,1,30,1,0
19412,794.701986754967,4,2,1,30,1,0
20951,774.193548387097,4,2,1,30,1,0
24047,-100,4,2,1,5,0,0
24241,-100,4,2,1,30,0,0
25402,-100,4,2,1,5,0,0
25595,389.61038961039,4,2,1,40,1,0
28711,-100,4,2,1,50,0,0
31049,-166.666666666667,4,2,1,40,0,0
31828,-100,4,2,1,70,0,1
44296,-125,4,2,1,60,0,0
47413,-100,4,2,1,70,0,0
50530,779.220779220779,4,2,1,60,1,0
59880,389.61038961039,4,2,1,60,1,0
59880,-125,4,2,1,60,0,0
72347,-100,4,2,1,70,0,1
83646,-100,4,2,1,5,0,1
84035,-166.666666666667,4,2,1,60,0,0
84815,-100,4,2,1,70,0,1
96892,-100,4,2,1,70,0,1
97282,-125,4,2,1,60,0,0
104198,-125,4,2,1,60,0,0
108191,-125,4,2,1,5,0,0

[Colours]
Combo1 : 247,221,132
Combo2 : 66,107,249
Combo3 : 105,210,250
Combo4 : 244,136,204

[HitObjects]
238,252,13097,6,0,L|395:279,1,140,2|2,0:0|0:0,0:0:0:0:
376,276,14637,2,0,P|389:206|361:63,1,210,2|2,0:0|0:0,0:0:0:0:
295,103,16280,2,0,P|212:120|94:53,1,210,2|0,0:0|0:0,0:0:0:0:
174,32,17770,1,2,0:0:0:0:
174,32,18609,2,0,L|188:115,1,70,2|2,0:0|0:0,0:0:0:0:
248,146,19412,2,0,P|266:225|228:289,1,140,2|2,0:0|0:0,0:0:0:0:
241,275,20951,1,2,0:0:0:0:
256,192,21144,12,0,24047,0:0:0:0:
322,133,25595,6,0,L|399:144,1,70,2|0,1:2|0:2,0:0:0:0:
452,189,25984,1,10,0:2:0:0:
395,240,26179,2,0,P|318:238|261:194,1,140,2|2,0:2|0:2,0:0:0:0:
213,145,26763,2,0,P|231:228|213:299,1,140,10|2,0:2|1:2,0:0:0:0:
130,298,27348,2,0,P|130:248|138:215,1,70,2|10,0:2|0:2,0:0:0:0:
131,147,27737,1,2,0:2:0:0:
213,145,27932,2,0,L|290:140,1,70,2|2,1:2|0:2,0:0:0:0:
349,186,28322,2,0,P|313:214|287:221,1,70,10|2,0:2|3:2,0:0:0:0:
320,66,28711,6,0,P|354:75|394:97,1,70,10|2,1:0|3:1,0:0:0:0:
436,154,29101,1,10,3:1:0:0:
382,248,29296,2,0,L|346:180,1,70,2|10,3:1|3:1,0:0:0:0:
289,260,29685,1,2,3:1:0:0:
196,220,29880,2,0,L|201:133,1,70,10|2,3:1|3:1,0:0:0:0:
210,58,30270,1,14,1:1:0:0:
210,58,30465,1,10,3:2:0:0:
479,193,31049,6,0,B|446:174|420:215|385:189,1,83.9999974365235,2|2,0:0|0:0,0:0:0:0:
397,196,31828,6,0,L|242:218,1,140,6|10,1:1|0:2,0:0:0:0:
174,230,32413,1,2,0:1:0:0:
89,241,32607,2,0,P|81:201|81:157,1,70,2|0,1:0|0:0,0:0:0:0:
68,84,32997,1,10,0:2:0:0:
161,110,33192,5,2,0:0:0:0:
161,110,33289,1,2,0:0:0:0:
161,110,33387,2,0,P|216:128|286:91,1,140,2|10,1:0|0:1,0:0:0:0:
366,122,33971,1,2,0:1:0:0:
323,199,34166,2,0,P|373:208|404:216,1,70,2|2,1:1|0:1,0:0:0:0:
385,303,34556,5,10,0:1:0:0:
364,298,34653,1,2,0:0:0:0:
343,293,34750,1,2,0:0:0:0:
322,288,34848,1,2,0:0:0:0:
301,283,34945,2,0,P|251:242|251:148,1,140,2|10,1:0|0:0,0:0:0:0:
294,96,35530,1,2,0:1:0:0:
205,90,35724,2,0,P|154:105|63:56,1,140,2|10,1:1|0:0,0:0:0:0:
31,146,36309,5,2,0:0:0:0:
31,146,36406,1,2,0:0:0:0:
31,146,36504,2,0,L|44:186,3,35,2|2|2|2,1:0|0:0|0:0|0:0,0:0:0:0:
85,174,36893,2,0,L|80:221,3,35,10|2|2|2,0:0|0:0|0:0|0:0,0:0:0:0:
120,229,37283,2,0,L|96:304,1,70,2|0,1:0|0:0,0:0:0:0:
215,208,37672,2,0,L|191:283,1,70,10|0,0:1|0:0,0:0:0:0:
293,264,38062,6,0,P|313:206|325:115,1,140,6|8,1:1|0:0,0:0:0:0:
328,39,38646,1,2,0:1:0:0:
425,84,38841,2,0,P|405:142|393:233,1,140,2|10,1:0|0:0,0:0:0:0:
425,302,39426,1,2,0:0:0:0:
348,344,39620,6,0,P|308:338|266:333,1,70,0|0,1:2|0:0,0:0:0:0:
224,268,40010,1,10,0:1:0:0:
149,309,40205,1,2,0:1:0:0:
111,230,40400,2,0,P|115:195|120:160,1,70,2|2,1:0|0:1,0:0:0:0:
124,139,40692,1,2,0:1:0:0:
127,118,40789,2,0,L|199:130,1,70,10|0,0:1|0:0,0:0:0:0:
265,77,41179,6,0,P|338:86|409:132,1,140,2|8,1:0|0:0,0:0:0:0:
448,191,41763,1,2,0:1:0:0:
344,180,41958,2,0,P|367:240|357:334,1,140,2|10,1:0|0:0,0:0:0:0:
280,346,42543,5,2,0:0:0:0:
280,346,42640,1,2,0:0:0:0:
280,346,42737,2,0,L|237:337,3,35,2|2|2|2,1:2|0:0|0:0|0:0,0:0:0:0:
228,301,43127,2,0,L|201:274,3,35,10|2|2|2,0:0|0:0|0:0|0:0,0:0:0:0:
217,239,43517,2,0,L|208:153,1,70,14|0,1:0|0:0,0:0:0:0:
285,128,43906,2,0,L|294:214,1,70,10|0,1:0|0:0,0:0:0:0:
373,247,44296,6,0,P|423:242|495:230,1,112,14|0,0:0|0:0,0:0:0:0:
473,147,44880,1,0,0:0:0:0:
473,147,45075,2,0,P|423:152|351:164,1,112,2|0,0:0|0:0,0:0:0:0:
194,244,45854,1,2,0:0:0:0:
194,244,46244,1,2,0:0:0:0:
269,281,46439,1,2,0:0:0:0:
198,326,46633,2,0,P|159:322|77:308,1,112,2|2,0:2|0:0,0:0:0:0:
38,125,47413,6,0,L|116:138,1,70,2|2,1:2|1:2,0:0:0:0:
194,164,47802,2,0,L|173:73,1,70,2|2,1:2|1:2,0:0:0:0:
265,123,48192,2,0,L|286:214,1,70,10|10,0:1|0:1,0:0:0:0:
296,205,48484,1,0,0:0:0:0:
311,219,48582,1,10,0:1:0:0:
392,188,48776,1,10,0:1:0:0:
362,107,48971,1,14,1:0:0:0:
449,342,49750,6,0,P|390:350|301:335,1,140,14|0,0:0|0:0,0:0:0:0:
190,287,50530,1,2,0:0:0:0:
80,84,59880,6,0,P|120:90|159:87,1,56,2|2,1:1|0:0,0:0:0:0:
211,82,60269,1,10,0:0:0:0:
270,35,60464,2,0,P|337:42|394:36,1,112,2|2,0:2|0:0,0:0:0:0:
452,112,61048,2,0,P|395:112|318:124,1,112,10|2,0:0|1:1,0:0:0:0:
264,125,61633,2,0,P|216:127|183:133,1,56,2|10,0:0|0:2,0:0:0:0:
135,149,62022,1,2,0:0:0:0:
73,201,62217,2,0,L|5:185,2,56,2|2|10,1:2|0:0|0:1,0:0:0:0:
134,248,62802,1,2,0:0:0:0:
212,246,62996,6,0,P|249:254|290:268,1,56,2|2,1:1|0:0,0:0:0:0:
341,279,63386,1,10,0:0:0:0:
413,304,63581,2,0,P|376:251|362:186,1,112,2|2,0:0|0:0,0:0:0:0:
386,129,64165,2,0,P|319:133|250:142,1,112,10|2,0:0|1:0,0:0:0:0:
199,138,64750,2,0,P|203:175|207:210,1,56,2|10,0:0|0:0,0:0:0:0:
170,261,65139,1,2,0:0:0:0:
195,332,65334,1,2,1:2:0:0:
271,336,65529,1,2,0:0:0:0:
300,267,65724,2,0,P|293:214|288:188,1,56,10|2,0:1|0:0,0:0:0:0:
377,180,66113,6,0,P|411:193|438:217,2,56,2|2|10,1:0|0:0|0:0,0:0:0:0:
328,118,66698,2,0,P|272:98|254:85,1,56,2|2,0:0|1:2,0:0:0:0:
214,55,67087,1,2,0:0:0:0:
196,148,67282,2,0,P|180:189|162:208,2,56,10|2|2,0:0|0:0|1:0,0:0:0:0:
258,205,67867,2,0,P|307:219|332:232,1,56,2|10,0:0|0:0,0:0:0:0:
385,276,68256,1,2,0:0:0:0:
315,309,68451,2,0,P|274:310|241:328,1,56,2|2,1:2|0:0,0:0:0:0:
188,291,68841,2,0,P|148:307|122:334,1,56,10|2,0:1|0:0,0:0:0:0:
42,260,69230,6,0,L|57:332,2,56,2|2|10,1:1|0:0|0:0,0:0:0:0:
77,162,69815,2,0,L|87:94,2,56,2|2|2,0:0|1:2|0:0,0:0:0:0:
165,222,70399,2,0,L|180:303,2,56,10|2|2,0:0|0:0|1:1,0:0:0:0:
257,157,70983,2,0,L|270:87,2,56,2|10|2,0:0|0:0|0:0,0:0:0:0:
333,240,71568,2,0,L|351:320,1,56,2|2,1:2|0:0,0:0:0:0:
429,292,71957,5,10,0:0:0:0:
411,212,72152,1,2,0:0:0:0:
393,132,72347,2,0,P|339:135|251:159,1,140,6|10,1:2|1:0,0:0:0:0:
186,204,72931,1,2,0:1:0:0:
121,152,73126,2,0,P|104:203|113:237,1,70,2|2,1:2|0:0,0:0:0:0:
137,296,73516,2,0,P|214:316|279:310,1,140,10|2,1:2|1:0,0:0:0:0:
353,279,74100,2,0,L|427:305,2,70,2|10|2,0:1|1:2|0:0,0:0:0:0:
292,221,74685,2,0,L|308:146,1,70,2|2,1:2|0:0,0:0:0:0:
244,99,75074,2,0,L|223:23,1,70,10|2,1:0|0:1,0:0:0:0:
318,57,75464,5,4,1:0:0:0:
401,63,75659,2,0,P|451:68|493:77,1,70,0|10,0:0|1:0,0:0:0:0:
471,154,76048,2,0,P|467:229|449:307,1,140,2|2,0:1|0:1,0:0:0:0:
371,279,76633,1,10,1:0:0:0:
289,265,76828,2,0,P|249:264|207:268,1,70,2|2,0:0|1:0,0:0:0:0:
174,171,77217,2,0,P|240:186|324:166,1,140,2|2,0:1|0:0,0:0:0:0:
316,89,77802,2,0,P|267:79|234:72,1,70,2|2,1:0|0:1,0:0:0:0:
177,32,78191,2,0,P|130:41|93:50,1,70,10|2,1:2|0:0,0:0:0:0:
48,102,78581,6,0,P|35:142|41:195,1,70,6|2,1:0|0:0,0:0:0:0:
115,194,78970,1,10,1:0:0:0:
59,258,79165,1,2,0:1:0:0:
134,296,79360,2,0,P|168:290|203:279,1,70,0|2,1:0|0:1,0:0:0:0:
247,207,79750,2,0,L|229:126,2,70,10|2|2,1:0|0:0|1:0,0:0:0:0:
317,257,80334,2,0,P|371:287|448:268,1,140,2|2,0:1|0:0,0:0:0:0:
476,188,80918,2,0,P|439:182|407:174,1,70,2|2,1:0|0:0,0:0:0:0:
340,113,81308,2,0,P|333:153|325:195,1,70,10|2,0:1|0:0,0:0:0:0:
242,190,81698,5,6,1:2:0:0:
160,161,81892,2,0,P|108:172|72:182,1,70,2|2,0:1|1:2,0:0:0:0:
197,255,82282,5,6,1:2:0:0:
112,282,82477,2,0,P|102:325|95:359,1,70,2|2,0:1|0:0,0:0:0:0:
213,350,82867,5,6,1:2:0:0:
316,350,83061,2,0,P|326:307|333:273,1,70,2|4,0:1|1:2,0:0:0:0:
356,170,83451,1,4,1:0:0:0:
33,191,84035,6,0,B|66:210|92:169|127:195,1,83.9999974365235,2|2,0:0|0:0,0:0:0:0:
114,188,84815,6,0,P|171:190|256:144,1,140,6|8,1:0|0:0,0:0:0:0:
286,77,85399,1,2,0:1:0:0:
324,179,85594,2,0,P|342:147|365:118,1,70,2|0,1:0|0:0,0:0:0:0:
424,189,85983,2,0,P|406:221|383:250,1,70,10|2,0:0|0:0,0:0:0:0:
305,282,86373,2,0,L|226:265,1,70,0|0,1:0|0:0,0:0:0:0:
136,242,86763,5,10,0:1:0:0:
211,193,86957,1,2,0:1:0:0:
132,156,87152,2,0,P|130:120|134:82,1,70,2|2,0:1|0:1,0:0:0:0:
137,65,87444,1,2,0:1:0:0:
145,45,87542,2,0,P|208:46|234:45,1,70,10|0,0:1|0:0,0:0:0:0:
289,102,87931,6,0,P|350:84|441:120,1,140,2|8,1:1|0:0,0:0:0:0:
472,186,88516,1,2,0:1:0:0:
472,186,88613,1,0,0:0:0:0:
472,186,88711,2,0,L|463:230,3,35,2|2|2|2,1:1|0:0|0:0|0:0,0:0:0:0:
425,229,89100,2,0,L|398:262,3,35,10|2|2|2,0:0|0:0|0:0|0:0,0:0:0:0:
360,246,89490,2,0,P|313:254|272:253,1,70,2|2,1:0|0:0,0:0:0:0:
221,203,89880,1,8,0:0:0:0:
296,160,90074,1,0,0:0:0:0:
234,50,90269,6,0,P|225:84|218:132,1,70,2|0,1:0|0:0,0:0:0:0:
296,160,90659,2,0,P|305:126|312:78,1,70,10|0,0:1|0:0,0:0:0:0:
394,130,91048,2,0,P|374:194|361:282,1,140,6|8,1:0|0:0,0:0:0:0:
435,321,91633,1,2,0:1:0:0:
355,354,91828,1,2,1:1:0:0:
279,309,92022,1,2,0:0:0:0:
283,223,92217,2,0,P|241:216|207:212,1,70,10|2,0:0|0:0,0:0:0:0:
162,283,92607,2,0,P|124:278|86:272,1,70,0|0,1:0|0:0,0:0:0:0:
25,180,92996,5,10,0:1:0:0:
111,196,93191,1,2,0:1:0:0:
101,107,93386,2,0,P|149:97|183:92,1,70,2|2,1:1|0:1,0:0:0:0:
190,90,93678,1,2,0:1:0:0:
210,86,93776,2,0,P|244:80|278:72,1,70,10|0,0:1|0:0,0:0:0:0:
368,131,94165,6,0,P|307:147|268:221,1,140,2|8,1:1|0:0,0:0:0:0:
262,305,94750,1,2,0:1:0:0:
262,305,94847,1,0,0:0:0:0:
262,305,94944,2,0,L|260:347,3,35,2|2|2|2,1:1|0:0|0:0|0:0,0:0:0:0:
221,338,95334,2,0,L|191:368,3,35,10|2|2|2,0:0|0:0|0:0|0:0,0:0:0:0:
158,345,95724,2,0,L|100:350,3,35,2|0|2|0,1:2|0:0|0:2|0:0,0:0:0:0:
101,313,96113,2,0,L|54:285,3,35,10|0|2|0,0:0|0:0|0:0|0:0,0:0:0:0:
82,256,96503,2,0,P|87:208|91:172,1,70,2|2,1:1|0:2,0:0:0:0:
174,149,96892,2,0,P|169:197|165:233,1,70,10|2,0:1|0:2,0:0:0:0:
236,290,97282,6,0,P|304:288|343:252,1,112,6|0,0:0|0:0,0:0:0:0:
368,184,97867,1,0,0:0:0:0:
368,184,98061,2,0,P|368:129|328:85,1,112,2|0,0:0|0:0,0:0:0:0:
148,33,98841,2,0,P|138:125|135:163,1,112,2|2,0:0|0:0,0:0:0:0:
57,160,99425,1,0,0:0:0:0:
57,160,99620,2,0,P|60:133|63:105,1,56,2|0,0:0|0:0,0:0:0:0:
137,145,100009,2,0,P|135:173|132:201,1,56,2|0,0:0|0:0,0:0:0:0:
123,276,100399,1,2,0:0:0:0:
256,192,100496,12,2,104198,0:0:0:0:
256,192,104295,12,0,108191,0:0:0:0:
