osu file format v14

[General]
AudioFilename: poggers.mp3
AudioLeadIn: 0
PreviewTime: 59413
Countdown: 0
SampleSet: Soft
StackLeniency: 0.6
Mode: 0
LetterboxInBreaks: 0
WidescreenStoryboard: 1

[Editor]
DistanceSpacing: 0.3
BeatDivisor: 4
GridSize: 16
TimelineZoom: 1.5

[Metadata]
Title:I'LL BE THERE FOR YOU (TV Size)
TitleUnicode:I'LL BE THERE FOR YOU (TV Size)
Artist:ICHIKO
ArtistUnicode:ICHIKO
Creator:Basensorex
Version:Normal
Source:ゼロの使い魔F
Tags:anime jpop j-pop pop opening short ver version zero no tsukaima f ill i will elinor [_eli_] eli guanineso my_angel_ram my angel ram the familiar of kujinn reform japanese jp female vocalist
BeatmapID:2269445
BeatmapSetID:1085263

[Difficulty]
HPDrainRate:3.8
CircleSize:3.2
OverallDifficulty:4.2
ApproachRate:5.6
SliderMultiplier:0.999999999999999
SliderTickRate:1

[Events]
//Background and Video events
0,0,"anime girl POG!!!!!!.jpg",0,0
Video,-660,"animegirls.mp4"
//Break Periods
//Storyboard Layer 0 (Background)
//Storyboard Layer 1 (Fail)
//Storyboard Layer 2 (Pass)
//Storyboard Layer 3 (Foreground)
//Storyboard Layer 4 (Overlay)
//Storyboard Sound Samples

[TimingPoints]
825,352.941176470588,4,2,22,75,1,0
825,-100,4,2,22,75,0,0
3648,-100,4,2,22,50,0,0
9295,-100,4,2,22,65,0,0
12119,-100,4,2,22,75,0,0
17766,-100,4,2,22,85,0,0
20589,-100,4,2,22,65,0,0
29060,-100,4,2,22,75,0,0
31883,-100,4,2,22,65,0,0
40354,-100,4,2,22,75,0,0
43177,-111.111111111111,4,2,22,50,0,0
51648,-100,4,2,22,65,0,0
54472,-100,4,2,22,75,0,0
57295,-100,4,2,22,85,0,0
60119,-90.9090909090909,4,2,22,75,0,1
70001,-90.9090909090909,4,2,22,65,0,0
71413,-90.9090909090909,4,2,22,85,0,1
84472,-100,4,2,22,85,0,0
84824,-100,4,2,22,50,0,0
85883,-100,4,2,22,45,0,0
86236,-100,4,2,22,40,0,0
86589,-100,4,2,22,35,0,0
86942,-100,4,2,22,30,0,0
87295,-100,4,2,22,25,0,0
87648,-100,4,2,22,15,0,0
88001,-100,4,2,22,5,0,0

[Colours]
Combo1 : 218,5,160
Combo2 : 227,203,94
Combo3 : 102,177,209
Combo4 : 200,117,7

[HitObjects]
58,56,1883,5,10,0:2:0:0:
58,56,2060,2,0,B|110:43|110:43|157:56,1,99.9999999999999,6|2,1:2|1:2,0:2:0:0:
202,71,2589,1,10,0:2:0:0:
292,28,2942,1,10,0:2:0:0:
381,72,3295,2,0,L|386:135,1,50,10|0,0:2|1:2,0:0:0:0:
424,152,3648,6,0,L|414:263,1,99.9999999999999,6|2,1:2|0:2,0:2:0:0:
461,340,4354,2,0,P|414:355|367:341,1,99.9999999999999,2|2,0:2|0:2,0:2:0:0:
319,324,4883,2,0,B|255:308|223:340|223:340|191:372|127:356,1,200,2|0,0:2|0:2,0:2:0:0:
62,283,5942,2,0,P|30:283|-1:299,2,50,2|2|2,1:2|1:2|1:2,0:0:0:0:
104,255,6472,6,0,L|94:144,1,99.9999999999999,6|2,1:2|0:2,0:2:0:0:
155,75,7177,1,10,0:2:0:0:
249,120,7530,1,6,0:3:0:0:
249,120,7707,2,0,P|296:135|343:121,1,99.9999999999999,6|0,1:2|3:2,0:2:0:0:
387,97,8236,1,8,0:2:0:0:
481,128,8589,1,10,0:2:0:0:
480,228,8942,2,0,L|473:307,1,50,10|2,0:2|1:2,0:0:0:0:
469,327,9295,6,0,P|422:342|375:328,1,99.9999999999999,6|10,1:2|0:2,0:2:0:0:
327,345,9824,2,0,P|280:330|233:344,1,99.9999999999999,6|6,1:2|1:2,0:2:0:0:
136,372,10530,1,6,1:2:0:0:
60,314,10883,1,2,1:2:0:0:
60,314,11060,1,10,0:2:0:0:
75,114,11766,1,10,0:2:0:0:
143,40,12119,6,0,L|254:50,1,99.9999999999999,6|10,1:2|0:2,0:2:0:0:
273,88,12648,2,0,L|384:78,1,99.9999999999999,2|2,3:2|1:2,0:2:0:0:
470,102,13354,1,2,1:2:0:0:
485,200,13707,2,0,L|475:311,1,99.9999999999999,2|0,1:2|3:2,0:0:0:0:
470,349,14236,1,2,1:2:0:0:
373,373,14589,2,0,P|349:365|324:366,1,50,10|2,0:2|3:2,0:0:0:0:
274,369,14942,6,0,P|259:322|273:275,1,99.9999999999999,2|8,1:2|0:2,0:2:0:0:
339,200,15648,1,2,1:2:0:0:
284,123,16001,1,10,0:2:0:0:
284,123,16177,2,0,L|173:133,1,99.9999999999999,6|2,1:2|1:2,0:2:0:0:
84,141,16883,2,0,P|57:182|58:231,1,99.9999999999999,2|2,3:2|1:2,0:0:0:0:
63,281,17413,1,10,0:2:0:0:
133,351,17766,6,0,P|157:351|181:343,1,50,6|2,1:2|3:2,0:0:0:0:
216,307,18119,1,10,0:2:0:0:
301,359,18472,1,10,0:2:0:0:
385,306,18824,2,0,P|409:306|433:314,1,50,10|2,0:2|1:2,0:0:0:0:
477,338,19177,2,0,P|492:291|478:244,1,99.9999999999999,14|10,0:2|0:2,0:0:0:0:
421,161,19883,2,0,L|342:168,1,50,10|10,1:3|0:2,0:0:0:0:
335,130,20236,2,0,L|256:123,1,50,10|10,0:2|0:2,0:0:0:0:
235,119,20589,5,6,1:2:0:0:
152,62,20942,1,10,0:2:0:0:
76,127,21295,2,0,L|86:238,1,99.9999999999999,2|8,1:2|0:2,0:2:0:0:
94,326,22001,1,2,1:2:0:0:
184,369,22354,1,10,0:2:0:0:
264,309,22707,2,0,P|288:301|313:302,1,50,2|10,1:2|1:3,0:0:0:0:
361,311,23060,1,10,0:2:0:0:
453,274,23413,5,0,1:2:0:0:
453,173,23766,1,10,0:2:0:0:
376,108,24119,2,0,P|329:93|282:107,1,99.9999999999999,2|8,1:2|0:2,0:2:0:0:
198,162,24824,1,2,1:2:0:0:
117,101,25177,1,10,0:2:0:0:
46,172,25530,2,0,L|51:235,1,50,2|10,1:2|1:3,0:0:0:0:
53,271,25883,1,10,0:2:0:0:
101,358,26236,5,4,1:2:0:0:
200,371,26589,1,10,0:2:0:0:
281,313,26942,2,0,P|289:289|288:264,1,50,2|10,1:2|1:3,0:0:0:0:
248,172,27472,2,0,P|233:125|247:78,1,99.9999999999999,2|2,3:2|3:2,0:2:0:0:
275,36,28001,1,10,0:2:0:0:
368,1,28354,1,2,1:2:0:0:
464,28,28707,1,10,0:2:0:0:
503,120,29060,6,0,L|493:232,1,99.9999999999999,10|8,0:2|0:3,0:0:0:0:
444,225,29589,2,0,L|454:337,1,99.9999999999999,10|8,0:2|0:3,0:0:0:0:
456,374,30119,1,8,0:2:0:0:
332,298,30648,5,10,0:2:0:0:
332,298,30824,1,10,0:2:0:0:
246,350,31177,2,0,P|222:358|197:357,1,50,10|10,0:2|1:2,0:2:0:0:
151,373,31530,2,0,P|127:365|102:366,1,50,10|10,0:2|1:2,0:2:0:0:
52,372,31883,5,6,1:2:0:0:
5,283,32236,1,10,0:2:0:0:
73,210,32589,2,0,L|63:99,1,99.9999999999999,2|8,1:2|0:2,0:2:0:0:
107,19,33295,2,0,P|83:11|58:12,2,50,2|2|10,1:2|3:2|0:2,0:0:0:0:
149,45,33824,2,0,P|196:59|244:45,1,99.9999999999999,2|10,3:2|1:3,0:2:0:0:
288,22,34354,1,10,0:2:0:0:
386,6,34707,5,0,1:2:0:0:
468,62,35060,1,10,0:2:0:0:
465,161,35413,2,0,L|455:272,1,99.9999999999999,2|8,1:2|0:2,0:2:0:0:
382,328,36119,1,2,1:2:0:0:
295,277,36472,1,10,0:2:0:0:
216,338,36824,2,0,P|192:346|167:345,1,50,2|10,1:2|1:3,0:0:0:0:
118,334,37177,1,10,0:2:0:0:
33,280,37530,5,6,1:2:0:0:
93,200,37883,1,10,3:2:0:0:
14,137,38236,2,0,L|20:73,1,50,2|10,1:2|1:3,0:0:0:0:
100,29,38766,2,0,P|147:14|194:28,1,99.9999999999999,2|0,3:2|3:2,0:2:0:0:
238,51,39295,1,10,0:2:0:0:
179,132,39648,1,2,1:2:0:0:
253,198,40001,1,10,0:2:0:0:
191,276,40354,6,0,P|144:290|97:275,1,99.9999999999999,10|8,0:2|0:3,0:0:0:0:
60,240,40883,2,0,L|68:140,1,99.9999999999999,10|8,0:2|0:3,0:0:0:0:
75,90,41413,1,10,0:2:0:0:
218,40,41942,5,10,0:2:0:0:
218,40,42119,1,10,0:2:0:0:
306,86,42472,1,2,1:2:0:0:
326,183,42824,1,2,1:2:0:0:
419,215,43177,6,0,P|463:210|497:214,2,67.4999979400635,6|10|10,1:2|1:3|1:3,0:2:0:0:
400,256,43883,1,8,3:2:0:0:
343,326,44236,1,2,0:2:0:0:
343,326,44413,2,0,L|248:318,1,89.999997253418,2|10,1:2|1:3,0:2:0:0:
175,360,45119,1,2,0:2:0:0:
175,360,45295,2,0,P|161:313|176:266,1,89.999997253418,10|10,0:2|0:2,0:2:0:0:
221,199,46001,6,0,P|226:155|222:121,2,67.4999979400635,6|2|2,1:2|1:2|3:2,0:2:0:0:
257,225,46707,1,10,0:2:0:0:
328,289,47060,1,10,1:3:0:0:
328,289,47236,2,0,B|375:300|399:277|399:277|422:253|469:265,1,134.999995880127,10|2,0:2|1:2,0:2:0:0:
507,188,48119,1,10,0:2:0:0:
467,106,48472,1,10,0:2:0:0:
377,114,48824,6,0,P|368:157|369:191,2,67.4999979400635,6|10|10,1:2|1:3|1:3,0:2:0:0:
345,81,49530,1,8,0:2:0:0:
267,46,49883,1,10,0:2:0:0:
267,46,50060,2,0,L|161:56,1,89.999997253418,6|10,1:2|1:3,0:2:0:0:
100,17,50766,1,2,1:2:0:0:
100,17,50942,2,0,P|90:65|108:110,1,89.999997253418,2|4,1:2|0:3,0:2:0:0:
52,189,51648,6,0,P|99:204|147:190,1,99.9999999999999,6|8,1:2|0:2,0:2:0:0:
181,226,52177,2,0,P|228:210|276:224,1,99.9999999999999,6|0,1:2|1:2,0:2:0:0:
315,252,52707,1,14,0:2:0:0:
411,224,53060,2,0,L|417:160,1,50,0|8,1:2|0:2,0:0:0:0:
422,124,53413,1,8,0:3:0:0:
348,56,53766,1,10,0:2:0:0:
271,120,54119,1,6,0:3:0:0:
189,62,54472,6,0,B|137:49|137:49|90:62,1,99.9999999999999,6|8,1:2|0:2,0:2:0:0:
18,128,55177,1,8,0:2:0:0:
18,228,55530,1,8,0:2:0:0:
77,308,55883,6,0,B|129:321|129:321|176:308,1,99.9999999999999,14|8,0:2|0:2,0:2:0:0:
266,271,56589,1,8,0:2:0:0:
348,326,56942,1,8,0:2:0:0:
433,274,57295,6,0,L|427:194,1,50,6|10,1:2|3:2,0:0:0:0:
397,185,57648,2,0,L|404:105,1,50,10|2,0:2|1:2,0:0:0:0:
405,85,58001,1,10,0:2:0:0:
330,26,58354,1,10,0:2:0:0:
330,26,58530,5,6,1:2:0:0:
230,14,58883,2,0,L|150:8,1,50,2|10,1:2|0:2,0:0:0:0:
130,7,59236,1,10,0:2:0:0:
130,7,60119,6,0,L|118:135,1,110.000003356934,6|10,1:2|0:2,0:2:0:0:
62,210,60824,1,2,1:2:0:0:
153,280,61177,1,10,0:2:0:0:
153,280,61354,2,0,P|205:261|260:278,1,110.000003356934,2|8,1:2|1:3,0:2:0:0:
305,310,61883,1,8,0:2:0:0:
305,310,62060,1,0,3:2:0:0:
408,273,62413,2,0,P|418:298|417:325,2,55.0000016784668,10|10|2,1:3|0:2|0:2,0:0:0:0:
448,235,62942,6,0,L|460:107,1,110.000003356934,2|10,1:2|0:2,0:2:0:0:
392,37,63648,1,2,1:2:0:0:
311,111,64001,1,10,0:2:0:0:
311,111,64177,2,0,P|259:130|204:113,1,110.000003356934,2|8,1:2|1:3,0:2:0:0:
161,88,64707,1,8,0:2:0:0:
51,82,65060,2,0,L|44:162,1,55.0000016784668,2|2,1:2|1:2,0:2:0:0:
6,175,65413,2,0,L|13:255,1,55.0000016784668,10|2,0:2|3:2,0:0:0:0:
17,284,65766,6,0,P|69:303|124:286,1,110.000003356934,2|12,1:2|0:2,0:2:0:0:
221,246,66472,2,0,P|246:256|273:255,1,55.0000016784668,2|10,1:2|1:3,0:0:0:0:
312,291,66824,2,0,P|337:281|364:282,1,55.0000016784668,10|2,0:2|3:2,0:0:0:0:
419,288,67177,2,0,L|407:161,1,110.000003356934,2|12,1:2|0:2,0:2:0:0:
350,84,67883,2,0,L|270:77,1,55.0000016784668,2|10,1:2|1:3,0:0:0:0:
250,111,68236,2,0,L|170:118,1,55.0000016784668,10|2,0:2|3:2,0:0:0:0:
150,83,68589,5,6,1:2:0:0:
59,144,68942,1,10,0:2:0:0:
59,144,69119,2,0,B|73:201|73:201|59:253,1,110.000003356934,6|6,1:2|1:2,0:0:0:0:
118,343,69824,2,0,P|170:362|225:345,1,110.000003356934,6|10,1:2|1:3,0:2:0:0:
264,313,70354,1,10,0:2:0:0:
352,379,70707,1,10,0:2:0:0:
459,354,71060,1,10,0:2:0:0:
484,246,71413,6,0,P|503:194|486:139,1,110.000003356934,6|10,1:2|0:2,0:2:0:0:
406,69,72119,2,0,L|294:79,1,110.000003356934,10|10,0:2|0:2,0:0:0:0:
256,115,72648,1,2,1:2:0:0:
256,115,72824,2,0,L|144:106,1,110.000003356934,8|8,0:2|0:2,0:0:0:0:
42,143,73530,2,0,P|23:195|40:250,1,110.000003356934,8|10,0:2|0:2,0:0:0:0:
68,298,74060,1,2,1:2:0:0:
68,298,74236,6,0,P|120:317|175:300,1,110.000003356934,14|10,0:2|0:2,0:2:0:0:
244,220,74942,2,0,L|234:109,1,110.000003356934,10|10,0:2|0:2,0:0:0:0:
264,65,75472,1,2,1:2:0:0:
264,65,75648,2,0,L|375:56,1,110.000003356934,8|8,0:2|0:2,0:0:0:0:
467,113,76354,2,0,L|461:193,1,55.0000016784668,10|2,0:2|1:2,0:0:0:0:
422,205,76707,2,0,L|428:285,1,55.0000016784668,10|2,0:2|1:2,0:0:0:0:
426,315,77060,6,0,P|374:334|319:317,1,110.000003356934,10|12,1:2|0:2,0:2:0:0:
237,250,77766,2,0,L|157:257,1,55.0000016784668,10|2,0:2|1:2,0:0:0:0:
144,294,78119,2,0,L|64:287,1,55.0000016784668,10|2,0:2|1:2,0:0:0:0:
34,280,78472,2,0,L|24:169,1,110.000003356934,10|12,1:2|0:2,0:2:0:0:
108,100,79177,2,0,P|133:110|160:109,1,55.0000016784668,10|2,0:2|1:2,0:0:0:0:
202,144,79530,2,0,P|227:134|254:135,1,55.0000016784668,10|2,0:2|1:2,0:0:0:0:
308,147,79883,5,2,1:2:0:0:
419,173,80236,1,10,0:2:0:0:
419,173,80413,2,0,B|433:230|433:230|419:282,1,110.000003356934,6|10,1:2|0:2,0:2:0:0:
342,357,81119,2,0,P|290:376|235:359,1,110.000003356934,6|8,1:2|1:3,0:2:0:0:
193,330,81648,1,8,0:2:0:0:
82,330,82001,1,10,0:2:0:0:
29,233,82354,1,10,0:2:0:0:
82,136,82707,5,14,0:2:0:0:
196,140,83060,1,2,1:2:0:0:
196,140,83236,2,0,B|253:154|253:154|305:140,1,110.000003356934,14|10,1:2|0:2,0:2:0:0:
387,70,83942,1,6,1:2:0:0:
497,61,84295,2,0,L|490:-18,1,55.0000016784668,2|10,1:2|0:2,0:0:0:0:
256,192,85530,5,10,1:3:0:0:
256,192,85707,12,0,88001,0:2:0:0:
