osu file format v14

[General]
AudioFilename: audio.mp3
AudioLeadIn: 0
PreviewTime: 132793
Countdown: 0
SampleSet: Soft
StackLeniency: 0.7
Mode: 0
LetterboxInBreaks: 0
WidescreenStoryboard: 1

[Editor]
DistanceSpacing: 1.3
BeatDivisor: 4
GridSize: 4
TimelineZoom: 1.2

[Metadata]
Title:I'LL BE THERE FOR YOU
TitleUnicode:I'LL BE THERE FOR YOU
Artist:ICHIKO
ArtistUnicode:ICHIKO
Creator:Andrea
Version:SUOU'S INSANE
Source:ゼロの使い魔F
Tags:osuplayer111 Sekai Sekaii Sekai-nyan Leomine LeomineXD Shirahane Suou Shirahane_Suou -_Ex_- - Ex - Full Version Female Vocals Zero no Tsukaima F Anime Japanese Pop JPop J-Pop Louise Françoise de La Baume Le Blanc de La Vallière ルイズ・フランソワーズ・ル・ブラン・ド・ラ・ヴァリエール The Familiar of Zero F Final Series Fourth Season 4th Will Opening OP
BeatmapID:4105354
BeatmapSetID:1977607

[Difficulty]
HPDrainRate:5.5
CircleSize:4
OverallDifficulty:8
ApproachRate:9
SliderMultiplier:1.7
SliderTickRate:1

[Events]
//Background and Video events
0,0,"BG.jpg",0,0
//Break Periods
2,159111,161135
2,178876,180723
2,181699,183723
2,184523,186370
//Storyboard Layer 0 (Background)
//Storyboard Layer 1 (Fail)
//Storyboard Layer 2 (Pass)
//Storyboard Layer 3 (Foreground)
//Storyboard Layer 4 (Overlay)
//Storyboard Sound Samples

[TimingPoints]
794,352.941176470588,4,2,1,35,1,0
1676,-100,4,2,1,60,0,0
2029,-100,4,2,1,75,0,0
3617,-166.666666666667,4,2,1,65,0,0
7323,-133.333333333333,4,2,1,65,0,0
7676,-133.333333333333,4,2,1,75,0,0
9264,-111.111111111111,4,2,1,78,0,0
10764,-111.111111111111,4,2,1,5,0,0
10852,-111.111111111111,4,2,1,78,0,0
11382,-111.111111111111,4,2,1,65,0,0
11735,-90.9090909090908,4,2,1,65,0,0
11999,-90.9090909090908,4,2,1,5,0,0
12088,-111.111111111111,4,2,1,75,0,0
17735,-111.111111111111,4,2,1,78,0,0
20558,-153.846153846154,4,2,1,55,0,0
26205,-153.846153846154,4,2,1,60,0,0
28676,-111.111111111111,4,2,1,60,0,0
28941,-111.111111111111,4,2,1,5,0,0
29029,-111.111111111111,4,2,1,70,0,0
30088,-111.111111111111,4,2,1,78,0,0
31852,-125,4,2,1,75,0,0
40323,-111.111111111111,4,2,1,78,0,0
43146,-125,4,2,1,70,0,0
45882,-125,4,2,1,5,0,0
45970,-125,4,2,1,70,0,0
51617,-111.111111111111,4,2,1,75,0,0
54441,-111.111111111111,4,2,1,78,0,0
54705,-111.111111111111,4,2,1,5,0,0
54793,-111.111111111111,4,2,1,78,0,0
57264,-111.111111111111,4,2,1,78,0,0
58764,-111.111111111111,4,2,1,5,0,0
58852,-111.111111111111,4,2,1,78,0,0
59558,-111.111111111111,4,2,1,65,0,0
59735,-90.9090909090908,4,2,1,65,0,0
59999,-90.9090909090908,4,2,1,5,0,0
60088,-90.9090909090908,4,2,1,85,0,1
68823,-90.9090909090908,4,2,1,5,0,1
68911,-90.9090909090908,4,2,1,85,0,1
84441,-90.9090909090908,4,2,1,80,0,1
84529,-90.9090909090908,4,2,1,80,0,0
84793,-90.9090909090908,4,2,1,65,0,0
85499,-111.111111111111,4,2,1,75,0,0
91146,-111.111111111111,4,2,1,78,0,0
93970,-111.111111111111,4,2,1,70,0,0
96705,-111.111111111111,4,2,1,5,0,0
96793,-111.111111111111,4,2,1,70,0,0
102352,-111.111111111111,4,2,1,5,0,0
102441,-111.111111111111,4,2,1,70,0,0
103499,-111.111111111111,4,2,1,78,0,0
105264,-111.111111111111,4,2,1,75,0,0
107999,-111.111111111111,4,2,1,5,0,0
108088,-111.111111111111,4,2,1,75,0,0
113646,-111.111111111111,4,2,1,5,0,0
113735,-111.111111111111,4,2,1,78,0,0
116558,-125,4,2,1,70,0,0
125029,-111.111111111111,4,2,1,75,0,0
126352,-111.111111111111,4,2,1,5,0,0
126441,-111.111111111111,4,2,1,75,0,0
127852,-111.111111111111,4,2,1,78,0,0
128117,-111.111111111111,4,2,1,5,0,0
128205,-111.111111111111,4,2,1,78,0,0
130676,-111.111111111111,4,2,1,78,0,0
132970,-111.111111111111,4,2,1,65,0,0
133146,-90.9090909090908,4,2,1,65,0,0
133499,-90.9090909090909,4,2,1,85,0,1
135705,-90.9090909090909,4,2,1,5,0,1
135793,-90.9090909090909,4,2,1,85,0,1
145058,-90.9090909090909,4,2,1,5,0,1
145146,-90.9090909090909,4,2,1,85,0,1
147882,-90.9090909090909,4,2,1,5,0,1
147970,-90.9090909090909,4,2,1,85,0,1
156882,-90.9090909090909,4,2,1,5,0,1
156970,-90.9090909090909,4,2,1,85,0,1
157588,-90.9090909090909,4,2,1,5,0,1
157676,-90.9090909090909,4,2,1,85,0,1
157852,-90.9090909090909,4,2,1,80,0,1
157941,-90.9090909090909,4,2,1,80,0,0
158205,-90.9090909090909,4,2,1,65,0,0
158823,-90.9090909090909,4,2,1,5,0,0
158911,-90.9090909090909,4,2,1,70,0,0
161735,-111.111111111111,4,2,1,78,0,0
164470,-111.111111111111,4,2,1,78,0,0
164558,-100,4,2,1,75,0,1
173029,-100,4,2,1,75,0,1
175852,-100,4,2,1,78,0,1
177264,-100,4,2,1,78,0,1
178676,-133.333333333333,4,2,1,60,0,0
189970,-133.333333333333,4,2,1,65,0,0
191646,-133.333333333333,4,2,1,5,0,0
191735,-133.333333333333,4,2,1,65,0,0
195617,-133.333333333333,4,2,1,75,0,0
198441,-111.111111111111,4,2,1,78,0,0
199676,-111.111111111111,4,2,1,78,0,0
199941,-111.111111111111,4,2,1,5,0,0
200029,-111.111111111111,4,2,1,78,0,0
200911,-111.111111111111,4,2,1,78,0,0
202323,-111.111111111111,4,2,1,70,0,0
202676,-111.111111111111,4,2,1,65,0,0
203646,-111.111111111111,4,2,1,5,0,0
203911,-111.111111111111,4,2,1,65,0,0
205499,-111.111111111111,4,2,1,70,0,0
206735,-111.111111111111,4,2,1,75,0,0
208323,-111.111111111111,4,2,1,70,0,0
211146,-111.111111111111,4,2,1,78,0,0
212646,-111.111111111111,4,2,1,5,0,0
212735,-111.111111111111,4,2,1,78,0,0
213970,-90.9090909090908,4,2,1,85,0,1
227029,-90.9090909090908,4,2,1,80,0,1
227117,-90.9090909090908,4,2,1,80,0,0
227293,-90.9090909090908,4,2,1,5,0,0
227382,-90.9090909090908,4,2,1,65,0,0
228088,-111.111111111111,4,2,1,75,0,0
233735,-111.111111111111,4,2,1,78,0,0
236558,-111.111111111111,4,2,1,78,0,0
237441,-111.111111111111,4,2,1,5,0,0
237617,-111.111111111111,4,2,1,70,0,0
238323,-111.111111111111,4,2,1,70,0,0
239029,-111.111111111111,4,2,1,70,0,0
239735,-111.111111111111,4,2,1,70,0,0
240441,-111.111111111111,4,2,1,70,0,0
241146,-111.111111111111,4,2,1,70,0,0
241852,-111.111111111111,4,2,1,70,0,0
242205,-111.111111111111,4,2,1,55,0,0

[Colours]
Combo1 : 36,99,128
Combo2 : 231,207,221
Combo3 : 137,43,118
Combo4 : 134,181,220
Combo5 : 199,193,66

[HitObjects]
135,104,1852,5,10,2:2:0:0:
214,233,2029,2,0,L|241:41,1,170,4|2,1:2|1:2,0:0:0:0:
121,205,2558,1,10,2:2:0:0:
227,335,2735,1,10,2:2:0:0:
227,335,2823,1,8,2:2:0:0:
227,335,2911,2,0,L|284:320,2,42.5,2|0|2,1:2|1:0|3:2,0:0:0:0:
332,226,3264,1,10,2:2:0:0:
363,368,3441,1,0,1:1:0:0:
214,233,3617,5,4,2:3:0:0:
158,226,5911,2,0,L|269:206,1,101.999996887207,2|2,2:2|1:2,0:0:0:0:
445,251,6441,6,0,B|350:234|350:234|341:263|318:280,1,152.999995330811,4|2,1:2|0:0,0:0:0:0:
454,160,7146,1,10,2:2:0:0:
349,74,7323,2,0,L|364:151,1,63.7500024318696,0|2,3:3|3:2,0:0:0:0:
258,208,7676,6,0,B|186:183|211:237|131:211,1,127.500004863739,4|0,1:2|1:1,0:0:0:0:
16,135,8205,2,0,L|32:220,1,63.7500024318696,8|0,2:2|1:1,0:0:0:0:
160,124,8558,1,10,2:2:0:0:
94,2,8735,2,0,L|78:87,1,63.7500024318696,2|10,1:2|2:2,0:0:0:0:
265,175,9088,1,2,3:2:0:0:
265,175,9176,1,8,2:2:0:0:
265,175,9264,6,0,L|235:21,1,152.999995330811,4|10,1:2|3:2,0:0:0:0:
169,240,9793,1,6,1:2:0:0:
169,240,10146,1,2,1:2:0:0:
320,273,10323,1,8,3:2:0:0:
178,142,10499,6,0,P|108:155|74:226,1,152.999995330811,6|2,1:2|1:2,0:0:0:0:
222,384,11029,1,12,2:2:0:0:
222,384,11382,2,0,L|232:301,1,76.4999976654053,2|0,2:2|1:1,0:0:0:0:
371,219,11735,6,0,P|307:238|252:199,1,140.25000428009,4|0,2:1|0:0,0:0:0:0:
230,168,12088,6,0,L|241:77,1,76.4999976654053,4|2,1:2|2:2,0:0:0:0:
336,0,12441,1,10,2:2:0:0:
449,102,12617,2,0,P|375:95|322:148,1,152.999995330811,2|2,1:2|1:2,0:0:0:0:
499,203,13146,1,8,2:2:0:0:
396,336,13323,6,0,L|409:183,1,152.999995330811,2|2,1:2|1:2,0:0:0:0:
237,227,13852,2,0,L|312:238,1,76.4999976654053,8|2,2:2|1:2,0:0:0:0:
189,345,14205,2,0,L|264:334,1,76.4999976654053,0|0,1:1|1:1,0:0:0:0:
150,255,14558,1,10,2:2:0:0:
150,255,14735,1,2,2:2:0:0:
57,384,14911,6,0,B|17:348|17:348|51:229,1,152.999995330811,2|8,1:2|2:2,0:0:0:0:
163,152,15441,1,0,1:1:0:0:
39,70,15617,2,0,L|60:162,1,76.4999976654053,2|2,2:2|1:2,0:0:0:0:
150,255,15970,1,10,2:2:0:0:
312,148,16146,6,0,P|250:187|254:260,1,152.999995330811,4|2,1:2|1:2,0:0:0:0:
337,384,16676,1,10,2:2:0:0:
382,240,16852,1,2,2:2:0:0:
382,240,16941,1,8,2:2:0:0:
382,240,17029,2,0,L|324:230,2,38.2499988327027,0|0|2,1:1|1:0|1:2,0:0:0:0:
489,162,17382,1,10,2:2:0:0:
374,51,17558,1,2,3:2:0:0:
374,51,17646,1,8,2:2:0:0:
374,51,17735,6,0,L|392:149,1,76.4999976654053,4|2,1:2|2:2,0:0:0:0:
344,233,18088,1,10,2:2:0:0:
237,106,18264,2,0,L|219:204,1,76.4999976654053,2|10,1:2|2:2,0:0:0:0:
278,322,18617,1,2,1:2:0:0:
155,254,18793,6,0,P|110:241|75:251,1,76.4999976654053,10|2,2:2|1:2,0:0:0:0:
182,363,19146,1,12,2:2:0:0:
223,181,19323,2,0,L|209:105,1,76.4999976654053,2|10,1:2|2:2,0:0:0:0:
134,0,19676,1,2,1:2:0:0:
128,161,19852,5,10,3:2:0:0:
229,11,20029,1,8,3:2:0:0:
68,75,20205,1,8,3:2:0:0:
223,181,20382,1,8,3:2:0:0:
134,0,20558,5,4,1:2:0:0:
68,75,20735,2,0,L|10:60,2,55.2499974708558,2|2|2,0:2|0:2|0:2,0:0:0:0:
152,117,21264,2,0,P|117:157|140:264,1,165.749992412568,2|2,0:2|0:2,0:0:0:0:
216,288,21970,2,0,L|204:352,1,55.2499974708558,2|2,0:2|0:2,0:0:0:0:
101,384,22323,2,0,L|89:320,1,55.2499974708558,2|2,0:2|0:2,0:0:0:0:
225,287,22676,2,0,L|213:351,1,55.2499974708558,2|2,0:2|0:2,0:0:0:0:
136,249,23029,2,0,L|158:136,1,110.499994941712,2|2,0:2|0:2,0:0:0:0:
235,99,23558,6,0,L|246:156,2,55.2499974708558,2|2|2,0:2|0:2|0:2,0:0:0:0:
292,28,24088,2,0,P|373:13|417:78,1,165.749992412568,2|2,0:2|0:2,0:0:0:0:
456,152,24793,2,0,L|442:213,1,55.2499974708558,2|2,0:2|0:2,0:0:0:0:
363,247,25146,2,0,L|349:186,1,55.2499974708558,2|2,0:2|0:2,0:0:0:0:
466,147,25499,2,0,L|452:208,1,55.2499974708558,2|2,0:2|0:2,0:0:0:0:
441,302,25852,1,2,0:2:0:0:
441,302,26205,5,4,1:2:0:0:
364,341,26382,2,0,L|306:329,2,55.2499974708558,2|2|2,2:2|0:2|0:2,0:0:0:0:
334,236,26911,1,2,0:2:0:0:
334,236,27088,1,2,0:2:0:0:
236,384,27441,2,0,L|212:267,1,110.499994941712,2|2,0:2|0:2,0:0:0:0:
168,193,27970,2,0,L|229:178,1,55.2499974708558,2|2,0:2|0:2,0:0:0:0:
129,306,28323,2,0,L|68:291,1,55.2499974708558,2|0,0:2|1:1,0:0:0:0:
52,267,28588,1,0,1:0:0:0:
52,267,28676,6,0,P|33:220|79:152,1,114.749996498108,10|0,2:2|0:0,0:0:0:0:
81,134,29029,6,0,L|64:46,1,76.4999976654053,2|0,1:2|3:3,0:0:0:0:
65,20,29293,1,0,3:0:0:0:
65,20,29382,2,0,L|126:15,1,38.2499988327027,0|0,3:3|3:0,0:0:0:0:
144,15,29558,1,2,1:2:0:0:
260,111,29735,1,2,3:2:0:0:
260,111,29823,1,0,3:0:0:0:
260,111,29911,2,0,L|217:102,1,38.2499988327027,0|0,3:3|3:0,0:0:0:0:
185,102,30088,2,0,L|199:188,1,76.4999976654053,12|2,2:2|0:0,0:0:0:0:
311,343,30441,5,0,1:1:0:0:
325,198,30617,1,10,2:2:0:0:
223,271,30793,2,0,L|137:262,1,76.4999976654053,14|0,2:2|3:3,0:0:0:0:
129,242,31058,1,8,2:2:0:0:
129,242,31146,2,0,L|77:253,3,38.2499988327027,10|0|2|8,2:2|3:3|3:2|2:2,0:0:0:0:
64,276,31499,1,10,2:2:0:0:
203,169,31676,1,2,3:2:0:0:
203,169,31764,1,0,3:3:0:0:
203,169,31852,6,0,P|247:152|283:163,1,68,4|2,1:2|2:2,0:0:0:0:
374,282,32205,2,0,P|340:283|310:268,1,68,10|0,2:2|0:0,0:0:0:0:
345,102,32558,1,2,1:2:0:0:
345,102,32735,1,0,1:1:0:0:
422,190,32911,2,0,P|388:192|354:197,1,68,8|2,2:2|2:2,0:0:0:0:
231,312,33264,6,0,P|296:309|330:364,1,136,2|10,1:2|2:2,0:0:0:0:
170,374,33793,2,0,L|90:362,1,68,2|0,1:2|1:0,0:0:0:0:
116,198,34146,1,2,1:2:0:0:
0,288,34323,2,0,L|67:277,1,68,10|0,2:2|0:0,0:0:0:0:
208,224,34676,6,0,L|196:153,1,68,0|2,1:1|2:2,0:0:0:0:
120,42,35029,2,0,L|108:109,1,68,10|2,2:2|2:2,0:0:0:0:
207,72,35382,1,2,1:2:0:0:
207,72,35558,1,0,1:1:0:0:
116,198,35735,2,0,L|49:186,1,68,8|2,2:2|2:2,0:0:0:0:
218,59,36088,6,0,L|285:71,1,68,2|2,1:2|1:2,0:0:0:0:
386,174,36441,2,0,L|319:186,1,68,10|2,2:2|1:2,0:0:0:0:
199,235,36793,2,0,L|210:168,1,68,2|2,1:2|1:2,0:0:0:0:
300,294,37146,1,10,2:2:0:0:
178,348,37323,1,0,3:3:0:0:
178,348,37411,1,8,2:2:0:0:
178,348,37499,6,0,L|105:329,1,68,4|2,1:2|2:2,0:0:0:0:
300,294,37852,2,0,L|373:275,1,68,10|0,2:2|0:0,0:0:0:0:
476,207,38205,1,2,1:2:0:0:
476,207,38382,1,2,1:2:0:0:
365,108,38558,2,0,P|347:136|348:169,1,68,8|2,2:2|2:2,0:0:0:0:
442,43,38911,6,0,P|387:4|322:13,1,136,4|10,1:2|2:2,0:0:0:0:
157,51,39441,1,2,1:2:0:0:
269,148,39617,1,10,2:2:0:0:
243,56,39793,1,0,3:3:0:0:
186,205,39970,1,10,2:2:0:0:
186,205,40058,1,8,2:2:0:0:
186,205,40146,1,0,3:3:0:0:
326,254,40323,6,0,L|241:278,1,76.4999976654053,12|0,2:2|3:3,0:0:0:0:
220,307,40588,1,0,3:0:0:0:
220,307,40676,2,0,L|152:300,1,38.2499988327027,0|0,1:1|3:0,0:0:0:0:
140,283,40852,1,10,2:2:0:0:
19,375,41029,1,0,3:3:0:0:
19,375,41117,1,0,3:0:0:0:
19,375,41205,2,0,L|30:317,1,38.2499988327027,0|0,1:1|3:0,0:0:0:0:
50,310,41382,2,0,L|35:212,1,76.4999976654053,14|0,2:2|0:0,0:0:0:0:
167,166,41735,5,0,1:1:0:0:
16,127,41911,1,10,2:2:0:0:
140,283,42088,2,0,L|238:268,1,76.4999976654053,14|0,2:2|3:3,0:0:0:0:
250,245,42352,1,8,2:2:0:0:
250,245,42441,2,0,L|304:249,3,38.2499988327027,2|8|0|0,1:2|2:2|1:1|1:0,0:0:0:0:
317,269,42793,1,10,2:2:0:0:
335,265,42881,1,8,2:2:0:0:
354,261,42969,1,0,3:3:0:0:
373,258,43057,1,0,1:0:0:0:
392,254,43146,6,0,P|406:211|394:179,1,68,4|0,1:2|0:0,0:0:0:0:
378,159,43411,2,0,L|284:147,1,68,2|0,1:2|0:0,0:0:0:0:
260,160,43676,1,2,1:2:0:0:
153,51,43852,2,0,P|163:92|153:128,1,68,8|0,2:2|3:0,0:0:0:0:
131,152,44117,1,0,3:3:0:0:
131,152,44205,5,2,3:2:0:0:
2,51,44382,2,0,B|35:92|35:92|8:205,1,136,2|2,1:2|1:2,0:0:0:0:
97,307,44911,2,0,L|82:215,1,68,0|2,3:3|1:2,0:0:0:0:
227,185,45264,2,0,L|214:260,1,68,10|0,2:2|1:1,0:0:0:0:
328,372,45617,2,0,L|403:359,1,68,10|0,2:2|1:0,0:0:0:0:
512,243,45970,6,0,B|440:223|461:271|380:251,1,136,4|2,1:2|0:0,0:0:0:0:
505,153,46499,1,0,1:1:0:0:
403,90,46676,2,0,L|418:185,1,68,8|0,2:2|0:0,0:0:0:0:
486,33,47029,1,0,1:1:0:0:
316,145,47205,6,0,L|180:132,1,136,12|0,2:2|1:1,0:0:0:0:
19,125,47735,1,2,1:2:0:0:
19,125,47911,1,2,3:2:0:0:
117,1,48088,2,0,L|100:89,1,68,10|0,2:2|0:0,0:0:0:0:
86,221,48441,1,10,2:2:0:0:
19,125,48617,1,0,1:1:0:0:
194,46,48793,6,0,L|282:58,1,68,4|0,1:2|0:0,0:0:0:0:
294,68,49058,2,0,P|271:93|269:130,1,68,2|0,1:2|0:0,0:0:0:0:
277,159,49323,1,2,1:2:0:0:
364,257,49499,2,0,L|375:174,1,68,8|0,2:2|0:0,0:0:0:0:
287,294,49852,5,10,2:2:0:0:
403,337,50029,2,0,P|353:292|287:294,1,136,2|2,1:2|1:2,0:0:0:0:
142,217,50558,1,12,2:2:0:0:
246,141,50735,1,2,3:2:0:0:
246,141,50823,1,8,2:2:0:0:
246,141,50911,2,0,P|238:178|232:216,1,68,2|0,1:2|3:3,0:0:0:0:
215,369,51264,1,8,3:2:0:0:
334,210,51441,1,0,3:3:0:0:
176,295,51617,6,0,P|102:294|58:235,1,152.999995330811,12|0,2:2|1:1,0:0:0:0:
170,66,52146,2,0,P|152:147|140:230,1,152.999995330811,14|0,2:2|1:1,0:0:0:0:
215,369,52676,2,0,P|288:368|332:309,1,152.999995330811,14|0,2:2|1:1,0:0:0:0:
422,185,53205,6,0,P|384:190|346:197,1,76.4999976654053,8|0,2:2|3:3,0:0:0:0:
314,226,53470,1,0,3:3:0:0:
314,226,53558,2,0,P|276:219|238:213,1,76.4999976654053,0|2,3:3|1:2,0:0:0:0:
100,123,53911,1,0,1:1:0:0:
132,312,54088,1,10,2:2:0:0:
132,312,54441,6,0,P|134:273|139:235,1,76.4999976654053,4|0,1:2|0:0,0:0:0:0:
180,51,54794,2,0,P|185:88|187:127,1,76.4999976654053,8|0,2:2|1:1,0:0:0:0:
256,293,55146,5,8,2:2:0:0:
310,138,55323,1,0,1:1:0:0:
366,318,55499,5,8,2:2:0:0:
241,205,55676,1,0,1:1:0:0:
412,115,55852,6,0,L|398:206,1,76.4999976654053,14|0,2:2|1:1,0:0:0:0:
299,63,56205,2,0,L|313:154,1,76.4999976654053,8|0,2:2|1:1,0:0:0:0:
395,17,56558,5,8,2:2:0:0:
400,190,56735,1,0,1:1:0:0:
491,54,56911,5,8,2:2:0:0:
501,235,57088,1,0,1:1:0:0:
311,139,57264,6,0,P|269:131|230:152,1,76.4999976654053,4|2,1:2|3:2,0:0:0:0:
93,235,57617,1,2,3:2:0:0:
230,363,57793,2,0,L|211:264,1,76.4999976654053,14|2,2:2|3:2,0:0:0:0:
128,132,58146,1,2,3:2:0:0:
103,337,58323,1,10,2:2:0:0:
299,231,58499,6,0,P|374:243|449:257,1,152.999995330811,4|10,1:2|2:2,0:0:0:0:
294,139,59029,1,10,2:2:0:0:
372,348,59205,1,10,2:2:0:0:
372,348,59558,6,0,L|324:338,1,38.2499988327027,2|2,1:2|0:0,0:0:0:0:
247,363,59735,6,0,P|302:326|290:261,1,140.25000428009,4|0,2:1|0:0,0:0:0:0:
262,237,60088,6,0,B|212:233|212:233|173:253,1,93.5000028533936,4|0,1:3|0:0,0:0:0:0:
2,159,60441,2,0,B|51:162|51:162|90:142,1,93.5000028533936,10|0,2:2|3:3,0:0:0:0:
217,40,60793,2,0,L|200:149,1,93.5000028533936,2|0,1:2|1:1,0:0:0:0:
126,0,61146,1,10,2:2:0:0:
308,100,61323,6,0,B|382:93|382:93|418:115|418:115|488:109,1,187.000005706787,2|0,1:2|1:1,0:0:0:0:
326,211,61852,1,8,2:2:0:0:
469,339,62029,2,0,L|448:235,1,93.5000028533936,2|0,0:0|1:1,0:0:0:0:
308,100,62382,1,2,1:2:0:0:
341,316,62558,1,10,2:2:0:0:
408,151,62735,1,2,2:2:0:0:
235,286,62911,6,0,L|114:270,1,93.5000028533936,2|0,1:2|0:0,0:0:0:0:
0,149,63264,2,0,P|22:189|18:235,1,93.5000028533936,10|0,2:2|3:3,0:0:0:0:
161,71,63617,2,0,P|138:111|142:157,1,93.5000028533936,2|0,1:2|1:1,0:0:0:0:
67,18,63970,1,10,2:2:0:0:
253,138,64146,6,0,P|307:122|257:28,1,187.000005706787,4|0,1:2|1:1,0:0:0:0:
143,157,64676,1,8,2:2:0:0:
279,293,64852,1,0,3:3:0:0:
279,293,64941,1,0,3:3:0:0:
279,293,65029,2,0,L|298:233,2,46.7500014266968,2|0|2,1:2|1:0|1:2,0:0:0:0:
70,368,65382,2,0,L|49:262,1,93.5000028533936,10|2,2:2|3:2,0:0:0:0:
15,237,65646,1,8,2:2:0:0:
15,237,65735,6,0,B|114:210|89:283|196:239,1,187.000005706787,4|10,1:2|2:2,0:0:0:0:
29,147,66264,1,0,0:0:0:0:
157,63,66441,2,0,P|149:110|142:156,1,93.5000028533936,2|2,1:2|1:2,0:0:0:0:
301,277,66793,2,0,P|294:230|286:184,1,93.5000028533936,10|2,2:2|2:2,0:0:0:0:
248,378,67146,6,0,P|311:314|400:329,1,187.000005706787,2|10,1:2|2:2,0:0:0:0:
370,136,67676,1,0,0:0:0:0:
512,242,67852,2,0,P|465:234|419:227,1,93.5000028533936,2|2,1:2|1:2,0:0:0:0:
321,43,68205,2,0,P|367:35|413:28,1,93.5000028533936,10|2,2:2|1:2,0:0:0:0:
286,184,68558,6,0,P|232:202|119:116,1,187.000005706787,4|10,1:2|2:2,0:0:0:0:
216,19,69088,2,0,P|222:65|226:111,1,93.5000028533936,6|0,1:2|0:0,0:0:0:0:
173,301,69441,1,2,1:2:0:0:
127,139,69617,1,8,2:2:0:0:
295,289,69793,6,0,P|351:305|451:222,1,187.000005706787,6|0,1:2|1:1,0:0:0:0:
380,24,70323,1,8,2:2:0:0:
352,212,70499,1,0,1:1:0:0:
490,36,70676,1,8,2:2:0:0:
448,234,70852,1,2,1:2:0:0:
279,86,71029,1,4,2:1:0:0:
262,310,71205,1,2,3:2:0:0:
262,310,71293,1,8,2:2:0:0:
262,310,71382,6,0,P|272:262|244:211,1,93.5000028533936,4|0,1:3|0:0,0:0:0:0:
70,270,71735,2,0,L|176:278,1,93.5000028533936,10|0,2:2|3:3,0:0:0:0:
279,86,72088,2,0,L|185:93,1,93.5000028533936,2|0,1:2|1:1,0:0:0:0:
345,197,72441,1,10,2:2:0:0:
354,29,72617,6,0,B|313:81|313:81|346:201,1,187.000005706787,2|0,1:2|1:1,0:0:0:0:
279,373,73146,1,8,2:2:0:0:
145,243,73323,2,0,L|247:228,1,93.5000028533936,2|0,0:0|1:1,0:0:0:0:
428,364,73676,1,2,1:2:0:0:
446,150,73852,1,10,2:2:0:0:
329,289,74029,1,2,2:2:0:0:
185,120,74205,6,0,P|227:102|272:111,1,93.5000028533936,2|0,1:2|0:0,0:0:0:0:
145,243,74558,2,0,L|12:231,1,93.5000028533936,10|0,2:2|3:3,0:0:0:0:
176,384,74911,2,0,L|309:372,1,93.5000028533936,2|0,1:2|1:1,0:0:0:0:
431,274,75264,1,10,2:2:0:0:
273,111,75441,6,0,B|225:164|225:164|252:291,1,187.000005706787,4|0,1:2|1:1,0:0:0:0:
413,162,75970,1,8,2:2:0:0:
369,373,76146,1,0,3:3:0:0:
369,373,76235,1,0,1:0:0:0:
369,373,76323,2,0,L|354:300,2,46.7500014266968,2|8|2,1:2|2:2|1:2,0:0:0:0:
261,184,76676,2,0,L|247:294,1,93.5000028533936,10|2,2:2|3:2,0:0:0:0:
177,360,76941,1,8,2:2:0:0:
177,360,77029,6,0,P|125:375|22:276,1,187.000005706787,4|10,1:2|2:2,0:0:0:0:
125,127,77558,1,0,0:0:0:0:
226,258,77735,2,0,L|101:279,1,93.5000028533936,2|2,1:2|1:2,0:0:0:0:
0,153,78088,2,0,L|14:60,1,93.5000028533936,10|2,2:2|2:2,0:0:0:0:
275,0,78441,6,0,B|226:49|226:49|272:186,1,187.000005706787,2|10,1:2|2:2,0:0:0:0:
340,373,78970,1,0,0:0:0:0:
456,213,79146,2,0,P|414:193|368:202,1,93.5000028533936,2|2,1:2|1:2,0:0:0:0:
226,344,79499,1,10,2:2:0:0:
264,161,79676,1,2,1:2:0:0:
186,260,79852,6,0,P|234:249|292:273,1,93.5000028533936,4|0,1:2|1:0,0:0:0:0:
311,281,80117,1,0,1:0:0:0:
311,281,80205,1,10,2:2:0:0:
94,308,80382,2,0,P|74:266|77:219,1,93.5000028533936,6|0,1:2|0:0,0:0:0:0:
226,344,80735,1,2,1:2:0:0:
43,384,80911,1,8,2:2:0:0:
186,260,81088,6,0,B|282:224|263:299|366:246,1,187.000005706787,6|0,1:2|1:1,0:0:0:0:
512,118,81617,1,8,2:2:0:0:
454,294,81793,1,0,1:1:0:0:
295,159,81970,1,10,2:2:0:0:
345,370,82146,1,2,1:2:0:0:
432,180,82323,1,10,2:2:0:0:
229,257,82499,1,2,3:2:0:0:
229,257,82588,1,0,3:3:0:0:
229,257,82676,6,0,L|113:248,1,93.5000028533936,4|0,1:2|3:3,0:0:0:0:
97,234,82941,1,8,2:2:0:0:
97,234,83029,1,10,2:2:0:0:
170,70,83205,2,0,L|194:169,1,93.5000028533936,6|0,1:2|0:0,0:0:0:0:
51,334,83558,1,10,2:2:0:0:
75,136,83735,1,0,3:3:0:0:
250,301,83911,2,0,L|146:326,1,93.5000028533936,4|0,1:2|0:0,0:0:0:0:
64,114,84264,5,8,2:2:0:0:
332,197,84441,1,8,2:2:0:0:
332,197,84970,6,0,L|321:265,1,46.7500014266968,2|2,1:2|0:0,0:0:0:0:
250,301,85146,2,0,L|235:208,1,93.5000028533936,4|0,2:1|3:3,0:0:0:0:
270,133,85411,1,8,2:2:0:0:
270,133,85499,6,0,P|225:124|190:139,1,76.4999976654053,4|2,1:2|2:2,0:0:0:0:
27,210,85852,1,10,2:2:0:0:
97,72,86029,2,0,P|110:147|120:223,1,152.999995330811,2|2,1:2|1:2,0:0:0:0:
250,301,86558,1,8,2:2:0:0:
66,332,86735,6,0,P|137:322|175:384,1,152.999995330811,2|2,1:2|1:2,0:0:0:0:
290,219,87264,2,0,L|194:203,1,76.4999976654053,8|2,2:2|1:2,0:0:0:0:
345,326,87617,2,0,L|420:313,1,76.4999976654053,2|0,1:2|1:1,0:0:0:0:
505,154,87970,1,10,2:2:0:0:
387,235,88146,1,2,2:2:0:0:
489,384,88323,6,0,B|501:347|529:317|529:317|506:284|504:247,1,152.999995330811,2|8,1:2|2:2,0:0:0:0:
404,118,88852,1,0,1:1:0:0:
311,245,89029,2,0,L|393:234,1,76.4999976654053,2|2,1:2|1:2,0:0:0:0:
258,152,89382,1,10,2:2:0:0:
190,334,89558,6,0,P|152:350|54:292,1,152.999995330811,4|2,1:2|1:2,0:0:0:0:
226,243,90088,1,10,2:2:0:0:
103,136,90264,1,2,2:2:0:0:
103,136,90352,1,8,2:2:0:0:
103,136,90441,2,0,L|114:198,2,38.2499988327027,0|8|2,1:1|2:2|1:2,0:0:0:0:
135,264,90793,1,10,2:2:0:0:
257,152,90970,1,2,3:2:0:0:
257,152,91058,1,8,2:2:0:0:
257,152,91146,6,0,P|292:136|329:141,1,76.4999976654053,4|2,1:2|2:2,0:0:0:0:
499,210,91499,1,10,2:2:0:0:
391,249,91676,1,2,1:2:0:0:
446,106,91852,1,10,2:2:0:0:
387,267,92029,1,2,1:2:0:0:
257,152,92205,6,0,P|222:136|185:141,1,76.4999976654053,10|2,2:2|1:2,0:0:0:0:
53,231,92558,1,12,2:2:0:0:
73,109,92735,1,2,1:2:0:0:
167,236,92911,1,10,2:2:0:0:
64,96,93088,1,2,1:2:0:0:
208,34,93264,1,10,2:2:0:0:
208,34,93352,1,8,2:2:0:0:
208,34,93441,2,0,P|197:70|190:108,1,76.4999976654053,0|8,3:3|2:2,0:0:0:0:
186,141,93705,1,8,2:2:0:0:
186,141,93793,1,0,3:3:0:0:
298,268,93970,6,0,P|345:269|390:241,1,76.4999976654053,4|2,1:2|2:2,0:0:0:0:
344,101,94323,2,0,P|319:141|321:194,1,76.4999976654053,8|2,2:2|2:2,0:0:0:0:
452,91,94676,1,2,1:2:0:0:
452,91,94852,1,0,1:1:0:0:
324,10,95029,2,0,P|285:13|248:19,1,76.4999976654053,8|2,2:2|2:2,0:0:0:0:
89,93,95382,6,0,P|161:82|213:134,1,152.999995330811,2|10,1:2|2:2,0:0:0:0:
212,278,95911,1,2,1:2:0:0:
133,178,96088,1,2,1:2:0:0:
133,178,96264,1,2,1:2:0:0:
28,287,96441,2,0,P|65:279|103:273,1,76.4999976654053,10|0,2:2|0:0,0:0:0:0:
214,135,96793,6,0,P|251:140|289:149,1,76.4999976654053,0|2,1:1|2:2,0:0:0:0:
385,232,97146,2,0,P|347:237|309:246,1,76.4999976654053,10|2,2:2|2:2,0:0:0:0:
163,338,97499,1,2,1:2:0:0:
163,338,97676,1,0,1:1:0:0:
255,384,97852,2,0,P|249:346|240:308,1,76.4999976654053,8|2,2:2|2:2,0:0:0:0:
104,222,98205,6,0,P|138:242|183:235,1,76.4999976654053,2|2,1:2|1:2,0:0:0:0:
208,90,98558,2,0,P|173:109|157:151,1,76.4999976654053,10|2,2:2|1:2,0:0:0:0:
247,178,98911,1,2,1:2:0:0:
247,178,99088,1,2,1:2:0:0:
283,22,99264,1,10,2:2:0:0:
382,104,99441,1,0,3:3:0:0:
382,104,99529,1,8,2:2:0:0:
382,104,99617,6,0,P|420:96|458:92,1,76.4999976654053,4|2,1:2|2:2,0:0:0:0:
512,196,99970,2,0,P|474:188|436:184,1,76.4999976654053,10|2,2:2|2:2,0:0:0:0:
321,300,100323,1,2,1:2:0:0:
321,300,100499,2,0,P|325:261|332:224,1,76.4999976654053,2|8,1:2|2:2,0:0:0:0:
362,384,100852,6,0,P|309:332|236:343,1,152.999995330811,2|0,2:2|1:1,0:0:0:0:
109,265,101382,2,0,P|147:255|184:249,1,76.4999976654053,10|2,2:2|1:2,0:0:0:0:
284,162,101735,1,2,1:2:0:0:
284,162,101911,1,0,1:1:0:0:
196,72,102088,2,0,P|186:110|180:147,1,76.4999976654053,10|0,2:2|0:0,0:0:0:0:
38,284,102441,6,0,P|81:264|134:276,1,76.4999976654053,2|0,1:2|3:3,0:0:0:0:
137,287,102705,1,0,3:3:0:0:
137,287,102793,2,0,L|193:279,1,38.2499988327027,0|0,3:3|3:0,0:0:0:0:
213,275,102970,1,2,1:2:0:0:
292,124,103146,1,2,3:2:0:0:
292,124,103235,1,0,3:3:0:0:
292,124,103323,2,0,L|280:176,1,38.2499988327027,0|0,3:3|3:0,0:0:0:0:
273,197,103499,2,0,L|374:183,1,76.4999976654053,12|0,2:2|3:3,0:0:0:0:
446,138,103852,5,0,1:1:0:0:
366,283,104029,1,10,2:2:0:0:
292,124,104205,2,0,P|253:113|208:121,1,76.4999976654053,14|0,2:2|3:3,0:0:0:0:
186,139,104470,1,8,2:2:0:0:
186,139,104558,2,0,L|134:130,3,38.2499988327027,10|0|2|8,2:2|3:3|3:2|2:2,0:0:0:0:
121,109,104911,1,10,2:2:0:0:
248,10,105088,1,2,3:2:0:0:
248,10,105176,1,0,3:3:0:0:
248,10,105264,6,0,P|286:7|324:11,1,76.4999976654053,4|2,1:2|2:2,0:0:0:0:
454,104,105617,2,0,P|413:123|379:120,1,76.4999976654053,10|2,2:2|0:0,0:0:0:0:
263,206,105970,1,2,1:2:0:0:
263,206,106146,1,0,1:1:0:0:
366,290,106323,2,0,P|363:251|356:214,1,76.4999976654053,8|2,2:2|2:2,0:0:0:0:
226,115,106676,6,0,P|171:164|175:240,1,152.999995330811,2|10,1:2|2:2,0:0:0:0:
248,368,107205,2,0,P|210:361|172:355,1,76.4999976654053,2|0,1:2|1:0,0:0:0:0:
263,206,107558,1,2,1:2:0:0:
384,282,107735,2,0,P|346:287|308:294,1,76.4999976654053,10|0,2:2|0:0,0:0:0:0:
226,115,108088,6,0,P|263:120|301:127,1,76.4999976654053,2|2,1:2|2:2,0:0:0:0:
153,178,108441,2,0,P|127:150|125:112,1,76.4999976654053,10|2,2:2|2:2,0:0:0:0:
263,206,108793,1,2,1:2:0:0:
263,206,108970,1,0,1:1:0:0:
119,274,109146,2,0,P|81:267|43:261,1,76.4999976654053,8|2,2:2|2:2,0:0:0:0:
200,384,109499,6,0,P|205:346|212:308,1,76.4999976654053,2|2,1:2|1:2,0:0:0:0:
381,349,109852,2,0,P|343:354|305:361,1,76.4999976654053,10|2,2:2|1:2,0:0:0:0:
263,206,110205,2,0,P|300:211|338:218,1,76.4999976654053,2|2,1:2|1:2,0:0:0:0:
459,156,110558,1,10,2:2:0:0:
356,32,110735,1,0,3:3:0:0:
356,32,110823,1,8,2:2:0:0:
356,32,110911,6,0,P|362:69|368:107,1,76.4999976654053,4|2,1:2|2:2,0:0:0:0:
263,206,111264,2,0,P|268:168|275:130,1,76.4999976654053,10|0,2:2|0:0,0:0:0:0:
208,25,111617,1,2,1:2:0:0:
208,25,111793,1,2,1:2:0:0:
116,115,111970,2,0,P|70:122|27:92,1,76.4999976654053,8|2,2:2|2:2,0:0:0:0:
163,233,112323,6,0,P|148:308|138:383,1,152.999995330811,0|10,1:1|2:2,0:0:0:0:
238,281,112852,1,2,1:2:0:0:
60,313,113029,1,10,2:2:0:0:
239,384,113205,1,0,3:3:0:0:
239,384,113293,1,0,3:0:0:0:
239,384,113382,2,0,P|295:373|352:366,1,114.749996498108,14|0,2:2|0:0,0:0:0:0:
382,350,113735,6,0,L|393:272,1,76.4999976654053,12|0,2:2|3:3,0:0:0:0:
396,233,113999,1,0,3:0:0:0:
396,233,114088,2,0,L|343:246,1,38.2499988327027,0|0,1:1|3:0,0:0:0:0:
318,252,114264,1,10,2:2:0:0:
221,128,114441,1,0,3:3:0:0:
221,128,114528,1,0,3:0:0:0:
221,128,114617,2,0,L|274:141,1,38.2499988327027,0|0,1:1|3:0,0:0:0:0:
291,147,114793,1,14,2:2:0:0:
197,286,114970,2,0,L|180:238,2,38.2499988327027,0|0|0,1:0|1:0|1:1,0:0:0:0:
88,203,115323,5,10,2:2:0:0:
163,44,115499,2,0,P|214:26|257:39,1,76.4999976654053,14|0,2:2|3:3,0:0:0:0:
263,44,115764,1,8,2:2:0:0:
263,44,115852,2,0,L|305:38,3,38.2499988327027,2|8|0|0,1:2|2:2|1:1|1:0,0:0:0:0:
331,15,116205,1,10,2:2:0:0:
349,18,116293,1,8,2:2:0:0:
368,22,116381,1,0,3:3:0:0:
387,25,116469,1,0,1:0:0:0:
406,29,116558,6,0,P|420:59|419:93,1,68,4|0,1:2|0:0,0:0:0:0:
394,124,116823,2,0,L|406:212,1,68,2|0,1:2|0:0,0:0:0:0:
413,226,117088,1,2,1:2:0:0:
502,330,117264,2,0,P|464:323|426:337,1,68,8|2,2:2|0:0,0:0:0:0:
399,357,117529,1,2,0:0:0:0:
399,357,117617,5,2,3:2:0:0:
252,279,117793,2,0,P|301:321|287:384,1,136,2|2,1:2|1:2,0:0:0:0:
154,296,118323,2,0,L|163:216,1,68,0|2,3:3|1:2,0:0:0:0:
271,105,118676,2,0,L|278:172,1,68,10|0,2:2|1:1,0:0:0:0:
116,141,119029,2,0,P|147:127|180:131,1,68,10|0,2:2|1:1,0:0:0:0:
362,215,119382,6,0,P|318:264|252:261,1,136,4|2,1:2|0:0,0:0:0:0:
92,289,119911,1,0,1:1:0:0:
188,384,120088,2,0,L|179:304,1,68,8|0,2:2|3:3,0:0:0:0:
112,194,120441,1,0,1:1:0:0:
0,350,120617,6,0,L|17:192,1,136,12|0,2:2|1:1,0:0:0:0:
74,104,121146,1,2,1:2:0:0:
74,104,121323,1,2,3:2:0:0:
143,211,121499,2,0,P|185:214|218:195,1,68,10|0,2:2|1:1,0:0:0:0:
290,104,121852,1,10,2:2:0:0:
290,104,122029,1,0,1:1:0:0:
173,14,122205,6,0,L|167:91,1,68,4|0,1:2|0:0,0:0:0:0:
163,119,122470,2,0,P|124:110|89:124,1,68,2|0,1:2|0:0,0:0:0:0:
70,136,122735,1,2,1:2:0:0:
145,237,122911,2,0,L|217:223,1,68,8|0,2:2|0:0,0:0:0:0:
287,128,123264,1,10,2:2:0:0:
371,286,123441,6,0,P|310:276|323:217,1,136,2|2,1:2|1:2,0:0:0:0:
474,277,123970,1,12,2:2:0:0:
376,384,124146,1,2,3:2:0:0:
376,384,124235,1,8,2:2:0:0:
376,384,124323,2,0,L|326:376,2,34,2|0|0,1:2|1:0|3:3,0:0:0:0:
250,284,124676,1,0,3:3:0:0:
225,278,124764,1,0,3:3:0:0:
200,283,124852,1,0,3:3:0:0:
179,298,124940,1,0,3:0:0:0:
167,320,125029,6,0,P|133:314|91:312,1,76.4999976654053,4|0,1:2|3:3,0:0:0:0:
56,324,125293,1,8,2:2:0:0:
56,324,125382,1,8,2:2:0:0:
152,163,125558,2,0,B|207:156|207:156|244:168|244:168|302:161,1,152.999995330811,6|0,1:2|3:3,0:0:0:0:
466,263,126088,2,0,P|407:220|423:149,1,152.999995330811,14|0,2:2|1:1,0:0:0:0:
323,28,126617,5,8,2:2:0:0:
455,46,126793,2,0,L|415:55,2,38.2499988327027,0|0|0,3:3|3:3|3:3,0:0:0:0:
303,161,127146,1,10,2:2:0:0:
283,158,127234,1,8,2:2:0:0:
264,156,127322,1,0,3:3:0:0:
245,154,127410,1,0,3:0:0:0:
227,152,127499,2,0,P|209:117|219:79,1,76.4999976654053,2|0,3:2|3:3,0:0:0:0:
234,50,127764,1,0,1:1:0:0:
234,50,127852,6,0,L|147:37,1,76.4999976654053,4|0,1:2|0:0,0:0:0:0:
15,150,128205,2,0,L|102:137,1,76.4999976654053,8|0,2:2|1:1,0:0:0:0:
176,303,128558,5,8,2:2:0:0:
189,156,128735,1,0,1:1:0:0:
268,297,128911,5,8,2:2:0:0:
112,221,129088,1,0,1:1:0:0:
288,124,129264,6,0,L|274:206,1,76.4999976654053,14|0,2:2|1:1,0:0:0:0:
189,378,129617,2,0,L|176:302,1,76.4999976654053,8|0,2:2|1:1,0:0:0:0:
80,134,129970,5,8,2:2:0:0:
68,298,130146,1,0,1:1:0:0:
178,157,130323,5,8,2:2:0:0:
21,209,130499,1,0,1:1:0:0:
42,40,130676,6,0,P|78:30|115:38,1,76.4999976654053,4|2,1:2|3:2,0:0:0:0:
265,72,131029,1,2,3:2:0:0:
192,232,131205,2,0,L|177:152,1,76.4999976654053,14|2,2:2|3:2,0:0:0:0:
309,263,131558,1,2,3:2:0:0:
199,335,131735,1,10,2:2:0:0:
276,170,131911,6,0,P|347:170|404:229,1,152.999995330811,4|10,1:2|2:2,0:0:0:0:
459,384,132441,1,10,2:2:0:0:
309,263,132617,1,10,2:2:0:0:
309,263,132970,6,0,L|299:321,1,38.2499988327027,2|2,1:2|0:0,0:0:0:0:
239,359,133146,6,0,P|196:340|151:349,1,93.5000028533936,4|10,2:1|2:2,0:0:0:0:
66,384,133411,1,8,2:2:0:0:
66,384,133499,6,0,L|81:277,1,93.5000028533936,4|0,1:3|0:0,0:0:0:0:
170,126,133852,2,0,L|182:218,1,93.5000028533936,10|0,2:2|3:3,0:0:0:0:
327,342,134205,2,0,P|376:348|417:312,1,93.5000028533936,2|0,1:2|1:1,0:0:0:0:
512,189,134558,1,10,2:2:0:0:
363,72,134735,6,0,B|319:122|319:122|350:241,1,187.000005706787,2|0,1:2|1:1,0:0:0:0:
426,153,135264,1,8,2:2:0:0:
246,218,135441,2,0,L|145:206,1,93.5000028533936,2|0,0:0|1:0,0:0:0:0:
35,78,135793,1,2,1:2:0:0:
216,118,135970,1,10,2:2:0:0:
49,219,136146,1,2,2:2:0:0:
167,29,136323,6,0,P|211:14|260:26,1,93.5000028533936,2|0,1:2|0:0,0:0:0:0:
426,153,136676,2,0,P|381:138|333:150,1,93.5000028533936,10|0,2:2|3:3,0:0:0:0:
324,325,137029,2,0,P|358:294|373:245,1,93.5000028533936,2|0,1:2|1:1,0:0:0:0:
216,118,137382,1,10,2:2:0:0:
93,242,137558,6,0,B|192:215|167:288|274:244,1,187.000005706787,4|0,1:2|1:1,0:0:0:0:
96,147,138088,1,8,2:2:0:0:
125,371,138264,1,0,3:3:0:0:
125,371,138352,1,0,3:3:0:0:
125,371,138441,2,0,L|133:319,2,46.7500014266968,2|0|2,1:2|3:3|1:2,0:0:0:0:
0,231,138793,1,10,2:2:0:0:
191,244,138970,1,2,3:2:0:0:
191,244,139058,1,8,2:2:0:0:
192,243,139146,6,0,B|294:220|294:220|315:171|288:143,1,187.000005706787,4|10,1:2|2:2,0:0:0:0:
103,95,139676,1,0,0:0:0:0:
220,0,139852,2,0,P|210:45|204:92,1,93.5000028533936,2|2,1:2|1:2,0:0:0:0:
19,155,140205,2,0,P|12:108|3:62,1,93.5000028533936,10|2,2:2|2:2,0:0:0:0:
142,250,140558,6,0,P|53:240|0:312,1,187.000005706787,2|10,1:2|2:2,0:0:0:0:
151,372,141088,1,0,0:0:0:0:
237,182,141264,2,0,P|246:227|253:273,1,93.5000028533936,2|2,1:2|1:2,0:0:0:0:
400,384,141617,2,0,P|407:337|416:292,1,93.5000028533936,10|2,2:2|1:2,0:0:0:0:
497,110,141970,6,0,P|433:172|347:147,1,187.000005706787,4|10,1:2|2:2,0:0:0:0:
163,60,142499,2,0,P|206:35|255:33,1,93.5000028533936,6|0,1:2|0:0,0:0:0:0:
412,79,142852,1,2,1:2:0:0:
239,135,143029,1,8,2:2:0:0:
370,333,143205,6,0,P|359:239|348:147,1,187.000005706787,6|0,1:2|1:1,0:0:0:0:
279,367,143735,1,8,2:2:0:0:
451,241,143911,1,0,1:1:0:0:
267,217,144088,1,8,2:2:0:0:
399,364,144264,1,2,1:2:0:0:
512,176,144441,6,0,P|473:151|427:154,1,93.5000028533936,4|2,2:1|3:2,0:0:0:0:
359,234,144705,1,8,2:2:0:0:
359,234,144793,6,0,L|255:215,1,93.5000028533936,4|0,1:3|0:0,0:0:0:0:
106,95,145146,2,0,L|210:76,1,93.5000028533936,10|0,2:2|3:3,0:0:0:0:
361,0,145499,2,0,L|347:103,1,93.5000028533936,2|0,1:2|1:1,0:0:0:0:
281,316,145852,1,10,2:2:0:0:
117,204,146029,6,0,B|167:241|167:241|142:374,1,187.000005706787,2|0,1:2|1:1,0:0:0:0:
0,228,146558,1,8,2:2:0:0:
181,123,146735,2,0,L|288:139,1,93.5000028533936,2|0,0:0|1:1,0:0:0:0:
448,270,147088,1,2,1:2:0:0:
376,95,147264,1,10,2:2:0:0:
302,264,147441,1,2,2:2:0:0:
485,133,147617,6,0,L|467:35,1,93.5000028533936,2|0,1:2|0:0,0:0:0:0:
274,137,147970,2,0,L|292:39,1,93.5000028533936,10|0,2:2|3:3,0:0:0:0:
217,250,148323,2,0,P|257:272|302:264,1,93.5000028533936,2|0,1:2|1:1,0:0:0:0:
166,139,148676,1,10,2:2:0:0:
61,342,148852,6,0,B|93:344|114:363|114:363|91:237,1,187.000005706787,4|0,1:2|1:1,0:0:0:0:
274,137,149382,1,8,2:2:0:0:
115,0,149558,1,0,3:3:0:0:
115,0,149646,1,0,3:3:0:0:
115,0,149735,2,0,L|132:72,2,46.7500014266968,2|8|2,1:2|2:2|1:2,0:0:0:0:
0,133,150088,2,0,P|45:125|86:146,1,93.5000028533936,10|2,2:2|3:2,0:0:0:0:
91,236,150352,1,8,2:2:0:0:
91,236,150441,6,0,B|113:311|63:362|63:362|43:316,1,187.000005706787,4|10,1:2|2:2,0:0:0:0:
189,183,150970,1,0,0:0:0:0:
302,345,151146,2,0,L|195:331,1,93.5000028533936,2|2,1:2|1:2,0:0:0:0:
387,194,151499,2,0,L|280:208,1,93.5000028533936,10|2,2:2|2:2,0:0:0:0:
487,379,151852,6,0,B|444:347|442:279|442:279|475:258|481:219,1,187.000005706787,2|10,1:2|2:2,0:0:0:0:
393,39,152382,1,0,0:0:0:0:
294,206,152558,2,0,L|387:194,1,93.5000028533936,2|2,1:2|1:2,0:0:0:0:
196,150,152911,1,10,2:2:0:0:
335,295,153088,1,2,2:2:0:0:
231,52,153264,6,0,B|132:25|157:98|50:54,1,187.000005706787,4|10,1:2|2:2,0:0:0:0:
184,243,153793,2,0,L|197:144,1,93.5000028533936,6|0,1:2|0:0,0:0:0:0:
125,326,154146,1,2,1:2:0:0:
281,193,154323,1,8,2:2:0:0:
131,41,154499,6,0,L|105:226,1,187.000005706787,6|0,1:2|1:1,0:0:0:0:
261,349,155029,1,8,2:2:0:0:
197,150,155205,1,0,1:1:0:0:
125,326,155382,1,10,2:2:0:0:
281,193,155558,1,2,1:2:0:0:
256,378,155735,1,10,2:2:0:0:
106,226,155911,1,2,3:2:0:0:
106,226,155999,1,0,3:0:0:0:
106,226,156088,6,0,P|60:219|18:238,1,93.5000028533936,4|0,1:2|3:3,0:0:0:0:
0,279,156352,1,8,2:2:0:0:
0,279,156441,1,10,2:2:0:0:
103,113,156617,2,0,L|88:8,1,93.5000028533936,6|0,1:2|0:0,0:0:0:0:
193,182,156970,1,10,2:2:0:0:
4,119,157146,1,0,3:3:0:0:
210,44,157323,2,0,L|302:57,1,93.5000028533936,4|0,1:2|0:0,0:0:0:0:
386,233,157676,5,8,2:2:0:0:
488,0,157852,1,8,2:2:0:0:
488,0,158382,6,0,L|475:59,1,46.7500014266968,2|2,1:2|0:0,0:0:0:0:
390,67,158558,2,0,P|452:74|444:137,1,140.25000428009,4|0,2:1|2:2,0:0:0:0:
352,150,158911,5,4,1:2:0:0:
320,156,161735,6,0,L|236:142,2,76.4999976654053,14|2|2,2:2|1:2|1:2,0:0:0:0:
449,245,162264,2,0,L|365:259,1,76.4999976654053,14|0,2:2|1:0,0:0:0:0:
347,281,162529,1,0,1:0:0:0:
347,281,162617,2,0,L|263:267,1,76.4999976654053,10|0,2:2|1:1,0:0:0:0:
136,194,162970,6,0,L|161:361,1,152.999995330811,6|2,1:2|1:2,0:0:0:0:
231,171,163499,1,8,2:2:0:0:
52,258,163676,1,2,3:2:0:0:
52,258,163764,1,0,3:3:0:0:
52,258,163852,2,0,L|7:249,2,38.2499988327027,10|0|0,2:2|3:3|3:3,0:0:0:0:
164,128,164205,2,0,P|150:77|98:84,1,114.749996498108,10|0,2:2|3:3,0:0:0:0:
70,160,164558,6,0,B|102:168|135:155|135:155|163:177|163:177|194:164|230:170,2,170,4|8|0,1:3|2:2|1:1,0:0:0:0:
306,362,165617,1,10,2:2:0:0:
349,208,165793,1,2,1:2:0:0:
209,266,165970,1,2,1:2:0:0:
408,303,166146,6,0,B|450:311|450:311|496:286,1,85,2|8,0:0|2:2,0:0:0:0:
344,184,166499,2,0,B|306:163|306:163|264:171,1,85,2|2,2:2|1:2,0:0:0:0:
45,189,166852,1,2,1:2:0:0:
193,298,167029,1,10,2:2:0:0:
158,104,167205,1,2,2:2:0:0:
31,303,167382,6,0,B|97:290|97:290|132:310|132:310|220:292,1,170,2|10,1:2|2:2,0:0:0:0:
368,258,167911,2,0,P|300:227|343:167,1,170,2|2,2:2|1:2,0:0:0:0:
432,187,168352,1,2,1:2:0:0:
432,187,168441,2,0,P|455:221|459:263,1,85,8|4,2:2|1:2,0:0:0:0:
342,361,168793,5,2,1:2:0:0:
342,361,168882,2,0,L|247:345,1,85,2|0,0:0|0:0,0:0:0:0:
193,297,169146,2,0,L|98:313,1,85,10|2,2:2|3:2,0:0:0:0:
34,344,169411,1,2,3:2:0:0:
34,344,169499,2,0,L|26:387,2,42.5,0|8|2,1:1|2:2|1:2,0:0:0:0:
162,199,169852,1,10,2:2:0:0:
14,97,170029,1,2,3:2:0:0:
14,97,170117,1,0,3:3:0:0:
14,97,170205,6,0,L|35:198,1,85,4|0,1:2|0:0,0:0:0:0:
144,34,170558,1,10,2:2:0:0:
267,175,170735,2,0,B|359:149|336:218|436:176,1,170,2|2,2:2|1:2,0:0:0:0:
391,63,171176,1,2,2:2:0:0:
391,63,171264,2,0,L|384:116,3,42.5,10|2|2|2,2:2|0:0|1:2|2:2,0:0:0:0:
343,202,171617,5,2,2:2:0:0:
345,223,171705,1,2,2:2:0:0:
348,244,171793,1,2,1:2:0:0:
351,265,171881,1,2,2:2:0:0:
354,286,171970,2,0,P|374:289|395:285,3,42.5,10|2|2|2,2:2|2:2|2:2|2:2,0:0:0:0:
424,384,172323,5,2,1:2:0:0:
403,377,172411,1,2,0:0:0:0:
382,374,172499,1,2,1:2:0:0:
361,376,172587,1,0,1:0:0:0:
341,382,172676,2,0,L|284:371,3,42.5,10|0|2|0,2:2|1:0|2:2|1:0,0:0:0:0:
203,307,173029,6,0,P|174:306|147:313,2,56.6666666666667,4|2|2,1:2|2:2|2:2,0:0:0:0:
318,227,173382,6,0,P|289:227|262:220,2,56.6666666666667,10|2|2,2:2|2:2|2:2,0:0:0:0:
143,139,173735,6,0,P|150:166|149:194,2,56.6666666666667,10|2|2,2:2|2:2|2:2,0:0:0:0:
275,54,174088,6,0,P|267:81|268:109,2,56.6666666666667,10|2|2,2:2|2:2|2:2,0:0:0:0:
98,8,174441,6,0,P|38:5|6:105,1,170,4|10,1:2|2:2,0:0:0:0:
148,194,174970,2,0,P|107:190|67:204,1,85,2|8,1:2|2:2,0:0:0:0:
40,238,175235,1,8,2:2:0:0:
40,238,175323,1,2,3:2:0:0:
115,335,175499,2,0,L|127:270,2,42.5,10|8|0,2:2|2:2|3:3,0:0:0:0:
254,220,175852,6,0,L|266:313,1,85,14|0,2:2|3:3,0:0:0:0:
352,137,176205,1,0,1:1:0:0:
179,78,176382,2,0,L|86:90,1,85,10|0,2:2|3:3,0:0:0:0:
59,111,176646,1,0,3:3:0:0:
59,111,176735,2,0,L|68:171,1,42.5,0|0,1:1|1:0,0:0:0:0:
143,256,176911,2,0,L|153:171,1,85,14|0,2:2|3:3,0:0:0:0:
77,354,177264,5,0,1:1:0:0:
153,171,177441,1,10,2:2:0:0:
323,278,177617,2,0,L|225:299,1,85,14|2,2:2|3:2,0:0:0:0:
168,342,177882,1,8,2:2:0:0:
168,342,177970,2,0,L|182:396,2,42.5,2|8|2,1:2|2:2|3:2,0:0:0:0:
250,182,178323,1,10,2:2:0:0:
250,182,178411,1,8,2:2:0:0:
250,182,178499,1,2,3:2:0:0:
368,362,178676,5,4,1:3:0:0:
256,192,181323,5,0,1:0:0:0:
256,192,181499,1,2,1:2:0:0:
256,192,184323,5,2,1:2:0:0:
256,192,186970,5,0,1:0:0:0:
256,192,187146,1,2,1:2:0:0:
256,192,188558,6,0,P|247:239|239:286,1,95.6250036478044,8|0,2:2|3:3,0:0:0:0:
108,383,189088,2,0,P|97:320|86:257,1,127.500004863739,0|0,1:1|1:1,0:0:0:0:
10,156,189617,2,0,P|38:170|69:167,1,63.7500024318696,10|2,2:2|3:2,0:0:0:0:
198,35,189970,6,0,P|186:97|176:160,1,127.500004863739,4|2,1:2|3:2,0:0:0:0:
239,286,190499,1,0,1:1:0:0:
344,199,190676,2,0,P|314:186|282:185,1,63.7500024318696,14|0,2:2|0:0,0:0:0:0:
357,327,191029,1,2,3:2:0:0:
445,201,191205,6,0,P|435:138|422:75,1,127.500004863739,10|2,2:2|0:0,0:0:0:0:
308,8,191735,2,0,L|298:80,1,63.7500024318696,0|0,3:3|1:1,0:0:0:0:
168,166,192088,1,12,2:2:0:0:
168,166,192441,2,0,L|159:102,1,63.7500024318696,2|10,3:2|2:2,0:0:0:0:
248,206,192793,6,0,P|186:203|143:253,1,127.500004863739,2|0,1:2|3:3,0:0:0:0:
314,277,193323,1,0,1:1:0:0:
235,366,193499,2,0,L|222:292,1,63.7500024318696,12|0,2:2|0:0,0:0:0:0:
349,200,193852,2,0,L|337:262,1,63.7500024318696,2|10,3:2|2:2,0:0:0:0:
145,249,194205,6,0,L|167:111,1,127.500004863739,2|2,1:2|0:0,0:0:0:0:
246,0,194735,1,2,1:2:0:0:
331,112,194911,2,0,L|269:100,1,63.7500024318696,12|0,2:2|0:0,0:0:0:0:
147,22,195264,2,0,L|85:34,1,63.7500024318696,2|2,1:2|3:2,0:0:0:0:
42,52,195529,1,10,2:2:0:0:
42,52,195617,6,0,L|54:111,3,31.8750012159348,4|2|2|2,1:2|0:0|0:0|0:0,0:0:0:0:
76,114,195970,2,0,L|62:182,1,63.7500024318696,8|0,2:2|1:1,0:0:0:0:
147,328,196323,2,0,L|106:338,3,31.8750012159348,8|0|0|0,2:2|1:0|1:1|1:0,0:0:0:0:
82,358,196676,2,0,L|69:295,1,63.7500024318696,8|0,2:2|1:1,0:0:0:0:
180,181,197029,6,0,L|227:185,3,31.8750012159348,4|2|2|2,1:2|0:0|0:0|0:0,0:0:0:0:
236,207,197382,1,8,2:2:0:0:
257,216,197470,1,2,0:0:0:0:
281,217,197558,1,0,1:1:0:0:
303,209,197646,1,0,1:0:0:0:
321,193,197735,2,0,L|313:151,3,31.8750012159348,8|0|0|0,2:2|1:0|1:1|1:0,0:0:0:0:
399,109,198088,1,8,2:2:0:0:
403,132,198176,1,0,1:0:0:0:
408,155,198264,1,0,1:1:0:0:
413,179,198352,1,0,1:0:0:0:
418,202,198441,6,0,L|407:295,1,76.4999976654053,10|0,2:2|3:3,0:0:0:0:
283,382,198793,1,0,1:1:0:0:
210,232,198970,1,10,2:2:0:0:
210,232,199058,1,8,2:2:0:0:
210,232,199146,2,0,P|249:213|296:225,1,76.4999976654053,0|2,3:3|1:2,0:0:0:0:
169,334,199499,1,10,2:2:0:0:
154,138,199676,6,0,P|220:101|295:106,1,152.999995330811,4|2,1:2|1:2,0:0:0:0:
473,193,200205,1,10,2:2:0:0:
396,52,200382,1,2,1:2:0:0:
362,224,200558,1,10,2:2:0:0:
495,84,200735,1,2,1:2:0:0:
297,7,200911,1,10,2:2:0:0:
476,215,201088,5,10,2:2:0:0:
476,215,202323,1,8,2:2:0:0:
471,243,202411,1,0,3:3:0:0:
467,271,202499,1,0,3:3:0:0:
463,300,202587,1,0,3:3:0:0:
458,328,202676,6,0,B|420:301|386:300|386:300|368:329|322:335,1,152.999995330811,4|2,1:2|2:2,0:0:0:0:
114,165,203558,2,0,L|163:158,1,38.2499988327027,2|0,1:2|0:0,0:0:0:0:
102,156,203911,2,0,L|289:133,1,152.999995330811,4|0,1:2|1:1,0:0:0:0:
443,115,204441,1,4,1:2:0:0:
443,115,204970,2,0,L|362:97,1,76.4999976654053,14|2,2:2|2:2,0:0:0:0:
192,19,205323,1,2,3:2:0:0:
192,19,205411,1,0,3:3:0:0:
192,19,205499,6,0,B|235:57|235:57|218:157,1,152.999995330811,4|2,1:2|3:2,0:0:0:0:
75,288,206029,1,0,3:3:0:0:
100,138,206205,1,10,2:2:0:0:
186,275,206382,1,0,3:3:0:0:
15,193,206558,1,2,1:2:0:0:
211,284,206735,6,0,P|277:276|363:269,1,152.999995330811,4|0,1:2|1:1,0:0:0:0:
504,145,207264,1,12,2:2:0:0:
504,145,207617,2,0,L|450:134,2,38.2499988327027,2|8|2,1:2|2:2|3:2,0:0:0:0:
362,25,207970,1,10,2:2:0:0:
335,15,208058,1,8,2:2:0:0:
306,17,208146,1,10,2:2:0:0:
282,32,208234,1,8,2:2:0:0:
265,55,208323,6,0,L|288:218,3,152.999995330811,4|2|2|2,1:2|1:2|1:2|1:2,0:0:0:0:
106,313,209735,6,0,L|127:161,2,152.999995330811,4|2|2,1:2|1:2|1:2,0:0:0:0:
37,138,210793,1,10,2:2:0:0:
210,252,210970,1,10,2:2:0:0:
210,252,211058,1,8,2:2:0:0:
210,252,211146,6,0,L|298:237,1,76.4999976654053,4|0,1:2|1:0,0:0:0:0:
312,207,211411,1,0,1:0:0:0:
312,207,211499,1,10,2:2:0:0:
206,54,211676,2,0,P|158:102|213:143,1,152.999995330811,6|2,1:2|1:2,0:0:0:0:
293,9,212205,1,8,2:2:0:0:
94,0,212382,6,0,B|46:41|46:41|70:141,1,152.999995330811,4|8,1:2|2:2,0:0:0:0:
142,307,212911,2,0,L|156:231,1,76.4999976654053,8|0,2:2|1:1,0:0:0:0:
261,88,213264,2,0,L|276:154,2,38.2499988327027,8|8|2,2:2|2:2|3:2,0:0:0:0:
397,181,213617,1,4,2:1:0:0:
247,285,213793,1,10,2:2:0:0:
247,285,213882,1,8,2:2:0:0:
247,285,213970,6,0,P|298:278|346:311,1,93.5000028533936,4|0,1:3|1:0,0:0:0:0:
121,384,214323,2,0,L|104:277,1,93.5000028533936,10|0,2:2|1:1,0:0:0:0:
181,103,214676,2,0,L|166:195,1,93.5000028533936,10|0,2:2|1:1,0:0:0:0:
6,359,215029,1,10,2:2:0:0:
60,179,215205,1,2,1:2:0:0:
218,324,215382,6,0,L|326:312,1,93.5000028533936,8|0,2:2|1:1,0:0:0:0:
482,206,215735,2,0,L|374:194,1,93.5000028533936,8|0,2:2|1:1,0:0:0:0:
181,103,216088,2,0,L|289:91,1,93.5000028533936,8|2,2:2|1:2,0:0:0:0:
468,103,216441,1,10,2:2:0:0:
285,211,216617,1,2,1:2:0:0:
359,6,216793,6,0,L|369:112,1,93.5000028533936,2|0,1:2|1:0,0:0:0:0:
172,196,217146,2,0,L|180:102,1,93.5000028533936,10|2,2:2|1:2,0:0:0:0:
294,304,217499,2,0,L|285:210,1,93.5000028533936,10|0,2:2|1:1,0:0:0:0:
227,384,217852,1,10,2:2:0:0:
395,257,218029,1,2,1:2:0:0:
187,296,218205,6,0,L|65:273,1,93.5000028533936,8|0,2:2|1:1,0:0:0:0:
0,82,218558,2,0,L|91:64,1,93.5000028533936,8|0,2:2|1:1,0:0:0:0:
288,112,218911,1,10,2:2:0:0:
110,173,219088,1,2,1:2:0:0:
212,9,219264,1,10,2:2:0:0:
233,226,219441,1,2,1:2:0:0:
398,71,219617,6,0,L|385:175,1,93.5000028533936,4|0,1:2|1:0,0:0:0:0:
245,319,219970,2,0,L|233:226,1,93.5000028533936,10|0,2:2|1:0,0:0:0:0:
75,101,220323,1,10,2:2:0:0:
138,293,220499,1,2,1:2:0:0:
198,112,220676,1,10,2:2:0:0:
36,217,220852,1,2,1:2:0:0:
245,319,221029,6,0,L|337:307,1,93.5000028533936,4|0,1:2|1:0,0:0:0:0:
479,175,221382,2,0,L|386:163,1,93.5000028533936,10|0,2:2|1:0,0:0:0:0:
226,39,221735,1,10,2:2:0:0:
298,218,221911,1,2,1:2:0:0:
360,35,222088,1,10,2:2:0:0:
190,141,222264,1,2,1:2:0:0:
401,255,222441,6,0,L|383:143,1,93.5000028533936,4|2,1:2|0:0,0:0:0:0:
306,319,222793,1,10,2:2:0:0:
460,350,222970,2,0,P|391:292|305:320,1,187.000005706787,6|2,1:2|1:2,0:0:0:0:
190,141,223499,1,8,2:2:0:0:
44,262,223676,6,0,P|136:251|229:242,1,187.000005706787,4|0,1:2|1:1,0:0:0:0:
411,137,224205,2,0,P|363:144|315:111,1,93.5000028533936,8|0,2:2|1:1,0:0:0:0:
142,65,224558,1,10,2:2:0:0:
230,242,224735,1,2,1:2:0:0:
253,34,224911,1,10,2:2:0:0:
122,180,225088,1,2,2:2:0:0:
268,10,225264,6,0,P|320:2|377:38,1,93.5000028533936,4|0,1:2|3:3,0:0:0:0:
385,37,225529,1,8,2:2:0:0:
385,37,225617,1,10,2:2:0:0:
321,206,225793,2,0,L|307:113,1,93.5000028533936,6|2,1:2|0:0,0:0:0:0:
402,267,226146,1,10,2:2:0:0:
215,188,226323,1,0,3:3:0:0:
426,136,226499,2,0,L|525:155,1,93.5000028533936,4|0,1:2|0:0,0:0:0:0:
415,375,226852,5,8,2:2:0:0:
308,114,227029,1,8,2:2:0:0:
308,114,227558,6,0,L|299:176,1,46.7500014266968,2|0,3:2|3:3,0:0:0:0:
222,229,227735,2,0,L|201:137,1,93.5000028533936,4|0,2:1|3:3,0:0:0:0:
142,80,227999,1,8,2:2:0:0:
142,80,228088,6,0,P|104:79|72:99,1,76.4999976654053,4|2,1:2|2:2,0:0:0:0:
222,229,228441,1,10,2:2:0:0:
106,338,228617,2,0,L|131:174,1,152.999995330811,2|2,1:2|1:2,0:0:0:0:
8,303,229146,1,8,2:2:0:0:
220,351,229323,6,0,L|384:326,1,152.999995330811,2|2,1:2|1:2,0:0:0:0:
500,237,229852,2,0,L|485:328,1,76.4999976654053,8|2,2:2|1:2,0:0:0:0:
387,147,230205,2,0,L|402:238,1,76.4999976654053,0|0,1:1|1:1,0:0:0:0:
496,129,230558,1,10,2:2:0:0:
496,129,230735,1,2,2:2:0:0:
338,45,230911,6,0,P|281:34|225:117,1,152.999995330811,2|8,1:2|2:2,0:0:0:0:
58,170,231441,1,0,1:1:0:0:
172,271,231617,2,0,L|155:175,1,76.4999976654053,2|2,2:2|1:2,0:0:0:0:
78,341,231970,1,10,2:2:0:0:
270,368,232146,6,0,B|311:328|311:328|293:226,1,152.999995330811,4|2,1:2|1:2,0:0:0:0:
259,46,232676,1,10,2:2:0:0:
394,141,232852,1,2,2:2:0:0:
394,141,232941,1,8,2:2:0:0:
394,141,233029,2,0,L|335:132,2,38.2499988327027,0|8|2,1:1|2:2|1:2,0:0:0:0:
357,16,233382,1,10,2:2:0:0:
228,140,233558,1,2,3:2:0:0:
228,140,233646,1,8,2:2:0:0:
228,140,233735,6,0,L|139:129,1,76.4999976654053,4|2,1:2|2:2,0:0:0:0:
291,225,234088,1,10,2:2:0:0:
175,338,234264,2,0,L|186:249,1,76.4999976654053,2|10,1:2|2:2,0:0:0:0:
273,384,234617,1,2,1:2:0:0:
86,300,234793,6,0,P|48:297|14:313,1,76.4999976654053,10|2,2:2|1:2,0:0:0:0:
119,209,235146,1,12,2:2:0:0:
0,111,235323,2,0,L|15:202,1,76.4999976654053,2|10,1:2|2:2,0:0:0:0:
121,83,235676,1,2,1:2:0:0:
121,83,235764,1,8,2:2:0:0:
121,83,235852,2,0,L|129:39,2,38.2499988327027,14|8|0,2:2|2:2|3:3,0:0:0:0:
226,217,236205,1,10,2:2:0:0:
252,227,236293,1,8,2:2:0:0:
281,226,236381,1,2,3:2:0:0:
307,215,236469,1,0,3:0:0:0:
327,194,236557,5,14,2:2:0:0:
221,365,236735,1,14,2:2:0:0:
287,94,237088,5,6,3:2:0:0:
420,255,237265,1,14,2:2:0:0:
505,0,237617,5,4,1:3:0:0:
256,192,237793,12,0,242205,3:3:0:0:
