osu file format v14

[General]
AudioFilename: audio.mp3
AudioLeadIn: 0
PreviewTime: 132793
Countdown: 0
SampleSet: Soft
StackLeniency: 0.7
Mode: 0
LetterboxInBreaks: 0
WidescreenStoryboard: 0

[Editor]
Bookmarks: 794,12088,20558,31852,43146,60088,85499,93970,105264,116558,133499,158911,170205,178676,178764,178852,178941,179029,179117,179205,179293,179382,179470,179558,179646,179735,179823,179911,179999,180088,180176,180264,180352,180441,180529,180617,180705,180793,180882,180970,181058,181146,181235,181323,181411,181499,181588,181676,181764,181852,181941,182029,182117,182205,182293,182382,182470,182558,182646,182735,182823,182911,182999,183088,183176,183264,183352,183441,183529,183617,183705,183793,183882,183970,184058,184146,184235,184323,184411,184499,184588,184676,184764,184852,184941,185029,185117,185205,185293,185382,185470,185558,185646,185735,185823,185911,185999,186088,186176,186264,186352,186441,186529,186617,186705,186793,186882,186970,187058,187146,187235,187323,187411,187499,187588,187676,187764,187852,187941,188029,188117,188205,188293,188382,188470,188558,199676,213970,228088,242205
DistanceSpacing: 1.3
BeatDivisor: 4
GridSize: 4
TimelineZoom: 1.1

[Metadata]
Title:I'LL BE THERE FOR YOU
TitleUnicode:I'LL BE THERE FOR YOU
Artist:ICHIKO
ArtistUnicode:ICHIKO
Creator:Andrea
Version:AFFECTION
Source:ゼロの使い魔F
Tags:osuplayer111 Sekai Sekaii Sekai-nyan Leomine LeomineXD Shirahane Suou Shirahane_Suou -_Ex_- - Ex - Full Version Female Vocals Zero no Tsukaima F Anime Japanese Pop JPop J-Pop Louise Françoise de La Baume Le Blanc de La Vallière ルイズ・フランソワーズ・ル・ブラン・ド・ラ・ヴァリエール The Familiar of Zero F Final Series Fourth Season 4th Will Opening OP
BeatmapID:4105352
BeatmapSetID:1977607

[Difficulty]
HPDrainRate:6
CircleSize:4
OverallDifficulty:8.8
ApproachRate:9.2
SliderMultiplier:1.7
SliderTickRate:1

[Events]
//Background and Video events
0,0,"BG.jpg",0,0
//Break Periods
2,178876,187958
//Storyboard Layer 0 (Background)
//Storyboard Layer 1 (Fail)
//Storyboard Layer 2 (Pass)
//Storyboard Layer 3 (Foreground)
//Storyboard Layer 4 (Overlay)
//Storyboard Sound Samples

[TimingPoints]
794,352.941176470588,4,2,1,35,1,0
794,-200,4,2,1,35,0,0
1676,-200,4,2,1,60,0,0
2029,-100,4,2,1,75,0,0
3617,-125,4,2,1,65,0,0
7146,-111.111111111111,4,2,1,65,0,0
7676,-111.111111111111,4,2,1,75,0,0
9264,-100,4,2,1,78,0,0
10764,-100,4,2,1,5,0,0
10852,-100,4,2,1,78,0,0
11382,-100,4,2,1,65,0,0
11735,-125,4,2,1,65,0,0
11999,-125,4,2,1,5,0,0
12088,-100,4,2,1,75,0,0
17735,-100,4,2,1,78,0,0
20558,-125,4,2,1,55,0,0
25852,-125,4,2,1,45,0,0
26205,-125,4,2,1,60,0,0
28941,-125,4,2,1,5,0,0
29029,-111.111111111111,4,2,1,70,0,0
30088,-111.111111111111,4,2,1,78,0,0
31852,-100,4,2,1,75,0,0
40323,-100,4,2,1,78,0,0
43146,-111.111111111111,4,2,1,70,0,0
45882,-111.111111111111,4,2,1,5,0,0
45970,-111.111111111111,4,2,1,70,0,0
51617,-100,4,2,1,75,0,0
54441,-100,4,2,1,78,0,0
54705,-100,4,2,1,5,0,0
54793,-100,4,2,1,78,0,0
58764,-100,4,2,1,5,0,0
58852,-100,4,2,1,78,0,0
59558,-100,4,2,1,65,0,0
59735,-66.6666666666667,4,2,1,65,0,0
60088,-90.9090909090909,4,2,1,85,0,1
66088,-66.6666666666667,4,2,1,85,0,1
66617,-90.9090909090909,4,2,1,85,0,1
67499,-66.6666666666667,4,2,1,85,0,1
68029,-90.9090909090909,4,2,1,85,0,1
68823,-90.9090909090909,4,2,1,5,0,1
68911,-90.9090909090909,4,2,1,85,0,1
69352,-90.9090909090909,4,2,1,5,0,1
69441,-90.9090909090909,4,2,1,85,0,1
77382,-66.6666666666667,4,2,1,85,0,1
77911,-90.9090909090909,4,2,1,85,0,1
78793,-66.6666666666667,4,2,1,85,0,1
79323,-90.9090909090909,4,2,1,85,0,1
84441,-125,4,2,1,80,0,0
84793,-125,4,2,1,65,0,0
85499,-100,4,2,1,75,0,0
91146,-100,4,2,1,78,0,0
93970,-100,4,2,1,70,0,0
96705,-100,4,2,1,5,0,0
96793,-100,4,2,1,70,0,0
102352,-100,4,2,1,5,0,0
102441,-100,4,2,1,70,0,0
103499,-100,4,2,1,78,0,0
105264,-100,4,2,1,75,0,0
107999,-100,4,2,1,5,0,0
108088,-100,4,2,1,75,0,0
113646,-100,4,2,1,5,0,0
113735,-100,4,2,1,78,0,0
116558,-111.111111111111,4,2,1,70,0,0
125029,-100,4,2,1,75,0,0
126352,-100,4,2,1,5,0,0
126441,-100,4,2,1,75,0,0
127852,-100,4,2,1,78,0,0
128117,-100,4,2,1,5,0,0
128205,-100,4,2,1,78,0,0
132882,-100,4,2,1,5,0,0
132970,-100,4,2,1,65,0,0
133146,-66.6666666666667,4,2,1,65,0,0
133499,-90.9090909090909,4,2,1,85,0,1
135705,-90.9090909090909,4,2,1,5,0,1
135793,-90.9090909090909,4,2,1,85,0,1
139499,-66.6666666666667,4,2,1,85,0,1
139852,-90.9090909090909,4,2,1,85,0,1
140911,-66.6666666666667,4,2,1,85,0,1
141264,-90.9090909090909,4,2,1,85,0,1
145058,-90.9090909090909,4,2,1,5,0,1
145146,-90.9090909090909,4,2,1,85,0,1
147882,-90.9090909090909,4,2,1,5,0,1
147970,-90.9090909090909,4,2,1,85,0,1
150793,-66.6666666666667,4,2,1,85,0,1
151146,-90.9090909090909,4,2,1,85,0,1
152205,-66.6666666666667,4,2,1,85,0,1
152558,-90.9090909090909,4,2,1,85,0,1
156882,-90.9090909090909,4,2,1,5,0,1
156970,-90.9090909090909,4,2,1,85,0,1
157588,-90.9090909090909,4,2,1,5,0,1
157676,-90.9090909090909,4,2,1,85,0,1
157852,-125,4,2,1,80,0,0
158205,-125,4,2,1,65,0,0
158823,-125,4,2,1,5,0,0
158911,-125,4,2,1,70,0,0
161735,-111.111111111111,4,2,1,78,0,0
164558,-100,4,2,1,75,0,0
175852,-100,4,2,1,78,0,0
178676,-125,4,2,1,60,0,0
189970,-125,4,2,1,65,0,0
191646,-125,4,2,1,5,0,0
191735,-125,4,2,1,65,0,0
195617,-111.111111111111,4,2,1,75,0,0
198441,-111.111111111111,4,2,1,78,0,0
199676,-100,4,2,1,78,0,0
199941,-100,4,2,1,5,0,0
200029,-100,4,2,1,78,0,0
202323,-100,4,2,1,70,0,0
202676,-125,4,2,1,65,0,0
205499,-125,4,2,1,70,0,0
206735,-125,4,2,1,75,0,0
207617,-100,4,2,1,75,0,0
208323,-125,4,2,1,70,0,0
211146,-100,4,2,1,78,0,0
212646,-100,4,2,1,5,0,0
212735,-100,4,2,1,78,0,0
213617,-66.6666666666667,4,2,1,78,0,0
213970,-83.3333333333333,4,2,1,85,0,1
219970,-66.6666666666667,4,2,1,85,0,1
220499,-83.3333333333333,4,2,1,85,0,1
221382,-66.6666666666667,4,2,1,85,0,1
221911,-83.3333333333333,4,2,1,85,0,1
227029,-125,4,2,1,80,0,0
227293,-125,4,2,1,5,0,0
227382,-125,4,2,1,65,0,0
228088,-100,4,2,1,75,0,0
233735,-100,4,2,1,78,0,0
237441,-100,4,2,1,5,0,0
237617,-100,4,2,1,70,0,0
242205,-100,4,2,1,55,0,0

[Colours]
Combo1 : 36,99,128
Combo2 : 231,207,221
Combo3 : 137,43,118
Combo4 : 134,181,220
Combo5 : 199,193,66

[HitObjects]
216,80,794,6,0,P|320:68|388:152,1,212.5,2|0,2:2|1:1,0:0:0:0:
452,272,1853,1,10,2:2:0:0:
288,152,2029,6,0,L|196:304,1,170,4|2,1:2|1:2,0:0:0:0:
28,360,2558,1,10,2:2:0:0:
104,176,2735,1,10,2:2:0:0:
104,176,2823,1,8,2:2:0:0:
104,176,2911,1,2,1:2:0:0:
164,368,3088,1,2,3:2:0:0:
8,212,3264,2,0,L|24:124,1,85,10|0,2:2|1:1,0:0:0:0:
192,36,3617,6,0,P|248:36|312:88,1,136,4|2,2:3|2:2,0:0:0:0:
428,312,4323,2,0,L|464:180,1,136,2|2,2:2|2:2,0:0:0:0:
320,276,4852,2,0,P|248:300|80:212,1,272,2|2,2:2|0:0,0:0:0:0:
82,216,5911,1,2,2:2:0:0:
20,100,6088,2,0,L|12:176,1,68,2|2,2:2|1:2,0:0:0:0:
164,48,6441,6,0,B|216:52|216:52|240:68|240:68|300:72,1,136,4|2,1:2|2:2,0:0:0:0:
294,71,7146,1,10,2:2:0:0:
376,180,7323,1,0,3:3:0:0:
464,76,7499,1,2,3:2:0:0:
444,252,7676,6,0,P|392:272|300:244,1,152.999995330811,4|0,1:2|1:1,0:0:0:0:
184,332,8205,1,8,2:2:0:0:
301,245,8382,1,0,1:1:0:0:
156,176,8558,2,0,P|188:204|208:240,1,76.4999976654053,10|2,2:2|1:2,0:0:0:0:
52,200,8911,1,10,2:2:0:0:
184,56,9088,5,2,3:2:0:0:
184,56,9176,1,8,2:2:0:0:
184,56,9264,2,0,L|272:68,1,85,4|0,1:2|0:0,0:0:0:0:
484,84,9617,1,10,3:2:0:0:
336,224,9793,2,0,P|364:192|372:152,1,85,6|0,1:2|0:0,0:0:0:0:
244,276,10146,1,2,1:2:0:0:
371,151,10323,1,8,3:2:0:0:
408,356,10499,6,0,L|460:232,1,127.5,6|0,1:2|0:0,0:0:0:0:
492,168,10852,1,2,1:2:0:0:
340,16,11029,1,12,2:2:0:0:
340,16,11382,2,0,P|312:52|272:72,1,85,2|0,2:2|1:1,0:0:0:0:
68,36,11735,2,0,L|92:156,1,102,4|0,2:1|0:0,0:0:0:0:
108,216,12088,6,0,P|155:194|194:167,1,85,4|2,1:2|2:2,0:0:0:0:
259,82,12441,1,10,2:2:0:0:
370,189,12617,2,0,P|325:211|219:277,1,170,2|2,1:2|1:2,0:0:0:0:
402,279,13146,1,8,2:2:0:0:
511,124,13323,6,0,P|483:159|466:197,1,85,2|0,1:2|0:0,0:0:0:0:
402,279,13676,1,2,1:2:0:0:
328,111,13852,1,8,2:2:0:0:
429,23,14029,2,0,P|490:38|522:38,1,85,2|0,1:2|1:1,0:0:0:0:
315,6,14382,1,0,1:1:0:0:
408,137,14558,1,10,2:2:0:0:
174,52,14735,5,2,2:2:0:0:
174,52,14823,1,2,0:0:0:0:
174,52,14911,2,0,B|272:49|236:114|339:110,1,170,2|8,1:2|2:2,0:0:0:0:
197,153,15441,1,0,1:1:0:0:
102,2,15617,2,0,P|86:46|102:92,1,85,2|2,2:2|1:2,0:0:0:0:
174,52,15882,1,0,1:0:0:0:
174,52,15970,1,10,2:2:0:0:
39,203,16146,6,0,B|91:178|91:178|138:181|138:181|211:145,1,170,4|2,1:2|1:2,0:0:0:0:
105,344,16676,2,0,P|111:291|80:251,1,85,10|2,2:2|2:2,0:0:0:0:
39,203,16941,1,8,2:2:0:0:
39,203,17029,1,0,1:1:0:0:
15,329,17205,1,2,1:2:0:0:
186,252,17382,1,10,2:2:0:0:
161,93,17558,5,2,3:2:0:0:
161,93,17646,1,8,2:2:0:0:
161,93,17735,2,0,P|146:132|131:175,1,85,4|2,1:2|2:2,0:0:0:0:
76,0,18088,1,10,2:2:0:0:
248,128,18264,1,2,1:2:0:0:
32,112,18441,1,10,2:2:0:0:
244,8,18617,1,2,1:2:0:0:
131,172,18793,1,10,2:2:0:0:
328,48,18970,5,2,1:2:0:0:
328,48,19058,1,0,1:0:0:0:
328,48,19146,2,0,P|329:101|329:152,1,85,12|2,2:2|1:2,0:0:0:0:
416,56,19499,1,10,2:2:0:0:
330,214,19676,1,2,1:2:0:0:
500,168,19852,1,10,3:2:0:0:
328,48,20029,1,8,3:2:0:0:
432,236,20205,1,8,3:2:0:0:
498,21,20382,1,8,3:2:0:0:
330,214,20558,6,0,L|320:292,1,68,4|2,1:2|0:2,0:0:0:0:
256,348,20911,1,2,0:2:0:0:
321,281,21088,1,2,0:2:0:0:
191,281,21264,2,0,P|116:308|28:228,1,204,2|2,0:2|0:2,0:0:0:0:
148,152,21970,6,0,L|124:220,1,68,2|2,0:2|0:2,0:0:0:0:
72,120,22323,1,2,0:2:0:0:
164,64,22499,1,2,0:2:0:0:
236,148,22676,2,0,P|272:168|300:172,1,68,2|2,0:2|0:2,0:0:0:0:
368,52,23029,6,0,L|412:256,1,204,2|2,0:2|0:2,0:0:0:0:
436,348,23735,1,2,0:2:0:0:
411,251,23911,1,2,0:2:0:0:
324,312,24088,2,0,B|256:300|256:300|200:320|200:320|124:308,1,204,2|2,0:2|0:2,0:0:0:0:
77,187,24793,6,0,P|61:223|61:259,1,68,2|2,0:2|0:2,0:0:0:0:
128,124,25146,2,0,P|92:108|56:108,1,68,2|2,0:2|0:2,0:0:0:0:
156,208,25499,1,2,0:2:0:0:
128,124,25676,1,2,0:2:0:0:
224,144,25852,2,0,L|248:136,4,17,2|0|0|0|0,3:2|3:0|3:0|3:0|1:1,0:0:0:0:
272,32,26205,6,0,L|348:40,1,68,4|2,1:2|2:2,0:0:0:0:
436,44,26558,1,2,0:2:0:0:
504,108,26735,1,2,0:2:0:0:
428,160,26911,1,2,0:2:0:0:
496,224,27088,1,2,0:2:0:0:
496,224,27441,6,0,P|500:268|440:344,1,136,2|2,0:2|2:2,0:0:0:0:
340,240,27970,2,0,L|408:256,1,68,2|2,0:2|0:2,0:0:0:0:
284,312,28323,1,2,0:2:0:0:
300,156,28499,1,0,1:1:0:0:
300,156,28588,1,0,1:0:0:0:
300,156,28676,2,0,P|248:140|192:152,1,102,10|0,2:2|0:0,0:0:0:0:
128,172,29029,5,2,1:2:0:0:
96,292,29205,1,0,3:3:0:0:
12,192,29382,1,0,3:3:0:0:
164,244,29558,5,2,1:2:0:0:
56,120,29735,1,2,3:2:0:0:
16,280,29911,1,0,3:3:0:0:
136,96,30088,5,12,2:2:0:0:
208,304,30264,2,0,L|288:288,1,76.4999976654053,2|0,0:0|1:1,0:0:0:0:
512,240,30617,5,10,2:2:0:0:
360,64,30793,1,14,2:2:0:0:
283,288,30970,2,0,L|271:244,1,38.2499988327027,0|8,3:3|2:2,0:0:0:0:
240,104,31146,1,10,2:2:0:0:
202,95,31234,1,0,3:3:0:0:
165,99,31322,1,2,3:2:0:0:
130,116,31410,1,8,2:2:0:0:
103,143,31498,1,10,2:2:0:0:
151,352,31676,5,2,3:2:0:0:
151,352,31764,1,0,3:3:0:0:
151,352,31852,2,0,P|160:297|166:258,1,85,4|2,1:2|2:2,0:0:0:0:
130,116,32205,1,10,2:2:0:0:
50,263,32382,1,0,0:0:0:0:
270,166,32558,2,0,P|223:172|177:179,1,85,2|0,1:2|1:1,0:0:0:0:
343,252,32911,1,8,2:2:0:0:
396,108,33088,5,2,2:2:0:0:
396,108,33176,1,2,0:0:0:0:
396,108,33264,2,0,P|366:67|344:29,1,85,2|2,1:2|1:2,0:0:0:0:
435,211,33617,2,0,P|459:170|484:132,1,85,10|2,2:2|1:2,0:0:0:0:
343,252,33970,1,0,1:0:0:0:
427,367,34146,1,2,1:2:0:0:
505,246,34323,2,0,P|461:211|416:216,1,85,10|0,2:2|0:0,0:0:0:0:
273,136,34676,6,0,P|320:119|355:105,1,85,0|2,1:1|2:2,0:0:0:0:
352,106,34941,1,2,0:0:0:0:
352,106,35029,1,10,2:2:0:0:
234,51,35205,1,2,2:2:0:0:
149,165,35382,2,0,P|151:119|144:72,1,85,2|0,1:2|1:1,0:0:0:0:
284,216,35735,1,8,2:2:0:0:
160,305,35911,5,2,2:2:0:0:
160,305,35999,1,2,0:0:0:0:
160,305,36088,2,0,P|117:269|81:246,1,85,2|2,1:2|1:2,0:0:0:0:
252,375,36441,2,0,P|268:329|291:291,1,85,10|2,2:2|1:2,0:0:0:0:
360,150,36793,1,2,1:2:0:0:
431,210,36970,1,2,1:2:0:0:
503,269,37146,1,10,2:2:0:0:
467,76,37323,5,0,3:3:0:0:
467,76,37411,1,8,2:2:0:0:
467,76,37499,2,0,P|420:64|383:46,1,85,4|2,1:2|2:2,0:0:0:0:
335,230,37852,2,0,P|354:185|360:139,1,85,10|0,2:2|0:0,0:0:0:0:
507,174,38205,2,0,P|459:190|422:217,1,85,2|2,1:2|1:2,0:0:0:0:
278,164,38558,1,8,2:2:0:0:
408,301,38735,1,2,2:2:0:0:
241,354,38911,6,0,P|265:302|279:257,1,85,4|0,1:2|0:0,0:0:0:0:
204,122,39264,2,0,P|188:170|203:206,1,85,10|2,2:2|1:2,0:0:0:0:
199,200,39529,1,0,1:0:0:0:
199,200,39617,1,10,2:2:0:0:
342,113,39793,1,0,3:3:0:0:
205,17,39970,1,10,2:2:0:0:
205,17,40058,1,8,2:2:0:0:
205,17,40146,1,0,3:3:0:0:
92,144,40323,5,12,2:2:0:0:
286,203,40499,1,0,3:3:0:0:
123,305,40676,1,0,1:1:0:0:
218,114,40852,5,10,2:2:0:0:
276,299,41029,1,0,3:3:0:0:
342,113,41205,1,0,1:1:0:0:
402,285,41382,6,0,P|357:291|262:299,1,127.5,14|0,2:2|3:3,0:0:0:0:
202,308,41735,1,0,1:1:0:0:
315,46,41911,1,10,2:2:0:0:
128,172,42088,1,14,2:2:0:0:
337,221,42264,5,0,3:3:0:0:
334,187,42352,1,8,2:2:0:0:
321,156,42440,1,2,1:2:0:0:
297,132,42528,1,8,2:2:0:0:
267,117,42617,1,0,1:1:0:0:
146,251,42793,1,10,2:2:0:0:
146,251,42882,1,8,2:2:0:0:
146,251,42970,1,0,3:3:0:0:
344,328,43146,6,0,P|403:340|455:320,2,114.749996498108,4|2|2,1:2|1:2|1:2,0:0:0:0:
384,192,43852,2,0,P|360:144|368:76,1,114.749996498108,8|0,2:2|3:3,0:0:0:0:
400,16,44205,1,2,3:2:0:0:
260,56,44382,6,0,L|84:84,1,152.999995330811,2|2,1:2|1:2,0:0:0:0:
24,152,44911,1,0,3:3:0:0:
108,80,45088,1,2,1:2:0:0:
128,176,45264,2,0,P|124:216|108:252,1,76.4999976654053,10|0,2:2|1:1,0:0:0:0:
176,356,45617,2,0,L|304:336,1,114.749996498108,10|0,2:2|0:0,0:0:0:0:
344,280,45970,6,0,P|292:224|292:144,1,152.999995330811,4|2,1:2|0:0,0:0:0:0:
344,40,46499,1,0,1:1:0:0:
452,96,46676,2,0,P|504:152|504:232,1,152.999995330811,8|0,2:2|1:1,0:0:0:0:
289,150,47205,2,0,B|229:146|229:146|201:158|201:158|137:154,1,152.999995330811,12|0,2:2|1:1,0:0:0:0:
204,4,47735,2,0,P|188:44|188:80,1,76.4999976654053,2|2,1:2|3:2,0:0:0:0:
252,232,48088,6,0,B|312:236|312:236|340:224|340:224|404:228,1,152.999995330811,10|10,2:2|2:2,0:0:0:0:
476,324,48617,1,0,1:1:0:0:
488,160,48793,2,0,P|504:108|488:52,2,114.749996498108,4|2|2,1:2|1:2|1:2,0:0:0:0:
276,128,49499,2,0,B|324:96|324:96|432:108,1,152.999995330811,8|10,2:2|2:2,0:0:0:0:
200,92,50029,2,0,P|196:152|264:212,1,152.999995330811,2|2,1:2|1:2,0:0:0:0:
396,268,50558,1,12,2:2:0:0:
264,360,50735,5,2,3:2:0:0:
264,360,50823,1,8,2:2:0:0:
264,360,50911,1,2,1:2:0:0:
260,211,51088,1,0,3:3:0:0:
192,256,51264,1,8,3:2:0:0:
128,308,51441,1,0,3:3:0:0:
56,92,51617,6,0,B|16:124|16:124|32:252,1,170,12|0,2:2|1:1,0:0:0:0:
96,16,52146,2,0,P|124:48|140:92,1,85,14|0,2:2|1:1,0:0:0:0:
176,244,52499,1,0,1:1:0:0:
344,100,52676,2,0,P|412:80|492:132,1,170,14|0,2:2|1:1,0:0:0:0:
464,308,53205,5,8,2:2:0:0:
408,164,53382,1,0,3:3:0:0:
408,164,53470,1,0,3:3:0:0:
408,164,53558,1,0,3:3:0:0:
300,300,53735,2,0,P|348:288|380:268,1,85,2|0,1:2|1:1,0:0:0:0:
344,100,54088,1,10,2:2:0:0:
164,264,54264,5,0,1:1:0:0:
164,264,54352,1,0,1:0:0:0:
164,264,54441,2,0,L|128:136,1,127.5,4|0,1:2|0:0,0:0:0:0:
108,64,54793,5,8,2:2:0:0:
36,252,54970,1,0,1:1:0:0:
0,56,55146,5,8,2:2:0:0:
200,80,55323,1,0,1:1:0:0:
16,160,55499,5,8,2:2:0:0:
168,4,55676,1,0,1:1:0:0:
260,228,55852,6,0,L|352:208,1,85,14|0,2:2|1:1,0:0:0:0:
448,40,56205,5,8,2:2:0:0:
343,209,56382,1,0,1:1:0:0:
512,108,56558,5,8,2:2:0:0:
320,48,56735,1,0,1:1:0:0:
460,200,56911,5,8,2:2:0:0:
228,128,57088,1,0,1:1:0:0:
228,128,57176,1,0,1:0:0:0:
228,128,57264,5,4,1:2:0:0:
184,352,57441,1,2,3:2:0:0:
40,176,57617,1,2,3:2:0:0:
272,264,57793,1,14,2:2:0:0:
116,100,57970,1,2,3:2:0:0:
76,320,58146,1,2,3:2:0:0:
228,128,58323,1,10,2:2:0:0:
396,320,58499,6,0,P|448:280|464:216,1,127.5,4|0,1:2|0:0,0:0:0:0:
456,148,58852,1,10,2:2:0:0:
256,8,59029,1,10,2:2:0:0:
56,148,59205,1,10,2:2:0:0:
56,148,59558,1,2,1:2:0:0:
200,200,59735,6,0,P|190:246|222:211,1,127.500004863739,4|2,2:1|2:2,0:0:0:0:
232,124,59999,5,2,0:0:0:0:
232,124,60088,2,0,P|279:138|325:154,1,93.5000028533936,4|0,1:3|0:0,0:0:0:0:
372,302,60441,1,10,2:2:0:0:
483,138,60617,1,0,3:3:0:0:
483,138,60705,1,0,3:3:0:0:
483,138,60793,2,0,P|441:101|410:68,1,93.5000028533936,2|0,1:2|1:1,0:0:0:0:
253,6,61146,1,10,2:2:0:0:
198,199,61323,6,0,P|253:182|385:144,1,187.000005706787,2|0,1:2|1:1,0:0:0:0:
178,81,61852,1,8,2:2:0:0:
60,199,62029,2,0,P|82:247|102:295,1,93.5000028533936,2|0,0:0|1:1,0:0:0:0:
250,176,62382,1,2,1:2:0:0:
91,95,62558,2,0,P|105:50|122:7,1,93.5000028533936,10|2,2:2|2:2,0:0:0:0:
178,81,62823,5,2,0:0:0:0:
178,81,62911,2,0,P|240:87|301:95,1,93.5000028533936,2|0,1:2|0:0,0:0:0:0:
440,4,63264,2,0,P|435:50|430:96,1,93.5000028533936,10|0,2:2|3:3,0:0:0:0:
250,176,63617,1,2,1:2:0:0:
360,20,63793,1,0,1:1:0:0:
495,161,63970,1,10,2:2:0:0:
331,363,64146,6,0,P|350:287|378:173,1,187.000005706787,4|0,1:2|1:1,0:0:0:0:
250,176,64676,1,8,2:2:0:0:
495,161,64852,1,0,3:3:0:0:
495,161,64941,1,0,3:3:0:0:
495,161,65029,2,0,P|477:111|462:71,1,93.5000028533936,2|2,1:2|1:2,0:0:0:0:
232,11,65382,2,0,P|274:51|310:85,1,93.5000028533936,10|2,2:2|3:2,0:0:0:0:
376,92,65646,1,8,2:2:0:0:
376,92,65735,2,0,P|384:40|380:-4,1,93.5000028533936,4|0,1:2|0:0,0:0:0:0:
429,228,66088,6,0,B|352:257|295:202|295:202|244:165|162:196,1,255.000009727478,10|2,2:2|1:2,0:0:0:0:
47,89,66617,1,2,1:2:0:0:
47,89,66705,1,0,1:0:0:0:
47,89,66793,1,10,2:2:0:0:
190,188,66970,1,2,2:2:0:0:
35,324,67146,2,0,P|59:269|80:217,1,93.5000028533936,2|0,1:2|0:0,0:0:0:0:
348,40,67499,6,0,P|284:41|190:195,1,255.000009727478,10|2,2:2|1:2,0:0:0:0:
371,315,68029,1,2,1:2:0:0:
371,315,68117,1,0,1:0:0:0:
371,315,68205,2,0,P|346:261|324:219,1,93.5000028533936,10|2,2:2|1:2,0:0:0:0:
498,78,68558,6,0,P|480:134|456:212,1,140.25000428009,4|0,1:2|0:0,0:0:0:0:
456,292,68911,1,10,2:2:0:0:
420,32,69088,2,0,P|399:99|378:165,1,140.25000428009,6|0,1:2|0:0,0:0:0:0:
330,230,69441,1,2,1:2:0:0:
420,32,69617,1,8,2:2:0:0:
141,78,69793,6,0,P|158:142|195:261,1,187.000005706787,6|0,1:2|1:1,0:0:0:0:
254,62,70323,1,8,2:2:0:0:
62,155,70499,1,0,1:1:0:0:
62,155,70588,1,0,1:0:0:0:
62,155,70676,1,8,2:2:0:0:
289,162,70852,1,2,1:2:0:0:
48,45,71029,1,4,2:1:0:0:
193,257,71205,5,2,3:2:0:0:
193,257,71293,1,8,2:2:0:0:
193,257,71382,2,0,P|203:313|211:361,1,93.5000028533936,4|0,1:3|0:0,0:0:0:0:
385,287,71735,2,0,P|398:240|415:188,1,93.5000028533936,10|0,2:2|3:3,0:0:0:0:
357,38,72088,1,2,1:2:0:0:
512,168,72264,1,0,1:1:0:0:
512,168,72352,1,0,1:0:0:0:
512,168,72441,1,10,2:2:0:0:
289,162,72617,6,0,P|241:142|114:83,1,187.000005706787,2|0,1:2|1:1,0:0:0:0:
256,23,73146,1,8,2:2:0:0:
118,85,73323,2,0,P|124:135|133:189,1,93.5000028533936,2|0,0:0|1:1,0:0:0:0:
7,290,73676,1,2,1:2:0:0:
185,342,73852,2,0,P|204:290|223:246,1,93.5000028533936,10|2,2:2|2:2,0:0:0:0:
255,183,74117,5,2,0:0:0:0:
255,183,74205,2,0,P|294:217|337:254,1,93.5000028533936,2|0,1:2|0:0,0:0:0:0:
491,128,74558,1,10,2:2:0:0:
508,287,74735,1,0,3:3:0:0:
374,150,74911,2,0,P|385:100|397:59,1,93.5000028533936,2|0,1:2|1:1,0:0:0:0:
329,32,75176,1,0,1:0:0:0:
329,32,75264,1,10,2:2:0:0:
103,114,75441,6,0,P|194:115|259:200,1,187.000005706787,4|0,1:2|1:1,0:0:0:0:
54,34,75970,1,8,2:2:0:0:
144,196,76146,1,0,3:3:0:0:
193,13,76323,1,2,1:2:0:0:
193,13,76411,1,8,2:2:0:0:
193,13,76499,1,2,1:2:0:0:
17,132,76676,1,10,2:2:0:0:
124,287,76852,1,2,3:2:0:0:
124,287,76941,1,8,2:2:0:0:
124,287,77029,2,0,P|134:236|149:173,1,93.5000028533936,4|0,1:2|0:0,0:0:0:0:
455,140,77382,6,0,B|361:168|361:168|336:217|336:217|239:249,1,255.000009727478,10|2,2:2|1:2,0:0:0:0:
420,263,77911,1,2,1:2:0:0:
420,263,77999,1,0,1:0:0:0:
420,263,78088,1,10,2:2:0:0:
512,96,78264,1,2,2:2:0:0:
332,0,78441,2,0,B|323:49|323:49|353:88,1,93.5000028533936,2|0,1:2|0:0,0:0:0:0:
239,249,78793,6,0,B|191:215|122:220|122:220|106:197|106:197|47:200|3:152,1,255.000009727478,10|2,2:2|1:2,0:0:0:0:
218,356,79323,1,2,1:2:0:0:
218,356,79411,1,0,1:0:0:0:
218,356,79499,1,10,2:2:0:0:
196,121,79676,1,2,1:2:0:0:
16,344,79852,6,0,P|75:301|116:263,1,93.5000028533936,4|0,1:2|0:0,0:0:0:0:
303,246,80205,1,10,2:2:0:0:
196,121,80382,2,0,P|153:187|190:285,1,187.000005706787,6|2,1:2|1:2,0:0:0:0:
301,89,80911,1,8,2:2:0:0:
487,217,81088,6,0,P|406:230|297:246,1,187.000005706787,6|0,1:2|1:1,0:0:0:0:
482,95,81617,2,0,P|431:87|392:123,1,93.5000028533936,8|0,2:2|1:1,0:0:0:0:
197,63,81970,1,10,2:2:0:0:
302,245,82146,1,2,1:2:0:0:
353,2,82323,1,10,2:2:0:0:
175,164,82499,5,2,3:2:0:0:
175,164,82588,1,0,3:3:0:0:
175,164,82676,1,4,1:2:0:0:
399,110,82852,1,0,3:3:0:0:
399,110,82941,1,8,2:2:0:0:
399,110,83029,1,10,2:2:0:0:
322,336,83205,6,0,P|310:283|300:236,1,93.5000028533936,6|0,1:2|0:0,0:0:0:0:
487,97,83558,2,0,P|473:158|462:202,1,93.5000028533936,10|0,2:2|3:3,0:0:0:0:
179,248,83911,2,0,P|193:155|205:63,1,187.000005706787,4|8,1:2|2:2,0:0:0:0:
390,224,84441,1,8,2:2:0:0:
390,224,84793,5,2,2:2:0:0:
346,146,84970,1,2,1:2:0:0:
299,71,85146,1,4,2:1:0:0:
179,248,85323,5,0,3:3:0:0:
179,248,85411,1,8,2:2:0:0:
179,248,85499,2,0,P|152:288|148:336,1,85,4|2,1:2|2:2,0:0:0:0:
272,324,85852,1,10,2:2:0:0:
96,216,86029,2,0,L|140:44,1,170,2|2,1:2|1:2,0:0:0:0:
292,20,86558,1,8,2:2:0:0:
256,184,86735,5,2,1:2:0:0:
256,184,86823,1,0,1:0:0:0:
256,184,86911,2,0,L|340:196,1,85,0|2,1:0|1:2,0:0:0:0:
496,208,87264,1,8,2:2:0:0:
340,196,87441,1,2,1:2:0:0:
448,48,87617,2,0,P|428:96|428:128,1,85,2|0,1:2|1:1,0:0:0:0:
384,288,87970,1,10,2:2:0:0:
320,104,88146,5,2,2:2:0:0:
320,104,88235,1,2,0:0:0:0:
320,104,88323,2,0,B|252:96|252:96|216:112|216:112|144:104,1,170,2|8,1:2|2:2,0:0:0:0:
32,88,88852,1,0,1:1:0:0:
188,24,89029,1,2,1:2:0:0:
88,164,89205,1,2,1:2:0:0:
88,164,89293,1,0,1:0:0:0:
88,164,89382,1,10,2:2:0:0:
220,284,89558,6,0,B|292:252|320:304|392:276,1,170,4|2,1:2|1:2,0:0:0:0:
488,140,90088,1,10,2:2:0:0:
352,24,90264,1,2,2:2:0:0:
352,24,90352,1,8,2:2:0:0:
352,24,90441,2,0,L|340:72,1,42.5,0|8,1:1|2:2,0:0:0:0:
312,172,90617,1,2,1:2:0:0:
180,56,90793,1,10,2:2:0:0:
144,252,90970,5,2,3:2:0:0:
144,252,91058,1,8,2:2:0:0:
144,252,91146,2,0,P|104:272|60:268,1,85,4|2,1:2|2:2,0:0:0:0:
60,72,91499,5,10,2:2:0:0:
64,269,91676,1,2,1:2:0:0:
216,144,91852,5,10,2:2:0:0:
16,156,92029,1,2,1:2:0:0:
168,16,92205,5,10,2:2:0:0:
324,152,92382,1,2,1:2:0:0:
324,152,92470,1,0,1:0:0:0:
324,152,92558,6,0,L|416:164,1,85,12|2,2:2|1:2,0:0:0:0:
472,348,92911,5,10,2:2:0:0:
408,162,93088,1,2,1:2:0:0:
272,332,93264,5,10,2:2:0:0:
272,332,93352,1,8,2:2:0:0:
272,332,93441,1,0,3:3:0:0:
472,236,93617,1,8,2:2:0:0:
472,236,93705,1,8,2:2:0:0:
472,236,93793,1,0,3:3:0:0:
332,64,93970,5,4,1:2:0:0:
240,124,94146,2,0,P|228:164|236:208,1,85,2|8,2:2|2:2,0:0:0:0:
326,319,94499,1,2,2:2:0:0:
169,303,94676,2,0,P|139:251|119:227,1,85,2|0,1:2|1:1,0:0:0:0:
70,106,95029,2,0,P|49:157|24:189,1,85,8|2,2:2|2:2,0:0:0:0:
31,180,95293,5,2,0:0:0:0:
31,180,95382,1,2,1:2:0:0:
215,139,95558,1,2,1:2:0:0:
159,47,95735,2,0,P|115:34|82:11,1,85,10|2,2:2|1:2,0:0:0:0:
264,16,96088,1,2,1:2:0:0:
215,139,96264,1,2,1:2:0:0:
389,150,96441,2,0,P|327:137|288:81,1,127.5,10|0,2:2|0:0,0:0:0:0:
366,67,96793,5,0,1:1:0:0:
277,197,96970,1,2,2:2:0:0:
469,122,97146,1,10,2:2:0:0:
289,87,97323,1,2,2:2:0:0:
384,234,97499,2,0,P|389:180|387:138,1,85,2|0,1:2|1:1,0:0:0:0:
420,352,97852,2,0,P|443:309|468:274,1,85,8|2,2:2|2:2,0:0:0:0:
353,308,98117,5,2,0:0:0:0:
353,308,98205,2,0,P|315:272|285:248,1,85,2|2,1:2|1:2,0:0:0:0:
166,166,98558,2,0,P|179:211|185:257,1,85,10|2,2:2|1:2,0:0:0:0:
153,375,98911,2,0,P|191:352|233:339,1,85,2|2,1:2|1:2,0:0:0:0:
81,251,99264,1,10,2:2:0:0:
256,165,99441,5,0,3:3:0:0:
256,165,99529,1,8,2:2:0:0:
256,165,99617,2,0,P|235:117|222:79,1,85,4|2,1:2|2:2,0:0:0:0:
400,69,99970,2,0,P|359:67|319:94,1,85,10|2,2:2|2:2,0:0:0:0:
436,156,100323,1,2,1:2:0:0:
276,25,100499,1,2,1:2:0:0:
326,186,100676,1,8,2:2:0:0:
400,69,100852,1,2,2:2:0:0:
224,86,101029,6,0,P|196:53|166:18,1,85,0|0,1:1|1:1,0:0:0:0:
108,217,101382,2,0,P|95:162|117:124,1,85,10|2,2:2|1:2,0:0:0:0:
105,137,101646,1,2,1:2:0:0:
105,137,101735,1,2,1:2:0:0:
252,215,101911,1,0,1:1:0:0:
172,343,102088,2,0,P|123:318|46:285,1,127.5,10|0,2:2|0:0,0:0:0:0:
108,217,102441,5,2,1:2:0:0:
20,373,102617,1,0,3:3:0:0:
20,373,102705,1,0,3:3:0:0:
20,373,102793,1,0,3:3:0:0:
177,255,102970,1,2,1:2:0:0:
15,195,103146,1,2,3:2:0:0:
15,195,103235,1,0,3:3:0:0:
15,195,103323,1,0,3:3:0:0:
172,343,103499,1,12,2:2:0:0:
150,138,103676,5,0,3:3:0:0:
150,138,103764,1,0,3:3:0:0:
150,138,103852,2,0,P|189:163|226:189,1,85,0|10,1:1|2:2,0:0:0:0:
396,308,104205,1,14,2:2:0:0:
422,110,104382,5,0,3:3:0:0:
402,94,104470,1,8,2:2:0:0:
378,84,104558,1,10,2:2:0:0:
353,81,104646,1,0,3:3:0:0:
328,85,104734,1,2,3:2:0:0:
305,95,104823,1,8,2:2:0:0:
285,112,104911,1,10,2:2:0:0:
208,307,105088,5,2,3:2:0:0:
208,307,105176,1,0,3:3:0:0:
208,307,105264,1,4,1:2:0:0:
84,200,105441,2,0,L|72:284,1,85,2|10,2:2|2:2,0:0:0:0:
188,176,105793,1,2,0:0:0:0:
188,176,105882,1,2,0:0:0:0:
188,176,105970,2,0,P|200:132|196:88,1,85,2|0,1:2|1:1,0:0:0:0:
328,16,106323,1,8,2:2:0:0:
197,93,106499,5,2,2:2:0:0:
316,168,106676,2,0,L|404:184,1,85,2|2,1:2|1:2,0:0:0:0:
500,288,107029,1,10,2:2:0:0:
380,368,107205,1,2,1:2:0:0:
380,368,107293,1,0,1:0:0:0:
380,368,107382,1,0,1:0:0:0:
292,264,107558,1,2,1:2:0:0:
196,360,107735,2,0,P|148:324|136:260,1,127.5,10|0,2:2|0:0,0:0:0:0:
128,184,108088,5,2,1:2:0:0:
192,56,108264,1,2,2:2:0:0:
192,56,108352,1,2,0:0:0:0:
192,56,108441,2,0,P|240:52|280:72,1,85,10|2,2:2|2:2,0:0:0:0:
212,212,108793,2,0,P|208:164|228:124,1,85,2|0,1:2|1:1,0:0:0:0:
368,104,109146,1,8,2:2:0:0:
328,264,109323,6,0,L|312:172,1,85,2|2,2:2|1:2,0:0:0:0:
292,44,109676,1,2,1:2:0:0:
313,180,109852,1,10,2:2:0:0:
446,77,110029,2,0,P|398:85|362:109,1,85,2|2,1:2|1:2,0:0:0:0:
328,264,110382,1,2,1:2:0:0:
432,164,110558,1,10,2:2:0:0:
292,44,110735,5,0,3:3:0:0:
292,44,110823,1,8,2:2:0:0:
292,44,110911,2,0,L|200:60,1,85,4|2,1:2|2:2,0:0:0:0:
64,80,111264,1,10,2:2:0:0:
208,58,111441,1,0,0:0:0:0:
136,204,111617,2,0,P|152:164|148:124,1,85,2|2,1:2|1:2,0:0:0:0:
20,152,111970,1,8,2:2:0:0:
84,264,112146,6,0,P|124:280|164:276,1,85,2|0,2:2|1:1,0:0:0:0:
256,164,112499,1,2,0:0:0:0:
348,275,112676,2,0,L|376:360,1,85,10|2,2:2|1:2,0:0:0:0:
374,355,112941,1,0,1:0:0:0:
374,355,113029,1,10,2:2:0:0:
484,276,113205,1,0,3:3:0:0:
356,180,113382,2,0,P|324:120|340:60,1,127.5,14|0,2:2|0:0,0:0:0:0:
408,116,113735,5,12,2:2:0:0:
272,8,113911,1,0,3:3:0:0:
256,184,114088,1,0,1:1:0:0:
132,8,114264,5,10,2:2:0:0:
40,148,114441,1,0,3:3:0:0:
208,96,114617,1,0,1:1:0:0:
92,280,114793,6,0,P|168:320|248:300,1,170,14|0,2:2|1:1,0:0:0:0:
400,180,115323,1,10,2:2:0:0:
496,368,115499,1,14,2:2:0:0:
348,260,115676,5,0,3:3:0:0:
322,226,115764,1,8,2:2:0:0:
311,185,115852,1,2,1:2:0:0:
315,143,115940,1,8,2:2:0:0:
334,105,116028,1,0,1:1:0:0:
176,20,116205,1,10,2:2:0:0:
176,20,116293,1,8,2:2:0:0:
176,20,116382,1,0,3:3:0:0:
124,204,116558,6,0,P|100:256|84:312,2,114.749996498108,4|2|2,1:2|1:2|1:2,0:0:0:0:
216,284,117264,2,0,P|260:292|373:318,1,152.999995330811,8|2,2:2|3:2,0:0:0:0:
489,119,117793,6,0,P|437:107|356:182,1,152.999995330811,2|2,1:2|1:2,0:0:0:0:
241,158,118323,2,0,P|230:117|235:82,1,76.4999976654053,0|2,3:3|1:2,0:0:0:0:
91,59,118676,2,0,P|125:89|142:119,1,76.4999976654053,10|0,2:2|1:1,0:0:0:0:
83,239,119029,2,0,P|121:210|161:198,1,76.4999976654053,10|0,2:2|1:1,0:0:0:0:
300,327,119382,6,0,P|221:300|150:277,1,152.999995330811,4|2,1:2|0:0,0:0:0:0:
222,384,119911,1,0,1:1:0:0:
279,228,120088,2,0,P|319:240|357:246,1,76.4999976654053,8|0,2:2|3:3,0:0:0:0:
448,187,120441,1,0,1:1:0:0:
478,296,120617,6,0,P|430:310|329:351,1,152.999995330811,12|0,2:2|1:1,0:0:0:0:
448,187,121146,2,0,P|440:141|457:104,1,76.4999976654053,2|2,1:2|3:2,0:0:0:0:
338,67,121499,2,0,P|357:41|401:14,1,76.4999976654053,10|0,2:2|1:1,0:0:0:0:
393,16,121764,1,0,1:0:0:0:
393,16,121852,1,10,2:2:0:0:
222,3,122029,1,0,1:1:0:0:
110,145,122205,6,0,P|112:87|99:32,2,114.749996498108,4|2|2,1:2|1:2|1:2,0:0:0:0:
24,244,122911,2,0,B|92:201|88:258|177:208,1,152.999995330811,8|10,2:2|2:2,0:0:0:0:
323,270,123441,6,0,P|248:263|194:329,1,152.999995330811,2|2,1:2|1:2,0:0:0:0:
332,184,123970,1,12,2:2:0:0:
282,338,124146,1,2,3:2:0:0:
282,338,124235,1,8,2:2:0:0:
282,338,124323,1,2,1:2:0:0:
415,249,124499,1,0,3:3:0:0:
251,181,124676,1,0,3:3:0:0:
251,181,124764,1,0,3:3:0:0:
251,181,124852,1,0,3:3:0:0:
427,82,125029,6,0,P|415:127|404:165,1,85,4|0,1:2|3:3,0:0:0:0:
404,163,125293,1,8,2:2:0:0:
404,163,125382,1,8,2:2:0:0:
204,86,125558,2,0,B|252:72|293:97|293:97|346:81|343:29,1,170,6|0,1:2|3:3,0:0:0:0:
88,18,126088,2,0,B|115:61|115:61|113:99|113:99|142:161,1,127.5,14|0,2:2|0:0,0:0:0:0:
150,235,126441,6,0,B|194:219|194:219|215:176,1,85,0|8,1:1|2:2,0:0:0:0:
329,340,126793,1,0,3:3:0:0:
329,340,126882,1,0,3:3:0:0:
329,340,126970,1,0,3:3:0:0:
210,184,127146,1,10,2:2:0:0:
210,184,127235,1,8,2:2:0:0:
210,184,127323,1,0,3:3:0:0:
480,204,127499,5,2,3:2:0:0:
439,192,127587,1,0,3:3:0:0:
397,195,127675,1,0,3:3:0:0:
358,212,127763,1,0,1:1:0:0:
326,240,127852,6,0,B|302:276|258:276|258:276|230:256|194:256,1,127.5,4|0,1:2|0:0,0:0:0:0:
134,264,128205,5,8,2:2:0:0:
27,81,128382,1,0,1:1:0:0:
135,264,128558,5,8,2:2:0:0:
145,74,128735,1,0,1:1:0:0:
8,260,128911,5,8,2:2:0:0:
204,148,129088,1,0,1:1:0:0:
0,160,129264,5,14,2:2:0:0:
135,264,129441,1,0,1:1:0:0:
27,81,129617,5,8,2:2:0:0:
216,224,129793,1,0,1:1:0:0:
232,20,129970,5,8,2:2:0:0:
88,176,130146,1,0,1:1:0:0:
192,360,130323,5,8,2:2:0:0:
381,263,130499,1,0,1:1:0:0:
381,263,130588,1,0,1:0:0:0:
381,263,130676,6,0,P|354:227|323:191,1,85,4|2,1:2|3:2,0:0:0:0:
125,152,131029,1,2,3:2:0:0:
352,84,131205,1,14,2:2:0:0:
124,49,131382,1,2,3:2:0:0:
332,0,131558,1,2,3:2:0:0:
187,216,131735,1,10,2:2:0:0:
332,0,131911,6,0,P|388:11|432:117,1,170,4|10,1:2|2:2,0:0:0:0:
333,277,132441,1,10,2:2:0:0:
352,84,132617,1,10,2:2:0:0:
352,84,132970,1,2,1:2:0:0:
132,256,133146,6,0,P|120:229|128:265,1,127.500004863739,4|10,2:1|2:2,0:0:0:0:
213,268,133411,5,8,2:2:0:0:
213,268,133499,2,0,P|200:312|212:364,1,93.5000028533936,4|0,1:3|0:0,0:0:0:0:
384,316,133852,1,10,2:2:0:0:
272,172,134029,1,0,3:3:0:0:
272,172,134117,1,0,3:3:0:0:
272,172,134205,2,0,L|368:152,1,93.5000028533936,2|0,1:2|1:1,0:0:0:0:
500,44,134558,1,10,2:2:0:0:
288,32,134735,6,0,P|196:60|104:28,1,187.000005706787,2|0,1:2|1:1,0:0:0:0:
12,168,135264,1,8,2:2:0:0:
128,292,135441,2,0,B|164:260|164:260|160:168,1,140.25000428009,2|0,0:0|0:0,0:0:0:0:
156,88,135793,1,2,1:2:0:0:
276,212,135970,1,10,2:2:0:0:
360,36,136146,5,2,2:2:0:0:
360,36,136235,1,2,0:0:0:0:
360,36,136323,2,0,P|408:40|448:64,1,93.5000028533936,2|0,1:2|0:0,0:0:0:0:
476,228,136676,1,10,2:2:0:0:
446,62,136852,1,0,3:3:0:0:
300,172,137029,2,0,P|348:160|392:164,1,93.5000028533936,2|0,1:2|1:1,0:0:0:0:
352,324,137382,1,10,2:2:0:0:
208,196,137558,6,0,L|156:8,1,187.000005706787,4|0,1:2|1:1,0:0:0:0:
8,140,138088,1,8,2:2:0:0:
152,256,138264,1,0,3:3:0:0:
152,256,138352,1,0,3:3:0:0:
152,256,138441,2,0,L|165:300,1,46.7500014266968,2|0,1:2|3:3,0:0:0:0:
196,380,138617,1,2,1:2:0:0:
316,252,138793,5,10,2:2:0:0:
440,128,138970,1,2,3:2:0:0:
440,128,139058,1,8,2:2:0:0:
440,128,139146,2,0,P|452:76|448:36,1,93.5000028533936,4|0,1:2|0:0,0:0:0:0:
316,252,139499,6,0,B|193:309|177:209|69:257,1,255.000009727478,10|2,2:2|1:2,0:0:0:0:
268,92,140029,1,2,1:2:0:0:
268,92,140117,1,0,1:0:0:0:
268,92,140205,2,0,L|244:196,1,93.5000028533936,10|2,2:2|2:2,0:0:0:0:
324,32,140558,2,0,P|284:12|236:16,1,93.5000028533936,2|0,1:2|0:0,0:0:0:0:
316,252,140911,6,0,P|232:320|164:216,1,255.000009727478,10|2,2:2|1:2,0:0:0:0:
16,72,141441,1,2,1:2:0:0:
16,72,141529,1,0,1:0:0:0:
16,72,141617,1,10,2:2:0:0:
16,280,141793,1,2,1:2:0:0:
92,124,141970,6,0,L|180:80,1,93.5000028533936,4|2,1:2|0:0,0:0:0:0:
248,44,142235,1,2,0:0:0:0:
248,44,142323,1,10,2:2:0:0:
340,260,142499,2,0,B|352:200|352:200|384:164|384:164|400:84,1,187.000005706787,6|2,1:2|1:2,0:0:0:0:
440,260,143029,1,8,2:2:0:0:
300,108,143205,6,0,P|228:92|132:156,1,187.000005706787,6|0,1:2|1:1,0:0:0:0:
100,332,143735,1,8,2:2:0:0:
232,180,143911,1,0,1:1:0:0:
232,180,143999,1,0,1:0:0:0:
232,180,144088,1,8,2:2:0:0:
72,232,144264,1,2,1:2:0:0:
256,360,144441,1,4,2:1:0:0:
360,144,144617,5,2,3:2:0:0:
360,144,144705,1,8,2:2:0:0:
360,144,144793,2,0,P|420:164|492:132,1,140.25000428009,4|0,1:3|0:0,0:0:0:0:
504,56,145146,1,10,2:2:0:0:
340,20,145323,1,0,3:3:0:0:
340,20,145411,1,0,3:3:0:0:
340,20,145499,2,0,L|240:36,1,93.5000028533936,2|0,1:2|1:1,0:0:0:0:
80,48,145852,1,10,2:2:0:0:
132,256,146029,6,0,P|172:204|164:88,1,187.000005706787,2|0,1:2|1:1,0:0:0:0:
24,156,146558,1,8,2:2:0:0:
132,256,146735,2,0,L|232:248,1,93.5000028533936,2|0,0:0|1:1,0:0:0:0:
400,232,147088,1,2,1:2:0:0:
288,352,147264,1,10,2:2:0:0:
312,168,147441,5,2,2:2:0:0:
312,168,147529,1,2,0:0:0:0:
312,168,147617,2,0,P|296:104|328:36,1,140.25000428009,2|0,1:2|0:0,0:0:0:0:
380,112,147970,1,10,2:2:0:0:
496,248,148146,1,0,3:3:0:0:
496,248,148235,1,0,3:3:0:0:
496,248,148323,2,0,L|508:156,1,93.5000028533936,2|0,1:2|1:1,0:0:0:0:
416,12,148676,1,10,2:2:0:0:
332,192,148852,6,0,B|280:168|240:192|240:192|220:232|156:228,1,187.000005706787,4|0,1:2|1:1,0:0:0:0:
40,96,149382,1,8,2:2:0:0:
12,268,149558,1,0,3:3:0:0:
12,268,149646,1,0,3:3:0:0:
12,268,149735,2,0,L|40:316,1,46.7500014266968,2|8,1:2|2:2,0:0:0:0:
84,384,149911,1,2,1:2:0:0:
168,216,150088,5,10,2:2:0:0:
316,360,150264,1,2,3:2:0:0:
316,360,150352,1,8,2:2:0:0:
316,360,150441,2,0,P|364:368|408:360,1,93.5000028533936,4|0,1:2|0:0,0:0:0:0:
408,88,150793,6,0,B|472:120|472:120|512:304,1,255.000009727478,10|2,2:2|1:2,0:0:0:0:
372,200,151323,1,2,1:2:0:0:
372,200,151411,1,0,1:0:0:0:
372,200,151499,1,10,2:2:0:0:
348,32,151676,1,2,2:2:0:0:
200,140,151852,2,0,P|248:124|296:128,1,93.5000028533936,2|0,1:2|0:0,0:0:0:0:
24,28,152205,6,0,P|111:87|67:211,1,255.000009727478,10|2,2:2|1:2,0:0:0:0:
8,372,152735,1,2,1:2:0:0:
8,372,152823,1,0,1:0:0:0:
8,372,152911,1,10,2:2:0:0:
67,210,153088,1,2,2:2:0:0:
248,332,153264,6,0,P|296:348|340:340,1,93.5000028533936,4|2,1:2|0:0,0:0:0:0:
412,312,153529,1,2,0:0:0:0:
412,312,153617,1,10,2:2:0:0:
312,84,153793,2,0,B|276:140|276:140|296:260,1,187.000005706787,6|2,1:2|1:2,0:0:0:0:
432,160,154323,1,8,2:2:0:0:
236,36,154499,6,0,B|164:28|164:28|128:44|128:44|48:36,1,187.000005706787,6|0,1:2|1:1,0:0:0:0:
24,220,155029,1,8,2:2:0:0:
53,36,155205,1,0,1:1:0:0:
212,180,155382,2,0,P|160:172|116:176,1,93.5000028533936,10|2,2:2|1:2,0:0:0:0:
160,256,155646,1,0,1:0:0:0:
160,256,155735,1,10,2:2:0:0:
276,120,155911,1,2,3:2:0:0:
344,324,156088,5,4,1:2:0:0:
456,128,156264,1,0,3:3:0:0:
456,128,156352,1,8,2:2:0:0:
456,128,156441,1,10,2:2:0:0:
212,180,156617,2,0,L|356:232,1,140.25000428009,6|0,1:2|0:0,0:0:0:0:
424,252,156970,1,10,2:2:0:0:
364,72,157146,1,0,3:3:0:0:
236,300,157323,6,0,P|180:320|104:296,1,140.25000428009,4|0,1:2|0:0,0:0:0:0:
40,252,157676,1,8,2:2:0:0:
136,24,157852,1,8,2:2:0:0:
136,24,158205,6,0,L|216:32,1,68,2|2,2:2|1:2,0:0:0:0:
352,108,158558,2,0,P|328:152|336:204,1,102,4|0,2:1|2:2,0:0:0:0:
376,272,158911,6,0,P|328:273|294:283,1,68,4|2,1:2|2:2,0:0:0:0:
196,329,159264,2,0,P|216:292|225:261,1,68,2|0,1:2|0:0,0:0:0:0:
173,153,159617,2,0,P|204:173|242:180,1,68,2|2,1:2|2:2,0:0:0:0:
72,167,159970,2,0,P|91:136|105:100,1,68,0|2,1:1|0:0,0:0:0:0:
102,106,160235,1,2,0:0:0:0:
102,106,160323,1,2,1:2:0:0:
214,7,160499,5,2,0:0:0:0:
214,7,160588,1,2,0:0:0:0:
214,7,160676,2,0,P|239:34|256:46,1,34,0|2,1:2|0:0,0:0:0:0:
338,57,160852,2,0,P|305:77|293:91,1,34,2|2,0:0|0:0,0:0:0:0:
229,144,161029,2,0,P|225:102|217:90,1,34,0|2,1:1|0:0,0:0:0:0:
300,216,161205,2,0,P|316:183|331:162,1,34,2|2,2:2|0:0,0:0:0:0:
160,264,161382,1,8,2:2:0:0:
160,264,161735,5,14,2:2:0:0:
379,347,161911,1,2,1:2:0:0:
379,347,161999,1,0,1:0:0:0:
379,347,162088,1,2,1:2:0:0:
300,216,162264,2,0,P|284:267|248:373,1,152.999995330811,14|10,2:2|2:2,0:0:0:0:
379,347,162793,1,0,1:1:0:0:
369,160,162970,6,0,P|293:131|228:158,1,152.999995330811,6|2,1:2|1:2,0:0:0:0:
105,67,163499,1,8,2:2:0:0:
229,156,163676,5,2,3:2:0:0:
262,137,163764,1,0,3:3:0:0:
300,131,163852,1,10,2:2:0:0:
337,139,163940,1,0,3:3:0:0:
369,160,164028,1,0,3:3:0:0:
456,71,164205,1,10,2:2:0:0:
482,259,164382,5,0,3:3:0:0:
482,259,164470,1,0,3:3:0:0:
482,259,164558,2,0,P|432:275|322:321,1,170,4|8,1:3|2:2,0:0:0:0:
229,156,165088,1,0,0:0:0:0:
184,331,165264,2,0,P|197:284|200:239,1,85,0|0,1:1|1:1,0:0:0:0:
343,128,165617,2,0,P|319:177|305:222,1,85,10|2,2:2|1:2,0:0:0:0:
229,156,165882,5,0,1:0:0:0:
229,156,165970,2,0,B|132:148|159:201|57:189,1,170,2|8,1:2|2:2,0:0:0:0:
196,64,166499,1,2,2:2:0:0:
196,64,166588,1,2,0:0:0:0:
196,64,166676,2,0,P|239:62|286:90,1,85,2|2,1:2|1:2,0:0:0:0:
408,0,167029,1,10,2:2:0:0:
424,152,167205,5,2,2:2:0:0:
424,152,167293,1,2,0:0:0:0:
424,152,167382,2,0,P|355:174|302:256,1,170,2|10,1:2|2:2,0:0:0:0:
353,379,167911,1,2,2:2:0:0:
490,294,168088,2,0,P|453:275|415:249,1,85,0|2,1:1|1:2,0:0:0:0:
417,250,168352,1,2,1:2:0:0:
417,250,168441,1,8,2:2:0:0:
214,327,168617,5,4,1:2:0:0:
214,327,168705,1,2,1:2:0:0:
214,327,168793,1,2,1:2:0:0:
135,143,168970,1,0,1:1:0:0:
73,299,169146,6,0,L|92:256,1,42.5,10|2,2:2|0:0,0:0:0:0:
232,144,169323,2,0,L|222:195,1,42.5,2|2,3:2|3:2,0:0:0:0:
214,327,169499,2,0,L|186:280,1,42.5,0|8,1:1|2:2,0:0:0:0:
135,143,169676,1,2,1:2:0:0:
303,244,169852,1,10,2:2:0:0:
256,34,170029,5,2,3:2:0:0:
256,34,170117,1,0,3:3:0:0:
256,34,170205,2,0,P|300:28|344:36,1,85,4|0,1:2|0:0,0:0:0:0:
448,140,170558,1,10,2:2:0:0:
292,192,170735,2,0,L|300:104,1,85,2|2,2:2|1:2,0:0:0:0:
120,32,171088,5,2,1:2:0:0:
120,32,171176,1,2,2:2:0:0:
120,32,171264,2,0,L|72:48,1,42.5,10|2,2:2|0:0,0:0:0:0:
20,128,171441,2,0,L|68:144,1,42.5,2|2,1:2|2:2,0:0:0:0:
124,212,171617,1,2,2:2:0:0:
101,247,171705,1,2,2:2:0:0:
96,289,171793,1,2,1:2:0:0:
107,330,171881,1,2,2:2:0:0:
134,362,171970,6,0,L|188:352,1,42.5,10|2,2:2|2:2,0:0:0:0:
240,244,172146,2,0,L|247:285,1,42.5,2|2,2:2|2:2,0:0:0:0:
344,352,172323,2,0,P|376:320|392:272,1,85,2|2,1:2|1:2,0:0:0:0:
376,204,172588,1,0,1:0:0:0:
376,204,172676,2,0,L|424:196,1,42.5,10|0,2:2|1:0,0:0:0:0:
512,180,172852,1,2,2:2:0:0:
352,24,173029,5,4,1:2:0:0:
312,28,173146,2,0,L|252:36,1,56.6666666666667,2|2,2:2|2:2,0:0:0:0:
160,140,173382,5,10,2:2:0:0:
120,144,173499,2,0,L|60:152,1,56.6666666666667,2|2,2:2|2:2,0:0:0:0:
208,260,173735,5,10,2:2:0:0:
248,256,173852,2,0,L|308:248,1,56.6666666666667,2|2,2:2|2:2,0:0:0:0:
468,192,174088,5,10,2:2:0:0:
480,168,174205,5,2,2:2:0:0:
492,144,174323,5,2,2:2:0:0:
504,120,174441,6,0,P|480:84|440:68,1,85,4|0,1:2|0:0,0:0:0:0:
272,172,174793,1,10,2:2:0:0:
372,0,174970,1,2,1:2:0:0:
368,220,175146,1,8,2:2:0:0:
368,220,175235,1,8,2:2:0:0:
368,220,175323,1,2,3:2:0:0:
200,48,175499,1,10,2:2:0:0:
200,48,175588,1,8,2:2:0:0:
200,48,175676,1,0,3:3:0:0:
88,276,175852,5,14,2:2:0:0:
20,104,176029,1,0,3:3:0:0:
20,104,176117,1,0,3:3:0:0:
20,104,176205,2,0,L|64:120,1,42.5,0|0,1:1|1:0,0:0:0:0:
228,176,176382,1,10,2:2:0:0:
480,88,176558,5,0,3:3:0:0:
480,88,176646,1,0,3:3:0:0:
480,88,176734,2,0,L|436:72,1,42.5,0|0,1:1|1:0,0:0:0:0:
272,16,176911,2,0,P|248:56|248:100,1,85,14|0,2:2|3:3,0:0:0:0:
344,252,177264,1,0,1:1:0:0:
376,4,177441,5,10,2:2:0:0:
184,180,177617,1,14,2:2:0:0:
444,144,177793,1,2,3:2:0:0:
463,181,177881,1,8,2:2:0:0:
468,223,177969,1,2,1:2:0:0:
458,264,178057,1,8,2:2:0:0:
435,300,178145,1,2,3:2:0:0:
200,356,178323,1,10,2:2:0:0:
200,356,178411,1,8,2:2:0:0:
200,356,178499,1,2,3:2:0:0:
76,76,178676,5,4,1:3:0:0:
424,108,188558,5,8,2:2:0:0:
424,108,188646,2,0,P|424:144|432:180,1,68,0|0,1:0|3:3,0:0:0:0:
442,250,188911,1,0,1:0:0:0:
500,140,189088,1,0,1:1:0:0:
352,156,189264,2,0,P|311:159|269:165,1,68,2|0,0:0|1:1,0:0:0:0:
207,93,189617,2,0,P|247:82|278:67,1,68,10|2,2:2|3:2,0:0:0:0:
99,61,189970,6,0,P|117:100|163:194,1,136,4|2,1:2|3:2,0:0:0:0:
113,286,190499,1,0,1:1:0:0:
202,328,190676,2,0,P|246:340|331:279,1,136,14|2,2:2|3:2,0:0:0:0:
253,220,191205,1,10,2:2:0:0:
328,152,191382,6,0,P|364:176|420:204,1,102,4|0,1:2|0:0,0:0:0:0:
477,248,191735,1,0,3:3:0:0:
467,335,191911,1,0,1:1:0:0:
477,248,192088,2,0,P|434:246|377:317,1,136,12|2,2:2|3:2,0:0:0:0:
299,364,192617,1,10,2:2:0:0:
256,218,192793,6,0,B|173:200|194:239|108:221,1,136,2|0,1:2|3:3,0:0:0:0:
48,137,193323,1,0,1:1:0:0:
122,223,193499,2,0,P|145:175|198:80,1,136,12|2,2:2|3:2,0:0:0:0:
254,16,194029,1,10,2:2:0:0:
352,77,194205,2,0,P|310:99|262:141,2,102,2|0|2,1:2|1:1|1:2,0:0:0:0:
396,180,194911,2,0,P|473:176|517:127,1,136,12|2,2:2|1:2,0:0:0:0:
256,243,195441,5,2,3:2:0:0:
256,243,195529,1,10,2:2:0:0:
256,243,195617,1,4,1:2:0:0:
103,286,195793,1,2,0:0:0:0:
103,286,195882,1,2,0:0:0:0:
103,286,195970,1,8,2:2:0:0:
64,107,196146,1,0,1:1:0:0:
64,107,196235,1,0,1:0:0:0:
64,107,196323,1,8,2:2:0:0:
224,102,196499,5,0,1:1:0:0:
190,121,196587,1,0,1:0:0:0:
169,149,196675,1,8,2:2:0:0:
145,175,196763,1,0,1:0:0:0:
113,195,196851,1,0,1:1:0:0:
159,17,197029,5,4,1:2:0:0:
248,180,197205,1,2,0:0:0:0:
277,156,197293,1,2,0:0:0:0:
296,123,197381,1,8,2:2:0:0:
298,85,197469,1,2,0:0:0:0:
285,49,197557,1,0,1:1:0:0:
450,8,197735,1,8,2:2:0:0:
478,123,197911,6,0,L|439:143,1,38.2499988327027,0|0,1:1|1:0,0:0:0:0:
373,251,198088,2,0,L|350:201,1,38.2499988327027,8|0,2:2|1:0,0:0:0:0:
298,85,198264,1,0,1:1:0:0:
124,220,198441,6,0,L|147:170,1,38.2499988327027,10|8,2:2|2:2,0:0:0:0:
202,67,198617,1,0,3:3:0:0:
257,251,198793,1,0,1:1:0:0:
82,211,198970,6,0,L|105:161,1,38.2499988327027,10|8,2:2|2:2,0:0:0:0:
177,33,199146,1,0,3:3:0:0:
167,292,199323,1,2,1:2:0:0:
72,98,199499,1,10,2:2:0:0:
304,140,199676,6,0,P|363:132|427:156,1,127.5,4|0,1:2|0:0,0:0:0:0:
356,212,200029,1,2,1:2:0:0:
480,40,200205,1,10,2:2:0:0:
496,252,200382,1,2,1:2:0:0:
304,140,200558,1,10,2:2:0:0:
512,136,200735,1,2,1:2:0:0:
320,16,200911,1,10,2:2:0:0:
272,292,201088,1,10,2:2:0:0:
272,292,202323,5,8,2:2:0:0:
272,292,202411,1,0,3:3:0:0:
272,292,202499,2,0,L|220:284,1,42.5,0|0,3:3|3:3,0:0:0:0:
112,212,202676,6,0,P|88:260|96:340,1,136,4|2,1:2|2:2,0:0:0:0:
95,339,203382,1,2,2:2:0:0:
229,285,203558,1,2,1:2:0:0:
180,368,203735,1,2,2:2:0:0:
192,208,203911,2,0,P|244:188|280:116,1,136,4|0,1:2|1:1,0:0:0:0:
152,32,204441,1,4,1:2:0:0:
152,32,204793,1,0,3:0:0:0:
279,119,204970,6,0,L|348:104,1,68,14|2,2:2|2:2,0:0:0:0:
488,220,205323,1,2,3:2:0:0:
488,220,205411,1,0,3:3:0:0:
488,220,205499,2,0,B|436:232|436:232|412:248|412:248|360:260,1,136,4|2,1:2|3:2,0:0:0:0:
488,304,206029,1,0,3:3:0:0:
359,260,206205,1,10,2:2:0:0:
440,152,206382,1,0,3:3:0:0:
400,352,206558,5,2,1:2:0:0:
400,352,206646,1,0,1:0:0:0:
400,352,206735,2,0,L|256:340,1,136,4|0,1:2|1:1,0:0:0:0:
116,324,207264,1,12,2:2:0:0:
72,64,207617,5,2,1:2:0:0:
72,64,207705,1,8,2:2:0:0:
72,64,207793,1,2,3:2:0:0:
232,192,207970,1,10,2:2:0:0:
232,192,208058,1,8,2:2:0:0:
232,192,208146,2,0,L|280:168,1,42.5,10|8,2:2|2:2,0:0:0:0:
408,104,208323,6,0,P|444:136|464:224,1,136,4|2,1:2|1:2,0:0:0:0:
464,218,209029,1,2,1:2:0:0:
476,312,209205,1,2,2:2:0:0:
384,284,209382,2,0,P|348:292|320:308,1,68,2|2,1:2|2:2,0:0:0:0:
248,192,209735,6,0,L|228:336,1,136,4|2,1:2|1:2,0:0:0:0:
229,326,210441,1,2,1:2:0:0:
156,248,210617,1,2,2:2:0:0:
52,360,210793,1,10,2:2:0:0:
16,152,210970,5,10,2:2:0:0:
16,152,211058,1,8,2:2:0:0:
16,152,211146,2,0,L|104:128,1,85,4|0,1:2|0:0,0:0:0:0:
260,80,211499,1,10,2:2:0:0:
272,264,211676,2,0,P|236:236|216:196,1,85,6|0,1:2|0:0,0:0:0:0:
260,80,212029,1,2,1:2:0:0:
98,129,212205,1,8,2:2:0:0:
296,4,212382,6,0,P|328:36|336:124,1,127.5,4|0,1:2|0:0,0:0:0:0:
328,196,212735,1,8,2:2:0:0:
476,40,212911,1,8,2:2:0:0:
512,176,213088,1,0,1:1:0:0:
260,80,213264,1,8,2:2:0:0:
260,80,213352,1,8,2:2:0:0:
260,80,213441,1,2,3:2:0:0:
180,344,213617,6,0,P|177:296|154:338,1,127.500004863739,4|10,2:1|2:2,0:0:0:0:
52,308,213882,5,8,2:2:0:0:
52,308,213970,2,0,P|85:258|104:221,1,101.999996887207,4|0,1:3|1:0,0:0:0:0:
143,19,214323,5,10,2:2:0:0:
257,223,214499,1,0,1:1:0:0:
257,223,214588,1,0,1:0:0:0:
257,223,214676,5,10,2:2:0:0:
321,20,214852,1,0,1:1:0:0:
120,136,215029,5,10,2:2:0:0:
371,119,215205,1,2,1:2:0:0:
143,19,215382,5,8,2:2:0:0:
168,240,215558,1,0,1:1:0:0:
321,20,215735,5,8,2:2:0:0:
300,240,215911,1,0,1:1:0:0:
227,21,216088,5,8,2:2:0:0:
96,192,216264,1,2,1:2:0:0:
371,119,216441,5,10,2:2:0:0:
337,364,216617,1,2,1:2:0:0:
337,364,216705,1,0,1:0:0:0:
337,364,216793,6,0,P|317:312|295:259,1,101.999996887207,2|0,1:2|1:0,0:0:0:0:
97,115,217146,5,10,2:2:0:0:
200,332,217323,1,2,1:2:0:0:
256,112,217499,5,10,2:2:0:0:
104,272,217676,1,0,1:1:0:0:
176,68,217852,5,10,2:2:0:0:
299,269,218029,1,2,1:2:0:0:
300,32,218205,5,8,2:2:0:0:
150,191,218382,1,0,1:1:0:0:
368,120,218558,5,8,2:2:0:0:
368,328,218735,1,0,1:1:0:0:
284,120,218911,5,10,2:2:0:0:
272,348,219088,1,2,1:2:0:0:
500,244,219264,5,10,2:2:0:0:
262,49,219441,1,2,1:2:0:0:
262,49,219529,1,0,1:0:0:0:
262,49,219617,2,0,P|313:56|357:102,1,101.999996887207,4|0,1:2|0:0,0:0:0:0:
500,244,219970,6,0,B|439:237|393:269|393:269|371:259|371:259|316:294|253:273,1,255.000009727478,10|10,2:2|2:2,0:0:0:0:
104,302,220499,1,2,1:2:0:0:
104,302,220588,1,0,1:0:0:0:
104,302,220676,1,10,2:2:0:0:
288,152,220852,1,2,1:2:0:0:
53,188,221029,2,0,P|46:135|74:84,1,101.999996887207,4|0,1:2|0:0,0:0:0:0:
329,10,221382,6,0,B|315:53|257:61|257:61|243:91|243:91|163:92|126:149,1,255.000009727478,10|10,2:2|2:2,0:0:0:0:
389,120,221911,1,2,1:2:0:0:
389,120,221999,1,0,1:0:0:0:
389,120,222088,1,10,2:2:0:0:
151,36,222264,1,2,1:2:0:0:
193,281,222441,6,0,B|136:272|136:272|96:284|96:284|40:276,1,152.999995330811,4|0,1:2|1:0,0:0:0:0:
56,144,222793,2,0,L|64:92,1,50.9999984436036,10|0,2:2|1:0,0:0:0:0:
232,16,222970,2,0,P|308:12|380:40,1,152.999995330811,6|2,1:2|0:0,0:0:0:0:
464,144,223323,2,0,L|456:196,1,50.9999984436036,2|0,1:2|1:0,0:0:0:0:
464,328,223499,2,0,L|412:320,1,50.9999984436036,8|0,2:2|1:0,0:0:0:0:
272,240,223676,6,0,P|268:164|296:92,1,152.999995330811,4|2,1:2|0:0,0:0:0:0:
364,136,224029,1,0,1:1:0:0:
260,324,224205,1,8,2:2:0:0:
512,338,224382,1,0,1:1:0:0:
512,338,224471,1,0,1:0:0:0:
512,338,224558,2,0,P|450:327|396:317,1,101.999996887207,10|2,2:2|1:2,0:0:0:0:
353,102,224911,1,10,2:2:0:0:
260,324,225088,6,0,L|270:270,1,50.9999984436036,2|2,2:2|0:0,0:0:0:0:
406,183,225264,1,4,1:2:0:0:
195,207,225441,6,0,L|247:169,1,50.9999984436036,0|8,3:3|2:2,0:0:0:0:
353,102,225617,1,10,2:2:0:0:
358,318,225793,6,0,P|308:332|260:324,1,101.999996887207,6|2,1:2|0:0,0:0:0:0:
255,74,226146,1,10,2:2:0:0:
176,296,226323,1,0,3:3:0:0:
36,72,226499,6,0,B|107:101|107:101|126:146|126:146|215:187,1,203.999993774414,4|8,1:2|2:2,0:0:0:0:
459,59,227029,2,0,P|391:45|350:72,1,102,8|0,2:2|0:0,0:0:0:0:
412,132,227382,1,10,2:2:0:0:
412,132,227470,1,8,2:2:0:0:
412,132,227558,2,0,P|385:150|375:170,1,34,2|0,3:2|3:3,0:0:0:0:
416,261,227735,1,4,2:1:0:0:
256,61,227911,5,0,3:3:0:0:
256,61,227999,1,8,2:2:0:0:
256,61,228088,2,0,L|168:76,1,85,4|2,1:2|2:2,0:0:0:0:
12,96,228441,1,10,2:2:0:0:
88,232,228617,2,0,P|104:188|100:144,1,85,2|0,1:2|1:0,0:0:0:0:
32,308,228970,2,0,P|76:324|120:320,1,85,2|8,1:2|2:2,0:0:0:0:
212,152,229323,6,0,L|260:336,1,170,2|2,1:2|1:2,0:0:0:0:
412,364,229852,1,8,2:2:0:0:
472,192,230029,1,2,1:2:0:0:
472,192,230117,1,0,1:0:0:0:
472,192,230205,2,0,P|488:152|488:108,1,85,0|0,1:1|1:1,0:0:0:0:
376,8,230558,1,10,2:2:0:0:
488,110,230735,1,2,2:2:0:0:
312,184,230911,6,0,B|248:176|248:176|212:192|212:192|144:184,1,170,2|8,1:2|2:2,0:0:0:0:
264,256,231441,1,0,1:1:0:0:
192,108,231617,1,2,2:2:0:0:
76,232,231793,1,2,1:2:0:0:
76,232,231882,1,0,1:0:0:0:
76,232,231970,1,10,2:2:0:0:
120,60,232146,6,0,P|196:32|276:76,1,170,4|2,1:2|1:2,0:0:0:0:
380,216,232676,1,10,2:2:0:0:
448,64,232852,1,2,2:2:0:0:
448,64,232941,1,8,2:2:0:0:
448,64,233029,2,0,L|408:92,1,42.5,0|8,1:1|2:2,0:0:0:0:
304,156,233205,1,2,1:2:0:0:
120,60,233382,1,10,2:2:0:0:
92,276,233558,5,2,3:2:0:0:
92,276,233646,1,8,2:2:0:0:
92,276,233735,2,0,P|80:316|88:364,1,85,4|2,1:2|2:2,0:0:0:0:
272,292,234088,5,10,2:2:0:0:
120,168,234264,1,2,1:2:0:0:
304,76,234441,5,10,2:2:0:0:
192,244,234617,1,2,1:2:0:0:
392,188,234793,5,10,2:2:0:0:
208,88,234970,1,2,1:2:0:0:
412,0,235146,5,12,2:2:0:0:
500,192,235323,1,2,1:2:0:0:
304,76,235499,5,10,2:2:0:0:
392,268,235676,1,2,1:2:0:0:
392,268,235764,1,8,2:2:0:0:
392,268,235852,2,0,L|352:284,1,42.5,14|8,2:2|2:2,0:0:0:0:
232,328,236029,1,0,3:3:0:0:
56,220,236205,1,10,2:2:0:0:
56,220,236293,1,8,2:2:0:0:
56,220,236382,1,2,3:2:0:0:
192,20,236558,5,14,2:2:0:0:
296,252,236735,1,14,2:2:0:0:
296,252,237088,5,6,3:2:0:0:
400,20,237264,2,0,P|444:24|480:48,1,85,14|0,2:2|0:0,0:0:0:0:
504,300,237617,1,4,1:3:0:0:
256,192,237705,12,0,242205,3:3:0:0:
