osu file format v14

[General]
AudioFilename: ICHIKO - I SAY YES.mp3
AudioLeadIn: 1000
PreviewTime: 59164
Countdown: 0
SampleSet: Soft
StackLeniency: 0.2
Mode: 0
LetterboxInBreaks: 0
WidescreenStoryboard: 1

[Editor]
DistanceSpacing: 1.2
BeatDivisor: 4
GridSize: 32
TimelineZoom: 1.7

[Metadata]
Title:I SAY YES (TV Size)
TitleUnicode:I SAY YES (TV Size)
Artist:ICHIKO
ArtistUnicode:ICHIKO
Creator:Affirmation
Version:Zero
Source:ゼロの使い魔 双月の騎士
Tags:Zero no Tsukaima opening Futatsuki no Kishi 2nd Season Anime Japanese shardex
BeatmapID:1986701
BeatmapSetID:948525

[Difficulty]
HPDrainRate:5.6
CircleSize:4
OverallDifficulty:8.3
ApproachRate:9.1
SliderMultiplier:1
SliderTickRate:1

[Events]
//Background and Video events
0,0,"BG.jpg",0,0
//Break Periods
//Storyboard Layer 0 (Background)
//Storyboard Layer 1 (Fail)
//Storyboard Layer 2 (Pass)
//Storyboard Layer 3 (Foreground)
//Storyboard Layer 4 (Overlay)
//Storyboard Sound Samples

[TimingPoints]
1859,359.281437125748,4,2,1,35,1,0
1859,-71.4285714285714,4,2,1,35,0,0
12637,-125,4,2,1,35,0,0
13356,-58.8235294117647,4,2,1,65,0,0
23595,-111.111111111111,4,2,1,65,0,0
24493,-55.5555555555556,4,2,5,65,0,0
24853,-62.5,4,2,1,50,0,0
35990,-62.5,4,2,3,50,0,0
36350,-58.8235294117647,4,2,1,60,0,0
47847,-100,4,2,3,40,0,0
53595,-62.5,4,2,1,55,0,0
57727,-62.5,4,2,1,65,0,0
58805,-62.5,4,2,5,65,0,0
59344,-55.5555555555556,4,2,2,80,0,1
69763,-55.5555555555556,4,2,2,80,0,0
70841,-55.5555555555556,4,2,2,80,0,1
81260,-55.5555555555556,4,2,3,80,0,1
81619,-55.5555555555556,4,2,1,80,0,1
82338,-58.8235294117647,4,2,1,70,0,0

[Colours]
Combo1 : 238,204,115
Combo2 : 123,217,131
Combo3 : 109,169,235
Combo4 : 218,148,150

[HitObjects]
261,245,1859,6,0,L|400:238,1,139.999995727539,12|0,0:0|0:0,0:0:0:0:
190,290,2397,2,0,P|181:256|181:221,1,69.9999978637696,2|0,0:0|0:0,0:0:0:0:
318,58,2757,2,0,P|336:125|331:194,1,139.999995727539,0|0,0:0|3:0,0:0:0:0:
265,349,3296,6,0,L|404:356,1,139.999995727539,0|0,3:2|3:0,0:0:0:0:
436,366,4014,2,0,P|439:331|438:296,1,69.9999978637696,2|0,0:0|0:0,0:0:0:0:
295,188,4373,2,0,P|292:222|293:257,1,69.9999978637696,2|0,0:0|0:0,0:0:0:0:
506,178,4733,6,0,B|461:185|461:185|428:218|428:218|379:223,1,139.999995727539,0|0,3:0|0:0,0:0:0:0:
278,101,5272,2,0,B|347:93,1,69.9999978637696,2|0,0:0|0:0,0:0:0:0:
293,257,5631,2,0,B|223:264,1,69.9999978637696,2|0,0:0|0:0,0:0:0:0:
128,96,5990,6,0,B|156:130|156:130|141:224,1,139.999995727539,0|0,3:0|0:0,0:0:0:0:
66,350,6529,2,0,L|61:280,1,69.9999978637696,0|0,3:0|0:0,0:0:0:0:
223,264,6888,1,2,0:0:0:0:
165,351,7068,1,0,0:0:0:0:
223,264,7248,2,0,B|292:271,1,69.9999978637696,2|0,0:0|0:0,0:0:0:0:
500,329,7607,6,0,P|433:343|376:304,1,139.999995727539,0|0,3:0|0:0,0:0:0:0:
324,369,8146,2,0,L|337:230,1,139.999995727539,2|2,0:0|0:0,0:0:0:0:
338,230,8864,1,0,3:0:0:0:
473,210,9044,6,0,B|392:203|429:240|338:230,1,139.999995727539,0|0,3:0|3:0,0:0:0:0:
229,113,9583,2,0,P|295:100|349:142,1,139.999995727539,2|2,0:0|0:0,0:0:0:0:
349,142,10302,1,0,0:0:0:0:
151,270,10481,6,0,P|144:200|136:130,1,139.999995727539,0|0,3:0|0:0,0:0:0:0:
247,229,11020,1,0,0:0:0:0:
256,159,11200,2,0,P|251:194|247:229,1,69.9999978637696,0|2,0:0|0:0,0:0:0:0:
374,352,11559,2,0,P|379:317|383:282,1,69.9999978637696,2|2,0:0|0:0,0:0:0:0:
344,117,11918,5,2,0:0:0:0:
344,117,12637,2,0,B|427:104|427:104|407:134,1,120,0|0,0:0|0:0,0:0:0:0:
416,217,13356,6,0,P|404:176|407:134,1,85.0000016212464,12|0,3:2|0:0,0:0:0:0:
320,274,13715,2,0,P|331:314|328:356,1,85.0000016212464,2|0,0:0|0:0,0:0:0:0:
125,338,14074,1,2,0:0:0:0:
203,193,14254,2,0,L|287:180,1,85.0000016212464,0|0,0:0|3:0,0:0:0:0:
116,55,14613,6,0,B|92:101|92:101|123:214,1,170.000003242493,4|2,3:2|0:0,0:0:0:0:
123,214,15062,1,0,0:0:0:0:
123,214,15152,1,0,0:0:0:0:
326,81,15332,1,2,0:0:0:0:
326,81,15421,1,0,0:0:0:0:
326,81,15511,1,0,0:0:0:0:
277,269,15691,1,2,0:0:0:0:
277,269,15781,1,0,0:0:0:0:
277,269,15870,1,0,0:0:0:0:
442,213,16050,1,2,0:0:0:0:
442,213,16140,1,0,0:0:0:0:
441,213,16230,6,0,P|400:204|358:196,1,85.0000016212464,4|0,3:2|0:0,0:0:0:0:
242,361,16590,2,0,P|283:352|325:344,1,85.0000016212464,2|0,0:0|0:0,0:0:0:0:
179,191,16948,1,2,0:0:0:0:
72,298,17128,2,0,P|66:340|73:381,1,85.0000016212464,0|0,0:0|0:0,0:0:0:0:
264,278,17487,6,0,P|273:193|261:109,1,170.000003242493,0|0,1:0|1:0,0:0:0:0:
169,266,18026,1,8,0:3:0:0:
392,158,18206,1,8,0:3:0:0:
187,65,18385,2,0,P|145:56|103:48,1,85.0000016212464,4|4,0:3|0:3,0:0:0:0:
308,174,18745,2,0,P|349:165|391:157,1,85.0000016212464,4|0,0:3|3:0,0:0:0:0:
501,306,19104,6,0,P|417:322|334:338,1,170.000003242493,4|0,3:2|1:0,0:0:0:0:
217,266,19643,1,0,0:0:0:0:
79,357,19823,2,0,P|70:315|73:273,1,85.0000016212464,2|0,0:0|0:0,0:0:0:0:
217,266,20182,1,0,3:0:0:0:
209,105,20361,6,0,B|236:151|236:151|216:265,1,170.000003242493,4|0,3:2|0:0,0:0:0:0:
53,181,20900,2,0,L|137:171,1,85.0000016212464,0|4,3:0|0:3,0:0:0:0:
424,52,21260,1,4,0:3:0:0:
300,230,21439,1,8,0:3:0:0:
451,204,21619,1,8,0:3:0:0:
273,79,21798,1,0,0:0:0:0:
273,79,21888,1,0,0:0:0:0:
273,79,21978,6,0,L|104:60,1,170.000003242493,4|2,3:2|0:0,0:0:0:0:
88,61,22697,1,8,0:3:0:0:
48,183,22876,1,8,0:3:0:0:
160,252,23056,1,4,0:3:0:0:
120,374,23235,1,0,3:0:0:0:
120,374,23595,6,0,L|75:365,2,44.999998626709,2|2|2,0:0|0:0|0:0,0:0:0:0:
231,325,24134,2,0,L|275:316,1,44.999998626709,2|2,0:0|0:0,0:0:0:0:
463,331,24493,2,0,L|459:353,4,22.4999993133545,2|0|0|0|0,0:0|0:0|0:0|0:0|0:0,0:0:0:0:
354,149,24853,6,0,L|367:308,1,160,4|2,3:2|0:0,0:0:0:0:
367,308,25571,2,0,P|406:311|445:302,1,80,2|0,0:0|0:0,0:0:0:0:
275,246,25930,1,2,0:0:0:0:
303,374,26110,6,0,P|224:369|144:374,1,160,0|0,0:0|0:0,0:0:0:0:
23,255,26649,1,0,0:0:0:0:
165,204,26829,2,0,P|145:238|126:273,1,80,2|0,0:0|0:0,0:0:0:0:
41,118,27188,2,0,P|60:82|79:48,2,80,0|0|0,0:0|0:0|0:0,0:0:0:0:
324,133,27727,6,0,P|257:90|178:90,1,160,0|0,3:0|0:0,0:0:0:0:
178,90,28445,2,0,P|172:50|167:10,1,80,2|0,0:0|0:0,0:0:0:0:
98,178,28805,1,2,0:0:0:0:
255,181,28984,6,0,P|245:262|233:339,1,160,0|0,0:0|0:0,0:0:0:0:
330,235,29523,1,0,0:0:0:0:
108,257,29703,2,0,P|102:217|97:177,1,80,2|0,0:0|0:0,0:0:0:0:
246,86,30062,2,0,P|285:90|325:96,2,80,2|0|0,0:0|0:0|0:0,0:0:0:0:
410,203,30601,6,0,B|439:159|439:159|415:54,1,160,0|0,3:0|0:0,0:0:0:0:
415,54,31320,2,0,P|454:56|494:59,1,80,2|0,0:0|0:0,0:0:0:0:
325,96,31679,1,2,0:0:0:0:
510,219,31858,6,0,P|430:223|350:229,1,160,0|0,0:0|0:0,0:0:0:0:
256,345,32397,1,0,0:0:0:0:
154,149,32577,2,0,P|158:189|161:229,1,80,2|0,0:0|0:0,0:0:0:0:
350,229,32936,2,0,P|353:189|357:149,1,80
256,68,33296,1,0,0:0:0:0:
161,228,33475,6,0,P|86:255|8:243,1,160,0|0,3:0|0:0,0:0:0:0:
212,330,34014,1,0,3:0:0:0:
254,233,34193,2,0,P|267:154|279:75,1,160,0|0,0:0|0:0,0:0:0:0:
357,18,34733,1,0,0:0:0:0:
45,37,35092,5,2,0:0:0:0:
137,97,35272,1,2,0:0:0:0:
40,147,35451,1,2,0:0:0:0:
132,207,35631,1,2,0:0:0:0:
35,257,35810,1,2,0:0:0:0:
127,317,35990,2,0,L|205:302,1,80,10|0,2:0|0:0,0:0:0:0:
478,327,36350,6,0,P|397:345|320:311,1,170.000003242493,4|0,3:2|1:0,0:0:0:0:
250,144,36888,1,0,0:0:0:0:
414,168,37068,2,0,P|406:209|399:251,1,85.0000016212464,0|0,3:0|0:0,0:0:0:0:
338,119,37427,1,0,1:0:0:0:
279,311,37607,6,0,P|264:227|249:143,1,170.000003242493,0|0,0:0|0:0,0:0:0:0:
117,77,38146,1,0,1:0:0:0:
65,233,38326,2,0,P|107:223|148:212,1,85.0000016212464,0|0,0:0|3:0,0:0:0:0:
234,51,38685,1,0,0:0:0:0:
42,40,38864,2,0,P|35:81|44:122,1,85.0000016212464,0|0,1:0|0:0,0:0:0:0:
171,308,39224,6,0,P|89:285|6:266,1,170.000003242493,0|0,3:0|1:0,0:0:0:0:
191,188,39763,1,0,0:0:0:0:
280,291,39942,2,0,P|277:333|279:375,1,85.0000016212464,0|0,3:0|0:0,0:0:0:0:
431,319,40302,1,0,1:0:0:0:
354,179,40481,6,0,B|234:165|234:165|190:187,1,170.000003242493,0|0,0:0|0:0,0:0:0:0:
96,303,41020,1,0,1:0:0:0:
279,375,41200,2,0,P|281:332|279:290,1,85.0000016212464,0|0,0:0|3:0,0:0:0:0:
70,306,41559,1,0,0:0:0:0:
181,356,41739,2,0,P|178:313|180:271,1,85.0000016212464,0|0,1:0|0:0,0:0:0:0:
448,278,42098,6,0,L|279:290,1,170.000003242493,0|0,3:0|1:0,0:0:0:0:
135,188,42637,1,0,0:0:0:0:
280,82,42817,2,0,P|292:123|292:165,1,85.0000016212464,0|0,3:0|0:0,0:0:0:0:
116,216,43176,1,0,1:0:0:0:
38,46,43356,6,0,P|119:24|202:38,1,170.000003242493,0|0,0:0|0:0,0:0:0:0:
302,188,43894,1,0,1:0:0:0:
302,188,44074,1,0,0:0:0:0:
152,292,44254,2,0,P|133:253|115:215,1,85.0000016212464,0|0,3:0|0:0,0:0:0:0:
295,276,44613,2,0,P|313:314|331:352,1,85.0000016212464,0|0,1:0|0:0,0:0:0:0:
485,195,44972,6,0,P|408:164|335:201,1,170.000003242493,0|0,3:0|1:0,0:0:0:0:
210,345,45511,1,0,0:0:0:0:
417,357,45691,2,0,L|423:272,1,85.0000016212464,0|0,3:0|0:0,0:0:0:0:
295,276,46050,1,0,1:0:0:0:
224,128,46230,6,0,L|230:212,1,85.0000016212464,0|0,0:0|3:0,0:0:0:0:
126,317,46589,1,2,0:2:0:0:
35,257,46769,1,2,1:2:0:0:
132,207,46948,1,2,0:2:0:0:
40,147,47128,1,2,3:2:0:0:
137,97,47307,1,2,1:2:0:0:
45,37,47487,1,2,1:2:0:0:
132,207,47667,1,8,0:3:0:0:
236,47,47847,6,0,L|344:59,1,100,4|0,3:2|0:0,0:0:0:0:
475,141,48385,1,0,3:0:0:0:
475,141,48565,2,0,P|479:91|480:41,1,100,0|8,3:0|0:0,0:0:0:0:
339,233,49284,6,0,P|334:282|333:332,1,100,0|0,3:0|0:0,0:0:0:0:
489,306,49823,1,0,3:0:0:0:
489,306,50002,2,0,L|439:300,1,50,0|8,3:0|0:0,0:0:0:0:
309,148,50361,2,0,L|358:142,1,50,8|0,0:0|0:0,0:0:0:0:
242,289,50721,6,0,P|192:292|142:288,1,100,0|0,3:0|0:0,0:0:0:0:
39,189,51260,1,0,3:0:0:0:
39,189,51439,2,0,L|32:288,1,100,0|8,3:0|0:0,0:0:0:0:
200,191,52158,6,0,P|203:141|205:91,1,100,0|0,3:0|0:0,0:0:0:0:
53,106,52697,1,0,3:0:0:0:
53,106,52876,2,0,L|102:111,1,50,0|8,3:0|0:0,0:0:0:0:
292,22,53236,2,0,L|242:16,1,50,8|0,0:0|0:0,0:0:0:0:
294,150,53595,6,0,P|373:145|452:133,1,160,4|0,3:2|1:0,0:0:0:0:
197,111,54134,2,0,P|196:150|199:190,1,80,0|0,0:0|3:0,0:0:0:0:
335,339,54493,2,0,P|335:299|332:259,1,80,0|0,0:0|1:0,0:0:0:0:
164,320,54853,6,0,P|201:305|238:291,1,80,0|0,0:0|3:0,0:0:0:0:
368,121,55212,2,0,P|330:135|293:149,1,80,0|0,0:0|1:0,0:0:0:0:
145,92,55571,1,0,0:0:0:0:
47,264,55751,2,0,P|55:303|62:342,1,80,0|0,3:0|1:0,0:0:0:0:
64,128,56110,1,0,1:0:0:0:
64,127,56469,6,0,P|141:122|199:175,1,160,4|0,3:2|1:0,0:0:0:0:
363,128,57008,1,0,0:0:0:0:
302,286,57188,2,0,P|295:244|289:208,1,80,0|8,3:0|3:3,0:0:0:0:
448,288,57547,1,8,1:3:0:0:
451,97,57727,6,0,B|444:149|444:149|458:200|458:200|450:255,1,160,4|0,1:3|1:0,0:0:0:0:
267,61,58266,1,0,1:0:0:0:
319,357,58445,1,0,1:0:0:0:
319,357,58805,6,0,L|348:349,8,20,0|0|0|0|0|0|0|0|0,0:0|0:0|0:0|0:0|0:0|0:0|0:0|0:0|0:0,0:0:0:0:
54,267,59344,6,0,L|233:278,1,179.999994506836,4|0,3:2|1:0,0:0:0:0:
430,323,59882,2,0,P|436:278|439:233,1,89.9999972534181,0|0,0:0|3:0,0:0:0:0:
253,98,60242,2,0,P|246:142|243:187,1,89.9999972534181,0|0,0:0|1:0,0:0:0:0:
321,306,60601,1,0,3:0:0:0:
512,129,60781,6,0,L|333:150,1,179.999994506836,0|0,3:0|1:0,0:0:0:0:
154,223,61320,1,0,0:0:0:0:
251,66,61499,1,0,3:0:0:0:
228,275,61679,1,0,1:0:0:0:
128,64,61858,1,0,1:0:0:0:
293,199,62038,1,0,0:0:0:0:
101,353,62218,6,0,B|59:301|59:301|79:189,1,179.999994506836,0|0,3:0|1:0,0:0:0:0:
308,110,62757,2,0,B|292:198,1,89.9999972534181,0|0,0:0|3:0,0:0:0:0:
128,64,63116,2,0,B|216:48,1,89.9999972534181,0|0,0:0|1:0,0:0:0:0:
384,229,63475,6,0,P|295:241|208:221,1,179.999994506836,0|0,3:0|0:0,0:0:0:0:
128,64,64014,2,0,B|112:152,1,89.9999972534181,0|0,1:0|0:0,0:0:0:0:
137,333,64373,1,0,3:0:0:0:
234,123,64553,1,0,1:0:0:0:
279,350,64733,1,0,1:0:0:0:
109,192,64912,1,0,0:0:0:0:
338,220,65092,6,0,P|382:143|356:60,1,179.999994506836,0|0,3:0|1:0,0:0:0:0:
152,84,65631,2,0,P|192:102|233:122,1,89.9999972534181,0|0,0:0|3:0,0:0:0:0:
320,317,65990,2,0,P|279:298|238:278,1,89.9999972534181,0|0,0:0|1:0,0:0:0:0:
152,84,66350,1,0,0:0:0:0:
14,199,66529,6,0,L|31:378,1,179.999994506836,0|0,3:0|1:0,0:0:0:0:
199,189,67068,1,0,0:0:0:0:
290,319,67248,2,0,P|334:313|379:310,1,89.9999972534181,0|0,3:0|1:0,0:0:0:0:
120,369,67607,2,0,P|75:374|30:377,1,89.9999972534181,0|0,1:0|0:0,0:0:0:0:
174,293,67966,6,0,P|201:208|173:124,1,179.999994506836,0|0,3:0|1:0,0:0:0:0:
14,199,68505,2,0,L|102:212,1,89.9999972534181,0|0,0:0|3:0,0:0:0:0:
242,49,68864,2,0,L|153:35,1,89.9999972534181,0|0,0:0|1:0,0:0:0:0:
51,96,69224,1,0,3:0:0:0:
328,259,69403,6,0,L|323:124,1,134.999995880127,0|0,3:0|0:0,0:0:0:0:
323,124,69763,5,2,1:2:0:0:
334,358,69942,1,0,0:0:0:0:
234,94,70122,5,2,3:2:0:0:
244,327,70301,1,0,1:0:0:0:
144,151,70481,5,2,3:2:0:0:
154,384,70662,1,0,1:0:0:0:
0,213,70841,6,0,P|90:220|172:256,1,179.999994506836,4|0,3:2|1:0,0:0:0:0:
334,358,71379,2,0,P|361:322|389:286,1,89.9999972534181,0|0,0:0|3:0,0:0:0:0:
323,124,71739,2,0,P|295:159|267:195,1,89.9999972534181,0|0,0:0|1:0,0:0:0:0:
244,327,72098,1,0,3:0:0:0:
476,324,72278,6,0,P|458:235|438:148,1,179.999994506836,0|0,3:0|1:0,0:0:0:0:
290,48,72817,1,0,0:0:0:0:
194,205,72996,1,0,3:0:0:0:
382,247,73176,1,0,1:0:0:0:
171,188,73356,1,0,1:0:0:0:
416,64,73536,1,0,3:0:0:0:
179,8,73715,6,0,L|170:187,1,179.999994506836,0|0,3:0|1:0,0:0:0:0:
288,352,74254,2,0,P|291:307|291:262,1,89.9999972534181,0|0,0:0|3:0,0:0:0:0:
89,304,74613,2,0,P|133:303|178:307,1,89.9999972534181,0|0,0:0|1:0,0:0:0:0:
389,221,74972,6,0,P|300:231|216:202,1,179.999994506836,0|0,3:0|0:0,0:0:0:0:
468,163,75511,2,0,P|477:207|481:251,1,89.9999972534181,0|0,1:0|3:0,0:0:0:0:
337,372,75870,1,0,3:0:0:0:
291,103,76050,1,0,1:0:0:0:
198,374,76230,1,0,1:0:0:0:
162,113,76409,1,0,3:0:0:0:
371,279,76589,6,0,L|193:246,1,179.999994506836,0|0,3:0|1:0,0:0:0:0:
66,65,77128,2,0,P|60:110|60:155,1,89.9999972534181,0|0,0:0|3:0,0:0:0:0:
76,380,77487,1,0,0:0:0:0:
109,234,77667,2,0,P|64:233|19:239,1,89.9999972534181,0|0,1:0|0:0,0:0:0:0:
193,126,78026,6,0,P|281:144|369:159,1,179.999994506836,0|0,3:0|1:0,0:0:0:0:
498,17,78565,2,0,P|454:23|410:32,1,89.9999972534181,0|0,0:0|3:0,0:0:0:0:
271,183,78924,1,0,1:0:0:0:
469,295,79104,2,0,P|475:250|484:206,1,89.9999972534181,0|0,1:0|0:0,0:0:0:0:
205,288,79463,6,0,P|294:299|373:260,1,179.999994506836,0|0,3:0|1:0,0:0:0:0:
477,85,80002,1,0,0:0:0:0:
265,34,80182,2,0,P|273:79|283:123,1,89.9999972534181,0|0,3:0|1:0,0:0:0:0:
174,283,80541,2,0,P|165:238|155:194,1,89.9999972534181,0|0,1:0|3:0,0:0:0:0:
155,194,80811,1,0,3:0:0:0:
155,194,80900,5,8,3:0:0:0:
409,239,81080,1,4,3:0:0:0:
30,352,81260,1,12,0:0:0:0:
30,351,81619,2,0,P|65:324|103:300,1,89.9999972534181,0|0,3:0|3:0,0:0:0:0:
100,103,81978,2,0,P|64:130|26:154,1,89.9999972534181,0|0,3:0|0:0,0:0:0:0:
229,199,82338,6,0,P|311:221|392:243,1,170.000003242493,4|0,3:2|1:0,0:0:0:0:
475,141,82877,1,0,0:0:0:0:
293,101,83056,2,0,P|304:141|317:182,1,85.0000016212464,0|0,3:0|0:0,0:0:0:0:
476,335,83415,1,0,1:0:0:0:
293,376,83595,6,0,P|222:330|138:325,1,170.000003242493,4|2,3:2|0:0,0:0:0:0:
140,325,84044,1,2,0:2:0:0:
140,325,84134,1,2,1:2:0:0:
259,173,84314,1,2,0:2:0:0:
259,173,84403,1,2,0:2:0:0:
259,173,84493,1,2,3:2:0:0:
83,110,84673,1,2,0:2:0:0:
83,110,84763,1,2,0:2:0:0:
83,110,84853,1,2,1:2:0:0:
135,237,85032,1,2,0:2:0:0:
135,237,85122,1,2,0:2:0:0:
135,237,85212,6,0,P|156:154|177:72,1,170.000003242493,4|0,3:2|1:0,0:0:0:0:
258,164,85751,1,0,0:0:0:0:
82,110,85930,2,0,P|40:100|0:91,1,85.0000016212464,0|8,1:0|0:3,0:0:0:0:
261,186,86290,1,8,0:3:0:0:
66,328,86469,1,4,0:3:0:0:
66,328,86829,5,8,0:3:0:0:
134,251,87008,1,8,0:3:0:0:
167,349,87188,1,8,0:3:0:0:
451,199,87367,1,4,0:3:0:0:
383,276,87546,1,4,0:3:0:0:
350,178,87726,1,4,0:3:0:0:
167,349,87906,5,4,3:2:0:0:
