osu file format v14

[General]
AudioFilename: ICHIKO - I SAY YES.mp3
AudioLeadIn: 1000
PreviewTime: 59164
Countdown: 0
SampleSet: Soft
StackLeniency: 0.7
Mode: 0
LetterboxInBreaks: 0
WidescreenStoryboard: 1

[Editor]
DistanceSpacing: 0.9
BeatDivisor: 2
GridSize: 32
TimelineZoom: 1.7

[Metadata]
Title:I SAY YES (TV Size)
TitleUnicode:I SAY YES (TV Size)
Artist:ICHIKO
ArtistUnicode:ICHIKO
Creator:Affirmation
Version:Normal
Source:ゼロの使い魔 双月の騎士
Tags:Zero no Tsukaima opening Futatsuki no Kishi 2nd Season Anime Japanese shardex
BeatmapID:1980940
BeatmapSetID:948525

[Difficulty]
HPDrainRate:3
CircleSize:3.3
OverallDifficulty:4.2
ApproachRate:4.8
SliderMultiplier:1
SliderTickRate:1

[Events]
//Background and Video events
0,0,"BG.jpg",0,0
Video,0,"Ichiko-I Say Yes.flv"
//Break Periods
//Storyboard Layer 0 (Background)
//Storyboard Layer 1 (Fail)
//Storyboard Layer 2 (Pass)
//Storyboard Layer 3 (Foreground)
//Storyboard Sound Samples

[TimingPoints]
1859,359.281437125748,4,2,1,35,1,0
1859,-90.9090909090908,4,2,1,35,0,0
13356,-90.9090909090908,4,2,1,65,0,0
24493,-90.9090909090908,4,2,5,65,0,0
24853,-90.9090909090908,4,2,1,50,0,0
35990,-90.9090909090908,4,2,3,50,0,0
36350,-90.9090909090908,4,2,1,60,0,0
47847,-90.9090909090908,4,2,3,40,0,0
53595,-90.9090909090908,4,2,1,55,0,0
57727,-90.9090909090908,4,2,1,65,0,0
58805,-90.9090909090908,4,2,5,65,0,0
59344,-90.9090909090908,4,2,2,80,0,1
69763,-90.9090909090908,4,2,2,80,0,0
70841,-90.9090909090908,4,2,2,80,0,1
81260,-90.9090909090908,4,2,3,80,0,1
81619,-90.9090909090908,4,2,1,80,0,1
82338,-90.9090909090908,4,2,1,70,0,0

[Colours]
Combo1 : 238,204,115
Combo2 : 123,217,131
Combo3 : 109,169,235
Combo4 : 218,148,150

[HitObjects]
30,132,1859,6,0,P|83:147|136:137,1,110.000003356934,12|0,0:0|0:0,0:0:0:0:
180,113,2397,1,2,0:0:0:0:
265,163,2757,2,0,L|262:272,1,110.000003356934,0|0,0:0|3:0,0:0:0:0:
287,313,3296,2,0,P|341:326|394:312,1,110.000003356934,0|0,3:2|3:0,0:0:0:0:
469,249,4014,1,2,0:0:0:0:
391,66,4733,6,0,P|337:53|284:67,1,110.000003356934,0|0,3:0|0:0,0:0:0:0:
264,112,5272,1,2,0:0:0:0:
198,38,5631,1,0,0:0:0:0:
114,77,5990,2,0,L|103:240,1,165.000005035401
12,281,6888,2,0,L|8:227,2,55.0000016784668,2|0|2,0:0|0:0|0:0,0:0:0:0:
91,339,7607,6,0,P|144:348|195:329,1,110.000003356934,0|0,3:0|0:0,0:0:0:0:
233,297,8146,1,2,0:0:0:0:
323,257,8505,2,0,L|318:366,1,110.000003356934,2|0,0:0|3:0,0:0:0:0:
364,383,9044,2,0,L|368:273,1,110.000003356934,0|0,3:0|3:0,0:0:0:0:
411,249,9583,1,2,0:0:0:0:
391,151,9942,2,0,P|338:138|286:155,1,110.000003356934,2|0,0:0|0:0,0:0:0:0:
249,188,10481,6,0,L|139:178,1,110.000003356934,0|0,3:0|0:0,0:0:0:0:
107,140,11020,2,0,P|84:69|15:95,1,165.000005035401,0|2,0:0|0:0,0:0:0:0:
1,142,11739,2,0,L|8:196,1,55.0000016784668,2|2,0:0|0:0,0:0:0:0:
161,320,12637,2,0,L|298:309,1,110.000003356934,0|0,0:0|0:0,0:0:0:0:
358,264,13356,6,0,P|364:209|353:155,1,110.000003356934,12|2,3:2|0:0,0:0:0:0:
284,85,14074,2,0,P|276:58|275:31,2,55.0000016784668,2|0|0,0:0|0:0|3:0,0:0:0:0:
240,107,14613,2,0,L|130:103,1,110.000003356934,4|2,3:2|0:0,0:0:0:0:
85,124,15152,1,2,0:0:0:0:
127,213,15511,1,2,0:0:0:0:
88,304,15870,1,2,0:0:0:0:
159,372,16230,6,0,L|268:362,1,110.000003356934,4|2,3:2|0:0,0:0:0:0:
293,266,16948,2,0,L|402:256,1,110.000003356934,2|0,0:0|0:0,0:0:0:0:
442,286,17487,2,0,B|412:241|412:241|422:130,1,165.000005035401,0|8,1:0|0:3,0:0:0:0:
498,66,18385,2,0,L|503:12,2,55.0000016784668,4|4|4,0:3|0:3|0:3,0:0:0:0:
422,130,19104,6,0,P|368:140|314:131,1,110.000003356934,4|0,3:2|1:0,0:0:0:0:
222,93,19823,2,0,P|168:83|114:94,1,110.000003356934,2|0,0:0|3:0,0:0:0:0:
73,122,20361,1,4,3:2:0:0:
128,203,20721,1,0,0:0:0:0:
128,203,20900,2,0,L|123:312,2,110.000003356934,0|4|8,3:0|0:3|0:3,0:0:0:0:
224,192,21978,6,0,L|219:301,1,110.000003356934,4|2,3:2|0:0,0:0:0:0:
295,362,22697,2,0,P|349:374|400:358,1,110.000003356934,8|4,0:3|0:3,0:0:0:0:
433,320,23236,1,0,3:0:0:0:
390,230,23595,2,0,L|393:120,1,110.000003356934,2|2,0:0|0:0,0:0:0:0:
347,101,24134,2,0,L|343:210,1,110.000003356934,2|2,0:0|0:0,0:0:0:0:
283,288,24853,6,0,P|229:299|175:288,1,110.000003356934,4|2,3:2|0:0,0:0:0:0:
101,223,25571,2,0,L|101:113,1,110.000003356934,2|2,0:0|0:0,0:0:0:0:
84,66,26110,1,0,0:0:0:0:
178,35,26469,1,0,0:0:0:0:
252,98,26829,2,0,P|306:108|358:92,1,110.000003356934,2|0,0:0|0:0,0:0:0:0:
448,50,27547,1,0,0:0:0:0:
448,50,27727,6,0,L|443:159,1,110.000003356934,0|0,3:0|0:0,0:0:0:0:
483,250,28445,2,0,P|429:236|375:239,1,110.000003356934,2|2,0:0|0:0,0:0:0:0:
345,279,28984,2,0,P|290:282|237:268,1,110.000003356934,0|0,0:0|0:0,0:0:0:0:
156,211,29703,1,2,0:0:0:0:
87,274,30062,2,0,L|84:383,1,110.000003356934,2|0,0:0|0:0,0:0:0:0:
36,370,30601,6,0,L|38:260,1,110.000003356934,0|0,3:0|0:0,0:0:0:0:
45,160,31320,2,0,P|95:141|144:163,1,110.000003356934,2|2,0:0|0:0,0:0:0:0:
156,211,31858,2,0,L|265:203,1,110.000003356934,0|0,0:0|0:0,0:0:0:0:
305,294,32577,2,0,L|195:301,2,110.000003356934,2|0|0,0:0|0:0|0:0,0:0:0:0:
352,279,33475,6,0,P|369:227|355:175,1,110.000003356934,0|0,3:0|0:0,0:0:0:0:
317,143,34014,1,0,3:0:0:0:
278,110,34194,2,0,L|168:117,1,110.000003356934,0|0,0:0|0:0,0:0:0:0:
83,239,35092,6,0,L|28:236,2,55.0000016784668,2|2|2,0:0|0:0|0:0,0:0:0:0:
86,288,35631,2,0,L|31:285,2,55.0000016784668,2|2|10,0:0|0:0|2:0,0:0:0:0:
170,336,36350,6,0,P|224:344|277:328,1,110.000003356934,4|0,3:2|1:0,0:0:0:0:
347,258,37068,2,0,L|344:203,2,55.0000016784668,0|0|0,3:0|0:0|1:0,0:0:0:0:
389,282,37607,2,0,L|383:172,1,110.000003356934,0|0,3:0|0:0,0:0:0:0:
308,107,38326,1,0,0:0:0:0:
223,157,38685,2,0,P|169:168|118:150,1,110.000003356934,0|0,0:0|0:0,0:0:0:0:
77,122,39224,6,0,L|75:231,1,110.000003356934,0|0,3:0|1:0,0:0:0:0:
135,310,39942,2,0,L|138:364,2,55.0000016784668,0|0|0,3:0|0:0|1:0,0:0:0:0:
172,277,40481,2,0,P|224:290|276:273,1,110.000003356934,0|0,3:0|0:0,0:0:0:0:
354,212,41200,1,0,0:0:0:0:
428,276,41559,2,0,L|426:330,2,55.0000016784668,0|0|0,0:0|1:0|0:0,0:0:0:0:
451,232,42098,6,0,L|447:122,1,110.000003356934,0|0,3:0|1:0,0:0:0:0:
458,23,42817,2,0,P|485:18|512:20,2,55.0000016784668,0|0|0,3:0|0:0|1:0,0:0:0:0:
412,41,43356,2,0,L|302:35,1,110.000003356934,0|0,3:0|0:0,0:0:0:0:
266,69,43894,1,0,1:0:0:0:
229,102,44074,2,0,L|119:96,1,110.000003356934,0|0,0:0|0:0,0:0:0:0:
77,70,44613,1,0,1:0:0:0:
39,160,44972,6,0,P|32:215|43:269,1,110.000003356934,0|0,3:0|1:0,0:0:0:0:
86,294,45511,2,0,L|195:282,2,110.000003356934,0|0|0,3:0|0:0|0:0,0:0:0:0:
127,204,46589,2,0,L|181:198,2,55.0000016784668,2|2|2,0:2|1:2|0:2,0:0:0:0:
134,154,47129,2,0,L|188:148,1,55.0000016784668,2|2,3:2|1:2,0:0:0:0:
222,112,47487,2,0,L|276:117,1,55.0000016784668,2|8,1:2|0:3,0:0:0:0:
318,142,47847,6,0,P|335:195|328:249,1,110.000003356934,4|0,3:2|0:0,0:0:0:0:
293,284,48385,1,0,3:0:0:0:
373,341,48745,2,0,L|427:334,1,55.0000016784668,0|8,0:0|0:0,0:0:0:0:
437,236,49284,2,0,L|327:249,1,110.000003356934,0|0,3:0|0:0,0:0:0:0:
293,284,49823,1,0,3:0:0:0:
257,317,50002,2,0,P|263:344|263:372,2,55.0000016784668,0|8|8,3:0|0:0|0:0,0:0:0:0:
198,238,50721,6,0,P|181:185|184:131,1,110.000003356934,0|0,3:0|0:0,0:0:0:0:
211,89,51260,1,0,3:0:0:0:
303,54,51619,2,0,L|357:55,1,55.0000016784668,0|8,0:0|0:0,0:0:0:0:
408,141,52158,2,0,L|298:144,1,110.000003356934,0|0,3:0|0:0,0:0:0:0:
266,183,52697,1,0,3:0:0:0:
235,221,52876,2,0,P|239:248|241:275,2,55.0000016784668,0|8|8,3:0|0:0|0:0,0:0:0:0:
155,161,53595,6,0,P|145:106|150:52,1,110.000003356934,4|0,3:2|1:0,0:0:0:0:
183,15,54134,1,0,0:0:0:0:
267,65,54493,2,0,L|321:62,1,55.0000016784668,0|0,0:0|1:0,0:0:0:0:
369,49,54853,2,0,P|384:102|379:157,1,110.000003356934,0|0,0:0|0:0,0:0:0:0:
355,200,55391,1,0,1:0:0:0:
330,242,55571,2,0,P|325:296|339:349,1,110.000003356934,0|0,0:0|1:0,0:0:0:0:
381,376,56110,1,0,1:0:0:0:
466,326,56469,6,0,P|470:271|456:218,1,110.000003356934,4|0,3:2|1:0,0:0:0:0:
379,157,57188,2,0,L|372:102,2,55.0000016784668,0|8|8,3:0|3:3|1:3,0:0:0:0:
355,199,57727,2,0,P|301:211|248:199,1,110.000003356934,4|0,1:3|1:0,0:0:0:0:
204,175,58266,1,0,1:0:0:0:
159,195,58445,1,0,1:0:0:0:
345,357,59344,6,0,L|454:359,1,110.000003356934,4|0,3:2|1:0,0:0:0:0:
440,312,59882,2,0,L|330:309,2,110.000003356934,0|0|0,3:0|0:0|3:0,0:0:0:0:
472,273,60781,1,0,3:0:0:0:
419,189,61140,1,0,1:0:0:0:
477,109,61499,2,0,P|483:82|481:54,1,55.0000016784668,0|0,3:0|1:0,0:0:0:0:
445,21,61858,2,0,L|390:25,1,55.0000016784668,0|0,1:0|0:0,0:0:0:0:
355,61,62218,6,0,L|245:51,1,110.000003356934,0|0,3:0|1:0,0:0:0:0:
231,99,62757,2,0,L|340:108,2,110.000003356934,0|0|0,3:0|0:0|3:0,0:0:0:0:
189,125,63655,2,0,P|193:153|191:180,1,55.0000016784668,0|0,3:0|0:0,0:0:0:0:
156,216,64014,1,0,1:0:0:0:
204,302,64373,2,0,L|258:298,1,55.0000016784668,0|0,3:0|1:0,0:0:0:0:
300,271,64733,2,0,L|354:275,1,55.0000016784668,0|0,1:0|0:0,0:0:0:0:
397,301,65092,6,0,P|383:247|388:193,1,110.000003356934,0|0,3:0|1:0,0:0:0:0:
409,148,65631,2,0,L|299:155,1,110.000003356934,0|0,3:0|0:0,0:0:0:0:
251,142,66170,1,0,1:0:0:0:
174,205,66529,2,0,P|152:154|161:101,1,110.000003356934,0|0,3:0|1:0,0:0:0:0:
196,66,67068,2,0,L|86:58,1,110.000003356934,0|0,3:0|1:0,0:0:0:0:
36,33,67607,1,0,1:0:0:0:
2,126,67966,6,0,L|7:235,1,110.000003356934,0|0,3:0|1:0,0:0:0:0:
52,257,68505,2,0,L|46:147,2,110.000003356934,0|0|0,3:0|0:0|3:0,0:0:0:0:
87,291,69403,1,0,3:0:0:0:
171,238,69763,2,0,P|180:185|165:132,2,110.000003356934,2|2|2,1:2|3:2|3:2,0:0:0:0:
258,285,70841,6,0,L|367:276,1,110.000003356934,4|0,3:2|1:0,0:0:0:0:
411,254,71379,2,0,P|406:308|416:362,2,110.000003356934,0|0|0,3:0|0:0|3:0,0:0:0:0:
440,213,72278,2,0,P|444:158|434:104,1,110.000003356934,0|0,3:0|1:0,0:0:0:0:
367,31,72996,2,0,L|312:34,1,55.0000016784668,0|0,3:0|1:0,0:0:0:0:
277,70,73356,2,0,L|222:73,1,55.0000016784668,0|0,1:0|3:0,0:0:0:0:
176,50,73715,6,0,P|185:105|179:159,1,110.000003356934,0|0,3:0|1:0,0:0:0:0:
149,198,74254,2,0,L|39:191,2,110.000003356934,0|0|0,3:0|0:0|3:0,0:0:0:0:
176,239,75152,2,0,L|285:232,1,110.000003356934,0|0,3:0|1:0,0:0:0:0:
376,267,75870,2,0,P|382:294|381:322,1,55.0000016784668,0|0,3:0|1:0,0:0:0:0:
345,356,76230,2,0,L|290:352,1,55.0000016784668,0|0,1:0|3:0,0:0:0:0:
248,324,76589,6,0,L|138:330,1,110.000003356934,0|0,3:0|1:0,0:0:0:0:
90,343,77128,1,0,3:0:0:0:
39,258,77487,2,0,P|32:231|30:203,1,55.0000016784668,0|0,0:0|1:0,0:0:0:0:
47,157,77847,1,0,0:0:0:0:
65,111,78026,2,0,L|174:119,1,110.000003356934,0|0,3:0|1:0,0:0:0:0:
221,102,78565,1,0,3:0:0:0:
301,156,78924,2,0,P|329:160|356:156,1,55.0000016784668,0|0,1:0|1:0,0:0:0:0:
399,132,79284,1,0,0:0:0:0:
441,107,79463,6,0,L|436:216,1,110.000003356934,0|0,3:0|1:0,0:0:0:0:
417,262,80002,1,0,3:0:0:0:
458,352,80361,2,0,L|512:357,2,55.0000016784668,0|0|0,1:0|1:0|3:0,0:0:0:0:
411,369,80900,2,0,L|357:374,1,55.0000016784668,8|4,3:0|3:0,0:0:0:0:
306,379,81260,1,12,0:0:0:0:
225,321,81619,2,0,P|204:270|213:217,1,110.000003356934,0|0,3:0|3:0,0:0:0:0:
257,127,82338,6,0,L|366:132,1,110.000003356934,4|0,3:2|1:0,0:0:0:0:
440,199,83056,2,0,L|494:196,2,55.0000016784668,0|0|0,3:0|0:0|1:0,0:0:0:0:
395,221,83595,2,0,P|406:275|402:330,1,110.000003356934,4|2,3:2|0:0,0:0:0:0:
363,361,84134,1,2,1:2:0:0:
281,305,84493,2,0,L|226:306,1,55.0000016784668,2|2,3:2|0:2,0:0:0:0:
191,343,84853,2,0,L|136:344,1,55.0000016784668,2|2,1:2|0:2,0:0:0:0:
93,316,85212,6,0,P|79:264|92:211,1,110.000003356934,4|0,3:2|1:0,0:0:0:0:
165,145,85930,2,0,L|159:90,2,55.0000016784668,0|8|8,1:0|0:3|0:3,0:0:0:0:
199,180,86469,1,4,0:3:0:0:
283,128,86829,2,0,L|392:130,1,110.000003356934,8|8,0:3|0:3,0:0:0:0:
439,147,87367,2,0,P|434:119|437:92,2,55.0000016784668,4|4|4,0:3|0:3|0:3,0:0:0:0:
470,184,87906,1,4,3:2:0:0:
