osu file format v14

[General]
AudioFilename: ICHIKO - I SAY YES.mp3
AudioLeadIn: 1000
PreviewTime: 59164
Countdown: 0
SampleSet: Soft
StackLeniency: 0.7
Mode: 0
LetterboxInBreaks: 0
WidescreenStoryboard: 1

[Editor]
DistanceSpacing: 1.2
BeatDivisor: 4
GridSize: 32
TimelineZoom: 1.7

[Metadata]
Title:I SAY YES (TV Size)
TitleUnicode:I SAY YES (TV Size)
Artist:ICHIKO
ArtistUnicode:ICHIKO
Creator:Affirmation
Version:Hard
Source:ゼロの使い魔 双月の騎士
Tags:Zero no Tsukaima opening Futatsuki no Kishi 2nd Season Anime Japanese shardex
BeatmapID:1984201
BeatmapSetID:948525

[Difficulty]
HPDrainRate:4.7
CircleSize:3.8
OverallDifficulty:5.8
ApproachRate:7.2
SliderMultiplier:1
SliderTickRate:1

[Events]
//Background and Video events
0,0,"BG.jpg",0,0
Video,0,"Ichiko-I Say Yes.flv"
//Break Periods
//Storyboard Layer 0 (Background)
//Storyboard Layer 1 (Fail)
//Storyboard Layer 2 (Pass)
//Storyboard Layer 3 (Foreground)
//Storyboard Sound Samples

[TimingPoints]
1859,359.281437125748,4,2,1,35,1,0
1859,-83.3333333333333,4,2,1,35,0,0
13356,-71.4285714285714,4,2,1,65,0,0
24493,-71.4285714285714,4,2,5,65,0,0
24853,-76.9230769230769,4,2,1,50,0,0
35990,-76.9230769230769,4,2,3,50,0,0
36350,-71.4285714285714,4,2,1,60,0,0
47847,-83.3333333333333,4,2,3,40,0,0
53595,-71.4285714285714,4,2,1,55,0,0
57727,-71.4285714285714,4,2,1,65,0,0
58805,-71.4285714285714,4,2,5,65,0,0
59344,-62.5,4,2,2,80,0,1
69763,-62.5,4,2,2,80,0,0
70841,-62.5,4,2,2,80,0,1
81260,-62.5,4,2,3,80,0,1
81619,-62.5,4,2,1,80,0,1
82338,-71.4285714285714,4,2,1,70,0,0

[Colours]
Combo1 : 238,204,115
Combo2 : 123,217,131
Combo3 : 109,169,235
Combo4 : 218,148,150

[HitObjects]
93,148,1859,6,0,B|114:180|114:180|154:196|194:180,1,119.999996337891,12|0,0:0|0:0,0:0:0:0:
273,156,2397,2,0,L|271:215,1,59.9999981689454,2|0,0:0|0:0,0:0:0:0:
352,127,2757,2,0,L|349:247,1,119.999996337891,0|0,0:0|3:0,0:0:0:0:
368,328,3296,6,0,B|334:351|334:351|256:338,1,119.999996337891,0|0,3:2|3:0,0:0:0:0:
114,246,4014,2,0,P|110:275|108:305,1,59.9999981689454,2|0,0:0|0:0,0:0:0:0:
34,345,4373,2,0,P|32:315|27:285,1,59.9999981689454,2|0,0:0|0:0,0:0:0:0:
16,200,4733,6,0,P|26:141|29:82,1,119.999996337891,0|0,3:0|0:0,0:0:0:0:
93,27,5272,2,0,L|152:23,1,59.9999981689454,2|0,0:0|0:0,0:0:0:0:
129,104,5631,2,0,L|188:100,1,59.9999981689454,2|0,0:0|0:0,0:0:0:0:
165,181,5990,6,0,L|284:174,1,119.999996337891,0|0,3:0|0:0,0:0:0:0:
368,167,6529,2,0,P|373:138|372:108,1,59.9999981689454,0|0,3:0|0:0,0:0:0:0:
328,37,6888,2,0,L|268:33,1,59.9999981689454,2|0,0:0|0:0,0:0:0:0:
195,77,7249,2,0,L|135:73,1,59.9999981689454,2|0,0:0|0:0,0:0:0:0:
56,102,7607,6,0,P|59:161|63:221,1,119.999996337891,0|0,3:0|0:0,0:0:0:0:
138,260,8146,2,0,P|181:222|168:166,2,119.999996337891,2|2|0,0:0|0:0|3:0,0:0:0:0:
37,328,9044,6,0,P|97:334|157:341,1,119.999996337891,0|0,3:0|3:0,0:0:0:0:
236,368,9583,2,0,P|295:361|355:355,2,119.999996337891,2|2|0,0:0|0:0|0:0,0:0:0:0:
299,263,10481,6,0,P|358:269|418:275,1,119.999996337891,0|0,3:0|0:0,0:0:0:0:
490,233,11020,1,0,0:0:0:0:
423,181,11200,2,0,P|418:151|410:122,1,59.9999981689454,0|2,0:0|0:0,0:0:0:0:
490,95,11559,2,0,P|494:65|502:36,1,59.9999981689454,2|2,0:0|0:0,0:0:0:0:
420,16,11918,5,2,0:0:0:0:
138,335,13356,6,0,P|85:291|17:296,2,139.999995727539,12|2|2,3:2|0:0|0:0,0:0:0:0:
212,373,14254,2,0,L|281:365,1,69.9999978637696,0|0,0:0|3:0,0:0:0:0:
364,353,14613,6,0,B|342:309|342:309|350:218,1,139.999995727539,4|2,3:2|0:0,0:0:0:0:
350,218,15062,1,0,0:0:0:0:
350,218,15152,1,0,0:0:0:0:
407,156,15332,2,0,L|441:153,2,34.9999989318848,2|0|0,0:0|0:0|0:0,0:0:0:0:
333,115,15691,2,0,L|298:112,2,34.9999989318848,2|0|0,0:0|0:0|0:0,0:0:0:0:
391,54,16050,1,2,0:0:0:0:
391,54,16140,1,0,0:0:0:0:
391,53,16230,6,0,P|455:37|504:83,2,139.999995727539,4|2|2,3:2|0:0|0:0,0:0:0:0:
333,115,17128,2,0,L|263:109,1,69.9999978637696,0|0,0:0|0:0,0:0:0:0:
360,193,17487,6,0,L|221:182,1,139.999995727539,0|0,1:0|1:0,0:0:0:0:
138,199,18026,2,0,P|133:234|137:269,1,69.9999978637696,8|8,0:3|0:3,0:0:0:0:
198,328,18385,2,0,L|267:322,1,69.9999978637696,4|4,0:3|0:3,0:0:0:0:
331,266,18745,2,0,L|400:271,1,69.9999978637696,4|0,0:3|3:0,0:0:0:0:
464,217,19104,6,0,P|512:265|491:328,2,139.999995727539,4|0|2,3:2|1:0|0:0,0:0:0:0:
447,135,20002,2,0,L|377:140,1,69.9999978637696,0|0,0:0|3:0,0:0:0:0:
474,54,20362,6,0,L|335:66,1,139.999995727539,4|0,3:2|0:0,0:0:0:0:
264,111,20900,1,0,3:0:0:0:
264,111,21080,1,4,0:3:0:0:
181,96,21260,2,0,P|178:61|172:26,1,69.9999978637696,4|8,0:3|0:3,0:0:0:0:
91,5,21619,2,0,P|85:39|82:74,1,69.9999978637696,8|0,0:3|0:0,0:0:0:0:
83,75,21888,1,0,0:0:0:0:
82,74,21978,6,0,P|17:83|10:147,1,139.999995727539,4|2,3:2|0:0,0:0:0:0:
153,236,22697,1,8,0:3:0:0:
80,277,22877,1,8,0:3:0:0:
121,350,23057,1,4,0:3:0:0:
194,309,23236,1,0,3:0:0:0:
484,284,23595,6,0,L|478:353,2,69.9999978637696,2|2|2,0:0|0:0|0:0,0:0:0:0:
405,252,24134,2,0,L|399:321,1,69.9999978637696,2|2,0:0|0:0,0:0:0:0:
468,196,24493,1,2,0:0:0:0:
468,196,24853,6,0,B|427:214|427:214|343:195,1,129.999994049073,4|2,3:2|0:0,0:0:0:0:
267,159,25391,1,0,3:0:0:0:
196,204,25571,2,0,P|188:236|189:269,1,64.9999970245363,2|0,0:0|0:0,0:0:0:0:
107,247,25930,1,2,0:0:0:0:
34,290,26110,6,0,P|19:226|0:164,1,129.999994049073,0|0,0:0|0:0,0:0:0:0:
163,23,26829,2,0,P|144:85|129:148,2,129.999994049073,2|0|0,0:0|0:0|0:0,0:0:0:0:
246,38,27727,6,0,L|399:51,1,129.999994049073,0|0,3:0|0:0,0:0:0:0:
455,21,28266,1,0,3:0:0:0:
505,88,28445,2,0,P|509:120|507:152,1,64.9999970245363,2|0,0:0|0:0,0:0:0:0:
454,219,28805,1,2,0:0:0:0:
371,202,28984,6,0,P|307:187|244:172,1,129.999994049073,0|0,0:0|0:0,0:0:0:0:
99,331,29703,2,0,P|162:316|225:301,2,129.999994049073,2|2|0,0:0|0:0|0:0,0:0:0:0:
25,288,30601,6,0,B|59:242|59:242|42:171,1,129.999994049073,0|0,3:0|0:0,0:0:0:0:
5,95,31140,1,0,3:0:0:0:
75,48,31320,2,0,L|139:45,1,64.9999970245363,2|0,0:0|0:0,0:0:0:0:
211,91,31679,1,2,0:0:0:0:
171,165,31858,6,0,L|41:170,1,129.999994049073,0|0,0:0|0:0,0:0:0:0:
336,216,32577,2,0,L|465:221,1,129.999994049073,2|0,0:0|0:0,0:0:0:0:
378,136,33116,2,0,L|443:139,1,64.9999970245363,0|0,0:0|0:0,0:0:0:0:
337,53,33475,6,0,P|279:73|280:134,1,129.999994049073,0|0,3:0|0:0,0:0:0:0:
378,136,34014,1,0,3:0:0:0:
336,216,34194,2,0,P|336:155|279:134,1,129.999994049073,0|0,0:0|0:0,0:0:0:0:
86,299,35092,6,0,L|75:234,2,64.9999970245363,2|2|2,0:0|0:0|0:0,0:0:0:0:
164,266,35631,2,0,L|153:201,1,64.9999970245363,2|2,0:0|0:0,0:0:0:0:
180,349,35990,1,10,2:0:0:0:
179,349,36350,6,0,P|249:338|318:328,1,139.999995727539,4|0,3:2|1:0,0:0:0:0:
393,364,36888,1,0,0:0:0:0:
438,293,37068,2,0,P|448:259|462:227,1,69.9999978637696,0|0,3:0|0:0,0:0:0:0:
423,152,37427,1,0,1:0:0:0:
341,171,37607,6,0,P|354:203|364:236,1,69.9999978637696,0|0,0:0|3:0,0:0:0:0:
310,301,37966,2,0,P|275:295|240:290,1,69.9999978637696,0|0,0:0|1:0,0:0:0:0:
190,222,38326,2,0,P|155:227|120:232,1,69.9999978637696,0|0,0:0|3:0,0:0:0:0:
47,273,38685,2,0,P|53:307|56:342,2,69.9999978637696,0|0|0,0:0|1:0|0:0,0:0:0:0:
90,147,39224,6,0,P|25:155|4:93,1,139.999995727539,0|0,3:0|1:0,0:0:0:0:
67,37,39763,1,0,0:0:0:0:
146,60,39942,2,0,P|180:50|214:43,1,69.9999978637696,0|0,3:0|0:0,0:0:0:0:
269,107,40302,1,0,1:0:0:0:
347,77,40481,6,0,P|353:42|360:8,1,69.9999978637696,0|0,0:0|3:0,0:0:0:0:
441,32,40841,2,0,P|434:66|427:100,1,69.9999978637696,0|0,0:0|1:0,0:0:0:0:
413,183,41200,2,0,P|419:217|426:251,1,69.9999978637696,0|0,0:0|3:0,0:0:0:0:
507,228,41560,2,0,P|500:193|493:159,2,69.9999978637696,0|0|0,0:0|1:0|0:0,0:0:0:0:
440,331,42098,6,0,P|370:323|300:314,1,139.999995727539,0|0,3:0|1:0,0:0:0:0:
246,250,42637,1,0,0:0:0:0:
171,288,42817,2,0,P|178:322|183:356,1,69.9999978637696,0|0,3:0|0:0,0:0:0:0:
101,338,43176,1,0,1:0:0:0:
20,361,43356,6,0,P|27:291|40:222,1,139.999995727539,0|0,0:0|0:0,0:0:0:0:
114,182,43894,1,0,1:0:0:0:
89,100,44074,2,0,P|25:88|27:24,1,139.999995727539,0|0,0:0|0:0,0:0:0:0:
165,44,44613,2,0,P|172:79|172:114,1,69.9999978637696,0|0,1:0|0:0,0:0:0:0:
113,216,44972,6,0,L|251:195,1,139.999995727539,0|0,3:0|1:0,0:0:0:0:
148,291,45512,2,0,L|286:270,1,139.999995727539,0|0,0:0|0:0,0:0:0:0:
345,210,46050,1,0,1:0:0:0:
425,312,46230,6,0,B|418:263|418:263|430:227|430:227|422:176,1,139.999995727539,0|2,0:0|0:2,0:0:0:0:
451,97,46769,2,0,P|416:94|381:102,1,69.9999978637696,2|2,1:2|0:2,0:0:0:0:
305,136,47128,1,2,3:2:0:0:
231,94,47308,1,2,1:2:0:0:
163,143,47487,2,0,L|160:212,1,69.9999978637696,2|8,1:2|0:3,0:0:0:0:
82,115,47847,6,0,L|78:235,1,119.999996337891,4|0,3:2|0:0,0:0:0:0:
13,288,48385,1,0,3:0:0:0:
13,288,48564,2,0,B|62:321|62:321|121:306,1,119.999996337891,0|8,3:0|0:0,0:0:0:0:
411,334,49284,6,0,B|362:301|362:301|302:315,1,119.999996337891,0|0,3:0|0:0,0:0:0:0:
229,356,49823,1,0,3:0:0:0:
229,356,50002,2,0,L|169:350,2,59.9999981689454,0|8|8,3:0|0:0|0:0,0:0:0:0:
465,371,50721,6,0,B|487:334|487:334|460:261,1,119.999996337891,0|0,3:0|0:0,0:0:0:0:
474,178,51260,1,0,3:0:0:0:
474,178,51439,2,0,L|356:200,1,119.999996337891,0|8,3:0|0:0,0:0:0:0:
79,88,52158,6,0,L|196:110,1,119.999996337891,0|0,3:0|0:0,0:0:0:0:
279,93,52697,1,0,3:0:0:0:
279,93,52876,2,0,P|284:63|280:33,2,59.9999981689454,0|8|8,3:0|0:0|0:0,0:0:0:0:
165,254,53595,6,0,P|233:246|282:293,1,139.999995727539,4|0,3:2|1:0,0:0:0:0:
329,363,54134,2,0,P|362:354|396:345,1,69.9999978637696,0|0,0:0|3:0,0:0:0:0:
448,279,54493,2,0,P|414:270|380:261,1,69.9999978637696,0|0,0:0|1:0,0:0:0:0:
362,178,54853,6,0,P|428:173|456:113,1,139.999995727539,0|0,0:0|0:0,0:0:0:0:
423,35,55391,1,0,1:0:0:0:
348,75,55571,2,0,P|313:69|279:62,1,69.9999978637696,0|0,0:0|3:0,0:0:0:0:
252,141,55930,2,0,P|217:146|183:153,2,69.9999978637696,0|0|0,1:0|1:0|0:0,0:0:0:0:
269,252,56469,6,0,P|200:235|132:220,1,139.999995727539,4|0,3:2|1:0,0:0:0:0:
50,241,57008,1,0,0:0:0:0:
50,241,57098,1,0,0:0:0:0:
49,240,57188,2,0,P|56:275|55:310,1,69.9999978637696,0|8,3:0|3:3,0:0:0:0:
6,378,57547,1,8,1:3:0:0:
134,362,57727,6,0,P|194:329|262:337,1,139.999995727539,4|0,1:3|1:0,0:0:0:0:
398,374,58266,1,0,1:0:0:0:
362,221,58445,1,0,1:0:0:0:
361,220,59344,6,0,P|284:216|235:275,1,160,4|0,3:2|1:0,0:0:0:0:
157,316,59882,2,0,L|157:236,1,80,0|0,0:0|3:0,0:0:0:0:
116,158,60242,1,0,0:0:0:0:
53,219,60421,2,0,P|45:258|50:297,1,80,0|0,1:0|3:0,0:0:0:0:
116,158,60781,6,0,P|42:174|0:112,2,160,0|0|0,3:0|1:0|3:0,0:0:0:0:
187,106,61679,1,0,1:0:0:0:
273,119,61858,2,0,P|311:110|351:105,1,80,0|0,1:0|0:0,0:0:0:0:
470,181,62218,6,0,P|405:222|334:193,1,160,0|0,3:0|1:0,0:0:0:0:
258,237,62757,2,0,P|261:276|261:316,1,80,0|0,0:0|3:0,0:0:0:0:
188,366,63116,1,0,0:0:0:0:
111,322,63296,2,0,P|71:316|31:309,1,80,0|0,1:0|3:0,0:0:0:0:
99,212,63655,6,0,P|177:224|257:236,2,160,0|0|0,3:0|1:0|3:0,0:0:0:0:
32,154,64553,1,0,1:0:0:0:
100,97,64733,2,0,P|110:58|103:19,1,80,0|0,1:0|0:0,0:0:0:0:
191,18,65092,6,0,B|221:49|221:49|336:28,1,160,0|0,3:0|1:0,0:0:0:0:
423,15,65631,2,0,L|409:174,1,160,0|0,0:0|0:0,0:0:0:0:
408,261,66170,2,0,P|447:269|486:262,1,80,0|0,1:0|0:0,0:0:0:0:
340,329,66529,6,0,P|261:314|183:327,1,160,0|0,3:0|1:0,0:0:0:0:
102,363,67068,2,0,L|108:203,1,160,0|0,0:0|1:0,0:0:0:0:
26,171,67607,2,0,L|22:250,1,80,0|0,1:0|0:0,0:0:0:0:
109,108,67966,6,0,P|183:134|258:112,1,160,0|0,3:0|1:0,0:0:0:0:
314,44,68505,2,0,B|304:97|304:97|322:147|322:147|311:199,1,160,0|0,0:0|0:0,0:0:0:0:
283,282,69044,2,0,P|322:278|362:274,1,80,0|0,1:0|3:0,0:0:0:0:
495,177,69403,5,0,3:0:0:0:
495,177,69763,2,0,P|487:256|479:336,2,160,2|2|2,1:2|3:2|3:2,0:0:0:0:
330,15,70841,6,0,P|399:40|386:112,1,160,4|0,3:2|1:0,0:0:0:0:
329,180,71379,2,0,P|291:169|251:162,1,80,0|0,0:0|3:0,0:0:0:0:
198,91,71739,1,0,0:0:0:0:
139,156,71918,2,0,P|100:166|60:173,1,80,0|0,1:0|3:0,0:0:0:0:
0,302,72278,6,0,P|77:294|132:349,1,160,0|0,3:0|1:0,0:0:0:0:
201,294,72817,1,0,0:0:0:0:
260,357,72996,2,0,P|300:349|339:341,1,80,0|0,3:0|1:0,0:0:0:0:
385,266,73356,2,0,P|345:258|306:250,1,80,0|0,1:0|3:0,0:0:0:0:
178,279,73715,6,0,B|211:246|211:246|227:190|193:137,1,160,0|0,3:0|1:0,0:0:0:0:
202,49,74254,2,0,P|241:56|280:62,1,80,0|0,0:0|3:0,0:0:0:0:
369,78,74613,1,0,0:0:0:0:
379,165,74793,2,0,P|339:171|300:178,1,80,0|0,1:0|3:0,0:0:0:0:
220,276,75152,6,0,P|296:274|339:337,1,160,0|0,3:0|1:0,0:0:0:0:
421,303,75691,1,0,3:0:0:0:
421,303,75781,1,0,3:0:0:0:
421,303,75870,2,0,P|430:264|443:226,1,80,0|0,3:0|1:0,0:0:0:0:
379,165,76230,2,0,P|369:126|356:88,1,80,0|0,1:0|3:0,0:0:0:0:
380,3,76589,6,0,P|319:52|241:47,1,160,0|0,3:0|1:0,0:0:0:0:
161,10,77128,2,0,L|150:169,1,160,0|0,0:0|0:0,0:0:0:0:
77,218,77667,2,0,P|62:181|67:141,1,80,0|0,1:0|0:0,0:0:0:0:
231,166,78026,6,0,L|220:325,1,160,0|0,3:0|1:0,0:0:0:0:
301,360,78565,2,0,B|342:322|342:322|317:220,1,160,0|0,0:0|1:0,0:0:0:0:
380,158,79104,2,0,P|419:152|459:146,1,80,0|0,1:0|0:0,0:0:0:0:
304,89,79463,6,0,P|224:77|145:66,1,160,0|0,3:0|1:0,0:0:0:0:
67,106,80002,1,0,0:0:0:0:
110,182,80182,2,0,P|147:168|185:156,1,80,0|0,3:0|1:0,0:0:0:0:
303,211,80541,1,0,1:0:0:0:
190,314,80721,1,0,3:0:0:0:
190,314,80811,1,0,3:0:0:0:
190,314,80900,6,0,L|110:307,1,80,8|4,3:0|3:0,0:0:0:0:
290,322,81260,1,12,0:0:0:0:
290,322,82338,6,0,B|319:288|319:288|322:246|299:195,1,139.999995727539,4|0,3:2|1:0,0:0:0:0:
299,195,83056,2,0,L|368:189,2,69.9999978637696,0|0|0,3:0|0:0|1:0,0:0:0:0:
397,109,83595,6,0,L|258:121,1,139.999995727539,4|2,3:2|0:0,0:0:0:0:
258,121,84044,1,2,0:2:0:0:
258,121,84134,1,2,1:2:0:0:
185,78,84313,2,0,L|187:43,2,34.9999989318848,2|2|2,0:2|0:2|3:2,0:0:0:0:
102,96,84673,2,0,L|99:61,2,34.9999989318848,2|2|2,0:2|0:2|1:2,0:0:0:0:
54,165,85032,1,2,0:2:0:0:
54,165,85122,1,2,0:2:0:0:
54,165,85212,6,0,P|102:211|88:276,1,139.999995727539,4|0,3:2|1:0,0:0:0:0:
87,276,85930,2,0,L|17:269,2,69.9999978637696,0|8|8,1:0|0:3|0:3,0:0:0:0:
241,297,86469,1,4,0:3:0:0:
241,296,86829,6,0,P|236:331|234:366,2,69.9999978637696,8|8|8,0:3|0:3|0:3,0:0:0:0:
311,252,87367,2,0,P|308:217|304:182,2,69.9999978637696,4|4|4,0:3|0:3|0:3,0:0:0:0:
406,354,87906,5,4,3:2:0:0:
