osu file format v14

[General]
AudioFilename: ICHIKO - I SAY YES.mp3
AudioLeadIn: 1000
PreviewTime: 59164
Countdown: 0
SampleSet: Soft
StackLeniency: 0.7
Mode: 0
LetterboxInBreaks: 0
WidescreenStoryboard: 1

[Editor]
DistanceSpacing: 1
BeatDivisor: 2
GridSize: 32
TimelineZoom: 1.7

[Metadata]
Title:I SAY YES (TV Size)
TitleUnicode:I SAY YES (TV Size)
Artist:ICHIKO
ArtistUnicode:ICHIKO
Creator:Affirmation
Version:Easy
Source:ゼロの使い魔 双月の騎士
Tags:Zero no Tsukaima opening Futatsuki no Kishi 2nd Season Anime Japanese shardex
BeatmapID:1980913
BeatmapSetID:948525

[Difficulty]
HPDrainRate:2.5
CircleSize:3
OverallDifficulty:2.3
ApproachRate:3.9
SliderMultiplier:1
SliderTickRate:1

[Events]
//Background and Video events
0,0,"BG.jpg",0,0
//Break Periods
//Storyboard Layer 0 (Background)
//Storyboard Layer 1 (Fail)
//Storyboard Layer 2 (Pass)
//Storyboard Layer 3 (Foreground)
//Storyboard Layer 4 (Overlay)
//Storyboard Sound Samples

[TimingPoints]
1859,359.281437125748,4,2,1,35,1,0
1859,-111.111111111111,4,2,1,35,0,0
13356,-111.111111111111,4,2,1,65,0,0
24493,-111.111111111111,4,2,5,65,0,0
24853,-111.111111111111,4,2,1,50,0,0
35990,-111.111111111111,4,2,3,50,0,0
36350,-111.111111111111,4,2,1,60,0,0
47847,-111.111111111111,4,2,3,40,0,0
53595,-111.111111111111,4,2,1,55,0,0
57727,-111.111111111111,4,2,1,65,0,0
58805,-111.111111111111,4,2,5,65,0,0
59344,-111.111111111111,4,2,2,80,0,1
69763,-111.111111111111,4,2,2,80,0,0
70841,-111.111111111111,4,2,2,80,0,1
81260,-111.111111111111,4,2,3,80,0,1
81619,-111.111111111111,4,2,1,80,0,1
82338,-111.111111111111,4,2,1,70,0,0

[Colours]
Combo1 : 238,204,115
Combo2 : 123,217,131
Combo3 : 109,169,235
Combo4 : 218,148,150

[HitObjects]
178,115,1859,6,0,P|239:143|301:122,1,134.999995880127,12|2,0:0|0:0,0:0:0:0:
366,60,2757,1,0,0:0:0:0:
437,114,3116,2,0,L|431:248,1,134.999995880127,0|0,3:0|3:0,0:0:0:0:
389,328,4014,2,0,P|346:339|302:333,1,89.9999972534181,2|2,0:0|0:0,0:0:0:0:
226,285,4733,6,0,P|160:285|111:329,1,134.999995880127,0|2,3:0|0:0,0:0:0:0:
42,271,5631,1,2,0:0:0:0:
93,197,5990,2,0,L|82:62,1,134.999995880127,0|0,3:0|3:0,0:0:0:0:
149,2,6888,2,0,P|169:41|169:85,1,89.9999972534181,2|2,0:0|0:0,0:0:0:0:
242,137,7607,6,0,P|306:115|370:132,2,134.999995880127,0|2|0,3:0|0:0|0:0,0:0:0:0:
244,227,9044,2,0,P|309:240|356:286,2,134.999995880127,0|2|0,3:0|0:0|0:0,0:0:0:0:
180,291,10481,6,0,B|135:249|135:249|163:42,1,269.999991760254,0|2,3:0|0:0,0:0:0:0:
245,5,11918,1,2,0:0:0:0:
402,91,12637,2,0,P|409:135|406:179,1,89.9999972534181,0|0,0:0|0:0,0:0:0:0:
353,252,13356,6,0,L|263:247,1,89.9999972534181,12|2,3:2|0:0,0:0:0:0:
241,334,14074,2,0,L|375:340,2,134.999995880127,2|4|0,0:0|3:2|0:0,0:0:0:0:
150,325,15511,2,0,P|137:283|144:239,1,89.9999972534181,0|0,0:0|0:0,0:0:0:0:
215,183,16230,6,0,P|221:138|208:96,1,89.9999972534181,4|2,3:2|0:0,0:0:0:0:
136,42,16948,2,0,L|1:54,2,134.999995880127,2|0|8,0:0|1:0|0:3,0:0:0:0:
208,96,18385,1,4,0:3:0:0:
281,44,18745,1,4,0:3:0:0:
347,104,19104,6,0,L|341:193,1,89.9999972534181,4|0,3:2|1:0,0:0:0:0:
374,277,19823,2,0,P|441:270|498:304,2,134.999995880127,2|4|0,0:0|3:2|3:0,0:0:0:0:
302,331,21260,2,0,P|258:342|215:331,1,89.9999972534181,4|8,0:3|0:3,0:0:0:0:
142,279,21978,6,0,L|145:189,1,89.9999972534181,4|2,3:2|0:0,0:0:0:0:
59,164,22697,2,0,L|53:298,1,134.999995880127,8|0,0:3|3:0,0:0:0:0:
455,349,24853,6,0,P|483:266|438:191,1,179.999994506836,4|2,3:2|0:0,0:0:0:0:
306,69,26290,2,0,L|172:89,1,134.999995880127,2|2,0:0|0:0,0:0:0:0:
86,60,27188,1,0,0:0:0:0:
145,181,27727,6,0,L|322:153,1,179.999994506836,0|2,3:0|0:0,0:0:0:0:
426,300,29164,2,0,P|383:311|340:303,1,89.9999972534181,2|0,0:0|0:0,0:0:0:0:
258,262,29882,1,2,0:0:0:0:
168,272,30242,1,0,0:0:0:0:
116,346,30601,6,0,L|122:166,1,179.999994506836,0|2,3:0|0:0,0:0:0:0:
249,38,32038,2,0,P|270:76|273:121,1,89.9999972534181,2|0,0:0|0:0,0:0:0:0:
348,171,32757,1,2,0:0:0:0:
433,143,33116,1,0,0:0:0:0:
492,211,33475,6,0,L|486:345,2,134.999995880127,0|0|0,3:0|3:0|0:0,0:0:0:0:
402,224,34912,2,0,L|398:313,2,89.9999972534181,0|2|2,0:0|0:0|0:0,0:0:0:0:
337,161,35990,1,10,2:0:0:0:
272,225,36350,6,0,P|229:236|185:228,1,89.9999972534181,4|0,3:2|1:0,0:0:0:0:
128,160,37068,2,0,L|122:294,1,134.999995880127,0|2,3:0|0:0,0:0:0:0:
65,365,37966,1,0,0:0:0:0:
28,282,38326,2,0,L|33:147,1,134.999995880127,0|0,0:0|1:0,0:0:0:0:
90,76,39224,6,0,P|134:69|176:84,1,89.9999972534181,0|0,3:0|1:0,0:0:0:0:
256,124,39942,2,0,P|321:135|378:101,1,134.999995880127,0|2,3:0|0:0,0:0:0:0:
305,47,40841,1,0,0:0:0:0:
214,42,41200,2,0,P|171:92|172:159,1,134.999995880127,0|0,0:0|1:0,0:0:0:0:
215,238,42098,6,0,L|304:236,1,89.9999972534181,0|0,3:0|1:0,0:0:0:0:
377,289,42817,2,0,L|511:286,2,134.999995880127,0|0|0,3:0|0:0|1:0,0:0:0:0:
395,200,44254,2,0,L|484:198,1,89.9999972534181,0|0,3:0|1:0,0:0:0:0:
502,109,44972,6,0,L|367:111,1,134.999995880127,0|2,3:0|0:0,0:0:0:0:
293,58,45870,1,0,0:0:0:0:
237,128,46230,2,0,P|172:143|111:116,1,134.999995880127,0|2,0:0|1:2,0:0:0:0:
47,179,47128,2,0,L|55:268,1,89.9999972534181,2|2,3:2|1:2,0:0:0:0:
129,319,47847,6,0,P|62:317|7:354,2,134.999995880127,4|0|8,3:2|3:0|0:0,0:0:0:0:
209,359,49284,2,0,L|343:350,2,134.999995880127,0|0|8,3:0|3:0|0:0,0:0:0:0:
236,273,50721,6,0,P|263:213|235:154,2,134.999995880127,0|0|8,3:0|3:0|0:0,0:0:0:0:
209,359,52158,2,0,L|298:353,1,89.9999972534181,0|0,3:0|0:0,0:0:0:0:
362,290,52876,1,0,3:0:0:0:
439,336,53236,1,8,0:0:0:0:
499,269,53595,6,0,L|493:134,1,134.999995880127,4|2,3:2|0:0,0:0:0:0:
436,63,54493,1,0,0:0:0:0:
364,117,54853,2,0,P|321:125|277:114,1,89.9999972534181,0|2,0:0|0:0,0:0:0:0:
197,70,55571,1,0,0:0:0:0:
133,133,55930,1,0,1:0:0:0:
248,203,56469,6,0,L|242:292,1,89.9999972534181,4|0,3:2|1:0,0:0:0:0:
313,347,57188,2,0,P|379:352|430:310,1,134.999995880127,0|4,3:0|1:3,0:0:0:0:
469,229,58086,1,0,1:0:0:0:
427,149,58445,1,0,1:0:0:0:
229,40,59344,6,0,P|164:56|103:28,1,134.999995880127,4|2,3:2|0:0,0:0:0:0:
48,99,60242,1,0,0:0:0:0:
112,161,60601,2,0,L|105:295,1,134.999995880127,0|0,3:0|1:0,0:0:0:0:
179,347,61499,1,0,3:0:0:0:
255,299,61858,1,0,1:0:0:0:
325,355,62218,6,0,L|459:366,1,134.999995880127,0|2,3:0|0:0,0:0:0:0:
504,287,63116,1,0,0:0:0:0:
440,223,63475,2,0,L|306:212,1,134.999995880127,0|0,3:0|1:0,0:0:0:0:
227,166,64373,1,0,3:0:0:0:
151,215,64733,1,0,1:0:0:0:
81,158,65092,6,0,P|59:95|82:33,2,134.999995880127,0|0|0,3:0|3:0|1:0,0:0:0:0:
151,215,66529,2,0,L|16:229,2,134.999995880127,0|0|0,3:0|3:0|1:0,0:0:0:0:
228,168,67966,6,0,B|204:218|204:218|222:295,1,134.999995880127,0|2,3:0|0:0,0:0:0:0:
292,351,68864,1,0,0:0:0:0:
342,277,69224,2,0,P|409:280|456:326,1,134.999995880127,0|2,3:0|1:2,0:0:0:0:
508,252,70122,1,2,3:2:0:0:
471,169,70481,1,2,3:2:0:0:
497,82,70841,6,0,L|362:95,1,134.999995880127,4|2,3:2|0:0,0:0:0:0:
290,150,71739,1,0,0:0:0:0:
226,213,72098,2,0,L|91:199,1,134.999995880127,0|0,3:0|1:0,0:0:0:0:
27,262,72996,1,0,3:0:0:0:
80,334,73356,1,0,1:0:0:0:
169,332,73715,6,0,L|303:318,1,134.999995880127,0|2,3:0|0:0,0:0:0:0:
377,266,74613,1,0,0:0:0:0:
295,228,74972,2,0,L|160:241,1,134.999995880127,0|0,3:0|1:0,0:0:0:0:
92,182,75870,1,0,3:0:0:0:
82,92,76230,1,0,1:0:0:0:
136,20,76589,6,0,P|73:42|8:29,2,134.999995880127,0|0|0,3:0|3:0|1:0,0:0:0:0:
218,56,78026,2,0,P|280:33|345:46,2,134.999995880127,0|0|0,3:0|3:0|1:0,0:0:0:0:
174,134,79463,2,0,L|192:267,2,134.999995880127,0|0|0,3:0|3:0|1:0,0:0:0:0:
218,56,80900,1,8,3:0:0:0:
282,119,81260,1,12,0:0:0:0:
346,182,81619,2,0,L|435:175,1,89.9999972534181,0|0,3:0|3:0,0:0:0:0:
465,260,82338,6,0,L|375:266,1,89.9999972534181,4|0,3:2|1:0,0:0:0:0:
342,350,83056,2,0,L|476:359,2,134.999995880127,0|4|2,3:0|3:2|1:2,0:0:0:0:
254,371,84493,2,0,P|240:328|247:284,1,89.9999972534181,2|2,3:2|1:2,0:0:0:0:
296,208,85212,6,0,P|302:163|289:121,1,89.9999972534181,4|0,3:2|1:0,0:0:0:0:
225,58,85930,2,0,L|91:80,1,134.999995880127,0|4,1:0|0:3,0:0:0:0:
43,155,86829,2,0,P|38:223|56:287,1,134.999995880127,8|4,0:3|0:3,0:0:0:0:
181,339,87906,1,4,3:2:0:0:
