osu file format v14

[General]
AudioFilename: audio.mp3
AudioLeadIn: 0
PreviewTime: 59083
Countdown: 0
SampleSet: Soft
StackLeniency: 0.7
Mode: 0
LetterboxInBreaks: 0
WidescreenStoryboard: 0

[Editor]
Bookmarks: 1958,13455,24952,36449,47946,59443,70940,82437,93934,105431,116928,128425,139922,151419,164353,175850,188784,200281,211778,234592
DistanceSpacing: 1
BeatDivisor: 4
GridSize: 4
TimelineZoom: 1.7

[Metadata]
Title:I SAY YES
TitleUnicode:I SAY YES
Artist:ICHIKO
ArtistUnicode:ICHIKO
Creator:Andrea
Version:AFFECTION
Source:ゼロの使い魔 ~双月の騎士~
Tags:osuplayer111 Sekai Sekaii Sekai-nyan Leomine LeomineXD Sarawatlism [_Lost_] C_O_N_N_E_R Conner Full Version Female Vocals Zero no Tsukaima: Futatsuki no Kishi Anime Japanese Pop JPop J-Pop Louise Françoise de La Baume Le Blanc de La Vallière ルイズ・フランソワーズ・ル・ブラン・ド・ラ・ヴァリエール The Familiar of Zero: The Rider of the Twin Moons Second Season 2nd Opening OP
BeatmapID:4105350
BeatmapSetID:1977606

[Difficulty]
HPDrainRate:6
CircleSize:4
OverallDifficulty:8
ApproachRate:9
SliderMultiplier:1.7
SliderTickRate:1

[Events]
//Background and Video events
0,0,"zerobg33.jpg",0,0
//Break Periods
//Storyboard Layer 0 (Background)
//Storyboard Layer 1 (Fail)
//Storyboard Layer 2 (Pass)
//Storyboard Layer 3 (Foreground)
//Storyboard Layer 4 (Overlay)
//Storyboard Sound Samples

[TimingPoints]
1958,359.281437125748,4,2,1,45,1,0
1958,-125,4,2,1,45,0,0
13455,-111.111111111111,4,2,1,60,0,0
23514,-125,4,2,1,60,0,0
24592,-125,4,2,1,50,0,0
24952,-111.111111111111,4,2,1,65,0,0
36089,-125,4,2,1,65,0,0
36359,-125,4,2,1,5,0,0
36449,-100,4,2,1,70,0,0
47946,-125,4,2,1,55,0,0
53694,-100,4,2,1,70,0,0
53963,-100,4,2,1,5,0,0
54053,-100,4,2,1,70,0,0
57826,-100,4,2,1,75,0,0
58095,-100,4,2,1,5,0,0
58185,-100,4,2,1,75,0,0
58904,-100,4,2,1,65,0,0
59443,-90.9090909090909,4,2,1,80,0,1
73005,-90.9090909090909,4,2,1,5,0,1
73095,-90.9090909090909,4,2,1,80,0,1
74083,-90.9090909090909,4,2,1,5,0,1
74173,-90.9090909090909,4,2,1,80,0,1
81359,-125,4,2,1,70,0,0
81628,-125,4,2,1,5,0,0
81718,-125,4,2,1,60,0,0
82437,-111.111111111111,4,2,1,60,0,0
88185,-100,4,2,1,60,0,0
92317,-125,4,2,1,60,0,0
93574,-125,4,2,1,50,0,0
93934,-100,4,2,1,65,0,0
99592,-100,4,2,1,5,0,0
99682,-100,4,2,1,65,0,0
105071,-125,4,2,1,65,0,0
105341,-125,4,2,1,5,0,0
105431,-100,4,2,1,70,0,0
116928,-125,4,2,1,55,0,0
122676,-100,4,2,1,70,0,0
122946,-100,4,2,1,5,0,0
123035,-100,4,2,1,70,0,0
126808,-100,4,2,1,75,0,0
127077,-100,4,2,1,5,0,0
127167,-100,4,2,1,75,0,0
127886,-100,4,2,1,65,0,0
128425,-90.9090909090909,4,2,1,80,0,1
143065,-90.9090909090909,4,2,1,5,0,1
143155,-90.9090909090909,4,2,1,80,0,1
145940,-90.9090909090909,4,2,1,5,0,1
146029,-90.9090909090909,4,2,1,80,0,1
147377,-90.9090909090909,4,2,1,5,0,1
147466,-90.9090909090909,4,2,1,80,0,1
148814,-90.9090909090909,4,2,1,5,0,1
148904,-90.9090909090909,4,2,1,80,0,1
150341,-125,4,2,1,70,0,0
150610,-125,4,2,1,5,0,0
150700,-125,4,2,1,60,0,0
151419,-125,4,2,1,60,0,0
155820,-125,4,2,1,5,0,0
155910,-125,4,2,1,60,0,0
160041,-125,4,2,1,65,0,0
160311,-125,4,2,1,5,0,0
160401,-125,4,2,1,65,0,0
161478,-100,4,2,1,55,0,0
163993,-125,4,2,1,55,0,0
164263,-125,4,2,1,5,0,0
164353,-100,4,2,1,75,0,0
167586,-76.9230769230769,4,2,1,75,0,0
167856,-76.9230769230769,4,2,1,5,0,0
167946,-76.9230769230769,4,2,1,75,0,0
168215,-100,4,2,1,5,0,0
168305,-100,4,2,1,75,0,0
168664,-76.9230769230769,4,2,1,75,0,0
170011,-76.9230769230769,4,2,1,5,0,0
170101,-76.9230769230769,4,2,1,75,0,0
170371,-100,4,2,1,5,0,0
170460,-100,4,2,1,75,0,0
171808,-100,4,2,1,5,0,0
171898,-100,4,2,1,75,0,0
173335,-76.9230769230769,4,2,1,75,0,0
173604,-76.9230769230769,4,2,1,5,0,0
173694,-76.9230769230769,4,2,1,75,0,0
173963,-100,4,2,1,5,0,0
174053,-100,4,2,1,75,0,0
174413,-76.9230769230769,4,2,1,75,0,0
174682,-100,4,2,1,5,0,0
174772,-100,4,2,1,75,0,0
175850,-111.111111111111,4,2,1,55,0,0
178634,-111.111111111111,4,2,1,5,0,0
178724,-111.111111111111,4,2,1,55,0,0
181598,-100,4,2,1,70,0,0
185730,-100,4,2,1,75,0,0
186808,-100,4,2,1,65,0,0
188784,-125,4,2,1,45,0,0
194532,-125,4,2,1,55,0,0
197407,-111.111111111111,4,2,1,65,0,0
198844,-111.111111111111,4,2,1,70,0,0
200281,-90.9090909090909,4,2,1,80,0,1
214922,-90.9090909090909,4,2,1,5,0,1
215011,-90.9090909090909,4,2,1,80,0,1
217796,-90.9090909090909,4,2,1,5,0,1
217886,-90.9090909090909,4,2,1,80,0,1
219233,-90.9090909090909,4,2,1,5,0,1
219323,-90.9090909090909,4,2,1,80,0,1
220670,-90.9090909090909,4,2,1,5,0,1
220760,-90.9090909090909,4,2,1,80,0,1
222197,-125,4,2,1,70,0,0
222466,-125,4,2,1,5,0,0
222556,-125,4,2,1,60,0,0
223275,-100,4,2,1,70,0,0
223544,-100,4,2,1,5,0,0
223634,-100,4,2,1,70,0,0
227676,-100,4,2,1,5,0,0
227766,-100,4,2,1,70,0,0
229023,-100,4,2,1,65,0,0
232616,-100,4,2,1,70,0,0
233335,-111.111111111111,4,2,1,70,0,0
233514,-111.111111111111,4,2,1,60,0,0

[Colours]
Combo1 : 221,209,204
Combo2 : 100,100,113
Combo3 : 200,67,132
Combo4 : 224,138,181
Combo5 : 200,174,54

[HitObjects]
488,88,1958,6,0,P|440:68|352:72,1,136,4|2,1:2|2:2,0:0:0:0:
292,132,2496,2,0,L|308:204,1,68,2|2,2:2|2:2,0:0:0:0:
256,272,2856,2,0,P|188:277|125:254,1,136,2|2,2:2|1:2,0:0:0:0:
60,192,3395,2,0,L|88:52,1,136,2|0,2:2|1:1,0:0:0:0:
86,58,4113,6,0,P|116:72|156:72,1,68,2|2,2:2|2:2,0:0:0:0:
232,32,4472,1,2,2:2:0:0:
150,73,4652,1,2,2:2:0:0:
228,120,4832,2,0,B|280:112|280:112|312:120|312:120|364:112,1,136,2|2,1:2|2:2,0:0:0:0:
420,40,5371,2,0,P|444:84|432:172,1,136,2|2,2:2|2:2,0:0:0:0:
400,252,5910,1,2,0:0:0:0:
300,180,6089,6,0,P|268:132|188:124,1,136,2|2,1:2|2:2,0:0:0:0:
124,176,6628,1,2,1:2:0:0:
124,176,6808,1,2,0:0:0:0:
52,120,6987,1,2,2:2:0:0:
52,120,7167,1,2,0:0:0:0:
12,200,7347,1,2,2:2:0:0:
12,200,7526,1,2,2:2:0:0:
112,276,7706,6,0,L|248:248,1,136,2|2,1:2|2:2,0:0:0:0:
296,172,8245,2,0,L|432:200,1,136,2|2,2:2|0:0,0:0:0:0:
429,199,8784,1,0,0:0:0:0:
500,144,8963,1,2,1:2:0:0:
428,40,9143,6,0,B|384:24|384:24|296:52,1,136,2|2,2:2|1:2,0:0:0:0:
212,51,9682,2,0,B|128:24|128:24|84:40,1,136,2|2,2:2|0:0,0:0:0:0:
84,40,10401,1,2,2:2:0:0:
40,152,10580,6,0,P|24:192|44:284,1,136,2|2,1:2|2:2,0:0:0:0:
104,216,11119,2,0,L|244:212,1,136,2|2,2:2|2:2,0:0:0:0:
332,212,11658,1,2,2:2:0:0:
284,136,11838,1,2,2:2:0:0:
239,212,12017,1,2,2:2:0:0:
408,324,12736,2,0,P|456:296|476:208,1,136,2|2,2:2|2:2,0:0:0:0:
478,222,13455,6,0,B|373:222|373:222|335:228|326:261,1,152.999995330811,4|2,1:2|2:2,0:0:0:0:
244,218,13993,1,0,0:0:0:0:
252,378,14173,2,0,P|272:342|290:305,1,76.4999976654053,2|2,2:2|2:2,0:0:0:0:
176,304,14532,1,0,1:1:0:0:
281,145,14712,6,0,P|238:139|159:214,1,152.999995330811,4|2,1:2|2:2,0:0:0:0:
160,206,15161,1,2,2:2:0:0:
160,206,15251,1,2,2:2:0:0:
29,326,15431,1,2,2:2:0:0:
19,289,15520,1,2,2:2:0:0:
30,253,15610,1,2,2:2:0:0:
82,151,15790,1,2,2:2:0:0:
91,114,15879,1,2,2:2:0:0:
80,78,15969,1,2,2:2:0:0:
218,10,16149,5,2,2:2:0:0:
218,10,16239,1,2,2:2:0:0:
218,10,16329,2,0,P|293:6|353:62,1,152.999995330811,4|2,1:2|2:2,0:0:0:0:
349,54,16868,1,0,0:0:0:0:
349,144,17047,1,2,2:2:0:0:
402,210,17227,1,2,2:2:0:0:
485,225,17407,1,0,0:0:0:0:
338,287,17586,6,0,P|322:244|353:139,1,152.999995330811,4|2,1:2|3:2,0:0:0:0:
485,225,18125,1,2,2:2:0:0:
489,262,18214,1,0,3:3:0:0:
475,298,18304,1,2,3:2:0:0:
402,378,18484,1,2,3:2:0:0:
338,288,18664,1,2,2:2:0:0:
302,300,18753,1,0,3:3:0:0:
264,296,18843,1,2,3:2:0:0:
199,192,19023,1,2,1:2:0:0:
94,315,19203,6,0,P|54:276|47:169,1,152.999995330811,4|2,1:2|2:2,0:0:0:0:
35,63,19742,1,2,2:2:0:0:
72,68,19831,1,2,2:2:0:0:
101,92,19921,1,2,2:2:0:0:
192,160,20101,1,2,2:2:0:0:
220,56,20281,1,2,1:2:0:0:
329,191,20460,6,0,P|414:186|459:127,1,152.999995330811,4|2,1:2|2:2,0:0:0:0:
329,191,20999,1,2,2:2:0:0:
278,310,21179,1,2,2:2:0:0:
249,183,21359,1,2,2:2:0:0:
348,269,21538,1,2,2:2:0:0:
219,259,21718,1,2,2:2:0:0:
356,351,21898,5,2,2:2:0:0:
356,351,21987,1,2,2:2:0:0:
356,351,22077,2,0,P|431:340|470:273,1,152.999995330811,4|2,1:2|0:0,0:0:0:0:
509,190,22616,1,2,2:2:0:0:
405,129,22796,1,2,3:2:0:0:
512,72,22975,1,2,3:2:0:0:
400,25,23155,1,2,3:2:0:0:
509,190,23335,1,2,3:2:0:0:
400,25,23694,5,2,2:2:0:0:
330,79,23874,1,2,2:2:0:0:
330,79,23963,1,2,2:2:0:0:
330,79,24053,1,2,2:2:0:0:
405,129,24233,1,2,2:2:0:0:
325,168,24413,1,2,2:2:0:0:
399,215,24592,2,0,L|386:238,5,17,2|2|2|2|2|2,2:2|2:2|2:2|2:2|2:2|2:2,0:0:0:0:
324,266,24952,6,0,B|264:256|264:256|228:268|228:268|168:260,1,152.999995330811,4|2,1:2|2:1,0:0:0:0:
48,248,25490,1,0,1:1:0:0:
108,120,25670,2,0,P|120:156|116:200,1,76.4999976654053,2|2,2:2|2:2,0:0:0:0:
32,168,26029,1,2,2:1:0:0:
44,68,26209,6,0,L|196:84,1,152.999995330811,2|2,2:2|2:2,0:0:0:0:
256,8,26748,1,2,2:1:0:0:
316,84,26928,2,0,L|468:68,1,152.999995330811,2|2,2:2|2:2,0:0:0:0:
452,164,27466,2,0,L|436:240,1,76.4999976654053,2|0,2:1|0:0,0:0:0:0:
300,200,27826,6,0,P|272:256|288:344,1,152.999995330811,2|2,1:2|2:1,0:0:0:0:
360,276,28365,1,0,1:1:0:0:
300,200,28544,2,0,P|312:160|304:120,1,76.4999976654053,2|2,2:2|2:2,0:0:0:0:
256,44,28904,1,2,2:1:0:0:
216,128,29083,2,0,L|52:96,1,152.999995330811,2|2,2:2|2:2,0:0:0:0:
65,98,29622,1,2,2:1:0:0:
16,176,29802,2,0,P|8:216|16:252,1,76.4999976654053,2|0,2:2|0:0,0:0:0:0:
80,324,30161,2,0,B|128:304|128:304|140:196,1,152.999995330811,2|0,2:2|0:0,0:0:0:0:
148,56,30700,6,0,P|188:64|212:92,1,76.4999976654053,2|0,1:2|0:0,0:0:0:0:
256,168,31059,1,2,2:1:0:0:
368,76,31239,2,0,L|288:96,1,76.4999976654053,0|2,1:1|2:2,0:0:0:0:
210,89,31598,1,2,2:2:0:0:
256,168,31778,1,2,2:1:0:0:
168,168,31957,6,0,P|120:192|68:276,1,152.999995330811,2|2,2:2|2:2,0:0:0:0:
168,272,32496,1,2,2:1:0:0:
168,168,32676,2,0,L|112:20,1,152.999995330811,2|2,2:2|2:2,0:0:0:0:
24,56,33215,1,2,2:1:0:0:
113,24,33395,1,2,2:2:0:0:
64,148,33574,6,0,B|28:192|28:192|44:296,1,152.999995330811,2|2,1:2|2:1,0:0:0:0:
152,360,34113,1,2,1:2:0:0:
188,224,34293,2,0,P|152:244|132:272,1,76.4999976654053,2|0,2:2|0:0,0:0:0:0:
216,308,34652,1,2,2:1:0:0:
188,224,34832,1,2,2:2:0:0:
404,48,35191,5,2,2:2:0:0:
450,190,35371,1,2,2:2:0:0:
330,102,35550,1,2,1:2:0:0:
479,102,35730,1,2,2:2:0:0:
359,190,35910,1,2,1:2:0:0:
359,190,35999,1,0,1:1:0:0:
359,190,36089,2,0,P|364:236|336:292,1,102,4|0,2:1|0:0,0:0:0:0:
288,224,36449,6,0,P|162:236|128:267,1,170,4|8,1:2|2:2,0:0:0:0:
16,328,36987,1,0,0:0:0:0:
10,194,37167,2,0,P|38:145|65:107,1,85,2|2,1:2|2:2,0:0:0:0:
74,92,37437,1,2,0:0:0:0:
92,66,37526,1,10,2:2:0:0:
232,5,37706,6,0,B|231:84|291:84|291:160,1,170,2|2,2:2|2:2,0:0:0:0:
310,273,38245,2,0,P|358:253|391:240,1,85,8|2,2:2|2:2,0:0:0:0:
435,349,38604,2,0,P|395:365|356:381,1,85,0|2,1:1|2:2,0:0:0:0:
252,380,38963,1,10,2:2:0:0:
189,301,39143,1,0,0:0:0:0:
253,112,39323,6,0,P|178:123|95:185,2,170,2|8|2,1:2|2:2|1:2,0:0:0:0:
261,226,40221,1,2,2:2:0:0:
261,226,40311,1,2,0:0:0:0:
261,226,40401,2,0,P|210:228|174:256,1,85,10|2,2:2|2:2,0:0:0:0:
365,94,40760,5,0,1:1:0:0:
363,230,40940,1,2,2:2:0:0:
445,325,41119,1,8,2:2:0:0:
512,187,41299,6,0,P|464:175|360:238,1,170,2|2,2:2|2:2,0:0:0:0:
255,110,41838,2,0,L|255:13,1,85,10|0,2:2|3:3,0:0:0:0:
256,208,42197,2,0,L|256:388,2,170,2|8|2,1:2|2:2|1:2,0:0:0:0:
135,192,43095,1,2,2:2:0:0:
135,192,43185,1,2,0:0:0:0:
135,192,43275,2,0,L|44:192,1,85,10|2,2:2|2:2,0:0:0:0:
209,71,43634,6,0,P|281:50|376:98,1,170,0|10,1:1|2:2,0:0:0:0:
281,146,44173,1,2,2:2:0:0:
355,219,44353,2,0,P|283:240|188:192,1,170,0|10,1:1|2:2,0:0:0:0:
342,336,44892,5,2,2:2:0:0:
342,336,44981,1,2,0:0:0:0:
342,336,45071,2,0,L|429:335,1,85,2|0,1:2|0:0,0:0:0:0:
512,240,45431,1,10,2:2:0:0:
412,172,45610,2,0,B|386:265|456:238|425:335,1,170,2|2,2:2|2:2,0:0:0:0:
412,172,46149,1,8,2:2:0:0:
351,39,46329,6,0,B|456:39|456:39|494:45|503:78,1,170,2|2,2:2|2:2,0:0:0:0:
412,172,46868,1,10,2:2:0:0:
295,99,47047,1,2,2:2:0:0:
255,113,47136,1,2,0:0:0:0:
214,104,47226,1,2,1:2:0:0:
83,61,47407,1,2,3:2:0:0:
136,165,47586,1,10,3:2:0:0:
138,294,47766,1,2,3:2:0:0:
288,216,47946,6,0,L|432:232,1,136,4|2,1:2|2:2,0:0:0:0:
508,184,48484,1,2,1:2:0:0:
432,76,48664,2,0,P|420:108|424:140,1,68,0|2,1:1|2:2,0:0:0:0:
423,231,49023,1,8,2:2:0:0:
276,48,49383,6,0,L|132:32,1,136,2|2,1:2|2:2,0:0:0:0:
44,24,49922,2,0,P|32:60|36:96,1,68,2|0,1:2|1:1,0:0:0:0:
128,140,50281,1,10,2:2:0:0:
48,208,50460,1,8,2:2:0:0:
200,352,50820,6,0,L|228:212,1,136,2|2,1:2|2:2,0:0:0:0:
316,184,51359,2,0,L|384:192,1,68,2|0,1:2|1:1,0:0:0:0:
480,200,51718,1,2,2:2:0:0:
444,100,51898,1,8,2:2:0:0:
383,191,52077,1,2,2:2:0:0:
512,60,52257,6,0,P|456:28|384:44,1,136,2|2,1:2|2:2,0:0:0:0:
296,68,52796,2,0,L|220:56,1,68,2|0,1:2|1:1,0:0:0:0:
96,36,53155,1,10,2:2:0:0:
172,144,53335,1,8,2:2:0:0:
32,208,53514,5,2,3:2:0:0:
32,208,53604,1,0,3:3:0:0:
32,208,53694,2,0,P|16:264|36:332,1,127.5,4|0,1:2|0:0,0:0:0:0:
96,268,54053,2,0,P|140:272|180:292,1,85,10|2,2:2|2:2,0:0:0:0:
308,352,54413,1,0,1:1:0:0:
176,289,54592,1,2,2:2:0:0:
284,192,54772,1,8,2:2:0:0:
416,288,54952,6,0,B|448:248|448:248|432:128,1,170,2|2,2:2|2:2,0:0:0:0:
356,0,55490,1,8,2:2:0:0:
272,144,55670,2,0,P|312:124|344:88,1,85,2|0,3:2|1:1,0:0:0:0:
264,232,56029,1,2,3:2:0:0:
264,232,56119,1,0,3:3:0:0:
264,232,56209,1,10,2:2:0:0:
168,88,56389,5,0,3:3:0:0:
168,88,56478,1,0,3:3:0:0:
168,88,56568,2,0,P|98:51|12:92,1,170,4|8,1:2|2:2,0:0:0:0:
92,148,57107,1,2,0:0:0:0:
204,320,57287,5,2,1:2:0:0:
264,232,57466,1,2,3:2:0:0:
352,296,57646,1,2,3:2:0:0:
400,116,57826,6,0,P|376:56|312:32,1,127.5,12|0,1:2|0:0,0:0:0:0:
308,124,58185,1,8,2:2:0:0:
488,80,58365,1,8,2:2:0:0:
448,264,58544,1,12,1:2:0:0:
164,240,58904,2,0,L|136:236,8,21.25,0|0|0|0|0|0|0|0|0,3:3|3:3|3:3|3:3|3:3|3:3|3:3|3:3|3:3,0:0:0:0:
45,131,59443,5,4,1:2:0:0:
183,0,59622,1,2,2:2:0:0:
183,0,59712,1,2,2:2:0:0:
183,0,59802,1,10,2:2:0:0:
35,41,59981,2,0,P|87:46|113:81,1,93.5000028533936,2|0,2:2|1:1,0:0:0:0:
221,190,60341,2,0,L|319:189,1,93.5000028533936,2|8,2:2|2:2,0:0:0:0:
221,190,60700,1,2,1:2:0:0:
168,353,60880,6,0,P|195:305|183:259,1,93.5000028533936,0|2,1:1|0:0,0:0:0:0:
125,157,61239,2,0,P|80:142|24:167,1,93.5000028533936,8|2,2:2|0:0,0:0:0:0:
69,263,61598,1,2,1:2:0:0:
97,371,61778,1,8,2:2:0:0:
97,371,61868,1,0,1:1:0:0:
97,371,61957,1,10,2:2:0:0:
69,263,62137,1,2,2:2:0:0:
178,95,62317,6,0,B|263:13|263:13|295:-7|338:6,1,187.000005706787,2|10,1:2|2:2,0:0:0:0:
466,67,62856,1,2,2:2:0:0:
470,112,62945,1,2,2:2:0:0:
443,149,63035,1,0,1:1:0:0:
395,262,63215,1,2,2:2:0:0:
276,320,63395,1,8,2:2:0:0:
305,74,63574,6,0,B|305:149|305:149|318:171|318:171|318:259,1,187.000005706787,2|2,1:2|0:0,0:0:0:0:
188,346,64113,2,0,P|138:357|82:336,1,93.5000028533936,8|2,2:2|0:0,0:0:0:0:
5,192,64472,2,0,L|106:192,1,93.5000028533936,2|8,1:2|2:2,0:0:0:0:
98,192,64742,1,0,1:1:0:0:
98,192,64832,1,10,2:2:0:0:
280,192,65011,1,2,3:2:0:0:
164,45,65191,6,0,P|58:33|-4:86,1,187.000005706787,2|10,1:2|2:2,0:0:0:0:
98,192,65730,1,2,2:2:0:0:
256,52,65910,2,0,L|256:147,1,93.5000028533936,0|0,1:1|0:0,0:0:0:0:
256,303,66269,1,8,2:2:0:0:
439,132,66449,5,2,1:2:0:0:
439,132,66538,1,0,1:1:0:0:
439,132,66628,2,0,B|364:132|364:132|342:145|342:145|254:145,1,187.000005706787,2|10,1:2|2:2,0:0:0:0:
87,93,67167,1,2,2:2:0:0:
44,218,67347,2,0,P|38:265|58:305,1,93.5000028533936,0|8,1:1|2:2,0:0:0:0:
214,357,67706,1,8,2:2:0:0:
207,211,67886,5,2,2:2:0:0:
207,211,67975,1,2,2:2:0:0:
207,211,68065,2,0,P|173:130|217:41,1,187.000005706787,2|10,1:2|2:2,0:0:0:0:
352,0,68604,1,2,2:2:0:0:
388,193,68784,2,0,L|294:134,1,93.5000028533936,0|2,1:1|2:2,0:0:0:0:
387,312,69143,2,0,L|293:371,1,93.5000028533936,8|2,2:2|1:2,0:0:0:0:
125,242,69502,6,0,B|196:242|196:242|227:256|227:256|313:256,1,187.000005706787,0|10,1:1|2:2,0:0:0:0:
124,123,70041,1,0,0:0:0:0:
5,256,70221,1,2,1:2:0:0:
151,359,70401,1,2,1:1:0:0:
253,214,70580,1,10,2:2:0:0:
131,131,70760,5,2,2:1:0:0:
131,131,70850,1,0,1:1:0:0:
131,131,70940,2,0,P|183:103|223:31,1,140.25000428009,4|2,1:2|2:2,0:0:0:0:
128,40,71299,1,10,2:2:0:0:
304,68,71478,1,2,2:2:0:0:
304,68,71568,1,2,2:2:0:0:
304,68,71658,1,0,1:1:0:0:
200,208,71838,6,0,L|296:224,1,93.5000028533936,2|8,2:2|2:2,0:0:0:0:
464,204,72197,2,0,L|448:296,1,93.5000028533936,2|0,2:2|1:1,0:0:0:0:
324,344,72556,1,2,0:0:0:0:
384,184,72736,2,0,P|412:132|400:48,1,140.25000428009,8|0,2:2|0:0,0:0:0:0:
336,12,73095,1,2,1:2:0:0:
256,156,73275,1,8,2:2:0:0:
256,156,73365,1,0,1:1:0:0:
256,156,73455,1,10,2:2:0:0:
176,12,73634,1,2,1:2:0:0:
48,144,73814,6,0,L|72:284,1,140.25000428009,2|0,1:2|0:0,0:0:0:0:
92,360,74173,2,0,P|144:348|176:312,1,93.5000028533936,10|2,2:2|2:2,0:0:0:0:
192,244,74443,1,2,2:2:0:0:
192,244,74532,1,0,1:1:0:0:
248,80,74712,2,0,L|280:168,1,93.5000028533936,2|8,2:2|2:2,0:0:0:0:
368,308,75071,2,0,L|400:220,1,93.5000028533936,2|0,2:2|1:1,0:0:0:0:
444,72,75431,1,2,0:0:0:0:
248,80,75610,6,0,P|168:40|72:88,1,187.000005706787,8|2,2:2|1:2,0:0:0:0:
168,220,76149,1,8,2:2:0:0:
168,220,76239,1,0,1:1:0:0:
168,220,76329,1,10,2:2:0:0:
24,136,76508,1,2,1:2:0:0:
56,304,76688,6,0,B|120:292|120:292|168:304|168:304|240:288,1,187.000005706787,2|10,1:2|2:2,0:0:0:0:
408,312,77227,2,0,P|444:272|456:232,1,93.5000028533936,2|0,2:2|1:1,0:0:0:0:
352,168,77586,1,2,0:0:0:0:
238,288,77766,1,8,2:2:0:0:
176,116,77946,5,2,2:2:0:0:
176,116,78035,1,2,2:2:0:0:
176,116,78125,2,0,P|212:48|320:40,1,187.000005706787,2|10,1:2|2:2,0:0:0:0:
472,104,78664,2,0,L|456:196,1,93.5000028533936,2|0,2:2|1:1,0:0:0:0:
424,356,79023,1,8,2:2:0:0:
455,196,79203,1,8,2:2:0:0:
296,288,79383,5,2,1:2:0:0:
296,288,79472,1,0,1:1:0:0:
296,288,79562,2,0,B|224:260|200:312|108:280,1,187.000005706787,2|10,1:2|2:2,0:0:0:0:
200,120,80101,2,0,P|176:160|172:208,1,93.5000028533936,2|0,2:2|1:1,0:0:0:0:
248,360,80460,1,0,3:3:0:0:
112,281,80640,5,8,2:2:0:0:
252,184,80820,1,0,3:3:0:0:
252,184,80910,1,0,3:3:0:0:
252,184,80999,1,0,1:1:0:0:
120,104,81179,1,0,3:3:0:0:
272,16,81359,6,0,P|320:36|352:76,1,102,12|0,2:2|0:0,0:0:0:0:
388,144,81718,1,2,2:2:0:0:
400,172,82077,1,2,2:2:0:0:
412,200,82437,6,0,L|251:200,2,152.999995330811,4|2|2,1:2|2:2|2:2,0:0:0:0:
465,295,83335,1,2,2:2:0:0:
397,368,83514,1,0,1:1:0:0:
336,285,83694,6,0,P|256:272|176:291,1,152.999995330811,4|2,1:2|2:2,0:0:0:0:
153,305,84143,1,2,2:2:0:0:
123,328,84233,1,2,2:2:0:0:
19,365,84413,1,2,2:2:0:0:
19,365,84502,1,2,2:2:0:0:
19,365,84592,1,2,2:2:0:0:
24,231,84772,1,2,2:2:0:0:
7,197,84861,1,2,2:2:0:0:
10,159,84951,1,2,2:2:0:0:
130,103,85131,5,2,2:2:0:0:
146,69,85220,1,2,2:2:0:0:
143,31,85311,2,0,P|209:33|285:90,1,152.999995330811,4|2,1:2|2:2,0:0:0:0:
337,192,85850,1,0,0:0:0:0:
382,84,86029,1,2,2:2:0:0:
445,193,86209,1,2,2:2:0:0:
487,85,86389,1,0,0:0:0:0:
337,192,86568,6,0,L|183:192,1,152.999995330811,4|2,1:2|2:2,0:0:0:0:
94,282,87107,1,2,2:2:0:0:
170,367,87287,1,2,3:2:0:0:
188,333,87376,1,0,3:0:0:0:
186,296,87466,1,2,3:2:0:0:
104,192,87646,1,2,3:2:0:0:
200,115,87826,1,2,3:2:0:0:
309,239,88005,5,2,3:2:0:0:
309,239,88095,1,0,3:0:0:0:
309,239,88185,2,0,P|365:240|451:165,1,170,4|2,1:2|1:2,0:0:0:0:
363,18,88724,1,2,2:2:0:0:
342,54,88813,1,2,2:2:0:0:
349,95,88903,1,2,1:2:0:0:
448,170,89083,1,2,2:2:0:0:
386,281,89263,1,2,1:2:0:0:
254,156,89443,6,0,B|146:115|146:115|107:120|90:149,1,170,4|2,1:2|2:2,0:0:0:0:
14,230,89981,1,2,1:2:0:0:
76,320,90161,1,2,3:2:0:0:
148,236,90341,1,2,1:2:0:0:
212,328,90520,1,2,2:2:0:0:
284,244,90700,1,2,1:2:0:0:
441,350,90880,5,2,3:2:0:0:
441,350,90969,1,2,3:2:0:0:
441,350,91059,2,0,P|472:290|440:190,1,170,4|2,1:2|1:2,0:0:0:0:
349,120,91598,1,2,2:2:0:0:
284,244,91778,2,0,P|325:258|375:248,1,85,2|2,1:2|3:2,0:0:0:0:
365,252,92047,1,0,3:0:0:0:
365,252,92137,1,2,3:2:0:0:
253,96,92317,6,0,P|211:92|124:137,1,136,2|2,3:2|2:2,0:0:0:0:
81,202,92856,1,2,2:2:0:0:
68,233,92946,1,2,2:2:0:0:
52,263,93035,1,2,2:2:0:0:
116,331,93215,1,2,2:2:0:0:
28,368,93395,1,2,2:2:0:0:
116,331,93574,2,0,L|140:325,6,17,2|2|2|2|2|2|2,2:2|2:2|2:2|2:2|2:2|2:2|2:2,0:0:0:0:
212,304,93934,6,0,P|292:336|376:312,1,170,4|0,1:2|1:1,0:0:0:0:
496,244,94472,1,0,0:0:0:0:
356,172,94652,2,0,L|412:248,1,85,2|2,1:2|2:2,0:0:0:0:
452,308,94922,1,2,0:0:0:0:
452,308,95011,1,2,1:2:0:0:
460,160,95191,6,0,P|496:96|476:0,1,170,2|2,2:2|2:2,0:0:0:0:
360,72,95730,1,0,1:1:0:0:
232,12,95910,2,0,L|188:184,1,170,2|2,2:2|2:2,0:0:0:0:
148,320,96449,1,0,1:1:0:0:
189,176,96628,1,0,0:0:0:0:
44,212,96808,2,0,B|112:220|112:220|136:244|136:244|212:256,1,170,2|0,1:2|1:1,0:0:0:0:
340,272,97347,1,0,0:0:0:0:
452,156,97526,6,0,P|464:200|452:240,1,85,2|2,1:2|2:2,0:0:0:0:
384,344,97886,1,2,1:2:0:0:
272,232,98065,2,0,L|312:56,1,170,2|2,2:2|2:2,0:0:0:0:
168,0,98604,1,0,1:1:0:0:
160,148,98784,2,0,P|192:116|208:72,1,85,2|0,2:2|1:1,0:0:0:0:
84,20,99143,1,2,2:2:0:0:
32,160,99323,6,0,B|0:200|0:200|16:280,1,127.5,0|0,1:1|0:0,0:0:0:0:
40,352,99682,1,2,1:2:0:0:
136,248,99862,1,0,0:0:0:0:
232,348,100041,2,0,P|304:292|316:208,1,170,0|2,1:1|1:2,0:0:0:0:
264,68,100580,1,2,2:2:0:0:
264,68,100670,1,2,0:0:0:0:
264,68,100760,1,2,1:2:0:0:
420,108,100940,6,0,L|244:164,1,170,2|2,2:2|2:2,0:0:0:0:
108,200,101478,1,0,1:1:0:0:
108,52,101658,2,0,P|152:88|180:212,1,170,2|2,2:2|2:2,0:0:0:0:
132,328,102197,1,0,1:1:0:0:
183,193,102377,1,2,2:2:0:0:
296,300,102556,6,0,B|368:272|400:324|464:296,1,170,2|0,1:2|1:1,0:0:0:0:
512,196,103095,1,2,2:2:0:0:
364,112,103275,2,0,P|388:148|396:192,1,85,2|0,1:2|0:0,0:0:0:0:
280,132,103634,1,0,1:1:0:0:
360,16,103814,1,2,2:2:0:0:
104,48,104173,5,2,3:2:0:0:
155,205,104353,1,2,1:2:0:0:
21,108,104532,1,2,3:2:0:0:
21,108,104622,1,0,3:0:0:0:
21,108,104712,1,2,1:2:0:0:
186,108,104892,1,2,3:2:0:0:
53,205,105071,2,0,P|32:248|44:304,1,102,4|0,3:1|0:0,0:0:0:0:
80,368,105431,6,0,L|252:340,1,170,4|8,1:2|2:2,0:0:0:0:
296,232,105969,2,0,P|337:221|383:237,1,85,0|2,0:0|1:2,0:0:0:0:
405,347,106329,1,2,2:2:0:0:
405,347,106419,1,2,0:0:0:0:
405,347,106508,2,0,P|458:348|486:324,1,85,10|2,2:2|2:2,0:0:0:0:
482,143,106868,6,0,P|466:103|470:56,2,85,0|2|8,1:1|2:2|2:2,0:0:0:0:
379,237,107407,2,0,P|338:248|201:202,1,170,2|2,2:2|2:2,0:0:0:0:
142,118,107946,2,0,P|100:104|49:123,1,85,10|0,2:2|0:0,0:0:0:0:
209,21,108305,6,0,B|293:41|258:87|364:103,2,170,2|8|2,1:2|2:2|1:2,0:0:0:0:
356,18,109203,1,2,2:2:0:0:
356,18,109293,1,2,0:0:0:0:
356,18,109383,2,0,L|448:19,1,85,10|2,2:2|2:2,0:0:0:0:
256,141,109742,6,0,L|256:236,1,85,0|2,1:1|2:2,0:0:0:0:
254,361,110101,1,8,2:2:0:0:
338,262,110281,2,0,L|517:262,1,170,2|2,2:2|2:2,0:0:0:0:
444,357,110820,1,10,2:2:0:0:
441,167,110999,5,0,3:3:0:0:
441,167,111089,1,0,3:3:0:0:
441,167,111179,2,0,P|456:124|439:69,1,85,2|0,1:2|0:0,0:0:0:0:
324,95,111538,2,0,P|263:71|162:106,1,170,8|2,2:2|1:2,0:0:0:0:
62,86,112077,1,2,2:2:0:0:
62,86,112167,1,2,0:0:0:0:
62,86,112257,2,0,P|56:127|71:167,1,85,10|2,2:2|2:2,0:0:0:0:
43,349,112616,6,0,L|189:227,1,170,0|10,1:1|2:2,0:0:0:0:
256,157,113155,1,2,2:2:0:0:
338,239,113335,2,0,L|469:349,1,170,0|10,1:1|2:2,0:0:0:0:
481,139,113874,5,2,2:2:0:0:
444,120,113963,1,2,0:0:0:0:
404,131,114053,1,2,1:2:0:0:
309,61,114233,1,0,0:0:0:0:
256,157,114413,1,10,2:2:0:0:
338,239,114592,2,0,P|303:271|173:285,1,170,2|2,2:2|2:2,0:0:0:0:
63,255,115131,1,8,2:2:0:0:
127,140,115311,1,2,2:2:0:0:
185,289,115490,6,0,P|150:324|108:338,1,85,0|2,1:1|2:2,0:0:0:0:
63,255,115850,1,10,2:2:0:0:
135,147,116029,1,2,2:2:0:0:
135,147,116119,1,2,0:0:0:0:
135,147,116209,2,0,L|226:147,1,85,2|2,1:2|3:2,0:0:0:0:
301,28,116568,2,0,L|216:28,1,85,10|2,3:2|3:2,0:0:0:0:
343,145,116928,6,0,P|388:116|468:116,1,136,4|2,1:2|2:2,0:0:0:0:
488,208,117466,2,0,L|476:284,1,68,2|0,1:2|1:1,0:0:0:0:
468,368,117826,1,2,2:2:0:0:
384,304,118005,1,8,2:2:0:0:
384,304,118365,6,0,L|408:160,1,136,2|2,1:2|2:2,0:0:0:0:
348,100,118904,2,0,L|276:132,1,68,2|0,1:2|1:1,0:0:0:0:
188,168,119263,1,10,2:2:0:0:
204,64,119443,1,8,2:2:0:0:
204,64,119802,6,0,P|148:40|68:48,1,136,2|2,1:2|2:2,0:0:0:0:
24,120,120341,2,0,L|40:200,1,68,2|0,1:2|1:1,0:0:0:0:
64,276,120700,1,2,2:2:0:0:
136,200,120880,1,8,2:2:0:0:
136,200,121239,6,0,B|184:180|184:180|272:204,1,136,2|2,1:2|2:2,0:0:0:0:
356,224,121778,1,2,1:2:0:0:
328,140,121957,1,0,1:1:0:0:
456,112,122137,1,10,2:2:0:0:
360,16,122317,1,8,2:2:0:0:
228,80,122496,5,2,3:2:0:0:
228,80,122586,1,0,3:3:0:0:
228,80,122676,2,0,P|184:60|108:72,1,127.5,4|0,1:2|0:0,0:0:0:0:
32,96,123035,1,10,2:2:0:0:
148,216,123215,2,0,P|168:176|164:136,1,85,2|0,2:2|1:1,0:0:0:0:
40,220,123574,2,0,P|20:260|24:300,1,85,2|8,2:2|2:2,0:0:0:0:
152,364,123934,6,0,L|320:328,1,170,2|2,2:2|2:2,0:0:0:0:
468,292,124472,1,8,2:2:0:0:
376,172,124652,2,0,P|372:216|384:260,1,85,2|0,3:2|1:1,0:0:0:0:
472,140,125011,1,2,3:2:0:0:
472,140,125101,1,0,3:3:0:0:
472,140,125191,1,10,2:2:0:0:
300,120,125371,5,0,3:3:0:0:
300,120,125460,1,0,3:3:0:0:
300,120,125550,2,0,B|240:112|240:112|196:128|196:128|132:120,1,170,4|8,1:2|2:2,0:0:0:0:
8,104,126089,1,0,0:0:0:0:
72,228,126269,1,2,1:2:0:0:
84,60,126449,1,2,3:2:0:0:
84,60,126538,1,0,3:0:0:0:
84,60,126628,1,2,3:2:0:0:
4,292,126808,6,0,P|56:312|136:296,1,127.5,12|0,1:2|0:0,0:0:0:0:
196,264,127167,1,8,2:2:0:0:
348,368,127347,1,8,2:2:0:0:
368,184,127526,1,12,1:2:0:0:
164,44,127886,2,0,L|136:40,8,21.25,0|0|0|0|0|0|0|0|0,3:3|3:3|3:3|3:3|3:3|3:3|3:3|3:3|3:3,0:0:0:0:
328,28,128425,5,4,1:2:0:0:
280,199,128604,1,2,2:2:0:0:
280,199,128694,1,2,2:2:0:0:
280,199,128784,2,0,P|252:158|253:108,1,93.5000028533936,10|2,2:2|2:2,0:0:0:0:
413,135,129143,2,0,P|452:106|499:107,1,93.5000028533936,0|2,1:1|2:2,0:0:0:0:
328,28,129502,1,8,2:2:0:0:
362,206,129682,1,2,1:2:0:0:
495,105,129862,6,0,L|454:305,2,187.000005706787,0|8|2,1:1|2:2|1:2,0:0:0:0:
328,28,130760,1,8,2:2:0:0:
285,10,130849,1,0,1:1:0:0:
240,19,130939,1,10,2:2:0:0:
124,132,131119,1,2,2:2:0:0:
225,275,131299,6,0,P|262:215|263:94,1,187.000005706787,2|10,1:2|2:2,0:0:0:0:
124,132,131838,1,2,2:2:0:0:
28,236,132017,2,0,P|16:280|24:328,1,93.5000028533936,0|2,1:1|2:2,0:0:0:0:
225,275,132377,2,0,L|136:235,1,93.5000028533936,8|2,2:2|1:2,0:0:0:0:
256,129,132736,6,0,P|321:130|425:67,1,187.000005706787,0|8,1:1|2:2,0:0:0:0:
512,148,133275,1,0,0:0:0:0:
458,274,133455,2,0,P|401:288|361:280,1,93.5000028533936,2|8,1:2|2:2,0:0:0:0:
367,282,133724,1,0,1:1:0:0:
367,282,133814,1,10,2:2:0:0:
251,153,133993,1,2,3:2:0:0:
175,343,134173,6,0,P|233:311|308:210,1,187.000005706787,2|10,1:2|2:2,0:0:0:0:
292,64,134712,1,2,2:2:0:0:
166,144,134892,2,0,P|154:190|179:238,1,93.5000028533936,0|0,1:1|0:0,0:0:0:0:
292,64,135251,1,8,2:2:0:0:
121,46,135431,5,2,1:2:0:0:
78,64,135520,1,0,1:1:0:0:
53,103,135610,2,0,P|39:153|69:290,1,187.000005706787,2|10,1:2|2:2,0:0:0:0:
182,365,136149,1,2,2:2:0:0:
219,337,136238,1,2,0:0:0:0:
264,327,136329,2,0,P|317:320|369:338,1,93.5000028533936,0|8,1:1|2:2,0:0:0:0:
485,365,136688,2,0,P|491:312|471:268,1,93.5000028533936,8|2,2:2|2:2,0:0:0:0:
504,97,137047,6,0,P|442:125|395:233,1,187.000005706787,2|10,1:2|2:2,0:0:0:0:
210,244,137586,1,2,2:2:0:0:
190,203,137675,1,2,0:0:0:0:
194,157,137765,1,0,1:1:0:0:
359,108,137946,1,2,2:2:0:0:
196,56,138125,1,8,2:2:0:0:
340,0,138305,1,2,1:2:0:0:
194,157,138484,6,0,L|-3:157,1,187.000005706787,0|10,1:1|2:2,0:0:0:0:
38,358,139023,1,2,0:0:0:0:
71,326,139112,1,2,0:0:0:0:
82,281,139202,1,2,1:2:0:0:
194,157,139383,1,2,1:1:0:0:
328,280,139562,1,10,2:2:0:0:
408,124,139742,5,2,2:1:0:0:
361,125,139831,1,0,1:1:0:0:
324,153,139922,2,0,L|224:256,1,140.25000428009,4|2,1:2|2:2,0:0:0:0:
164,308,140281,1,10,2:2:0:0:
72,184,140460,1,2,2:2:0:0:
72,184,140550,1,2,2:2:0:0:
72,184,140640,2,0,P|56:140|64:96,1,93.5000028533936,0|2,1:1|2:2,0:0:0:0:
220,56,140999,1,8,2:2:0:0:
72,4,141179,1,2,2:2:0:0:
184,136,141359,6,0,P|272:120|304:32,1,187.000005706787,0|8,1:1|2:2,0:0:0:0:
452,28,141898,1,0,0:0:0:0:
504,184,142077,2,0,L|480:280,1,93.5000028533936,2|8,1:2|2:2,0:0:0:0:
456,352,142347,1,0,1:1:0:0:
456,352,142437,1,10,2:2:0:0:
356,224,142616,1,2,1:2:0:0:
256,368,142796,6,0,B|216:332|216:332|224:240,1,140.25000428009,2|0,1:2|0:0,0:0:0:0:
236,164,143155,1,10,2:2:0:0:
96,280,143335,2,0,P|120:236|120:184,1,93.5000028533936,2|0,2:2|1:1,0:0:0:0:
52,56,143694,1,2,2:2:0:0:
121,193,143874,1,8,2:2:0:0:
216,44,144053,2,0,L|128:104,1,93.5000028533936,2|0,2:2|1:1,0:0:0:0:
308,92,144413,5,2,0:0:0:0:
216,44,144592,2,0,P|208:92|216:140,1,93.5000028533936,8|2,2:2|0:0,0:0:0:0:
356,16,144952,1,2,1:2:0:0:
384,184,145131,1,8,2:2:0:0:
384,184,145221,1,0,1:1:0:0:
384,184,145311,1,10,2:2:0:0:
472,84,145490,1,2,1:2:0:0:
492,280,145670,6,0,P|460:332|380:352,1,140.25000428009,2|0,1:2|0:0,0:0:0:0:
408,268,146029,1,10,2:2:0:0:
260,344,146209,2,0,L|280:248,1,93.5000028533936,2|0,2:2|1:1,0:0:0:0:
300,104,146568,1,0,0:0:0:0:
180,208,146748,1,8,2:2:0:0:
132,48,146928,5,2,2:2:0:0:
132,48,147017,1,2,2:2:0:0:
132,48,147107,2,0,P|72:56|16:124,1,140.25000428009,2|0,1:2|0:0,0:0:0:0:
104,132,147466,1,10,2:2:0:0:
252,100,147646,2,0,L|236:4,1,93.5000028533936,2|0,2:2|1:1,0:0:0:0:
196,176,148005,1,8,2:2:0:0:
352,144,148185,1,8,2:2:0:0:
308,312,148365,5,2,1:2:0:0:
308,312,148455,1,0,1:1:0:0:
308,312,148544,2,0,P|376:320|448:288,1,140.25000428009,2|0,1:2|0:0,0:0:0:0:
500,240,148904,1,10,2:2:0:0:
460,96,149083,1,2,2:2:0:0:
372,236,149263,5,8,2:2:0:0:
372,236,149353,1,0,3:0:0:0:
372,236,149443,2,0,L|356:172,1,46.7500014266968,0|8,3:3|2:2,0:0:0:0:
332,96,149622,1,0,1:1:0:0:
294,93,149711,1,0,3:0:0:0:
257,99,149801,1,0,3:3:0:0:
223,114,149891,1,8,2:2:0:0:
193,136,149981,1,8,2:2:0:0:
176,256,150161,1,0,3:3:0:0:
48,136,150341,6,0,P|28:176|32:232,1,102,12|0,2:2|0:0,0:0:0:0:
64,304,150700,1,2,2:2:0:0:
76,332,151059,1,2,2:2:0:0:
88,360,151419,5,4,1:2:0:0:
256,104,152496,1,0,1:1:0:0:
254,267,152676,1,4,1:2:0:0:
254,267,154113,5,2,2:2:0:0:
254,267,154203,1,2,2:2:0:0:
254,267,154293,1,4,1:2:0:0:
348,192,155371,5,2,2:2:0:0:
256,84,155550,2,0,P|219:77|148:116,1,102,4|0,1:2|0:0,0:0:0:0:
122,173,155910,1,8,2:2:0:0:
122,173,155999,1,8,0:0:0:0:
122,173,156089,2,0,L|161:207,1,34,8|0,2:2|3:3,0:0:0:0:
254,267,156269,2,0,L|214:284,1,34,0|0,3:0|3:3,0:0:0:0:
105,325,156449,2,0,L|118:287,1,34,0|0,3:3|3:0,0:0:0:0:
236,188,156628,5,0,3:3:0:0:
260,176,156717,1,0,3:3:0:0:
287,173,156807,1,0,3:0:0:0:
313,179,156897,1,0,3:0:0:0:
337,192,156987,1,8,2:2:0:0:
355,212,157077,1,0,3:0:0:0:
366,237,157166,5,4,1:2:0:0:
50,192,158245,1,2,1:2:0:0:
138,62,158425,1,4,1:2:0:0:
164,52,159862,5,10,2:2:0:0:
164,52,159952,1,8,2:2:0:0:
164,52,160041,2,0,P|210:38|266:54,1,102,4|0,1:2|0:0,0:0:0:0:
335,71,160401,2,0,P|339:103|335:143,1,68,10|0,2:2|0:0,0:0:0:0:
307,225,160760,1,10,3:2:0:0:
188,136,160940,1,10,3:2:0:0:
215,224,161119,1,10,3:2:0:0:
263,83,161299,1,0,3:3:0:0:
412,190,161658,5,2,2:2:0:0:
307,225,161838,1,2,1:2:0:0:
295,265,161927,1,2,2:2:0:0:
303,306,162017,1,10,2:2:0:0:
440,321,162197,5,2,1:2:0:0:
412,190,162377,1,2,2:2:0:0:
420,149,162467,1,2,2:2:0:0:
409,109,162556,1,2,1:2:0:0:
311,20,162736,5,0,0:0:0:0:
258,136,162916,1,2,1:2:0:0:
216,144,163006,1,2,2:2:0:0:
176,132,163095,1,2,3:2:0:0:
52,39,163275,5,10,3:2:0:0:
27,73,163364,1,0,3:3:0:0:
18,114,163454,1,2,2:2:0:0:
26,156,163544,1,2,3:2:0:0:
49,191,163634,1,10,3:2:0:0:
257,369,163993,6,0,L|360:336,1,102,4|0,2:1|0:0,0:0:0:0:
432,312,164353,6,0,P|464:248|432:152,1,170,4|8,1:2|2:2,0:0:0:0:
328,68,164892,1,0,0:0:0:0:
280,216,165071,2,0,P|324:192|344:160,1,85,0|2,1:1|2:2,0:0:0:0:
416,48,165431,1,10,2:2:0:0:
256,12,165610,1,2,2:2:0:0:
256,12,165700,1,2,2:2:0:0:
256,12,165790,1,0,1:1:0:0:
184,151,165969,2,0,P|179:197|175:236,1,85,2|8,2:2|2:2,0:0:0:0:
24,112,166329,6,0,B|84:120|84:120|116:144|116:144|188:152,1,170,2|2,2:2|2:2,0:0:0:0:
336,172,166868,1,8,2:2:0:0:
256,296,167047,1,2,2:2:0:0:
256,296,167137,1,2,2:2:0:0:
256,296,167227,1,0,1:1:0:0:
384,256,167407,1,0,3:3:0:0:
264,124,167586,6,0,P|340:92|412:128,1,165.749992412568,14|0,2:2|0:0,0:0:0:0:
476,184,167946,2,0,L|500:20,1,165.749992412568,14|0,2:2|0:0,0:0:0:0:
420,4,168305,1,0,1:1:0:0:
268,20,168484,1,0,3:3:0:0:
268,20,168574,1,0,3:0:0:0:
268,20,168664,2,0,L|144:12,1,110.499994941712,14|0,2:2|0:0,0:0:0:0:
56,160,169023,6,0,P|104:248|68:372,1,220.999989883423,14|0,2:2|1:1,0:0:0:0:
0,268,169562,1,0,3:3:0:0:
156,156,169742,2,0,L|324:188,1,165.749992412568,14|0,2:2|0:0,0:0:0:0:
356,256,170101,6,0,B|400:228|400:228|392:112,1,165.749992412568,4|0,1:2|0:0,0:0:0:0:
384,38,170460,2,0,L|472:26,1,85,10|2,2:2|2:2,0:0:0:0:
512,146,170820,1,0,1:1:0:0:
468,26,170999,1,2,2:2:0:0:
392,114,171179,2,0,P|344:122|304:110,1,85,8|0,2:2|0:0,0:0:0:0:
188,40,171538,2,0,L|156:168,1,127.5,2|0,1:2|0:0,0:0:0:0:
132,244,171898,5,10,2:2:0:0:
56,112,172077,1,2,2:2:0:0:
56,112,172167,1,2,2:2:0:0:
56,112,172257,1,0,1:1:0:0:
20,260,172437,1,2,2:2:0:0:
20,260,172526,1,2,2:2:0:0:
20,260,172616,2,0,P|24:308|44:340,1,85,8|0,2:2|0:0,0:0:0:0:
132,244,172975,1,0,1:1:0:0:
42,338,173155,1,0,3:3:0:0:
136,160,173335,6,0,P|180:176|208:284,1,165.749992412568,14|0,2:2|0:0,0:0:0:0:
252,344,173694,2,0,L|432:312,1,165.749992412568,14|0,2:2|0:0,0:0:0:0:
476,268,174053,1,0,1:1:0:0:
492,120,174233,1,0,3:3:0:0:
348,0,174413,6,0,B|316:40|316:40|336:156,1,165.749992412568,14|0,2:2|0:0,0:0:0:0:
348,232,174772,1,14,2:2:0:0:
236,112,174952,1,2,0:0:0:0:
236,112,175041,1,2,0:0:0:0:
236,112,175131,2,0,L|188:120,1,42.5,0|0,1:1|1:0,0:0:0:0:
144,196,175311,2,0,L|96:204,1,42.5,0|0,3:3|3:0,0:0:0:0:
48,276,175490,2,0,P|44:320|60:356,1,85,14|0,2:2|0:0,0:0:0:0:
212,332,175850,6,0,L|380:332,1,152.999995330811,4|2,1:2|1:1,0:0:0:0:
500,336,176389,1,2,2:2:0:0:
433,259,176568,2,0,P|402:237|365:233,2,76.4999976654053,0|2|8,1:1|2:2|2:2,0:0:0:0:
510,192,177107,1,2,2:2:0:0:
428,94,177287,6,0,P|383:80|284:123,1,152.999995330811,2|2,1:2|1:1,0:0:0:0:
259,229,177826,1,2,2:2:0:0:
182,159,178005,1,0,1:1:0:0:
289,118,178185,1,10,2:2:0:0:
167,242,178365,2,0,P|125:219|97:150,1,114.749996498108,8|0,2:2|0:0,0:0:0:0:
182,159,178724,6,0,P|179:121|194:86,1,76.4999976654053,2|0,1:2|0:0,0:0:0:0:
289,118,179083,2,0,P|326:115|361:130,1,76.4999976654053,2|2,1:1|2:2,0:0:0:0:
330,225,179443,2,0,P|332:262|317:297,1,76.4999976654053,0|2,1:1|2:2,0:0:0:0:
223,266,179802,2,0,P|185:268|150:253,1,76.4999976654053,8|2,2:2|2:2,0:0:0:0:
317,297,180161,6,0,B|386:258|398:310|481:261,1,152.999995330811,2|2,1:2|1:1,0:0:0:0:
512,182,180700,1,2,2:2:0:0:
457,128,180880,1,0,1:1:0:0:
348,24,181059,1,10,2:2:0:0:
376,168,181239,1,8,2:2:0:0:
256,140,181419,5,2,3:2:0:0:
256,140,181508,1,0,3:3:0:0:
256,140,181598,2,0,L|255:314,1,170,4|10,1:2|2:2,0:0:0:0:
130,245,182137,1,2,2:2:0:0:
171,140,182317,2,0,L|264:140,1,85,0|2,1:1|2:2,0:0:0:0:
298,142,182586,1,2,0:0:0:0:
340,142,182676,1,8,2:2:0:0:
257,35,182856,1,2,2:2:0:0:
122,71,183035,6,0,P|94:112|94:157,1,85,0|2,1:1|2:2,0:0:0:0:
110,281,183395,2,0,L|189:232,1,85,8|2,2:2|3:2,0:0:0:0:
402,281,183754,2,0,L|323:232,1,85,0|2,1:1|3:2,0:0:0:0:
292,215,184023,1,0,3:3:0:0:
256,191,184113,1,10,2:2:0:0:
406,99,184293,1,0,3:3:0:0:
402,281,184472,6,0,P|363:330|235:339,1,170,2|8,1:2|2:2,0:0:0:0:
171,312,185011,1,0,0:0:0:0:
48,227,185191,1,2,1:2:0:0:
134,105,185371,1,2,3:2:0:0:
256,191,185550,1,2,3:2:0:0:
48,227,185730,6,0,B|26:108|26:108|41:63|71:57,1,170,12|8,1:2|2:2,0:0:0:0:
256,191,186269,1,8,2:2:0:0:
134,105,186449,1,12,1:2:0:0:
188,264,186808,6,0,L|224:264,10,21.25,0|0|0|0|0|0|0|0|0|0|0,3:3|3:3|3:3|3:3|3:3|3:3|3:3|3:3|3:3|3:3|3:3,0:0:0:0:
255,192,187347,6,0,L|255:150,1,42.5,0|0,3:3|3:0,0:0:0:0:
320,91,187526,2,0,L|362:91,1,42.5,0|0,3:0|3:3,0:0:0:0:
411,162,187706,2,0,L|411:204,1,42.5,0|0,3:3|3:0,0:0:0:0:
353,271,187886,2,0,L|311:271,1,42.5,0|0,1:1|1:1,0:0:0:0:
255,192,188065,6,0,L|213:192,1,42.5,0|0,3:0|3:3,0:0:0:0:
170,91,188245,1,0,3:3:0:0:
170,91,188335,1,0,3:0:0:0:
170,91,188425,2,0,L|191:91,6,21.25,0|0|0|0|0|0|0,3:3|3:3|3:3|3:3|3:3|3:3|3:3,0:0:0:0:
256,42,188784,6,0,P|316:24|388:40,1,136,4|2,1:2|2:2,0:0:0:0:
464,80,189323,2,0,L|440:224,2,136,2|2|0,2:2|2:2|1:1,0:0:0:0:
386,39,190221,1,2,2:2:0:0:
256,192,190580,1,0,1:1:0:0:
126,345,190940,6,0,P|98:325|82:293,1,68,2|2,2:2|2:2,0:0:0:0:
48,216,191299,2,0,L|64:136,1,68,2|2,2:2|2:2,0:0:0:0:
160,60,191658,2,0,P|216:92|292:88,1,136,2|2,1:2|2:2,0:0:0:0:
348,8,192197,2,0,L|380:148,1,136,2|2,2:2|2:2,0:0:0:0:
396,228,192736,1,0,0:0:0:0:
272,224,192916,6,0,P|252:276|268:368,1,136,2|2,1:2|0:0,0:0:0:0:
332,296,193455,1,0,1:1:0:0:
332,296,193634,1,2,0:0:0:0:
396,356,193814,1,2,2:2:0:0:
396,356,193993,1,2,2:2:0:0:
488,260,194173,6,0,L|468:188,1,68,2|2,3:2|2:2,0:0:0:0:
448,120,194443,1,2,0:0:0:0:
448,120,194532,2,0,P|396:140|320:124,1,136,4|2,1:2|2:2,0:0:0:0:
256,56,195071,1,2,2:2:0:0:
44,288,195790,5,4,1:2:0:0:
88,160,195969,2,0,P|152:164|220:208,1,136,4|2,1:2|2:2,0:0:0:0:
256,280,196508,1,2,2:2:0:0:
348,116,196868,1,2,0:0:0:0:
440,280,197227,5,4,1:2:0:0:
304,200,197407,2,0,L|144:216,1,152.999995330811,4|2,1:2|1:2,0:0:0:0:
68,104,197946,2,0,P|76:148|68:184,1,76.4999976654053,2|0,2:2|1:1,0:0:0:0:
176,84,198305,2,0,P|168:40|176:4,1,76.4999976654053,2|0,2:2|1:1,0:0:0:0:
304,48,198664,5,2,3:2:0:0:
304,48,198754,1,0,3:3:0:0:
304,48,198844,2,0,L|352:52,1,38.2499988327027,0|0,1:1|3:0,0:0:0:0:
440,52,199023,1,0,3:3:0:0:
440,52,199113,1,8,2:2:0:0:
440,52,199203,1,8,2:2:0:0:
388,176,199383,5,0,3:3:0:0:
406,209,199472,1,0,3:3:0:0:
411,246,199562,1,0,3:3:0:0:
402,283,199652,1,0,3:3:0:0:
381,314,199742,1,0,3:3:0:0:
256,256,199922,2,0,L|220:256,6,19.1249994163513,4|0|0|0|0|0|0,2:1|3:3|3:3|3:3|3:3|3:3|3:3,0:0:0:0:
176,312,200281,5,4,1:2:0:0:
257,142,200460,1,2,2:2:0:0:
257,142,200550,1,2,2:2:0:0:
257,142,200640,1,10,2:2:0:0:
112,236,200820,2,0,P|98:192|112:148,1,93.5000028533936,2|0,2:2|1:1,0:0:0:0:
212,28,201179,2,0,P|256:14|300:28,1,93.5000028533936,2|8,2:2|2:2,0:0:0:0:
444,88,201538,1,2,1:2:0:0:
344,208,201718,5,0,1:1:0:0:
432,352,201898,1,2,0:0:0:0:
512,198,202077,2,0,L|425:254,1,93.5000028533936,8|2,2:2|0:0,0:0:0:0:
304,358,202437,2,0,L|245:281,1,93.5000028533936,2|8,1:2|2:2,0:0:0:0:
222,243,202706,1,0,1:1:0:0:
198,202,202796,1,10,2:2:0:0:
106,72,202975,1,2,2:2:0:0:
0,261,203155,6,0,P|53:245|138:120,1,187.000005706787,2|10,1:2|2:2,0:0:0:0:
256,16,203694,1,2,2:2:0:0:
377,131,203874,2,0,P|321:117|279:135,1,93.5000028533936,0|2,1:1|2:2,0:0:0:0:
133,145,204233,2,0,P|119:201|137:243,1,93.5000028533936,8|2,2:2|1:2,0:0:0:0:
252,340,204592,5,0,1:1:0:0:
203,193,204772,2,0,P|248:181|292:196,1,93.5000028533936,2|8,0:0|2:2,0:0:0:0:
468,216,205131,1,2,0:0:0:0:
368,328,205311,1,2,1:2:0:0:
292,196,205490,1,8,2:2:0:0:
284,150,205579,1,0,1:1:0:0:
302,108,205669,1,10,2:2:0:0:
476,124,205850,1,2,3:2:0:0:
350,264,206029,6,0,P|269:285|177:239,1,187.000005706787,2|10,1:2|2:2,0:0:0:0:
148,93,206568,1,2,2:2:0:0:
32,222,206748,2,0,L|32:318,1,93.5000028533936,0|0,1:1|0:0,0:0:0:0:
148,93,207107,2,0,P|109:64|65:56,1,93.5000028533936,8|2,2:2|1:2,0:0:0:0:
65,56,207377,5,0,1:1:0:0:
65,56,207466,2,0,B|88:177|88:177|119:204|175:186,1,187.000005706787,2|10,1:2|2:2,0:0:0:0:
260,85,208005,1,2,2:2:0:0:
342,218,208185,2,0,P|303:255|247:262,1,93.5000028533936,0|8,1:1|2:2,0:0:0:0:
124,373,208544,2,0,P|102:312|107:277,1,93.5000028533936,8|2,2:2|2:2,0:0:0:0:
104,284,208814,5,2,2:2:0:0:
104,284,208904,2,0,L|191:100,1,187.000005706787,2|10,1:2|2:2,0:0:0:0:
309,19,209443,1,2,2:2:0:0:
380,132,209622,2,0,L|340:220,1,93.5000028533936,0|2,1:1|2:2,0:0:0:0:
390,377,209981,2,0,L|426:284,1,93.5000028533936,8|2,2:2|1:2,0:0:0:0:
477,86,210341,6,0,P|421:46|302:45,1,187.000005706787,0|10,1:1|2:2,0:0:0:0:
256,186,210880,1,0,0:0:0:0:
156,44,211059,2,0,P|121:83|116:137,1,93.5000028533936,2|2,1:2|1:1,0:0:0:0:
256,186,211419,1,10,2:2:0:0:
136,298,211598,5,2,2:1:0:0:
93,315,211687,1,0,1:1:0:0:
47,306,211778,2,0,L|24:168,1,140.25000428009,4|2,1:2|2:2,0:0:0:0:
68,100,212137,2,0,P|120:92|148:56,1,93.5000028533936,10|2,2:2|2:2,0:0:0:0:
208,12,212407,1,2,2:2:0:0:
208,12,212496,1,0,1:1:0:0:
284,160,212676,2,0,L|212:84,1,93.5000028533936,2|8,2:2|2:2,0:0:0:0:
360,0,213035,2,0,L|424:67,1,93.5000028533936,2|0,2:2|1:1,0:0:0:0:
404,192,213395,5,2,0:0:0:0:
424,67,213574,1,8,2:2:0:0:
512,184,213754,1,2,0:0:0:0:
360,124,213934,1,2,1:2:0:0:
392,292,214113,1,8,2:2:0:0:
392,292,214203,1,0,1:1:0:0:
392,292,214293,2,0,L|300:280,1,93.5000028533936,10|2,2:2|1:2,0:0:0:0:
152,208,214652,6,0,P|176:160|164:76,1,140.25000428009,2|0,1:2|0:0,0:0:0:0:
92,136,215011,1,10,2:2:0:0:
208,12,215191,2,0,L|300:28,1,93.5000028533936,2|0,2:2|1:1,0:0:0:0:
364,216,215550,2,0,P|380:168|376:120,1,93.5000028533936,2|8,2:2|2:2,0:0:0:0:
240,244,215910,2,0,P|224:292|228:340,1,93.5000028533936,2|0,2:2|1:1,0:0:0:0:
344,292,216269,5,2,0:0:0:0:
272,160,216449,1,8,2:2:0:0:
136,248,216628,1,2,0:0:0:0:
92,232,216718,1,2,0:0:0:0:
48,216,216808,1,2,1:2:0:0:
160,116,216987,1,8,2:2:0:0:
24,40,217167,1,10,2:2:0:0:
192,8,217347,5,2,1:2:0:0:
192,8,217437,1,0,3:3:0:0:
192,8,217526,2,0,P|236:40|324:32,1,140.25000428009,2|0,1:2|0:0,0:0:0:0:
396,16,217886,1,10,2:2:0:0:
400,192,218065,2,0,P|376:148|372:100,1,93.5000028533936,2|0,2:2|1:1,0:0:0:0:
472,128,218425,1,0,0:0:0:0:
416,280,218604,1,8,2:2:0:0:
284,160,218784,5,2,2:2:0:0:
284,160,218874,1,2,2:2:0:0:
284,160,218963,2,0,L|248:304,1,140.25000428009,2|0,1:2|0:0,0:0:0:0:
224,372,219323,1,10,2:2:0:0:
68,296,219502,2,0,P|120:292|160:312,1,93.5000028533936,2|0,2:2|1:1,0:0:0:0:
316,344,219862,1,8,2:2:0:0:
156,309,220041,1,8,2:2:0:0:
284,160,220221,5,2,1:2:0:0:
284,160,220311,1,0,1:1:0:0:
284,160,220401,2,0,P|228:168|144:140,1,140.25000428009,2|0,1:2|0:0,0:0:0:0:
228,84,220760,1,10,2:2:0:0:
356,104,220940,2,0,L|388:192,1,93.5000028533936,2|0,2:2|1:1,0:0:0:0:
440,320,221299,5,0,3:3:0:0:
504,196,221478,1,8,2:2:0:0:
352,276,221658,1,0,3:3:0:0:
352,276,221748,1,0,3:3:0:0:
352,276,221838,1,0,1:1:0:0:
440,320,222017,1,0,3:3:0:0:
456,124,222197,6,0,P|472:88|460:24,1,102,12|0,2:2|0:0,0:0:0:0:
392,72,222556,1,2,2:2:0:0:
360,72,222916,1,2,2:2:0:0:
324,72,223275,6,0,B|272:64|272:64|248:76|248:76|196:68,1,127.5,4|0,1:2|0:0,0:0:0:0:
120,60,223634,2,0,P|108:100|116:144,1,85,2|0,1:2|0:0,0:0:0:0:
160,272,223993,1,2,1:2:0:0:
115,141,224173,1,2,2:2:0:0:
32,248,224353,1,0,1:1:0:0:
188,192,224532,6,0,L|360:156,1,170,4|2,1:2|2:2,0:0:0:0:
432,144,224981,1,2,2:2:0:0:
432,144,225071,1,2,1:2:0:0:
480,272,225251,1,2,2:2:0:0:
496,312,225341,1,2,2:2:0:0:
480,352,225431,1,2,1:2:0:0:
340,356,225610,1,2,3:2:0:0:
324,316,225700,1,2,2:2:0:0:
340,276,225790,1,2,1:2:0:0:
292,112,225969,5,2,3:2:0:0:
292,112,226059,1,2,3:2:0:0:
292,112,226149,2,0,B|236:92|208:116|208:116|192:156|132:152,1,170,4|2,1:2|1:2,0:0:0:0:
24,68,226688,1,2,0:0:0:0:
24,68,226778,1,2,0:0:0:0:
24,68,226868,1,2,1:2:0:0:
24,208,227047,2,0,L|56:292,1,85,2|0,3:2|1:1,0:0:0:0:
224,304,227407,6,0,P|252:248|248:176,1,127.5,4|0,1:2|0:0,0:0:0:0:
208,112,227766,1,2,3:2:0:0:
328,24,227946,1,2,1:2:0:0:
384,160,228125,1,2,3:2:0:0:
384,160,228215,1,0,3:3:0:0:
384,160,228305,2,0,P|424:172|464:200,1,85,2|2,1:2|3:2,0:0:0:0:
380,276,228664,1,2,1:2:0:0:
308,112,228844,5,2,3:2:0:0:
308,112,228934,1,0,3:0:0:0:
308,112,229023,2,0,L|120:92,1,170,4|10,1:2|2:2,0:0:0:0:
36,188,229562,1,2,2:2:0:0:
12,224,229652,1,2,2:2:0:0:
32,260,229742,2,0,L|120:268,1,85,2|2,1:2|2:2,0:0:0:0:
216,364,230101,1,10,2:2:0:0:
336,272,230281,6,0,B|368:232|368:232|344:112,1,170,4|2,1:2|2:2,0:0:0:0:
260,4,230820,1,10,2:2:0:0:
344,115,230999,1,2,2:2:0:0:
192,140,231179,2,0,P|240:112|264:88,1,85,2|2,1:2|2:2,0:0:0:0:
384,8,231538,1,2,1:2:0:0:
464,160,231718,5,10,2:2:0:0:
464,160,231808,1,10,2:2:0:0:
464,160,231898,2,0,P|492:224|456:320,1,170,4|8,1:2|2:2,0:0:0:0:
356,364,232437,1,2,2:2:0:0:
256,248,232616,5,10,3:2:0:0:
156,364,232796,1,10,3:2:0:0:
128,208,232975,1,10,3:2:0:0:
28,344,233155,1,4,1:2:0:0:
56,120,233514,5,2,3:2:0:0:
124,52,233694,1,2,2:2:0:0:
124,52,233784,1,2,2:2:0:0:
124,52,233874,1,2,3:2:0:0:
180,128,234053,1,2,3:2:0:0:
248,60,234233,1,2,3:2:0:0:
308,136,234413,1,2,1:2:0:0:
420,16,234592,1,14,2:2:0:0:
