osu file format v14

[General]
AudioFilename: audio.mp3
AudioLeadIn: 0
PreviewTime: 107699
Countdown: 0
SampleSet: Normal
StackLeniency: 0.7
Mode: 3
LetterboxInBreaks: 0
SpecialStyle: 0
WidescreenStoryboard: 1

[Editor]
DistanceSpacing: 2
BeatDivisor: 4
GridSize: 16
TimelineZoom: 5.799996

[Metadata]
Title:RE:UNION -Duo Blade Against-
TitleUnicode:RE:UNION -Duo Blade Against-
Artist:ICE vs. Morimori Atsushi
ArtistUnicode:ICE vs. Morimori Atsushi
Creator:DarthSkrill
Version:Freek's YES!
Source:Deemo
Tags:ICE Morimori Atsushi
BeatmapID:1585697
BeatmapSetID:752199

[Difficulty]
HPDrainRate:6
CircleSize:6
OverallDifficulty:6
ApproachRate:5
SliderMultiplier:1.4
SliderTickRate:1

[Events]
//Background and Video events
0,0,"duo blade against.png",0,0
//Break Periods
//Storyboard Layer 0 (Background)
//Storyboard Layer 1 (Fail)
//Storyboard Layer 2 (Pass)
//Storyboard Layer 3 (Foreground)
//Storyboard Sound Samples

[TimingPoints]
1214,297.029702970297,4,1,0,10,1,0

[HitObjects]
42,192,768,5,0,0:0:0:0:
128,192,805,1,0,0:0:0:0:
213,192,916,1,0,0:0:0:0:
298,192,1065,1,0,0:0:0:0:
384,192,1214,1,0,0:0:0:0:
42,192,1214,1,0,0:0:0:0:
128,192,1362,1,0,0:0:0:0:
469,192,1511,1,0,0:0:0:0:
298,192,1659,1,0,0:0:0:0:
298,192,1956,1,0,0:0:0:0:
213,192,2105,1,0,0:0:0:0:
384,192,2253,1,0,0:0:0:0:
298,192,2402,1,0,0:0:0:0:
469,192,2402,1,0,0:0:0:0:
213,192,2550,1,0,0:0:0:0:
128,192,2699,1,0,0:0:0:0:
42,192,2847,1,0,0:0:0:0:
42,192,3144,1,0,0:0:0:0:
128,192,3293,1,0,0:0:0:0:
213,192,3441,1,0,0:0:0:0:
298,192,3590,1,0,0:0:0:0:
42,192,3590,1,0,0:0:0:0:
213,192,3738,1,0,0:0:0:0:
469,192,3887,1,0,0:0:0:0:
298,192,4035,1,0,0:0:0:0:
213,192,4332,1,0,0:0:0:0:
128,192,4481,1,0,0:0:0:0:
213,192,4629,1,0,0:0:0:0:
469,192,4778,1,0,0:0:0:0:
128,192,4778,1,0,0:0:0:0:
42,192,4926,1,0,0:0:0:0:
469,192,5075,1,0,0:0:0:0:
298,192,5223,1,0,0:0:0:0:
42,192,5520,5,0,0:0:0:0:
213,192,5669,1,0,0:0:0:0:
298,192,5817,1,0,0:0:0:0:
384,192,5966,1,0,0:0:0:0:
42,192,5966,1,0,0:0:0:0:
128,192,6114,1,0,0:0:0:0:
469,192,6263,1,0,0:0:0:0:
298,192,6412,1,0,0:0:0:0:
298,192,6709,1,0,0:0:0:0:
213,192,6857,1,0,0:0:0:0:
384,192,7006,1,0,0:0:0:0:
298,192,7154,1,0,0:0:0:0:
469,192,7154,1,0,0:0:0:0:
213,192,7303,1,0,0:0:0:0:
128,192,7451,1,0,0:0:0:0:
42,192,7600,1,0,0:0:0:0:
469,192,7897,1,0,0:0:0:0:
42,192,7897,1,0,0:0:0:0:
128,192,8045,1,0,0:0:0:0:
213,192,8194,1,0,0:0:0:0:
42,192,8342,1,0,0:0:0:0:
384,192,8342,1,0,0:0:0:0:
213,192,8491,1,0,0:0:0:0:
298,192,8565,1,0,0:0:0:0:
384,192,8639,1,0,0:0:0:0:
42,192,8788,1,0,0:0:0:0:
128,192,8862,1,0,0:0:0:0:
213,192,8936,1,0,0:0:0:0:
298,192,9011,1,0,0:0:0:0:
384,192,9085,1,0,0:0:0:0:
128,192,9233,1,0,0:0:0:0:
213,192,9308,1,0,0:0:0:0:
298,192,9382,1,0,0:0:0:0:
384,192,9456,1,0,0:0:0:0:
42,192,9530,1,0,0:0:0:0:
213,192,9530,1,0,0:0:0:0:
469,192,9530,1,0,0:0:0:0:
384,192,9976,1,0,0:0:0:0:
128,192,10421,1,0,0:0:0:0:
42,192,10718,1,0,0:0:0:0:
469,192,10718,1,0,0:0:0:0:
384,192,10718,128,0,10867:0:0:0:0:
42,192,10793,1,0,0:0:0:0:
298,192,10867,128,0,11015:0:0:0:0:
42,192,10867,1,0,0:0:0:0:
42,192,10941,1,0,0:0:0:0:
128,192,11015,128,0,11461:0:0:0:0:
469,192,11015,1,0,0:0:0:0:
469,192,11090,1,0,0:0:0:0:
469,192,11164,1,0,0:0:0:0:
469,192,11238,1,0,0:0:0:0:
469,192,11313,1,0,0:0:0:0:
469,192,11387,1,0,0:0:0:0:
213,192,11461,128,0,11610:0:0:0:0:
469,192,11461,1,0,0:0:0:0:
469,192,11535,1,0,0:0:0:0:
128,192,11610,128,0,11758:0:0:0:0:
469,192,11610,1,0,0:0:0:0:
469,192,11684,1,0,0:0:0:0:
384,192,11758,128,0,11907:0:0:0:0:
42,192,11758,1,0,0:0:0:0:
42,192,11832,1,0,0:0:0:0:
298,192,11907,128,0,12055:0:0:0:0:
42,192,11907,1,0,0:0:0:0:
42,192,11981,1,0,0:0:0:0:
213,192,12055,128,0,12204:0:0:0:0:
469,192,12055,1,0,0:0:0:0:
469,192,12129,1,0,0:0:0:0:
128,192,12204,128,0,12352:0:0:0:0:
469,192,12204,1,0,0:0:0:0:
469,192,12278,1,0,0:0:0:0:
42,192,12352,128,0,12649:0:0:0:0:
469,192,12352,1,0,0:0:0:0:
469,192,12426,1,0,0:0:0:0:
469,192,12501,1,0,0:0:0:0:
469,192,12575,1,0,0:0:0:0:
298,192,12649,128,0,12798:0:0:0:0:
469,192,12649,1,0,0:0:0:0:
42,192,12723,1,0,0:0:0:0:
384,192,12798,128,0,12946:0:0:0:0:
42,192,12798,1,0,0:0:0:0:
42,192,12872,1,0,0:0:0:0:
469,192,12946,128,0,13095:0:0:0:0:
42,192,12946,1,0,0:0:0:0:
42,192,13020,1,0,0:0:0:0:
42,192,13095,1,0,0:0:0:0:
213,192,13095,1,0,0:0:0:0:
128,192,13095,1,0,0:0:0:0:
298,192,13095,1,0,0:0:0:0:
384,192,13095,1,0,0:0:0:0:
298,192,13169,1,0,0:0:0:0:
469,192,13169,1,0,0:0:0:0:
384,192,13169,1,0,0:0:0:0:
42,192,13243,1,0,0:0:0:0:
213,192,13243,1,0,0:0:0:0:
128,192,13243,1,0,0:0:0:0:
298,192,13317,1,0,0:0:0:0:
469,192,13317,1,0,0:0:0:0:
384,192,13317,1,0,0:0:0:0:
42,192,13392,1,0,0:0:0:0:
213,192,13392,1,0,0:0:0:0:
128,192,13392,1,0,0:0:0:0:
298,192,13392,1,0,0:0:0:0:
384,192,13392,1,0,0:0:0:0:
469,192,13392,1,0,0:0:0:0:
128,192,13540,1,0,0:0:0:0:
213,192,13540,1,0,0:0:0:0:
42,192,13540,1,0,0:0:0:0:
298,192,13540,1,0,0:0:0:0:
469,192,13540,1,0,0:0:0:0:
384,192,13540,1,0,0:0:0:0:
42,192,13614,1,0,0:0:0:0:
213,192,13614,1,0,0:0:0:0:
128,192,13614,1,0,0:0:0:0:
298,192,13689,1,0,0:0:0:0:
384,192,13689,1,0,0:0:0:0:
469,192,13689,1,0,0:0:0:0:
42,192,13763,1,0,0:0:0:0:
128,192,13763,1,0,0:0:0:0:
213,192,13763,1,0,0:0:0:0:
298,192,13837,1,0,0:0:0:0:
384,192,13837,1,0,0:0:0:0:
469,192,13837,1,0,0:0:0:0:
213,192,13837,1,0,0:0:0:0:
128,192,13837,1,0,0:0:0:0:
42,192,13837,1,0,0:0:0:0:
298,192,13986,1,0,0:0:0:0:
384,192,13986,1,0,0:0:0:0:
128,192,13986,1,0,0:0:0:0:
469,192,13986,1,0,0:0:0:0:
42,192,13986,1,0,0:0:0:0:
213,192,13986,1,0,0:0:0:0:
469,192,14060,1,0,0:0:0:0:
384,192,14060,1,0,0:0:0:0:
298,192,14060,1,0,0:0:0:0:
213,192,14134,1,0,0:0:0:0:
128,192,14134,1,0,0:0:0:0:
42,192,14134,1,0,0:0:0:0:
298,192,14209,1,0,0:0:0:0:
384,192,14209,1,0,0:0:0:0:
469,192,14209,1,0,0:0:0:0:
42,192,14283,1,0,0:0:0:0:
128,192,14283,1,0,0:0:0:0:
384,192,14283,1,0,0:0:0:0:
469,192,14283,1,0,0:0:0:0:
298,192,14283,1,0,0:0:0:0:
213,192,14283,1,0,0:0:0:0:
384,192,14431,1,0,0:0:0:0:
213,192,14431,1,0,0:0:0:0:
298,192,14431,1,0,0:0:0:0:
469,192,14431,1,0,0:0:0:0:
42,192,14431,1,0,0:0:0:0:
128,192,14431,1,0,0:0:0:0:
42,192,14506,1,0,0:0:0:0:
128,192,14506,1,0,0:0:0:0:
213,192,14506,1,0,0:0:0:0:
384,192,14580,1,0,0:0:0:0:
298,192,14580,1,0,0:0:0:0:
469,192,14580,1,0,0:0:0:0:
128,192,14654,1,0,0:0:0:0:
42,192,14654,1,0,0:0:0:0:
213,192,14654,1,0,0:0:0:0:
128,192,14728,1,0,0:0:0:0:
384,192,14728,1,0,0:0:0:0:
42,192,14728,1,0,0:0:0:0:
213,192,14728,1,0,0:0:0:0:
469,192,14728,1,0,0:0:0:0:
298,192,14728,1,0,0:0:0:0:
42,192,14877,1,0,0:0:0:0:
128,192,14877,1,0,0:0:0:0:
213,192,14877,1,0,0:0:0:0:
298,192,14951,1,0,0:0:0:0:
384,192,14951,1,0,0:0:0:0:
469,192,14951,1,0,0:0:0:0:
42,192,15025,1,0,0:0:0:0:
128,192,15025,1,0,0:0:0:0:
213,192,15025,1,0,0:0:0:0:
298,192,15100,1,0,0:0:0:0:
384,192,15100,1,0,0:0:0:0:
469,192,15100,1,0,0:0:0:0:
42,192,15174,1,0,0:0:0:0:
128,192,15174,1,0,0:0:0:0:
213,192,15174,1,0,0:0:0:0:
298,192,15248,1,0,0:0:0:0:
384,192,15248,1,0,0:0:0:0:
469,192,15248,1,0,0:0:0:0:
42,192,15322,1,0,0:0:0:0:
128,192,15322,1,0,0:0:0:0:
213,192,15322,1,0,0:0:0:0:
42,192,15471,1,0,0:0:0:0:
213,192,15471,1,0,0:0:0:0:
298,192,15471,1,0,0:0:0:0:
469,192,15471,1,0,0:0:0:0:
384,192,15471,1,0,0:0:0:0:
128,192,15471,1,0,0:0:0:0:
128,192,15545,1,0,0:0:0:0:
384,192,15619,1,0,0:0:0:0:
128,192,15694,1,0,0:0:0:0:
384,192,15768,1,0,0:0:0:0:
128,192,15842,1,0,0:0:0:0:
42,192,15916,1,0,0:0:0:0:
213,192,15916,1,0,0:0:0:0:
298,192,15916,1,0,0:0:0:0:
384,192,15916,1,0,0:0:0:0:
469,192,15916,1,0,0:0:0:0:
128,192,15916,1,0,0:0:0:0:
298,192,15991,1,0,0:0:0:0:
384,192,15991,1,0,0:0:0:0:
469,192,15991,1,0,0:0:0:0:
128,192,16065,1,0,0:0:0:0:
213,192,16065,1,0,0:0:0:0:
42,192,16065,1,0,0:0:0:0:
298,192,16065,128,0,16511:0:0:0:0:
384,192,16065,128,0,16511:0:0:0:0:
469,192,16065,128,0,16511:0:0:0:0:
42,192,16511,1,0,0:0:0:0:
128,192,16511,1,0,0:0:0:0:
213,192,16511,1,0,0:0:0:0:
42,192,16585,1,0,0:0:0:0:
128,192,16585,1,0,0:0:0:0:
213,192,16585,1,0,0:0:0:0:
213,192,16659,1,0,0:0:0:0:
298,192,16659,1,0,0:0:0:0:
384,192,16659,1,0,0:0:0:0:
42,192,16659,128,0,17105:0:0:0:0:
128,192,16659,128,0,17105:0:0:0:0:
469,192,16659,128,0,17105:0:0:0:0:
384,192,17105,1,0,0:0:0:0:
298,192,17105,1,0,0:0:0:0:
213,192,17105,1,0,0:0:0:0:
384,192,17179,1,0,0:0:0:0:
298,192,17179,1,0,0:0:0:0:
213,192,17179,1,0,0:0:0:0:
298,192,17253,1,0,0:0:0:0:
128,192,17253,1,0,0:0:0:0:
213,192,17253,1,0,0:0:0:0:
42,192,17253,128,0,17699:0:0:0:0:
384,192,17253,128,0,17699:0:0:0:0:
469,192,17253,128,0,17699:0:0:0:0:
128,192,17699,1,0,0:0:0:0:
298,192,17699,1,0,0:0:0:0:
213,192,17699,1,0,0:0:0:0:
128,192,17773,1,0,0:0:0:0:
213,192,17773,1,0,0:0:0:0:
298,192,17773,1,0,0:0:0:0:
469,192,17847,128,0,18961:0:0:0:0:
384,192,17847,128,0,18144:0:0:0:0:
213,192,17847,128,0,17996:0:0:0:0:
128,192,17847,128,0,17921:0:0:0:0:
42,192,17847,128,0,18961:0:0:0:0:
298,192,17847,128,0,18070:0:0:0:0:
128,192,18070,1,0,0:0:0:0:
213,192,18144,1,0,0:0:0:0:
298,192,18218,1,0,0:0:0:0:
384,192,18293,1,0,0:0:0:0:
298,192,18367,1,0,0:0:0:0:
213,192,18441,1,0,0:0:0:0:
128,192,18515,1,0,0:0:0:0:
298,192,18590,1,0,0:0:0:0:
213,192,18664,1,0,0:0:0:0:
128,192,18738,1,0,0:0:0:0:
213,192,18813,1,0,0:0:0:0:
298,192,18887,1,0,0:0:0:0:
384,192,18961,1,0,0:0:0:0:
42,192,19035,128,0,20075:0:0:0:0:
213,192,19035,1,0,0:0:0:0:
298,192,19035,1,0,0:0:0:0:
469,192,19035,128,0,20075:0:0:0:0:
128,192,19481,1,0,0:0:0:0:
384,192,19481,1,0,0:0:0:0:
213,192,19926,1,0,0:0:0:0:
298,192,19926,1,0,0:0:0:0:
128,192,20223,1,0,0:0:0:0:
213,192,20223,1,0,0:0:0:0:
298,192,20223,1,0,0:0:0:0:
384,192,20223,1,0,0:0:0:0:
42,192,20223,1,0,0:0:0:0:
469,192,20223,1,0,0:0:0:0:
42,192,21114,1,0,0:0:0:0:
128,192,21189,1,0,0:0:0:0:
213,192,21263,1,0,0:0:0:0:
298,192,21337,1,0,0:0:0:0:
469,192,21412,1,0,0:0:0:0:
384,192,21412,1,0,0:0:0:0:
213,192,21709,1,0,0:0:0:0:
298,192,21857,1,0,0:0:0:0:
42,192,22154,1,0,0:0:0:0:
128,192,22303,1,0,0:0:0:0:
213,192,22377,1,0,0:0:0:0:
298,192,22451,1,0,0:0:0:0:
384,192,22525,1,0,0:0:0:0:
469,192,22600,1,0,0:0:0:0:
42,192,22600,1,0,0:0:0:0:
128,192,22748,1,0,0:0:0:0:
469,192,22897,1,0,0:0:0:0:
298,192,23045,1,0,0:0:0:0:
213,192,23342,1,0,0:0:0:0:
128,192,23491,1,0,0:0:0:0:
213,192,23639,1,0,0:0:0:0:
42,192,23788,1,0,0:0:0:0:
469,192,23788,1,0,0:0:0:0:
384,192,23862,1,0,0:0:0:0:
298,192,23936,1,0,0:0:0:0:
213,192,24011,1,0,0:0:0:0:
298,192,24085,1,0,0:0:0:0:
213,192,24159,1,0,0:0:0:0:
128,192,24233,1,0,0:0:0:0:
42,192,24308,1,0,0:0:0:0:
384,192,24382,1,0,0:0:0:0:
298,192,24530,1,0,0:0:0:0:
213,192,24679,1,0,0:0:0:0:
128,192,24827,1,0,0:0:0:0:
42,192,24976,1,0,0:0:0:0:
469,192,24976,1,0,0:0:0:0:
128,192,25273,1,0,0:0:0:0:
298,192,25421,1,0,0:0:0:0:
42,192,25718,1,0,0:0:0:0:
128,192,25867,1,0,0:0:0:0:
213,192,25941,1,0,0:0:0:0:
298,192,26015,1,0,0:0:0:0:
384,192,26090,1,0,0:0:0:0:
469,192,26164,1,0,0:0:0:0:
42,192,26164,1,0,0:0:0:0:
213,192,26461,1,0,0:0:0:0:
384,192,26610,1,0,0:0:0:0:
42,192,26758,1,0,0:0:0:0:
128,192,26907,1,0,0:0:0:0:
469,192,27055,1,0,0:0:0:0:
384,192,27204,1,0,0:0:0:0:
42,192,27352,5,0,0:0:0:0:
128,192,27352,1,0,0:0:0:0:
213,192,27352,1,0,0:0:0:0:
298,192,27352,1,0,0:0:0:0:
42,192,27575,1,0,0:0:0:0:
128,192,27575,1,0,0:0:0:0:
213,192,27575,1,0,0:0:0:0:
384,192,27575,1,0,0:0:0:0:
42,192,27798,1,0,0:0:0:0:
128,192,27798,1,0,0:0:0:0:
213,192,27798,1,0,0:0:0:0:
469,192,27798,1,0,0:0:0:0:
298,192,28020,1,0,0:0:0:0:
384,192,28020,1,0,0:0:0:0:
469,192,28020,1,0,0:0:0:0:
213,192,28020,1,0,0:0:0:0:
298,192,28243,1,0,0:0:0:0:
384,192,28243,1,0,0:0:0:0:
469,192,28243,1,0,0:0:0:0:
128,192,28243,1,0,0:0:0:0:
298,192,28466,1,0,0:0:0:0:
384,192,28466,1,0,0:0:0:0:
469,192,28466,1,0,0:0:0:0:
42,192,28466,1,0,0:0:0:0:
42,192,28689,1,0,0:0:0:0:
128,192,28689,1,0,0:0:0:0:
213,192,28689,1,0,0:0:0:0:
298,192,28689,1,0,0:0:0:0:
42,192,28912,1,0,0:0:0:0:
128,192,28912,1,0,0:0:0:0:
213,192,28912,1,0,0:0:0:0:
384,192,28912,1,0,0:0:0:0:
42,192,29134,1,0,0:0:0:0:
128,192,29134,1,0,0:0:0:0:
213,192,29134,1,0,0:0:0:0:
469,192,29134,1,0,0:0:0:0:
128,192,29283,1,0,0:0:0:0:
42,192,29283,1,0,0:0:0:0:
213,192,29283,1,0,0:0:0:0:
384,192,29283,1,0,0:0:0:0:
298,192,29283,1,0,0:0:0:0:
469,192,29283,1,0,0:0:0:0:
42,192,29431,1,0,0:0:0:0:
128,192,29506,1,0,0:0:0:0:
298,192,29580,1,0,0:0:0:0:
384,192,29654,1,0,0:0:0:0:
42,192,29728,1,0,0:0:0:0:
128,192,29728,1,0,0:0:0:0:
213,192,29728,1,0,0:0:0:0:
469,192,29728,1,0,0:0:0:0:
384,192,30025,1,0,0:0:0:0:
128,192,30025,1,0,0:0:0:0:
469,192,30174,1,0,0:0:0:0:
213,192,30471,1,0,0:0:0:0:
298,192,30471,1,0,0:0:0:0:
384,192,30619,1,0,0:0:0:0:
42,192,30619,1,0,0:0:0:0:
128,192,30694,1,0,0:0:0:0:
213,192,30768,1,0,0:0:0:0:
298,192,30842,1,0,0:0:0:0:
384,192,30916,1,0,0:0:0:0:
469,192,30991,1,0,0:0:0:0:
128,192,31065,1,0,0:0:0:0:
213,192,31065,1,0,0:0:0:0:
42,192,31214,1,0,0:0:0:0:
298,192,31214,1,0,0:0:0:0:
469,192,31362,1,0,0:0:0:0:
384,192,31511,1,0,0:0:0:0:
298,192,31511,1,0,0:0:0:0:
42,192,31511,1,0,0:0:0:0:
128,192,31585,1,0,0:0:0:0:
213,192,31659,1,0,0:0:0:0:
42,192,31733,1,0,0:0:0:0:
128,192,31808,1,0,0:0:0:0:
384,192,31808,1,0,0:0:0:0:
298,192,31808,1,0,0:0:0:0:
213,192,31882,1,0,0:0:0:0:
298,192,31956,1,0,0:0:0:0:
384,192,32030,1,0,0:0:0:0:
213,192,32105,1,0,0:0:0:0:
128,192,32105,1,0,0:0:0:0:
469,192,32105,128,0,32179:0:0:0:0:
42,192,32253,128,0,32327:0:0:0:0:
128,192,32402,1,0,0:0:0:0:
384,192,32402,1,0,0:0:0:0:
298,192,32402,128,0,32476:0:0:0:0:
213,192,32550,128,0,32624:0:0:0:0:
384,192,32847,5,0,0:0:0:0:
213,192,32847,1,0,0:0:0:0:
298,192,32996,1,0,0:0:0:0:
469,192,32996,1,0,0:0:0:0:
128,192,33144,1,0,0:0:0:0:
42,192,33144,1,0,0:0:0:0:
128,192,33194,1,0,0:0:0:0:
42,192,33194,1,0,0:0:0:0:
128,192,33243,1,0,0:0:0:0:
42,192,33243,1,0,0:0:0:0:
42,192,33293,1,0,0:0:0:0:
128,192,33293,1,0,0:0:0:0:
469,192,33293,1,0,0:0:0:0:
298,192,33392,1,0,0:0:0:0:
128,192,33491,1,0,0:0:0:0:
384,192,33590,1,0,0:0:0:0:
213,192,33689,1,0,0:0:0:0:
42,192,33788,1,0,0:0:0:0:
469,192,33887,5,0,0:0:0:0:
469,192,33961,1,0,0:0:0:0:
298,192,34035,1,0,0:0:0:0:
298,192,34110,1,0,0:0:0:0:
213,192,34184,1,0,0:0:0:0:
213,192,34258,1,0,0:0:0:0:
42,192,34332,1,0,0:0:0:0:
42,192,34407,1,0,0:0:0:0:
298,192,34481,1,0,0:0:0:0:
469,192,34481,1,0,0:0:0:0:
42,192,34778,5,0,0:0:0:0:
128,192,34778,1,0,0:0:0:0:
384,192,34778,1,0,0:0:0:0:
469,192,34778,1,0,0:0:0:0:
42,192,34852,1,0,0:0:0:0:
128,192,34852,1,0,0:0:0:0:
384,192,34852,1,0,0:0:0:0:
469,192,34852,1,0,0:0:0:0:
42,192,35001,1,0,0:0:0:0:
469,192,35001,1,0,0:0:0:0:
42,192,35372,1,0,0:0:0:0:
128,192,35446,1,0,0:0:0:0:
298,192,35520,1,0,0:0:0:0:
384,192,35595,1,0,0:0:0:0:
469,192,35669,1,0,0:0:0:0:
42,192,35669,1,0,0:0:0:0:
384,192,35966,1,0,0:0:0:0:
469,192,35966,1,0,0:0:0:0:
42,192,35966,1,0,0:0:0:0:
128,192,35966,1,0,0:0:0:0:
384,192,36040,1,0,0:0:0:0:
469,192,36040,1,0,0:0:0:0:
42,192,36040,1,0,0:0:0:0:
128,192,36040,1,0,0:0:0:0:
128,192,36189,1,0,0:0:0:0:
384,192,36189,1,0,0:0:0:0:
469,192,36412,1,0,0:0:0:0:
128,192,36486,1,0,0:0:0:0:
384,192,36560,1,0,0:0:0:0:
128,192,36634,1,0,0:0:0:0:
384,192,36709,1,0,0:0:0:0:
128,192,36783,1,0,0:0:0:0:
213,192,36857,1,0,0:0:0:0:
298,192,36857,1,0,0:0:0:0:
384,192,36857,1,0,0:0:0:0:
469,192,36857,1,0,0:0:0:0:
42,192,36931,1,0,0:0:0:0:
469,192,37006,1,0,0:0:0:0:
384,192,37080,1,0,0:0:0:0:
298,192,37154,1,0,0:0:0:0:
213,192,37154,1,0,0:0:0:0:
42,192,37228,1,0,0:0:0:0:
128,192,37228,1,0,0:0:0:0:
298,192,37303,1,0,0:0:0:0:
213,192,37303,1,0,0:0:0:0:
42,192,37377,1,0,0:0:0:0:
128,192,37377,1,0,0:0:0:0:
384,192,37377,1,0,0:0:0:0:
469,192,37377,1,0,0:0:0:0:
298,192,37451,1,0,0:0:0:0:
469,192,37525,1,0,0:0:0:0:
213,192,37600,1,0,0:0:0:0:
384,192,37674,1,0,0:0:0:0:
128,192,37748,1,0,0:0:0:0:
298,192,37822,1,0,0:0:0:0:
213,192,37897,1,0,0:0:0:0:
42,192,37971,1,0,0:0:0:0:
128,192,37971,1,0,0:0:0:0:
298,192,37971,1,0,0:0:0:0:
384,192,37971,1,0,0:0:0:0:
469,192,37971,1,0,0:0:0:0:
42,192,38194,1,0,0:0:0:0:
128,192,38268,1,0,0:0:0:0:
213,192,38342,1,0,0:0:0:0:
42,192,38416,1,0,0:0:0:0:
128,192,38491,1,0,0:0:0:0:
384,192,38491,1,0,0:0:0:0:
469,192,38491,1,0,0:0:0:0:
42,192,38565,1,0,0:0:0:0:
384,192,38565,1,0,0:0:0:0:
469,192,38565,1,0,0:0:0:0:
298,192,38639,1,0,0:0:0:0:
128,192,38639,1,0,0:0:0:0:
213,192,38639,1,0,0:0:0:0:
384,192,38639,1,0,0:0:0:0:
469,192,38639,128,0,38714:0:0:0:0:
298,192,38936,128,0,39159:0:0:0:0:
213,192,38936,128,0,39159:0:0:0:0:
42,192,39233,1,0,0:0:0:0:
469,192,39233,1,0,0:0:0:0:
213,192,39382,1,0,0:0:0:0:
384,192,39530,1,0,0:0:0:0:
128,192,39679,1,0,0:0:0:0:
384,192,39976,1,0,0:0:0:0:
42,192,40124,1,0,0:0:0:0:
469,192,40273,1,0,0:0:0:0:
128,192,40421,1,0,0:0:0:0:
384,192,40421,1,0,0:0:0:0:
384,192,41015,1,0,0:0:0:0:
298,192,41164,1,0,0:0:0:0:
213,192,41313,1,0,0:0:0:0:
128,192,41461,1,0,0:0:0:0:
213,192,41610,5,0,0:0:0:0:
469,192,41610,1,0,0:0:0:0:
298,192,41758,1,0,0:0:0:0:
298,192,42055,1,0,0:0:0:0:
128,192,42798,5,0,0:0:0:0:
384,192,42946,1,0,0:0:0:0:
384,192,43243,1,0,0:0:0:0:
384,192,43986,1,0,0:0:0:0:
42,192,43986,1,0,0:0:0:0:
213,192,44134,1,0,0:0:0:0:
469,192,44283,1,0,0:0:0:0:
298,192,44431,1,0,0:0:0:0:
384,192,44728,1,0,0:0:0:0:
42,192,44877,1,0,0:0:0:0:
469,192,45025,1,0,0:0:0:0:
128,192,45174,1,0,0:0:0:0:
384,192,45174,1,0,0:0:0:0:
384,192,45768,1,0,0:0:0:0:
298,192,45916,1,0,0:0:0:0:
213,192,46065,1,0,0:0:0:0:
128,192,46214,1,0,0:0:0:0:
213,192,46362,1,0,0:0:0:0:
298,192,46585,1,0,0:0:0:0:
298,192,46808,1,0,0:0:0:0:
128,192,46956,1,0,0:0:0:0:
384,192,47179,1,0,0:0:0:0:
384,192,47402,5,0,0:0:0:0:
298,192,47550,1,0,0:0:0:0:
384,192,47550,1,0,0:0:0:0:
469,192,47550,1,0,0:0:0:0:
213,192,47773,1,0,0:0:0:0:
298,192,47773,1,0,0:0:0:0:
384,192,47773,1,0,0:0:0:0:
128,192,47996,1,0,0:0:0:0:
213,192,47996,1,0,0:0:0:0:
298,192,47996,1,0,0:0:0:0:
42,192,48218,1,0,0:0:0:0:
128,192,48218,1,0,0:0:0:0:
213,192,48218,1,0,0:0:0:0:
42,192,48441,5,0,0:0:0:0:
128,192,48441,1,0,0:0:0:0:
213,192,48441,1,0,0:0:0:0:
298,192,48441,1,0,0:0:0:0:
469,192,48515,1,0,0:0:0:0:
298,192,48590,1,0,0:0:0:0:
213,192,48590,1,0,0:0:0:0:
384,192,48590,1,0,0:0:0:0:
128,192,48590,1,0,0:0:0:0:
42,192,48664,1,0,0:0:0:0:
298,192,48738,1,0,0:0:0:0:
469,192,48738,1,0,0:0:0:0:
384,192,48738,1,0,0:0:0:0:
128,192,48738,1,0,0:0:0:0:
213,192,48738,1,0,0:0:0:0:
42,192,48887,1,0,0:0:0:0:
469,192,49035,1,0,0:0:0:0:
213,192,49184,1,0,0:0:0:0:
298,192,49481,1,0,0:0:0:0:
128,192,49629,1,0,0:0:0:0:
469,192,49778,1,0,0:0:0:0:
298,192,49926,1,0,0:0:0:0:
213,192,50223,1,0,0:0:0:0:
469,192,50520,1,0,0:0:0:0:
384,192,50669,1,0,0:0:0:0:
298,192,50817,1,0,0:0:0:0:
213,192,50966,1,0,0:0:0:0:
298,192,51114,1,0,0:0:0:0:
384,192,51263,1,0,0:0:0:0:
384,192,51560,1,0,0:0:0:0:
42,192,53491,1,0,0:0:0:0:
128,192,53491,1,0,0:0:0:0:
213,192,53491,1,0,0:0:0:0:
298,192,53491,1,0,0:0:0:0:
384,192,53491,1,0,0:0:0:0:
469,192,53491,1,0,0:0:0:0:
42,192,54679,1,0,0:0:0:0:
128,192,54679,1,0,0:0:0:0:
213,192,54679,1,0,0:0:0:0:
298,192,54679,1,0,0:0:0:0:
469,192,54679,1,0,0:0:0:0:
384,192,54679,1,0,0:0:0:0:
42,192,55867,1,0,0:0:0:0:
128,192,55867,1,0,0:0:0:0:
213,192,55867,1,0,0:0:0:0:
384,192,55867,1,0,0:0:0:0:
298,192,55867,1,0,0:0:0:0:
469,192,55867,1,0,0:0:0:0:
42,192,57055,1,0,0:0:0:0:
128,192,57055,1,0,0:0:0:0:
213,192,57055,1,0,0:0:0:0:
384,192,57055,1,0,0:0:0:0:
298,192,57055,1,0,0:0:0:0:
469,192,57055,1,0,0:0:0:0:
42,192,57798,1,0,0:0:0:0:
128,192,57946,1,0,0:0:0:0:
213,192,58095,1,0,0:0:0:0:
469,192,58243,1,0,0:0:0:0:
384,192,58392,1,0,0:0:0:0:
298,192,58540,1,0,0:0:0:0:
384,192,58689,1,0,0:0:0:0:
128,192,58986,1,0,0:0:0:0:
42,192,59283,1,0,0:0:0:0:
128,192,59283,1,0,0:0:0:0:
298,192,59283,1,0,0:0:0:0:
213,192,59283,1,0,0:0:0:0:
384,192,59283,1,0,0:0:0:0:
469,192,59283,1,0,0:0:0:0:
42,192,59580,1,0,0:0:0:0:
128,192,59580,1,0,0:0:0:0:
213,192,59580,1,0,0:0:0:0:
298,192,59580,1,0,0:0:0:0:
384,192,59580,1,0,0:0:0:0:
469,192,59580,1,0,0:0:0:0:
42,192,59877,1,0,0:0:0:0:
128,192,59877,1,0,0:0:0:0:
298,192,59877,1,0,0:0:0:0:
213,192,59877,1,0,0:0:0:0:
384,192,59877,1,0,0:0:0:0:
469,192,59877,1,0,0:0:0:0:
128,192,60174,1,0,0:0:0:0:
213,192,60322,1,0,0:0:0:0:
298,192,60471,1,0,0:0:0:0:
42,192,60619,1,0,0:0:0:0:
128,192,60619,1,0,0:0:0:0:
213,192,60619,1,0,0:0:0:0:
298,192,60619,1,0,0:0:0:0:
384,192,60619,1,0,0:0:0:0:
469,192,60619,1,0,0:0:0:0:
42,192,61065,1,0,0:0:0:0:
128,192,61065,1,0,0:0:0:0:
213,192,61065,1,0,0:0:0:0:
298,192,61065,1,0,0:0:0:0:
384,192,61065,1,0,0:0:0:0:
469,192,61065,1,0,0:0:0:0:
42,192,61511,1,0,0:0:0:0:
128,192,61511,1,0,0:0:0:0:
213,192,61511,1,0,0:0:0:0:
298,192,61511,1,0,0:0:0:0:
384,192,61511,1,0,0:0:0:0:
469,192,61511,1,0,0:0:0:0:
42,192,61956,5,0,0:0:0:0:
128,192,61956,1,0,0:0:0:0:
213,192,61956,1,0,0:0:0:0:
298,192,61956,1,0,0:0:0:0:
384,192,61956,1,0,0:0:0:0:
469,192,61956,1,0,0:0:0:0:
42,192,62402,1,0,0:0:0:0:
128,192,62402,1,0,0:0:0:0:
213,192,62402,1,0,0:0:0:0:
298,192,62402,1,0,0:0:0:0:
384,192,62402,1,0,0:0:0:0:
469,192,62402,1,0,0:0:0:0:
42,192,62699,1,0,0:0:0:0:
469,192,62699,1,0,0:0:0:0:
42,192,62847,1,0,0:0:0:0:
469,192,62847,1,0,0:0:0:0:
42,192,62996,5,0,0:0:0:0:
213,192,62996,1,0,0:0:0:0:
298,192,62996,1,0,0:0:0:0:
469,192,62996,1,0,0:0:0:0:
42,192,63293,1,0,0:0:0:0:
128,192,63293,1,0,0:0:0:0:
213,192,63293,1,0,0:0:0:0:
384,192,63293,1,0,0:0:0:0:
298,192,63293,1,0,0:0:0:0:
469,192,63293,128,0,63348:0:0:0:0:
213,192,63367,1,0,0:0:0:0:
128,192,63367,1,0,0:0:0:0:
42,192,63367,1,0,0:0:0:0:
384,192,63367,1,0,0:0:0:0:
298,192,63367,1,0,0:0:0:0:
469,192,63367,128,0,63423:0:0:0:0:
298,192,63441,1,0,0:0:0:0:
469,192,63441,1,0,0:0:0:0:
384,192,63441,1,0,0:0:0:0:
42,192,63441,1,0,0:0:0:0:
213,192,63441,1,0,0:0:0:0:
128,192,63441,128,0,63497:0:0:0:0:
384,192,63515,1,0,0:0:0:0:
469,192,63515,1,0,0:0:0:0:
42,192,63515,1,0,0:0:0:0:
298,192,63515,1,0,0:0:0:0:
213,192,63515,1,0,0:0:0:0:
128,192,63515,128,0,63571:0:0:0:0:
384,192,63590,1,0,0:0:0:0:
42,192,63590,1,0,0:0:0:0:
298,192,63590,1,0,0:0:0:0:
469,192,63590,1,0,0:0:0:0:
213,192,63590,1,0,0:0:0:0:
128,192,63590,128,0,63645:0:0:0:0:
469,192,63664,1,0,0:0:0:0:
42,192,63664,1,0,0:0:0:0:
298,192,63664,1,0,0:0:0:0:
384,192,63664,1,0,0:0:0:0:
213,192,63664,1,0,0:0:0:0:
128,192,63664,128,0,63720:0:0:0:0:
469,192,63738,1,0,0:0:0:0:
213,192,63738,1,0,0:0:0:0:
42,192,63738,1,0,0:0:0:0:
128,192,63738,1,0,0:0:0:0:
384,192,63738,1,0,0:0:0:0:
298,192,63738,128,0,63794:0:0:0:0:
128,192,63813,1,0,0:0:0:0:
213,192,63813,1,0,0:0:0:0:
469,192,63813,1,0,0:0:0:0:
42,192,63813,1,0,0:0:0:0:
384,192,63813,1,0,0:0:0:0:
298,192,63813,128,0,63868:0:0:0:0:
384,192,63887,1,0,0:0:0:0:
42,192,63887,1,0,0:0:0:0:
128,192,63887,1,0,0:0:0:0:
469,192,63887,1,0,0:0:0:0:
298,192,63887,1,0,0:0:0:0:
213,192,63887,128,0,63942:0:0:0:0:
469,192,63961,1,0,0:0:0:0:
42,192,63961,1,0,0:0:0:0:
128,192,63961,1,0,0:0:0:0:
384,192,63961,1,0,0:0:0:0:
298,192,63961,1,0,0:0:0:0:
213,192,63961,128,0,64017:0:0:0:0:
469,192,64035,1,0,0:0:0:0:
213,192,64035,1,0,0:0:0:0:
42,192,64035,1,0,0:0:0:0:
128,192,64035,1,0,0:0:0:0:
298,192,64035,1,0,0:0:0:0:
384,192,64035,128,0,64091:0:0:0:0:
469,192,64110,1,0,0:0:0:0:
128,192,64110,1,0,0:0:0:0:
213,192,64110,1,0,0:0:0:0:
42,192,64110,1,0,0:0:0:0:
298,192,64110,1,0,0:0:0:0:
384,192,64110,128,0,64165:0:0:0:0:
469,192,64184,1,0,0:0:0:0:
384,192,64184,1,0,0:0:0:0:
128,192,64184,1,0,0:0:0:0:
42,192,64184,1,0,0:0:0:0:
213,192,64184,1,0,0:0:0:0:
298,192,64184,128,0,64239:0:0:0:0:
384,192,64258,1,0,0:0:0:0:
42,192,64258,1,0,0:0:0:0:
128,192,64258,1,0,0:0:0:0:
469,192,64258,1,0,0:0:0:0:
213,192,64258,1,0,0:0:0:0:
298,192,64258,128,0,64314:0:0:0:0:
298,192,64332,1,0,0:0:0:0:
469,192,64332,1,0,0:0:0:0:
42,192,64332,1,0,0:0:0:0:
384,192,64332,1,0,0:0:0:0:
128,192,64332,1,0,0:0:0:0:
213,192,64332,128,0,64388:0:0:0:0:
298,192,64407,1,0,0:0:0:0:
469,192,64407,1,0,0:0:0:0:
384,192,64407,1,0,0:0:0:0:
42,192,64407,1,0,0:0:0:0:
128,192,64407,1,0,0:0:0:0:
213,192,64407,128,0,64462:0:0:0:0:
384,192,64481,1,0,0:0:0:0:
213,192,64481,1,0,0:0:0:0:
298,192,64481,1,0,0:0:0:0:
42,192,64481,1,0,0:0:0:0:
128,192,64481,1,0,0:0:0:0:
469,192,64481,128,0,64537:0:0:0:0:
298,192,64555,1,0,0:0:0:0:
213,192,64555,1,0,0:0:0:0:
384,192,64555,1,0,0:0:0:0:
42,192,64555,1,0,0:0:0:0:
128,192,64555,1,0,0:0:0:0:
469,192,64555,128,0,64611:0:0:0:0:
213,192,64629,1,0,0:0:0:0:
42,192,64629,1,0,0:0:0:0:
384,192,64629,1,0,0:0:0:0:
128,192,64629,1,0,0:0:0:0:
469,192,64629,1,0,0:0:0:0:
298,192,64629,128,0,64685:0:0:0:0:
384,192,64704,1,0,0:0:0:0:
42,192,64704,1,0,0:0:0:0:
128,192,64704,1,0,0:0:0:0:
213,192,64704,1,0,0:0:0:0:
469,192,64704,1,0,0:0:0:0:
298,192,64704,128,0,64759:0:0:0:0:
384,192,64778,1,0,0:0:0:0:
42,192,64778,1,0,0:0:0:0:
128,192,64778,1,0,0:0:0:0:
469,192,64778,1,0,0:0:0:0:
213,192,64778,1,0,0:0:0:0:
298,192,64778,128,0,64834:0:0:0:0:
213,192,64852,1,0,0:0:0:0:
42,192,64852,1,0,0:0:0:0:
384,192,64852,1,0,0:0:0:0:
469,192,64852,1,0,0:0:0:0:
128,192,64852,1,0,0:0:0:0:
298,192,64852,128,0,64908:0:0:0:0:
128,192,64926,1,0,0:0:0:0:
213,192,64926,1,0,0:0:0:0:
298,192,64926,1,0,0:0:0:0:
469,192,64926,1,0,0:0:0:0:
384,192,64926,1,0,0:0:0:0:
42,192,64926,128,0,64982:0:0:0:0:
128,192,65001,1,0,0:0:0:0:
213,192,65001,1,0,0:0:0:0:
469,192,65001,1,0,0:0:0:0:
298,192,65001,1,0,0:0:0:0:
384,192,65001,1,0,0:0:0:0:
42,192,65001,128,0,65056:0:0:0:0:
42,192,65075,1,0,0:0:0:0:
213,192,65075,1,0,0:0:0:0:
384,192,65075,1,0,0:0:0:0:
298,192,65075,1,0,0:0:0:0:
469,192,65075,1,0,0:0:0:0:
128,192,65075,128,0,65131:0:0:0:0:
384,192,65149,1,0,0:0:0:0:
42,192,65149,1,0,0:0:0:0:
298,192,65149,1,0,0:0:0:0:
469,192,65149,1,0,0:0:0:0:
213,192,65149,1,0,0:0:0:0:
128,192,65149,128,0,65205:0:0:0:0:
469,192,65223,1,0,0:0:0:0:
298,192,65223,1,0,0:0:0:0:
42,192,65223,1,0,0:0:0:0:
384,192,65223,1,0,0:0:0:0:
128,192,65223,1,0,0:0:0:0:
213,192,65223,128,0,65279:0:0:0:0:
128,192,65298,1,0,0:0:0:0:
42,192,65298,1,0,0:0:0:0:
384,192,65298,1,0,0:0:0:0:
469,192,65298,1,0,0:0:0:0:
298,192,65298,1,0,0:0:0:0:
213,192,65298,128,0,65353:0:0:0:0:
384,192,65372,1,0,0:0:0:0:
128,192,65372,1,0,0:0:0:0:
469,192,65372,1,0,0:0:0:0:
213,192,65372,1,0,0:0:0:0:
42,192,65372,1,0,0:0:0:0:
298,192,65372,128,0,65428:0:0:0:0:
213,192,65446,1,0,0:0:0:0:
469,192,65446,1,0,0:0:0:0:
384,192,65446,1,0,0:0:0:0:
42,192,65446,1,0,0:0:0:0:
128,192,65446,1,0,0:0:0:0:
298,192,65446,128,0,65502:0:0:0:0:
298,192,65520,1,0,0:0:0:0:
469,192,65520,1,0,0:0:0:0:
213,192,65520,1,0,0:0:0:0:
384,192,65520,1,0,0:0:0:0:
42,192,65520,1,0,0:0:0:0:
128,192,65520,128,0,65576:0:0:0:0:
384,192,65595,1,0,0:0:0:0:
469,192,65595,1,0,0:0:0:0:
298,192,65595,1,0,0:0:0:0:
213,192,65595,1,0,0:0:0:0:
42,192,65595,1,0,0:0:0:0:
128,192,65595,128,0,65650:0:0:0:0:
298,192,65669,1,0,0:0:0:0:
384,192,65669,1,0,0:0:0:0:
128,192,65669,1,0,0:0:0:0:
42,192,65669,1,0,0:0:0:0:
213,192,65669,1,0,0:0:0:0:
469,192,65669,128,0,65725:0:0:0:0:
298,192,65743,1,0,0:0:0:0:
384,192,65743,1,0,0:0:0:0:
42,192,65743,1,0,0:0:0:0:
128,192,65743,1,0,0:0:0:0:
213,192,65743,1,0,0:0:0:0:
469,192,65743,128,0,65799:0:0:0:0:
298,192,65817,1,0,0:0:0:0:
469,192,65817,1,0,0:0:0:0:
42,192,65817,1,0,0:0:0:0:
384,192,65817,1,0,0:0:0:0:
213,192,65817,1,0,0:0:0:0:
128,192,65817,128,0,65873:0:0:0:0:
298,192,65892,1,0,0:0:0:0:
469,192,65892,1,0,0:0:0:0:
384,192,65892,1,0,0:0:0:0:
42,192,65892,1,0,0:0:0:0:
213,192,65892,1,0,0:0:0:0:
128,192,65892,128,0,65947:0:0:0:0:
384,192,65966,1,0,0:0:0:0:
469,192,65966,1,0,0:0:0:0:
298,192,65966,1,0,0:0:0:0:
42,192,65966,1,0,0:0:0:0:
213,192,65966,1,0,0:0:0:0:
128,192,65966,128,0,66022:0:0:0:0:
469,192,66040,1,0,0:0:0:0:
298,192,66040,1,0,0:0:0:0:
42,192,66040,1,0,0:0:0:0:
384,192,66040,1,0,0:0:0:0:
213,192,66040,1,0,0:0:0:0:
128,192,66040,128,0,66096:0:0:0:0:
213,192,66114,1,0,0:0:0:0:
42,192,66114,1,0,0:0:0:0:
384,192,66114,1,0,0:0:0:0:
128,192,66114,1,0,0:0:0:0:
469,192,66114,1,0,0:0:0:0:
298,192,66114,128,0,66170:0:0:0:0:
384,192,66189,1,0,0:0:0:0:
42,192,66189,1,0,0:0:0:0:
128,192,66189,1,0,0:0:0:0:
213,192,66189,1,0,0:0:0:0:
469,192,66189,1,0,0:0:0:0:
298,192,66189,128,0,66244:0:0:0:0:
384,192,66263,1,0,0:0:0:0:
42,192,66263,1,0,0:0:0:0:
128,192,66263,1,0,0:0:0:0:
298,192,66263,1,0,0:0:0:0:
469,192,66263,1,0,0:0:0:0:
213,192,66263,128,0,66319:0:0:0:0:
298,192,66337,1,0,0:0:0:0:
42,192,66337,1,0,0:0:0:0:
384,192,66337,1,0,0:0:0:0:
469,192,66337,1,0,0:0:0:0:
128,192,66337,1,0,0:0:0:0:
213,192,66337,128,0,66393:0:0:0:0:
128,192,66412,1,0,0:0:0:0:
42,192,66412,1,0,0:0:0:0:
213,192,66412,1,0,0:0:0:0:
469,192,66412,1,0,0:0:0:0:
384,192,66412,1,0,0:0:0:0:
298,192,66412,128,0,66467:0:0:0:0:
128,192,66486,1,0,0:0:0:0:
213,192,66486,1,0,0:0:0:0:
469,192,66486,1,0,0:0:0:0:
384,192,66486,1,0,0:0:0:0:
42,192,66486,1,0,0:0:0:0:
298,192,66486,128,0,66541:0:0:0:0:
42,192,66560,1,0,0:0:0:0:
213,192,66560,1,0,0:0:0:0:
298,192,66560,1,0,0:0:0:0:
128,192,66560,1,0,0:0:0:0:
469,192,66560,1,0,0:0:0:0:
384,192,66560,128,0,66616:0:0:0:0:
42,192,66634,1,0,0:0:0:0:
128,192,66634,1,0,0:0:0:0:
298,192,66634,1,0,0:0:0:0:
469,192,66634,1,0,0:0:0:0:
213,192,66634,1,0,0:0:0:0:
384,192,66634,128,0,66690:0:0:0:0:
469,192,66709,1,0,0:0:0:0:
42,192,66709,1,0,0:0:0:0:
384,192,66709,1,0,0:0:0:0:
213,192,66709,1,0,0:0:0:0:
128,192,66709,1,0,0:0:0:0:
298,192,66709,128,0,66764:0:0:0:0:
128,192,66783,1,0,0:0:0:0:
42,192,66783,1,0,0:0:0:0:
384,192,66783,1,0,0:0:0:0:
469,192,66783,1,0,0:0:0:0:
213,192,66783,1,0,0:0:0:0:
298,192,66783,128,0,66838:0:0:0:0:
384,192,66857,1,0,0:0:0:0:
128,192,66857,1,0,0:0:0:0:
469,192,66857,1,0,0:0:0:0:
42,192,66857,1,0,0:0:0:0:
298,192,66857,1,0,0:0:0:0:
213,192,66857,128,0,66913:0:0:0:0:
298,192,66931,1,0,0:0:0:0:
469,192,66931,1,0,0:0:0:0:
384,192,66931,1,0,0:0:0:0:
42,192,66931,1,0,0:0:0:0:
128,192,66931,1,0,0:0:0:0:
213,192,66931,128,0,66987:0:0:0:0:
298,192,67006,1,0,0:0:0:0:
469,192,67006,1,0,0:0:0:0:
213,192,67006,1,0,0:0:0:0:
384,192,67006,1,0,0:0:0:0:
42,192,67006,1,0,0:0:0:0:
128,192,67006,128,0,67061:0:0:0:0:
384,192,67080,1,0,0:0:0:0:
469,192,67080,1,0,0:0:0:0:
298,192,67080,1,0,0:0:0:0:
213,192,67080,1,0,0:0:0:0:
42,192,67080,1,0,0:0:0:0:
128,192,67080,128,0,67136:0:0:0:0:
298,192,67154,1,0,0:0:0:0:
469,192,67154,1,0,0:0:0:0:
384,192,67154,1,0,0:0:0:0:
42,192,67154,1,0,0:0:0:0:
213,192,67154,1,0,0:0:0:0:
128,192,67154,128,0,67210:0:0:0:0:
298,192,67228,1,0,0:0:0:0:
384,192,67228,1,0,0:0:0:0:
42,192,67228,1,0,0:0:0:0:
213,192,67228,1,0,0:0:0:0:
469,192,67228,1,0,0:0:0:0:
128,192,67228,128,0,67284:0:0:0:0:
298,192,67303,1,0,0:0:0:0:
128,192,67303,1,0,0:0:0:0:
469,192,67303,1,0,0:0:0:0:
213,192,67303,1,0,0:0:0:0:
384,192,67303,1,0,0:0:0:0:
42,192,67303,128,0,67358:0:0:0:0:
298,192,67377,1,0,0:0:0:0:
469,192,67377,1,0,0:0:0:0:
213,192,67377,1,0,0:0:0:0:
384,192,67377,1,0,0:0:0:0:
42,192,67377,128,0,67433:0:0:0:0:
128,192,67377,1,0,0:0:0:0:
384,192,67451,1,0,0:0:0:0:
213,192,67451,1,0,0:0:0:0:
469,192,67451,1,0,0:0:0:0:
298,192,67451,1,0,0:0:0:0:
42,192,67451,1,0,0:0:0:0:
128,192,67451,128,0,67507:0:0:0:0:
469,192,67525,1,0,0:0:0:0:
298,192,67525,1,0,0:0:0:0:
42,192,67525,1,0,0:0:0:0:
384,192,67525,1,0,0:0:0:0:
128,192,67525,128,0,67581:0:0:0:0:
213,192,67525,1,0,0:0:0:0:
42,192,67600,1,0,0:0:0:0:
298,192,67600,1,0,0:0:0:0:
384,192,67600,1,0,0:0:0:0:
128,192,67600,1,0,0:0:0:0:
469,192,67600,1,0,0:0:0:0:
213,192,67600,128,0,67655:0:0:0:0:
384,192,67674,1,0,0:0:0:0:
42,192,67674,1,0,0:0:0:0:
128,192,67674,1,0,0:0:0:0:
298,192,67674,1,0,0:0:0:0:
469,192,67674,1,0,0:0:0:0:
213,192,67674,128,0,67748:0:0:0:0:
469,192,67748,1,0,0:0:0:0:
213,192,67897,1,0,0:0:0:0:
298,192,67971,1,0,0:0:0:0:
384,192,68045,1,0,0:0:0:0:
42,192,68194,1,0,0:0:0:0:
128,192,68268,1,0,0:0:0:0:
213,192,68342,1,0,0:0:0:0:
298,192,68416,1,0,0:0:0:0:
384,192,68491,1,0,0:0:0:0:
128,192,68639,1,0,0:0:0:0:
213,192,68713,1,0,0:0:0:0:
298,192,68788,1,0,0:0:0:0:
384,192,68862,1,0,0:0:0:0:
42,192,68936,1,0,0:0:0:0:
128,192,68936,1,0,0:0:0:0:
213,192,68936,1,0,0:0:0:0:
384,192,68936,1,0,0:0:0:0:
213,192,69011,1,0,0:0:0:0:
42,192,69011,1,0,0:0:0:0:
384,192,69011,1,0,0:0:0:0:
128,192,69011,1,0,0:0:0:0:
128,192,69085,1,0,0:0:0:0:
42,192,69085,1,0,0:0:0:0:
213,192,69085,1,0,0:0:0:0:
384,192,69085,1,0,0:0:0:0:
128,192,69159,1,0,0:0:0:0:
213,192,69159,1,0,0:0:0:0:
384,192,69159,1,0,0:0:0:0:
42,192,69159,1,0,0:0:0:0:
42,192,69233,1,0,0:0:0:0:
213,192,69233,1,0,0:0:0:0:
384,192,69233,1,0,0:0:0:0:
128,192,69233,1,0,0:0:0:0:
384,192,69308,1,0,0:0:0:0:
42,192,69308,1,0,0:0:0:0:
128,192,69308,1,0,0:0:0:0:
213,192,69308,1,0,0:0:0:0:
469,192,69382,1,0,0:0:0:0:
298,192,69382,1,0,0:0:0:0:
384,192,69382,1,0,0:0:0:0:
128,192,69382,1,0,0:0:0:0:
128,192,69456,1,0,0:0:0:0:
384,192,69456,1,0,0:0:0:0:
469,192,69456,1,0,0:0:0:0:
298,192,69456,1,0,0:0:0:0:
384,192,69530,1,0,0:0:0:0:
128,192,69530,1,0,0:0:0:0:
469,192,69530,1,0,0:0:0:0:
298,192,69530,1,0,0:0:0:0:
298,192,69605,1,0,0:0:0:0:
469,192,69605,1,0,0:0:0:0:
384,192,69605,1,0,0:0:0:0:
128,192,69605,1,0,0:0:0:0:
298,192,69679,1,0,0:0:0:0:
469,192,69679,1,0,0:0:0:0:
384,192,69679,1,0,0:0:0:0:
128,192,69679,1,0,0:0:0:0:
384,192,69753,1,0,0:0:0:0:
469,192,69753,1,0,0:0:0:0:
128,192,69753,1,0,0:0:0:0:
298,192,69753,1,0,0:0:0:0:
298,192,69827,1,0,0:0:0:0:
469,192,69827,1,0,0:0:0:0:
42,192,69827,1,0,0:0:0:0:
213,192,69827,1,0,0:0:0:0:
298,192,69902,1,0,0:0:0:0:
42,192,69902,1,0,0:0:0:0:
213,192,69902,1,0,0:0:0:0:
469,192,69902,1,0,0:0:0:0:
298,192,69976,1,0,0:0:0:0:
469,192,69976,1,0,0:0:0:0:
42,192,69976,1,0,0:0:0:0:
213,192,69976,1,0,0:0:0:0:
298,192,70050,1,0,0:0:0:0:
469,192,70050,1,0,0:0:0:0:
213,192,70050,1,0,0:0:0:0:
42,192,70050,1,0,0:0:0:0:
384,192,70421,1,0,0:0:0:0:
298,192,70421,1,0,0:0:0:0:
213,192,70421,1,0,0:0:0:0:
42,192,70421,1,0,0:0:0:0:
128,192,70421,1,0,0:0:0:0:
384,192,70496,1,0,0:0:0:0:
298,192,70496,1,0,0:0:0:0:
42,192,70496,1,0,0:0:0:0:
213,192,70496,1,0,0:0:0:0:
128,192,70496,1,0,0:0:0:0:
42,192,70570,1,0,0:0:0:0:
213,192,70570,1,0,0:0:0:0:
384,192,70570,1,0,0:0:0:0:
298,192,70570,1,0,0:0:0:0:
469,192,70570,1,0,0:0:0:0:
298,192,70644,1,0,0:0:0:0:
213,192,70644,1,0,0:0:0:0:
42,192,70644,1,0,0:0:0:0:
384,192,70644,1,0,0:0:0:0:
469,192,70644,1,0,0:0:0:0:
469,192,70718,1,0,0:0:0:0:
213,192,70718,1,0,0:0:0:0:
298,192,70718,1,0,0:0:0:0:
384,192,70718,1,0,0:0:0:0:
42,192,70718,1,0,0:0:0:0:
384,192,70793,1,0,0:0:0:0:
213,192,70793,1,0,0:0:0:0:
298,192,70793,1,0,0:0:0:0:
469,192,70793,1,0,0:0:0:0:
42,192,70793,1,0,0:0:0:0:
128,192,70867,1,0,0:0:0:0:
384,192,70867,1,0,0:0:0:0:
42,192,70867,1,0,0:0:0:0:
469,192,70867,1,0,0:0:0:0:
213,192,70867,1,0,0:0:0:0:
42,192,70941,1,0,0:0:0:0:
384,192,70941,1,0,0:0:0:0:
469,192,70941,1,0,0:0:0:0:
128,192,70941,1,0,0:0:0:0:
213,192,70941,1,0,0:0:0:0:
469,192,71015,1,0,0:0:0:0:
298,192,71015,1,0,0:0:0:0:
128,192,71015,1,0,0:0:0:0:
384,192,71015,1,0,0:0:0:0:
42,192,71015,1,0,0:0:0:0:
384,192,71090,1,0,0:0:0:0:
298,192,71090,1,0,0:0:0:0:
128,192,71090,1,0,0:0:0:0:
469,192,71090,1,0,0:0:0:0:
42,192,71090,1,0,0:0:0:0:
128,192,71164,1,0,0:0:0:0:
298,192,71164,1,0,0:0:0:0:
42,192,71164,1,0,0:0:0:0:
469,192,71164,1,0,0:0:0:0:
213,192,71164,1,0,0:0:0:0:
42,192,71238,1,0,0:0:0:0:
298,192,71238,1,0,0:0:0:0:
213,192,71238,1,0,0:0:0:0:
469,192,71238,1,0,0:0:0:0:
128,192,71238,1,0,0:0:0:0:
42,192,71313,1,0,0:0:0:0:
213,192,71313,1,0,0:0:0:0:
128,192,71313,1,0,0:0:0:0:
469,192,71313,1,0,0:0:0:0:
384,192,71313,1,0,0:0:0:0:
469,192,71387,1,0,0:0:0:0:
213,192,71387,1,0,0:0:0:0:
128,192,71387,1,0,0:0:0:0:
384,192,71387,1,0,0:0:0:0:
42,192,71387,1,0,0:0:0:0:
384,192,71461,1,0,0:0:0:0:
128,192,71461,1,0,0:0:0:0:
42,192,71461,1,0,0:0:0:0:
298,192,71461,1,0,0:0:0:0:
469,192,71461,1,0,0:0:0:0:
42,192,71535,1,0,0:0:0:0:
128,192,71535,1,0,0:0:0:0:
384,192,71535,1,0,0:0:0:0:
298,192,71535,1,0,0:0:0:0:
469,192,71535,1,0,0:0:0:0:
42,192,71610,1,0,0:0:0:0:
128,192,71610,1,0,0:0:0:0:
298,192,71610,1,0,0:0:0:0:
384,192,71610,1,0,0:0:0:0:
213,192,71610,1,0,0:0:0:0:
42,192,71684,1,0,0:0:0:0:
128,192,71684,1,0,0:0:0:0:
384,192,71684,1,0,0:0:0:0:
298,192,71684,1,0,0:0:0:0:
213,192,71684,1,0,0:0:0:0:
128,192,71758,1,0,0:0:0:0:
469,192,71758,1,0,0:0:0:0:
384,192,71758,1,0,0:0:0:0:
213,192,71758,1,0,0:0:0:0:
42,192,71758,1,0,0:0:0:0:
213,192,71832,1,0,0:0:0:0:
469,192,71832,1,0,0:0:0:0:
128,192,71832,1,0,0:0:0:0:
384,192,71832,1,0,0:0:0:0:
42,192,71832,1,0,0:0:0:0:
469,192,71907,1,0,0:0:0:0:
213,192,71907,1,0,0:0:0:0:
128,192,71907,1,0,0:0:0:0:
384,192,71907,1,0,0:0:0:0:
42,192,71907,1,0,0:0:0:0:
469,192,71981,1,0,0:0:0:0:
128,192,71981,1,0,0:0:0:0:
384,192,71981,1,0,0:0:0:0:
213,192,71981,1,0,0:0:0:0:
42,192,71981,1,0,0:0:0:0:
469,192,72055,1,0,0:0:0:0:
384,192,72055,1,0,0:0:0:0:
298,192,72055,1,0,0:0:0:0:
128,192,72055,1,0,0:0:0:0:
213,192,72055,1,0,0:0:0:0:
298,192,72129,1,0,0:0:0:0:
384,192,72129,1,0,0:0:0:0:
469,192,72129,1,0,0:0:0:0:
128,192,72129,1,0,0:0:0:0:
213,192,72129,1,0,0:0:0:0:
298,192,72204,1,0,0:0:0:0:
469,192,72204,1,0,0:0:0:0:
384,192,72204,1,0,0:0:0:0:
42,192,72204,1,0,0:0:0:0:
213,192,72204,1,0,0:0:0:0:
469,192,72278,1,0,0:0:0:0:
213,192,72278,1,0,0:0:0:0:
298,192,72278,1,0,0:0:0:0:
384,192,72278,1,0,0:0:0:0:
42,192,72278,1,0,0:0:0:0:
384,192,72352,1,0,0:0:0:0:
128,192,72352,1,0,0:0:0:0:
42,192,72352,1,0,0:0:0:0:
469,192,72352,1,0,0:0:0:0:
298,192,72352,1,0,0:0:0:0:
469,192,72426,1,0,0:0:0:0:
298,192,72426,1,0,0:0:0:0:
384,192,72426,1,0,0:0:0:0:
128,192,72426,1,0,0:0:0:0:
42,192,72426,1,0,0:0:0:0:
213,192,72501,1,0,0:0:0:0:
42,192,72501,1,0,0:0:0:0:
469,192,72501,1,0,0:0:0:0:
384,192,72501,1,0,0:0:0:0:
128,192,72501,1,0,0:0:0:0:
42,192,72575,1,0,0:0:0:0:
128,192,72575,1,0,0:0:0:0:
384,192,72575,1,0,0:0:0:0:
213,192,72575,1,0,0:0:0:0:
469,192,72575,1,0,0:0:0:0:
384,192,72649,1,0,0:0:0:0:
42,192,72649,1,0,0:0:0:0:
213,192,72649,1,0,0:0:0:0:
298,192,72649,1,0,0:0:0:0:
469,192,72649,1,0,0:0:0:0:
213,192,72723,1,0,0:0:0:0:
42,192,72723,1,0,0:0:0:0:
298,192,72723,1,0,0:0:0:0:
384,192,72723,1,0,0:0:0:0:
469,192,72723,1,0,0:0:0:0:
42,192,72798,1,0,0:0:0:0:
213,192,72798,1,0,0:0:0:0:
128,192,72798,1,0,0:0:0:0:
298,192,72798,1,0,0:0:0:0:
384,192,72798,1,0,0:0:0:0:
128,192,72872,1,0,0:0:0:0:
213,192,72872,1,0,0:0:0:0:
42,192,72872,1,0,0:0:0:0:
298,192,72872,1,0,0:0:0:0:
384,192,72872,1,0,0:0:0:0:
384,192,72946,1,0,0:0:0:0:
213,192,72946,1,0,0:0:0:0:
42,192,72946,1,0,0:0:0:0:
298,192,72946,1,0,0:0:0:0:
469,192,72946,1,0,0:0:0:0:
42,192,73020,1,0,0:0:0:0:
213,192,73020,1,0,0:0:0:0:
384,192,73020,1,0,0:0:0:0:
298,192,73020,1,0,0:0:0:0:
469,192,73020,1,0,0:0:0:0:
42,192,73095,1,0,0:0:0:0:
213,192,73095,1,0,0:0:0:0:
298,192,73095,1,0,0:0:0:0:
384,192,73095,1,0,0:0:0:0:
469,192,73095,1,0,0:0:0:0:
384,192,73169,1,0,0:0:0:0:
213,192,73169,1,0,0:0:0:0:
42,192,73169,1,0,0:0:0:0:
469,192,73169,1,0,0:0:0:0:
298,192,73169,1,0,0:0:0:0:
128,192,73243,1,0,0:0:0:0:
469,192,73243,1,0,0:0:0:0:
384,192,73243,1,0,0:0:0:0:
213,192,73243,1,0,0:0:0:0:
42,192,73243,1,0,0:0:0:0:
213,192,73317,1,0,0:0:0:0:
469,192,73317,1,0,0:0:0:0:
128,192,73317,1,0,0:0:0:0:
384,192,73317,1,0,0:0:0:0:
42,192,73317,1,0,0:0:0:0:
298,192,73392,1,0,0:0:0:0:
469,192,73392,1,0,0:0:0:0:
128,192,73392,1,0,0:0:0:0:
384,192,73392,1,0,0:0:0:0:
42,192,73392,1,0,0:0:0:0:
469,192,73466,1,0,0:0:0:0:
128,192,73466,1,0,0:0:0:0:
384,192,73466,1,0,0:0:0:0:
298,192,73466,1,0,0:0:0:0:
42,192,73466,1,0,0:0:0:0:
469,192,73540,1,0,0:0:0:0:
384,192,73540,1,0,0:0:0:0:
213,192,73540,1,0,0:0:0:0:
128,192,73540,1,0,0:0:0:0:
42,192,73540,1,0,0:0:0:0:
128,192,73887,1,0,0:0:0:0:
213,192,73887,1,0,0:0:0:0:
298,192,73887,1,0,0:0:0:0:
384,192,73887,1,0,0:0:0:0:
469,192,73887,1,0,0:0:0:0:
42,192,73887,1,0,0:0:0:0:
469,192,74085,1,0,0:0:0:0:
384,192,74085,1,0,0:0:0:0:
298,192,74085,1,0,0:0:0:0:
213,192,74085,1,0,0:0:0:0:
128,192,74085,1,0,0:0:0:0:
42,192,74085,1,0,0:0:0:0:
128,192,74283,1,0,0:0:0:0:
42,192,74283,1,0,0:0:0:0:
213,192,74283,1,0,0:0:0:0:
384,192,74283,1,0,0:0:0:0:
298,192,74283,1,0,0:0:0:0:
469,192,74283,1,0,0:0:0:0:
469,192,74481,1,0,0:0:0:0:
384,192,74481,1,0,0:0:0:0:
298,192,74481,1,0,0:0:0:0:
213,192,74481,1,0,0:0:0:0:
128,192,74481,1,0,0:0:0:0:
42,192,74481,1,0,0:0:0:0:
42,192,74679,1,0,0:0:0:0:
128,192,74679,1,0,0:0:0:0:
213,192,74679,1,0,0:0:0:0:
298,192,74679,1,0,0:0:0:0:
384,192,74679,1,0,0:0:0:0:
469,192,74679,1,0,0:0:0:0:
469,192,74877,1,0,0:0:0:0:
384,192,74877,1,0,0:0:0:0:
298,192,74877,1,0,0:0:0:0:
213,192,74877,1,0,0:0:0:0:
128,192,74877,1,0,0:0:0:0:
42,192,74877,1,0,0:0:0:0:
128,192,75322,1,0,0:0:0:0:
42,192,75322,1,0,0:0:0:0:
384,192,75322,1,0,0:0:0:0:
469,192,75322,1,0,0:0:0:0:
213,192,75322,1,0,0:0:0:0:
298,192,75322,1,0,0:0:0:0:
213,192,75397,1,0,0:0:0:0:
298,192,75397,1,0,0:0:0:0:
42,192,75397,1,0,0:0:0:0:
128,192,75397,1,0,0:0:0:0:
384,192,75397,1,0,0:0:0:0:
469,192,75397,1,0,0:0:0:0:
42,192,75471,1,0,0:0:0:0:
128,192,75471,1,0,0:0:0:0:
384,192,75471,1,0,0:0:0:0:
469,192,75471,1,0,0:0:0:0:
213,192,75471,1,0,0:0:0:0:
298,192,75471,1,0,0:0:0:0:
213,192,75916,1,0,0:0:0:0:
298,192,75916,1,0,0:0:0:0:
42,192,75916,1,0,0:0:0:0:
469,192,75916,1,0,0:0:0:0:
42,192,75991,1,0,0:0:0:0:
469,192,75991,1,0,0:0:0:0:
298,192,75991,1,0,0:0:0:0:
213,192,75991,1,0,0:0:0:0:
213,192,76065,1,0,0:0:0:0:
298,192,76065,1,0,0:0:0:0:
469,192,76065,1,0,0:0:0:0:
42,192,76065,1,0,0:0:0:0:
384,192,76511,1,0,0:0:0:0:
469,192,76511,1,0,0:0:0:0:
42,192,76511,1,0,0:0:0:0:
128,192,76511,1,0,0:0:0:0:
128,192,76585,1,0,0:0:0:0:
42,192,76585,1,0,0:0:0:0:
384,192,76585,1,0,0:0:0:0:
469,192,76585,1,0,0:0:0:0:
384,192,76659,1,0,0:0:0:0:
469,192,76659,1,0,0:0:0:0:
42,192,76659,1,0,0:0:0:0:
128,192,76659,1,0,0:0:0:0:
128,192,77105,1,0,0:0:0:0:
213,192,77105,1,0,0:0:0:0:
298,192,77105,1,0,0:0:0:0:
384,192,77105,1,0,0:0:0:0:
298,192,77179,1,0,0:0:0:0:
384,192,77179,1,0,0:0:0:0:
213,192,77179,1,0,0:0:0:0:
128,192,77179,1,0,0:0:0:0:
213,192,77253,1,0,0:0:0:0:
128,192,77253,1,0,0:0:0:0:
384,192,77253,1,0,0:0:0:0:
298,192,77253,128,0,78441:0:0:0:0:
42,192,78441,1,0,0:0:0:0:
128,192,78441,1,0,0:0:0:0:
213,192,78441,1,0,0:0:0:0:
384,192,78441,1,0,0:0:0:0:
469,192,78441,128,0,78887:0:0:0:0:
42,192,78887,1,0,0:0:0:0:
298,192,78887,1,0,0:0:0:0:
384,192,78887,1,0,0:0:0:0:
128,192,78887,128,0,79332:0:0:0:0:
213,192,78887,1,0,0:0:0:0:
298,192,79332,1,0,0:0:0:0:
384,192,79332,1,0,0:0:0:0:
469,192,79332,1,0,0:0:0:0:
42,192,79332,128,0,79629:0:0:0:0:
213,192,79332,1,0,0:0:0:0:
128,192,79629,1,0,0:0:0:0:
298,192,79629,1,0,0:0:0:0:
469,192,79629,1,0,0:0:0:0:
213,192,79629,128,0,80817:0:0:0:0:
384,192,79629,1,0,0:0:0:0:
298,192,80817,1,0,0:0:0:0:
384,192,80817,128,0,81263:0:0:0:0:
213,192,81263,128,0,81709:0:0:0:0:
42,192,81263,1,0,0:0:0:0:
128,192,81709,128,0,82006:0:0:0:0:
469,192,81709,1,0,0:0:0:0:
42,192,82006,128,0,82303:0:0:0:0:
384,192,82006,1,0,0:0:0:0:
213,192,82303,1,0,0:0:0:0:
298,192,82600,1,0,0:0:0:0:
469,192,82600,1,0,0:0:0:0:
298,192,82897,1,0,0:0:0:0:
469,192,82897,1,0,0:0:0:0:
128,192,83194,1,0,0:0:0:0:
384,192,83194,1,0,0:0:0:0:
128,192,83491,1,0,0:0:0:0:
384,192,83491,1,0,0:0:0:0:
42,192,83788,1,0,0:0:0:0:
298,192,83788,1,0,0:0:0:0:
42,192,84085,1,0,0:0:0:0:
298,192,84085,1,0,0:0:0:0:
213,192,84382,1,0,0:0:0:0:
469,192,84382,1,0,0:0:0:0:
213,192,84679,1,0,0:0:0:0:
469,192,84679,1,0,0:0:0:0:
128,192,84976,1,0,0:0:0:0:
298,192,84976,1,0,0:0:0:0:
128,192,85273,1,0,0:0:0:0:
298,192,85273,1,0,0:0:0:0:
213,192,85570,1,0,0:0:0:0:
384,192,85570,1,0,0:0:0:0:
213,192,85867,1,0,0:0:0:0:
384,192,85867,1,0,0:0:0:0:
469,192,86164,1,0,0:0:0:0:
42,192,86461,1,0,0:0:0:0:
42,192,86610,1,0,0:0:0:0:
384,192,86758,1,0,0:0:0:0:
213,192,87055,1,0,0:0:0:0:
298,192,87352,1,0,0:0:0:0:
128,192,87649,1,0,0:0:0:0:
469,192,87946,1,0,0:0:0:0:
298,192,88243,1,0,0:0:0:0:
42,192,88392,1,0,0:0:0:0:
42,192,88466,1,0,0:0:0:0:
42,192,88540,1,0,0:0:0:0:
42,192,88689,1,0,0:0:0:0:
42,192,88837,1,0,0:0:0:0:
42,192,88986,1,0,0:0:0:0:
42,192,89060,1,0,0:0:0:0:
42,192,89134,1,0,0:0:0:0:
298,192,89134,1,0,0:0:0:0:
469,192,89134,1,0,0:0:0:0:
298,192,89209,1,0,0:0:0:0:
469,192,89209,1,0,0:0:0:0:
298,192,89283,1,0,0:0:0:0:
469,192,89283,1,0,0:0:0:0:
298,192,89357,1,0,0:0:0:0:
469,192,89357,1,0,0:0:0:0:
298,192,89431,1,0,0:0:0:0:
469,192,89431,1,0,0:0:0:0:
42,192,89431,1,0,0:0:0:0:
42,192,89506,1,0,0:0:0:0:
42,192,89580,1,0,0:0:0:0:
298,192,89654,1,0,0:0:0:0:
469,192,89654,1,0,0:0:0:0:
298,192,89728,1,0,0:0:0:0:
469,192,89728,1,0,0:0:0:0:
298,192,89803,1,0,0:0:0:0:
469,192,89803,1,0,0:0:0:0:
384,192,89877,1,0,0:0:0:0:
384,192,89951,1,0,0:0:0:0:
42,192,90025,1,0,0:0:0:0:
213,192,90025,1,0,0:0:0:0:
384,192,90025,1,0,0:0:0:0:
213,192,90100,1,0,0:0:0:0:
42,192,90100,1,0,0:0:0:0:
213,192,90174,1,0,0:0:0:0:
42,192,90174,1,0,0:0:0:0:
42,192,90248,1,0,0:0:0:0:
213,192,90248,1,0,0:0:0:0:
384,192,90322,1,0,0:0:0:0:
384,192,90397,1,0,0:0:0:0:
42,192,90471,1,0,0:0:0:0:
213,192,90471,1,0,0:0:0:0:
213,192,90545,1,0,0:0:0:0:
42,192,90545,1,0,0:0:0:0:
213,192,90619,1,0,0:0:0:0:
42,192,90619,1,0,0:0:0:0:
384,192,90619,1,0,0:0:0:0:
298,192,90694,1,0,0:0:0:0:
469,192,90768,1,0,0:0:0:0:
384,192,90842,1,0,0:0:0:0:
298,192,90879,1,0,0:0:0:0:
213,192,90916,1,0,0:0:0:0:
128,192,90954,1,0,0:0:0:0:
42,192,90991,1,0,0:0:0:0:
469,192,91028,1,0,0:0:0:0:
384,192,91065,1,0,0:0:0:0:
298,192,91102,1,0,0:0:0:0:
213,192,91139,1,0,0:0:0:0:
128,192,91176,1,0,0:0:0:0:
42,192,91213,1,0,0:0:0:0:
384,192,91251,1,0,0:0:0:0:
298,192,91288,1,0,0:0:0:0:
213,192,91325,1,0,0:0:0:0:
128,192,91362,1,0,0:0:0:0:
42,192,91399,1,0,0:0:0:0:
42,192,91511,1,0,0:0:0:0:
128,192,91560,1,0,0:0:0:0:
213,192,91610,1,0,0:0:0:0:
298,192,91659,1,0,0:0:0:0:
384,192,91709,1,0,0:0:0:0:
469,192,91758,1,0,0:0:0:0:
42,192,91808,1,0,0:0:0:0:
128,192,91808,1,0,0:0:0:0:
213,192,91808,1,0,0:0:0:0:
298,192,91956,1,0,0:0:0:0:
384,192,92105,1,0,0:0:0:0:
469,192,92105,1,0,0:0:0:0:
42,192,92253,1,0,0:0:0:0:
213,192,92402,1,0,0:0:0:0:
298,192,92402,1,0,0:0:0:0:
42,192,92476,1,0,0:0:0:0:
128,192,92513,1,0,0:0:0:0:
213,192,92550,1,0,0:0:0:0:
298,192,92600,1,0,0:0:0:0:
384,192,92649,1,0,0:0:0:0:
469,192,92699,1,0,0:0:0:0:
384,192,92773,1,0,0:0:0:0:
298,192,92847,1,0,0:0:0:0:
213,192,92921,1,0,0:0:0:0:
298,192,92996,1,0,0:0:0:0:
213,192,93070,1,0,0:0:0:0:
128,192,93144,1,0,0:0:0:0:
42,192,93218,1,0,0:0:0:0:
213,192,93293,1,0,0:0:0:0:
384,192,93367,1,0,0:0:0:0:
298,192,93441,1,0,0:0:0:0:
128,192,93515,1,0,0:0:0:0:
213,192,93590,1,0,0:0:0:0:
298,192,93664,1,0,0:0:0:0:
213,192,93738,1,0,0:0:0:0:
42,192,93813,1,0,0:0:0:0:
298,192,93887,1,0,0:0:0:0:
42,192,94035,1,0,0:0:0:0:
128,192,94110,1,0,0:0:0:0:
469,192,94184,1,0,0:0:0:0:
384,192,94258,1,0,0:0:0:0:
128,192,94332,1,0,0:0:0:0:
213,192,94407,1,0,0:0:0:0:
298,192,94481,1,0,0:0:0:0:
128,192,94629,1,0,0:0:0:0:
213,192,94704,1,0,0:0:0:0:
384,192,94778,1,0,0:0:0:0:
298,192,94852,1,0,0:0:0:0:
213,192,94926,1,0,0:0:0:0:
128,192,95001,1,0,0:0:0:0:
298,192,95075,5,0,0:0:0:0:
128,192,95223,1,0,0:0:0:0:
213,192,95298,1,0,0:0:0:0:
298,192,95372,1,0,0:0:0:0:
213,192,95446,1,0,0:0:0:0:
298,192,95520,1,0,0:0:0:0:
384,192,95595,1,0,0:0:0:0:
469,192,95669,1,0,0:0:0:0:
298,192,95743,1,0,0:0:0:0:
469,192,95817,1,0,0:0:0:0:
384,192,95892,1,0,0:0:0:0:
298,192,95966,1,0,0:0:0:0:
213,192,96040,1,0,0:0:0:0:
128,192,96114,1,0,0:0:0:0:
42,192,96189,1,0,0:0:0:0:
213,192,96263,1,0,0:0:0:0:
469,192,96263,1,0,0:0:0:0:
298,192,96263,1,0,0:0:0:0:
128,192,96263,1,0,0:0:0:0:
42,192,96412,1,0,0:0:0:0:
213,192,96412,1,0,0:0:0:0:
298,192,96412,1,0,0:0:0:0:
469,192,96412,1,0,0:0:0:0:
42,192,96560,1,0,0:0:0:0:
213,192,96560,1,0,0:0:0:0:
298,192,96560,1,0,0:0:0:0:
469,192,96560,1,0,0:0:0:0:
42,192,96709,1,0,0:0:0:0:
128,192,96709,1,0,0:0:0:0:
384,192,96709,1,0,0:0:0:0:
469,192,96709,1,0,0:0:0:0:
384,192,96857,1,0,0:0:0:0:
469,192,96857,1,0,0:0:0:0:
42,192,96857,1,0,0:0:0:0:
128,192,96857,1,0,0:0:0:0:
42,192,97006,1,0,0:0:0:0:
128,192,97006,1,0,0:0:0:0:
384,192,97006,1,0,0:0:0:0:
469,192,97006,1,0,0:0:0:0:
128,192,97154,1,0,0:0:0:0:
213,192,97154,1,0,0:0:0:0:
298,192,97154,1,0,0:0:0:0:
384,192,97154,1,0,0:0:0:0:
128,192,97303,1,0,0:0:0:0:
298,192,97303,1,0,0:0:0:0:
213,192,97303,1,0,0:0:0:0:
384,192,97303,1,0,0:0:0:0:
128,192,97377,1,0,0:0:0:0:
213,192,97377,1,0,0:0:0:0:
298,192,97377,1,0,0:0:0:0:
384,192,97377,1,0,0:0:0:0:
42,192,97451,5,0,0:0:0:0:
128,192,97451,1,0,0:0:0:0:
213,192,97451,1,0,0:0:0:0:
298,192,97451,1,0,0:0:0:0:
384,192,97451,1,0,0:0:0:0:
469,192,97451,1,0,0:0:0:0:
469,192,97550,1,0,0:0:0:0:
384,192,97550,1,0,0:0:0:0:
298,192,97550,1,0,0:0:0:0:
213,192,97550,1,0,0:0:0:0:
128,192,97550,1,0,0:0:0:0:
42,192,97550,1,0,0:0:0:0:
42,192,97649,1,0,0:0:0:0:
128,192,97649,1,0,0:0:0:0:
213,192,97649,1,0,0:0:0:0:
298,192,97649,1,0,0:0:0:0:
384,192,97649,1,0,0:0:0:0:
469,192,97649,1,0,0:0:0:0:
469,192,97748,1,0,0:0:0:0:
384,192,97748,1,0,0:0:0:0:
298,192,97748,1,0,0:0:0:0:
213,192,97748,1,0,0:0:0:0:
128,192,97748,1,0,0:0:0:0:
42,192,97748,1,0,0:0:0:0:
42,192,97847,1,0,0:0:0:0:
128,192,97847,1,0,0:0:0:0:
213,192,97847,1,0,0:0:0:0:
298,192,97847,1,0,0:0:0:0:
384,192,97847,1,0,0:0:0:0:
469,192,97847,1,0,0:0:0:0:
42,192,97946,1,0,0:0:0:0:
128,192,97946,1,0,0:0:0:0:
213,192,97946,1,0,0:0:0:0:
298,192,97946,1,0,0:0:0:0:
384,192,97946,1,0,0:0:0:0:
469,192,97946,1,0,0:0:0:0:
213,192,98045,1,0,0:0:0:0:
298,192,98045,1,0,0:0:0:0:
384,192,98045,1,0,0:0:0:0:
469,192,98045,1,0,0:0:0:0:
213,192,98119,1,0,0:0:0:0:
384,192,98119,1,0,0:0:0:0:
298,192,98119,1,0,0:0:0:0:
469,192,98119,1,0,0:0:0:0:
384,192,98194,1,0,0:0:0:0:
298,192,98194,1,0,0:0:0:0:
213,192,98194,1,0,0:0:0:0:
128,192,98194,1,0,0:0:0:0:
213,192,98268,1,0,0:0:0:0:
298,192,98268,1,0,0:0:0:0:
128,192,98268,1,0,0:0:0:0:
384,192,98268,1,0,0:0:0:0:
42,192,98342,1,0,0:0:0:0:
128,192,98342,1,0,0:0:0:0:
213,192,98342,1,0,0:0:0:0:
298,192,98342,1,0,0:0:0:0:
42,192,98416,1,0,0:0:0:0:
128,192,98416,1,0,0:0:0:0:
213,192,98416,1,0,0:0:0:0:
298,192,98416,1,0,0:0:0:0:
469,192,98491,1,0,0:0:0:0:
469,192,98565,1,0,0:0:0:0:
42,192,98639,1,0,0:0:0:0:
128,192,98639,1,0,0:0:0:0:
128,192,98713,1,0,0:0:0:0:
42,192,98713,1,0,0:0:0:0:
42,192,98862,1,0,0:0:0:0:
128,192,98862,1,0,0:0:0:0:
42,192,98936,1,0,0:0:0:0:
128,192,98936,1,0,0:0:0:0:
42,192,99085,1,0,0:0:0:0:
128,192,99085,1,0,0:0:0:0:
42,192,99159,1,0,0:0:0:0:
128,192,99159,1,0,0:0:0:0:
42,192,99308,1,0,0:0:0:0:
128,192,99308,1,0,0:0:0:0:
42,192,99382,1,0,0:0:0:0:
128,192,99382,1,0,0:0:0:0:
128,192,99530,1,0,0:0:0:0:
42,192,99530,1,0,0:0:0:0:
213,192,99827,1,0,0:0:0:0:
298,192,99827,1,0,0:0:0:0:
213,192,99902,1,0,0:0:0:0:
298,192,99902,1,0,0:0:0:0:
213,192,100050,1,0,0:0:0:0:
298,192,100050,1,0,0:0:0:0:
213,192,100124,1,0,0:0:0:0:
298,192,100124,1,0,0:0:0:0:
213,192,100273,1,0,0:0:0:0:
298,192,100273,1,0,0:0:0:0:
213,192,100347,1,0,0:0:0:0:
298,192,100347,1,0,0:0:0:0:
213,192,100496,1,0,0:0:0:0:
298,192,100496,1,0,0:0:0:0:
213,192,100570,1,0,0:0:0:0:
298,192,100570,1,0,0:0:0:0:
213,192,100718,1,0,0:0:0:0:
298,192,100718,1,0,0:0:0:0:
384,192,101015,1,0,0:0:0:0:
469,192,101015,1,0,0:0:0:0:
384,192,101090,1,0,0:0:0:0:
469,192,101090,1,0,0:0:0:0:
384,192,101238,1,0,0:0:0:0:
469,192,101238,1,0,0:0:0:0:
384,192,101313,1,0,0:0:0:0:
469,192,101313,1,0,0:0:0:0:
384,192,101461,1,0,0:0:0:0:
469,192,101461,1,0,0:0:0:0:
42,192,101461,1,0,0:0:0:0:
384,192,101535,1,0,0:0:0:0:
469,192,101535,1,0,0:0:0:0:
42,192,101535,1,0,0:0:0:0:
42,192,101684,1,0,0:0:0:0:
384,192,101684,1,0,0:0:0:0:
469,192,101684,1,0,0:0:0:0:
42,192,101758,1,0,0:0:0:0:
384,192,101758,1,0,0:0:0:0:
469,192,101758,1,0,0:0:0:0:
384,192,101907,1,0,0:0:0:0:
469,192,101907,1,0,0:0:0:0:
128,192,101907,1,0,0:0:0:0:
384,192,101981,1,0,0:0:0:0:
469,192,101981,1,0,0:0:0:0:
128,192,101981,1,0,0:0:0:0:
384,192,102129,1,0,0:0:0:0:
469,192,102129,1,0,0:0:0:0:
128,192,102129,1,0,0:0:0:0:
384,192,102204,1,0,0:0:0:0:
469,192,102204,1,0,0:0:0:0:
128,192,102204,1,0,0:0:0:0:
213,192,102352,1,0,0:0:0:0:
384,192,102352,1,0,0:0:0:0:
469,192,102352,1,0,0:0:0:0:
213,192,102426,1,0,0:0:0:0:
384,192,102426,1,0,0:0:0:0:
469,192,102426,1,0,0:0:0:0:
213,192,102575,1,0,0:0:0:0:
384,192,102575,1,0,0:0:0:0:
469,192,102575,1,0,0:0:0:0:
213,192,102649,1,0,0:0:0:0:
384,192,102649,1,0,0:0:0:0:
469,192,102649,1,0,0:0:0:0:
298,192,102798,1,0,0:0:0:0:
384,192,102798,1,0,0:0:0:0:
128,192,102872,1,0,0:0:0:0:
213,192,102872,1,0,0:0:0:0:
298,192,102946,1,0,0:0:0:0:
384,192,102946,1,0,0:0:0:0:
128,192,103020,1,0,0:0:0:0:
213,192,103020,1,0,0:0:0:0:
298,192,103095,1,0,0:0:0:0:
384,192,103095,1,0,0:0:0:0:
128,192,103169,1,0,0:0:0:0:
213,192,103169,1,0,0:0:0:0:
298,192,103243,1,0,0:0:0:0:
384,192,103243,1,0,0:0:0:0:
128,192,103317,1,0,0:0:0:0:
213,192,103317,1,0,0:0:0:0:
298,192,103392,1,0,0:0:0:0:
384,192,103392,1,0,0:0:0:0:
469,192,103392,128,0,105322:0:0:0:0:
