osu file format v14

[General]
AudioFilename: audio.mp3
AudioLeadIn: 0
PreviewTime: 108204
Countdown: 0
SampleSet: Soft
StackLeniency: 0.7
Mode: 3
LetterboxInBreaks: 0
SpecialStyle: 1
WidescreenStoryboard: 1

[Editor]
DistanceSpacing: 0.8
BeatDivisor: 4
GridSize: 4
TimelineZoom: 2.3

[Metadata]
Title:citanLu
TitleUnicode:citanLu
Artist:ICE
ArtistUnicode:ICE
Creator:genkicho
Version:MX
Source:VOEZ
Tags:Ice L6 VOEZ rythmgame LHardcore lunatic meteo
BeatmapID:1029905
BeatmapSetID:482679

[Difficulty]
HPDrainRate:8.3
CircleSize:4
OverallDifficulty:8
ApproachRate:5
SliderMultiplier:1.4
SliderTickRate:1

[Events]
//Background and Video events
0,0,"citanLu BG.jpg",0,0
//Break Periods
//Storyboard Layer 0 (Background)
//Storyboard Layer 1 (Fail)
//Storyboard Layer 2 (Pass)
//Storyboard Layer 3 (Foreground)
//Storyboard Sound Samples

[TimingPoints]
1062,357.142857142857,3,2,0,20,1,0
1062,-100,3,2,0,16,0,0
9633,-100,3,3,0,20,0,0
18204,-100,3,2,0,16,0,0
22490,-100,3,2,0,20,0,0
39633,-100,3,2,0,20,0,0
56776,-100,3,2,0,20,0,0
65347,-100,3,3,0,20,0,0
73919,-125,3,2,0,10,0,0
81419,-111.111111111111,3,2,0,10,0,0
82490,-100,3,3,0,20,0,0
91061,-100,3,2,0,16,0,0
108204,-100,3,3,0,20,0,1
121061,-100,3,3,0,20,0,1
126419,-133.333333333333,3,2,0,20,0,0

[HitObjects]
448,192,1062,5,0,0:0:0:0:
192,192,1062,1,4,2:0:0:0:
448,192,1240,1,0,0:0:0:0:
192,192,1240,1,0,0:0:0:0:
448,192,1597,1,0,0:0:0:0:
192,192,1597,1,0,0:0:0:0:
448,192,1776,1,0,0:0:0:0:
192,192,1776,1,0,0:0:0:0:
448,192,2133,1,0,0:0:0:0:
192,192,2133,1,0,0:0:0:0:
448,192,2311,1,0,0:0:0:0:
192,192,2311,1,0,0:0:0:0:
448,192,2669,1,0,0:0:0:0:
192,192,2669,1,0,0:0:0:0:
448,192,3026,1,0,0:0:0:0:
320,192,3026,1,0,0:0:0:0:
320,192,3204,1,0,0:0:0:0:
64,192,3204,1,4,2:0:0:0:
320,192,3383,1,0,0:0:0:0:
64,192,3383,1,0,0:0:0:0:
320,192,3740,1,0,0:0:0:0:
64,192,3740,1,0,0:0:0:0:
320,192,3919,1,0,0:0:0:0:
64,192,3919,1,0,0:0:0:0:
320,192,4276,1,0,0:0:0:0:
64,192,4276,1,0,0:0:0:0:
320,192,4454,1,0,0:0:0:0:
64,192,4454,1,0,0:0:0:0:
64,192,4811,1,0,0:0:0:0:
320,192,4811,1,0,0:0:0:0:
64,192,5169,1,0,0:0:0:0:
192,192,5169,1,0,0:0:0:0:
320,192,5347,1,4,2:0:0:0:
448,192,5347,1,0,0:0:0:0:
320,192,5526,1,0,0:0:0:0:
448,192,5526,1,0,0:0:0:0:
320,192,5883,1,0,0:0:0:0:
448,192,5883,1,0,0:0:0:0:
320,192,6061,1,0,0:0:0:0:
448,192,6061,1,0,0:0:0:0:
320,192,6419,1,0,0:0:0:0:
448,192,6419,1,0,0:0:0:0:
320,192,6597,1,0,0:0:0:0:
448,192,6597,1,0,0:0:0:0:
320,192,6954,1,0,0:0:0:0:
448,192,6954,1,0,0:0:0:0:
320,192,7311,1,0,0:0:0:0:
192,192,7311,1,0,0:0:0:0:
448,192,7490,1,0,0:0:0:0:
64,192,7490,1,4,2:0:0:0:
448,192,7669,1,0,0:0:0:0:
64,192,7669,1,0,0:0:0:0:
448,192,8026,1,0,0:0:0:0:
64,192,8026,1,0,0:0:0:0:
448,192,8204,1,0,0:0:0:0:
64,192,8204,1,0,0:0:0:0:
448,192,8561,1,0,0:0:0:0:
192,192,8561,1,0,0:0:0:0:
448,192,8740,1,0,0:0:0:0:
192,192,8740,1,0,0:0:0:0:
448,192,9097,1,0,0:0:0:0:
192,192,9097,1,0,0:0:0:0:
448,192,9454,1,0,0:0:0:0:
192,192,9454,1,0,0:0:0:0:
64,192,9633,1,4,2:0:0:0:
448,192,9633,1,8,3:0:0:0:
320,192,9722,1,8,3:0:0:0:
64,192,9811,1,8,3:0:0:0:
448,192,9811,1,8,3:0:0:0:
320,192,9901,1,8,3:0:0:0:
192,192,9990,1,8,3:0:0:0:
64,192,10169,1,8,3:0:0:0:
448,192,10169,1,8,3:0:0:0:
320,192,10258,1,8,3:0:0:0:
64,192,10347,1,8,3:0:0:0:
448,192,10347,1,8,3:0:0:0:
320,192,10436,1,8,3:0:0:0:
192,192,10526,1,8,3:0:0:0:
64,192,10704,1,8,3:0:0:0:
448,192,10704,1,10,3:0:0:0:
320,192,10794,1,8,3:0:0:0:
64,192,10883,1,8,3:0:0:0:
448,192,10883,1,8,3:0:0:0:
320,192,10972,1,8,3:0:0:0:
192,192,11061,1,8,3:0:0:0:
64,192,11240,1,8,3:0:0:0:
448,192,11240,1,8,3:0:0:0:
192,192,11329,1,8,3:0:0:0:
320,192,11419,1,10,3:0:0:0:
192,192,11508,1,8,3:0:0:0:
64,192,11597,1,8,3:0:0:0:
448,192,11597,1,8,3:0:0:0:
320,192,11686,1,8,3:0:0:0:
192,192,11776,1,4,2:0:0:0:
64,192,11776,1,8,3:0:0:0:
448,192,11865,1,8,3:0:0:0:
192,192,11954,1,8,3:0:0:0:
64,192,11954,1,8,3:0:0:0:
448,192,12044,1,8,3:0:0:0:
320,192,12133,1,8,3:0:0:0:
192,192,12311,1,8,3:0:0:0:
64,192,12311,1,8,3:0:0:0:
448,192,12401,1,8,3:0:0:0:
192,192,12490,1,8,3:0:0:0:
64,192,12490,1,8,3:0:0:0:
448,192,12579,1,8,3:0:0:0:
320,192,12669,1,8,3:0:0:0:
192,192,12847,1,8,3:0:0:0:
64,192,12847,1,10,3:0:0:0:
448,192,12936,1,8,3:0:0:0:
192,192,13026,1,8,3:0:0:0:
64,192,13026,1,8,3:0:0:0:
448,192,13115,1,8,3:0:0:0:
320,192,13204,1,8,3:0:0:0:
192,192,13383,1,8,3:0:0:0:
64,192,13383,1,8,3:0:0:0:
320,192,13472,1,8,3:0:0:0:
192,192,13561,1,8,3:0:0:0:
320,192,13651,1,8,3:0:0:0:
192,192,13740,1,8,3:0:0:0:
448,192,13740,1,8,3:0:0:0:
64,192,13829,1,8,3:0:0:0:
320,192,13919,1,0,0:0:0:0:
448,192,13919,1,4,2:0:0:0:
192,192,14008,1,0,0:0:0:0:
320,192,14097,1,0,0:0:0:0:
448,192,14097,1,0,0:0:0:0:
192,192,14186,1,0,0:0:0:0:
64,192,14276,1,0,0:0:0:0:
320,192,14454,1,0,0:0:0:0:
448,192,14454,1,0,0:0:0:0:
192,192,14544,1,0,0:0:0:0:
320,192,14633,1,0,0:0:0:0:
448,192,14633,1,0,0:0:0:0:
192,192,14722,1,0,0:0:0:0:
64,192,14811,1,0,0:0:0:0:
320,192,14990,1,2,2:0:0:0:
448,192,14990,1,0,0:0:0:0:
192,192,15079,1,0,0:0:0:0:
320,192,15169,1,0,0:0:0:0:
448,192,15169,1,0,0:0:0:0:
192,192,15258,1,0,0:0:0:0:
64,192,15347,1,0,0:0:0:0:
320,192,15526,1,0,0:0:0:0:
448,192,15526,1,0,0:0:0:0:
192,192,15615,1,0,0:0:0:0:
64,192,15704,1,2,2:0:0:0:
192,192,15794,1,0,0:0:0:0:
320,192,15883,1,0,0:0:0:0:
448,192,15883,1,0,0:0:0:0:
192,192,15972,1,0,0:0:0:0:
448,192,16061,1,4,2:0:0:0:
64,192,16061,1,0,0:0:0:0:
320,192,16151,1,0,0:0:0:0:
448,192,16240,1,0,0:0:0:0:
64,192,16240,1,0,0:0:0:0:
320,192,16329,1,0,0:0:0:0:
192,192,16419,1,2,2:0:0:0:
448,192,16597,1,0,0:0:0:0:
64,192,16597,1,0,0:0:0:0:
320,192,16686,1,0,0:0:0:0:
448,192,16776,1,0,0:0:0:0:
64,192,16776,1,2,2:0:0:0:
320,192,16865,1,0,0:0:0:0:
192,192,16954,1,0,0:0:0:0:
64,192,17133,1,0,0:0:0:0:
320,192,17133,1,2,2:0:0:0:
192,192,17222,1,0,0:0:0:0:
64,192,17311,1,0,0:0:0:0:
320,192,17311,1,0,0:0:0:0:
448,192,17401,1,0,0:0:0:0:
192,192,17490,1,0,0:0:0:0:
64,192,17669,1,0,0:0:0:0:
320,192,17669,1,0,0:0:0:0:
192,192,17758,1,0,0:0:0:0:
448,192,17847,1,2,2:0:0:0:
192,192,17936,1,0,0:0:0:0:
320,192,18026,1,0,0:0:0:0:
64,192,18026,1,0,0:0:0:0:
192,192,18115,1,0,0:0:0:0:
64,192,18204,1,0,0:0:0:0:
448,192,18204,1,6,2:0:0:0:
320,192,18294,1,2,2:0:0:0:
192,192,18383,1,2,2:0:0:0:
64,192,18472,1,2,2:0:0:0:
320,192,18561,1,2,2:0:0:0:
448,192,18651,1,2,2:0:0:0:
192,192,18740,1,2,2:0:0:0:
320,192,18829,1,2,2:0:0:0:
64,192,18919,1,2,2:0:0:0:
192,192,19008,1,2,2:0:0:0:
320,192,19097,1,2,2:0:0:0:
448,192,19186,1,2,2:0:0:0:
192,192,19276,1,2,2:0:0:0:
320,192,19365,1,2,2:0:0:0:
192,192,19454,1,2,2:0:0:0:
64,192,19544,1,2,2:0:0:0:
448,192,19633,1,2,2:0:0:0:
320,192,19722,1,2,2:0:0:0:
192,192,19811,1,2,2:0:0:0:
320,192,19901,1,2,2:0:0:0:
448,192,19990,1,2,2:0:0:0:
64,192,20079,1,2,2:0:0:0:
192,192,20169,1,2,2:0:0:0:
320,192,20258,1,2,2:0:0:0:
64,192,20347,128,2,21954:2:0:0:0:
448,192,20347,128,2,21954:2:0:0:0:
64,192,22133,1,0,0:0:0:0:
448,192,22133,1,8,1:0:0:0:
192,192,22133,1,8,1:0:0:0:
320,192,22490,1,6,2:0:0:0:
64,192,22490,1,0,0:0:0:0:
448,192,22490,1,0,0:0:0:0:
192,192,22669,1,0,0:0:0:0:
448,192,22847,1,0,0:0:0:0:
64,192,22847,1,0,0:0:0:0:
320,192,23026,1,2,2:0:0:0:
64,192,23204,1,0,0:0:0:0:
192,192,23204,1,2,2:0:0:0:
448,192,23383,1,2,2:0:0:0:
320,192,23561,1,2,2:0:0:0:
192,192,23561,1,0,0:0:0:0:
64,192,23740,1,0,0:0:0:0:
192,192,23919,1,2,2:0:0:0:
448,192,23919,1,0,0:0:0:0:
320,192,24097,1,0,0:0:0:0:
64,192,24276,1,2,2:0:0:0:
448,192,24276,1,0,0:0:0:0:
192,192,24454,1,0,0:0:0:0:
320,192,24544,1,0,0:0:0:0:
192,192,24633,1,2,2:0:0:0:
64,192,24633,1,0,0:0:0:0:
448,192,24811,1,0,0:0:0:0:
192,192,24990,1,0,0:0:0:0:
320,192,24990,1,0,0:0:0:0:
64,192,25169,1,2,2:0:0:0:
448,192,25347,1,0,0:0:0:0:
192,192,25347,1,2,2:0:0:0:
320,192,25526,1,2,2:0:0:0:
320,192,25704,1,2,2:0:0:0:
448,192,25704,1,0,0:0:0:0:
64,192,25883,1,0,0:0:0:0:
192,192,26061,1,2,2:0:0:0:
448,192,26061,1,0,0:0:0:0:
320,192,26240,1,0,0:0:0:0:
64,192,26419,1,2,2:0:0:0:
192,192,26419,1,0,0:0:0:0:
320,192,26597,1,2,2:0:0:0:
192,192,26686,1,0,0:0:0:0:
448,192,26776,1,2,2:0:0:0:
64,192,26776,1,0,0:0:0:0:
192,192,26954,1,0,0:0:0:0:
320,192,27133,1,0,0:0:0:0:
448,192,27133,1,0,0:0:0:0:
64,192,27311,1,2,2:0:0:0:
192,192,27490,1,2,2:0:0:0:
320,192,27490,1,0,0:0:0:0:
448,192,27669,1,2,2:0:0:0:
448,192,27847,1,2,2:0:0:0:
64,192,27847,1,0,0:0:0:0:
192,192,28026,1,0,0:0:0:0:
320,192,28204,1,2,2:0:0:0:
448,192,28204,1,0,0:0:0:0:
64,192,28383,1,0,0:0:0:0:
192,192,28561,1,2,2:0:0:0:
448,192,28561,1,0,0:0:0:0:
64,192,28740,1,0,0:0:0:0:
192,192,28829,1,0,0:0:0:0:
64,192,28919,1,0,0:0:0:0:
448,192,28919,128,6,29276:2:0:0:0:
320,192,28919,1,0,0:0:0:0:
192,192,29008,1,0,0:0:0:0:
320,192,29097,1,0,0:0:0:0:
192,192,29186,1,0,0:0:0:0:
64,192,29276,1,0,0:0:0:0:
448,192,29454,1,0,0:0:0:0:
64,192,29454,128,6,29811:2:0:0:0:
192,192,29454,1,0,0:0:0:0:
320,192,29544,1,0,0:0:0:0:
192,192,29633,1,0,0:0:0:0:
320,192,29722,1,0,0:0:0:0:
448,192,29811,1,0,0:0:0:0:
320,192,29990,128,6,30347:2:0:0:0:
192,192,29990,1,0,0:0:0:0:
448,192,29990,1,0,0:0:0:0:
64,192,30079,1,0,0:0:0:0:
192,192,30169,1,0,0:0:0:0:
448,192,30258,1,0,0:0:0:0:
192,192,30347,1,0,0:0:0:0:
64,192,30436,1,0,0:0:0:0:
192,192,30526,128,6,30883:2:0:0:0:
320,192,30526,1,0,0:0:0:0:
448,192,30526,1,0,0:0:0:0:
64,192,30615,1,0,0:0:0:0:
320,192,30704,1,0,0:0:0:0:
448,192,30794,1,0,0:0:0:0:
320,192,30883,1,0,0:0:0:0:
64,192,30972,1,0,0:0:0:0:
192,192,31061,1,0,0:0:0:0:
448,192,31061,1,6,2:0:0:0:
320,192,31061,1,0,0:0:0:0:
64,192,31240,1,0,0:0:0:0:
192,192,31419,1,0,0:0:0:0:
320,192,31419,1,0,0:0:0:0:
64,192,31597,1,2,2:0:0:0:
320,192,31776,1,0,0:0:0:0:
448,192,31776,1,2,2:0:0:0:
192,192,31954,1,2,2:0:0:0:
64,192,32133,1,0,0:0:0:0:
448,192,32133,1,2,2:0:0:0:
320,192,32311,1,2,2:0:0:0:
192,192,32490,1,2,2:0:0:0:
448,192,32490,1,0,0:0:0:0:
64,192,32669,1,2,2:0:0:0:
320,192,32847,1,0,0:0:0:0:
448,192,32847,1,2,2:0:0:0:
192,192,33026,1,2,2:0:0:0:
320,192,33115,1,0,0:0:0:0:
64,192,33204,1,0,0:0:0:0:
448,192,33204,1,2,2:0:0:0:
192,192,33383,1,0,0:0:0:0:
448,192,33561,1,0,0:0:0:0:
320,192,33561,1,0,0:0:0:0:
192,192,33740,1,2,2:0:0:0:
448,192,33919,1,2,2:0:0:0:
64,192,33919,1,0,0:0:0:0:
320,192,34097,1,2,2:0:0:0:
320,192,34276,1,2,2:0:0:0:
192,192,34276,1,0,0:0:0:0:
64,192,34454,1,0,0:0:0:0:
192,192,34633,1,0,0:0:0:0:
448,192,34633,1,0,0:0:0:0:
64,192,34811,1,0,0:0:0:0:
448,192,34990,1,2,2:0:0:0:
320,192,34990,1,0,0:0:0:0:
192,192,35169,1,0,0:0:0:0:
448,192,35258,1,0,0:0:0:0:
320,192,35347,1,2,2:0:0:0:
64,192,35347,1,0,0:0:0:0:
192,192,35526,1,0,0:0:0:0:
448,192,35704,1,0,0:0:0:0:
320,192,35704,1,0,0:0:0:0:
192,192,35883,1,2,2:0:0:0:
448,192,36061,1,0,0:0:0:0:
64,192,36061,1,2,2:0:0:0:
320,192,36240,1,2,2:0:0:0:
320,192,36419,1,2,2:0:0:0:
192,192,36419,1,0,0:0:0:0:
192,192,36597,1,0,0:0:0:0:
64,192,36776,1,0,0:0:0:0:
448,192,36776,1,0,0:0:0:0:
320,192,36954,1,0,0:0:0:0:
448,192,37133,1,2,2:0:0:0:
192,192,37133,1,0,0:0:0:0:
320,192,37311,1,0,0:0:0:0:
192,192,37401,1,0,0:0:0:0:
320,192,37490,1,2,2:0:0:0:
64,192,37490,1,0,0:0:0:0:
192,192,37669,1,0,0:0:0:0:
448,192,37847,1,0,0:0:0:0:
320,192,37847,1,0,0:0:0:0:
192,192,38026,1,2,2:0:0:0:
448,192,38204,1,2,2:0:0:0:
64,192,38204,1,0,0:0:0:0:
320,192,38383,1,2,2:0:0:0:
64,192,38561,1,0,0:0:0:0:
192,192,38561,1,2,2:0:0:0:
320,192,38740,1,0,0:0:0:0:
192,192,38919,1,0,0:0:0:0:
448,192,38919,1,0,0:0:0:0:
320,192,39186,1,0,0:0:0:0:
192,192,39276,128,2,39633:2:0:0:0:
448,192,39276,1,0,0:0:0:0:
448,192,39454,1,0,0:0:0:0:
64,192,39544,1,0,0:0:0:0:
320,192,39633,1,0,0:0:0:0:
448,192,39633,128,6,40169:2:0:0:0:
64,192,39811,1,0,0:0:0:0:
320,192,39990,1,0,0:0:0:0:
64,192,40169,128,2,40347:2:0:0:0:
192,192,40169,1,0,0:0:0:0:
448,192,40347,128,2,40526:2:0:0:0:
320,192,40347,1,0,0:0:0:0:
192,192,40526,128,2,40615:2:0:0:0:
64,192,40526,1,0,0:0:0:0:
192,192,40704,128,2,41419:2:0:0:0:
448,192,40704,1,0,0:0:0:0:
320,192,40883,1,0,0:0:0:0:
64,192,41061,1,0,0:0:0:0:
448,192,41240,1,0,0:0:0:0:
448,192,41419,128,2,41776:2:0:0:0:
320,192,41419,1,0,0:0:0:0:
192,192,41597,1,0,0:0:0:0:
320,192,41776,128,2,42490:2:0:0:0:
64,192,41776,1,0,0:0:0:0:
192,192,41954,1,0,0:0:0:0:
448,192,42133,1,0,0:0:0:0:
64,192,42311,1,0,0:0:0:0:
192,192,42490,128,2,42847:2:0:0:0:
448,192,42490,1,0,0:0:0:0:
320,192,42669,1,0,0:0:0:0:
64,192,42847,128,2,43383:2:0:0:0:
448,192,42847,1,0,0:0:0:0:
320,192,43026,1,0,0:0:0:0:
192,192,43204,1,0,0:0:0:0:
320,192,43383,128,2,43561:2:0:0:0:
64,192,43561,128,2,43740:2:0:0:0:
192,192,43561,1,0,0:0:0:0:
192,192,43740,128,2,43919:2:0:0:0:
320,192,43829,1,0,0:0:0:0:
448,192,43919,128,2,44454:2:0:0:0:
64,192,43919,1,0,0:0:0:0:
192,192,44097,1,0,0:0:0:0:
320,192,44276,1,0,0:0:0:0:
64,192,44454,128,2,44633:2:0:0:0:
192,192,44454,1,0,0:0:0:0:
448,192,44633,128,2,44811:2:0:0:0:
320,192,44633,1,0,0:0:0:0:
192,192,44811,128,2,44901:2:0:0:0:
64,192,44811,1,0,0:0:0:0:
192,192,44990,128,2,45347:2:0:0:0:
320,192,44990,1,0,0:0:0:0:
448,192,45169,1,0,0:0:0:0:
320,192,45347,128,2,45704:2:0:0:0:
64,192,45347,1,0,0:0:0:0:
192,192,45526,1,0,0:0:0:0:
448,192,45704,128,2,46061:2:0:0:0:
64,192,45704,1,0,0:0:0:0:
320,192,45883,1,0,0:0:0:0:
192,192,45972,1,0,0:0:0:0:
320,192,46061,128,2,46597:2:0:0:0:
64,192,46061,1,0,0:0:0:0:
192,192,46240,1,0,0:0:0:0:
448,192,46419,1,0,0:0:0:0:
192,192,46597,128,2,46954:2:0:0:0:
64,192,46597,1,0,0:0:0:0:
64,192,46776,128,2,46954:2:0:0:0:
320,192,46776,1,0,0:0:0:0:
448,192,46954,1,0,0:0:0:0:
320,192,46954,128,2,47133:2:0:0:0:
448,192,47133,128,2,47669:2:0:0:0:
192,192,47133,1,0,0:0:0:0:
64,192,47311,1,0,0:0:0:0:
192,192,47490,1,0,0:0:0:0:
320,192,47669,1,0,0:0:0:0:
192,192,47847,1,2,2:0:0:0:
448,192,47847,1,0,0:0:0:0:
64,192,48026,1,0,0:0:0:0:
192,192,48115,1,0,0:0:0:0:
64,192,48204,1,0,0:0:0:0:
448,192,48204,128,6,48561:2:0:0:0:
320,192,48383,1,0,0:0:0:0:
192,192,48561,128,2,48740:2:0:0:0:
64,192,48561,1,0,0:0:0:0:
320,192,48740,1,0,0:0:0:0:
192,192,48919,1,0,0:0:0:0:
448,192,48919,1,0,0:0:0:0:
64,192,49097,128,2,49276:2:0:0:0:
320,192,49097,1,0,0:0:0:0:
192,192,49276,128,2,49633:2:0:0:0:
448,192,49276,1,0,0:0:0:0:
320,192,49454,1,0,0:0:0:0:
448,192,49633,128,2,49990:2:0:0:0:
64,192,49633,1,0,0:0:0:0:
192,192,49811,1,0,0:0:0:0:
320,192,49990,128,2,50169:2:0:0:0:
64,192,49990,1,0,0:0:0:0:
192,192,50169,1,0,0:0:0:0:
320,192,50258,1,0,0:0:0:0:
192,192,50347,128,2,50704:2:0:0:0:
448,192,50347,1,0,0:0:0:0:
320,192,50526,1,0,0:0:0:0:
64,192,50704,128,2,50883:2:0:0:0:
448,192,50704,1,0,0:0:0:0:
320,192,50883,1,0,0:0:0:0:
192,192,51061,1,0,0:0:0:0:
448,192,51061,1,0,0:0:0:0:
320,192,51240,128,2,51419:2:0:0:0:
64,192,51240,1,0,0:0:0:0:
192,192,51419,128,2,51776:2:0:0:0:
448,192,51419,1,0,0:0:0:0:
320,192,51597,1,0,0:0:0:0:
448,192,51776,128,2,52133:2:0:0:0:
64,192,51776,1,0,0:0:0:0:
192,192,51954,1,0,0:0:0:0:
320,192,52133,128,2,52311:2:0:0:0:
64,192,52133,1,0,0:0:0:0:
192,192,52311,1,0,0:0:0:0:
448,192,52401,1,0,0:0:0:0:
320,192,52490,128,2,53204:2:0:0:0:
64,192,52490,1,0,0:0:0:0:
448,192,52669,1,0,0:0:0:0:
192,192,52847,1,0,0:0:0:0:
64,192,53026,1,0,0:0:0:0:
192,192,53204,128,2,53561:2:0:0:0:
448,192,53204,1,0,0:0:0:0:
320,192,53383,1,0,0:0:0:0:
64,192,53561,128,2,54276:2:0:0:0:
448,192,53561,1,0,0:0:0:0:
192,192,53740,1,0,0:0:0:0:
448,192,53919,1,0,0:0:0:0:
320,192,54097,1,0,0:0:0:0:
448,192,54276,128,2,54454:2:0:0:0:
192,192,54276,1,0,0:0:0:0:
320,192,54454,128,2,54544:2:0:0:0:
64,192,54454,1,0,0:0:0:0:
192,192,54544,1,0,0:0:0:0:
320,192,54633,128,2,55347:2:0:0:0:
64,192,54633,1,0,0:0:0:0:
448,192,54811,1,0,0:0:0:0:
192,192,54990,1,0,0:0:0:0:
64,192,55169,1,0,0:0:0:0:
448,192,55347,128,2,55526:2:0:0:0:
192,192,55347,1,0,0:0:0:0:
320,192,55526,128,2,55704:2:0:0:0:
64,192,55526,1,0,0:0:0:0:
192,192,55615,1,0,0:0:0:0:
448,192,55704,128,2,55883:2:0:0:0:
64,192,55704,1,0,0:0:0:0:
320,192,55883,1,0,0:0:0:0:
192,192,55883,1,0,0:0:0:0:
64,192,55972,1,0,0:0:0:0:
192,192,56061,1,0,0:0:0:0:
448,192,56061,1,0,0:0:0:0:
64,192,56240,1,0,0:0:0:0:
320,192,56240,1,0,0:0:0:0:
448,192,56419,1,0,0:0:0:0:
320,192,56419,1,0,0:0:0:0:
192,192,56508,1,0,0:0:0:0:
64,192,56508,1,0,0:0:0:0:
448,192,56597,1,0,0:0:0:0:
320,192,56597,1,0,0:0:0:0:
192,192,56686,1,0,0:0:0:0:
64,192,56686,1,0,0:0:0:0:
448,192,56776,1,4,2:0:0:0:
320,192,56776,1,0,0:0:0:0:
192,192,56954,1,0,0:0:0:0:
64,192,56954,1,0,0:0:0:0:
192,192,57311,1,0,0:0:0:0:
64,192,57311,1,0,0:0:0:0:
192,192,57490,1,0,0:0:0:0:
64,192,57490,1,0,0:0:0:0:
192,192,57847,1,0,0:0:0:0:
64,192,57847,1,0,0:0:0:0:
192,192,58026,1,0,0:0:0:0:
64,192,58026,1,0,0:0:0:0:
64,192,58383,1,0,0:0:0:0:
192,192,58383,1,0,0:0:0:0:
64,192,58740,1,0,0:0:0:0:
320,192,58740,1,0,0:0:0:0:
192,192,58919,1,4,2:0:0:0:
448,192,58919,1,0,0:0:0:0:
192,192,59097,1,0,0:0:0:0:
448,192,59097,1,0,0:0:0:0:
192,192,59454,1,0,0:0:0:0:
448,192,59454,1,0,0:0:0:0:
192,192,59633,1,0,0:0:0:0:
448,192,59633,1,0,0:0:0:0:
192,192,59990,1,0,0:0:0:0:
448,192,59990,1,0,0:0:0:0:
192,192,60169,1,0,0:0:0:0:
448,192,60169,1,0,0:0:0:0:
192,192,60526,1,0,0:0:0:0:
448,192,60526,1,0,0:0:0:0:
448,192,60883,1,0,0:0:0:0:
320,192,60883,1,0,0:0:0:0:
320,192,61061,1,0,0:0:0:0:
64,192,61061,1,4,2:0:0:0:
320,192,61240,1,0,0:0:0:0:
64,192,61240,1,0,0:0:0:0:
320,192,61597,1,0,0:0:0:0:
64,192,61597,1,0,0:0:0:0:
320,192,61776,1,0,0:0:0:0:
64,192,61776,1,0,0:0:0:0:
320,192,62133,1,0,0:0:0:0:
64,192,62133,1,0,0:0:0:0:
320,192,62311,1,0,0:0:0:0:
64,192,62311,1,0,0:0:0:0:
320,192,62669,1,0,0:0:0:0:
64,192,62669,1,0,0:0:0:0:
448,192,63026,1,0,0:0:0:0:
64,192,63026,1,0,0:0:0:0:
192,192,63204,1,0,0:0:0:0:
320,192,63204,1,4,2:0:0:0:
192,192,63383,1,0,0:0:0:0:
320,192,63383,1,0,0:0:0:0:
192,192,63740,1,0,0:0:0:0:
320,192,63740,1,0,0:0:0:0:
192,192,63919,1,0,0:0:0:0:
320,192,63919,1,0,0:0:0:0:
448,192,64276,1,0,0:0:0:0:
192,192,64276,1,0,0:0:0:0:
448,192,64454,1,0,0:0:0:0:
192,192,64454,1,0,0:0:0:0:
448,192,64811,1,0,0:0:0:0:
192,192,64811,1,0,0:0:0:0:
448,192,65169,1,0,0:0:0:0:
192,192,65169,1,0,0:0:0:0:
64,192,65347,1,0,0:0:0:0:
448,192,65347,1,4,2:0:0:0:
320,192,65436,1,0,0:0:0:0:
64,192,65526,1,0,0:0:0:0:
448,192,65526,1,0,0:0:0:0:
320,192,65615,1,0,0:0:0:0:
192,192,65704,1,0,0:0:0:0:
64,192,65883,1,0,0:0:0:0:
448,192,65883,1,0,0:0:0:0:
320,192,65972,1,0,0:0:0:0:
64,192,66061,1,0,0:0:0:0:
448,192,66061,1,0,0:0:0:0:
320,192,66151,1,0,0:0:0:0:
192,192,66240,1,0,0:0:0:0:
64,192,66419,1,0,0:0:0:0:
448,192,66419,1,0,0:0:0:0:
192,192,66508,1,0,0:0:0:0:
320,192,66597,1,0,0:0:0:0:
448,192,66686,1,0,0:0:0:0:
64,192,66776,1,0,0:0:0:0:
192,192,66865,1,0,0:0:0:0:
320,192,66954,1,0,0:0:0:0:
448,192,67044,1,0,0:0:0:0:
64,192,67133,1,0,0:0:0:0:
192,192,67222,1,0,0:0:0:0:
320,192,67311,1,0,0:0:0:0:
448,192,67401,1,0,0:0:0:0:
192,192,67490,1,0,0:0:0:0:
64,192,67490,1,4,2:0:0:0:
448,192,67579,1,0,0:0:0:0:
192,192,67669,1,0,0:0:0:0:
64,192,67669,1,0,0:0:0:0:
448,192,67758,1,0,0:0:0:0:
320,192,67847,1,0,0:0:0:0:
192,192,68026,1,0,0:0:0:0:
64,192,68026,1,0,0:0:0:0:
448,192,68115,1,0,0:0:0:0:
192,192,68204,1,2,2:0:0:0:
64,192,68204,1,0,0:0:0:0:
448,192,68294,1,0,0:0:0:0:
320,192,68383,1,0,0:0:0:0:
448,192,68561,1,0,0:0:0:0:
64,192,68561,1,0,0:0:0:0:
320,192,68651,1,0,0:0:0:0:
192,192,68740,1,0,0:0:0:0:
64,192,68829,1,0,0:0:0:0:
448,192,68919,1,0,0:0:0:0:
320,192,69008,1,0,0:0:0:0:
192,192,69097,1,0,0:0:0:0:
64,192,69186,1,0,0:0:0:0:
448,192,69276,1,0,0:0:0:0:
320,192,69365,1,0,0:0:0:0:
192,192,69454,1,0,0:0:0:0:
64,192,69544,1,0,0:0:0:0:
320,192,69633,1,0,0:0:0:0:
448,192,69633,1,4,2:0:0:0:
192,192,69722,1,0,0:0:0:0:
320,192,69811,1,0,0:0:0:0:
448,192,69811,1,0,0:0:0:0:
192,192,69901,1,0,0:0:0:0:
64,192,69990,1,0,0:0:0:0:
320,192,70169,1,0,0:0:0:0:
448,192,70169,1,0,0:0:0:0:
192,192,70258,1,0,0:0:0:0:
320,192,70347,1,0,0:0:0:0:
448,192,70347,1,0,0:0:0:0:
192,192,70436,1,0,0:0:0:0:
64,192,70526,1,0,0:0:0:0:
448,192,70704,1,0,0:0:0:0:
192,192,70704,1,0,0:0:0:0:
320,192,70794,1,0,0:0:0:0:
64,192,70883,1,0,0:0:0:0:
192,192,70972,1,0,0:0:0:0:
448,192,71061,1,0,0:0:0:0:
320,192,71151,1,0,0:0:0:0:
64,192,71240,1,0,0:0:0:0:
192,192,71329,1,0,0:0:0:0:
448,192,71419,1,0,0:0:0:0:
320,192,71508,1,0,0:0:0:0:
64,192,71597,1,0,0:0:0:0:
192,192,71686,1,0,0:0:0:0:
64,192,71776,128,2,71895:2:0:0:0:
448,192,71776,1,0,0:0:0:0:
192,192,71895,128,2,72014:2:0:0:0:
448,192,71954,1,0,0:0:0:0:
320,192,72014,128,2,72133:2:0:0:0:
448,192,72133,128,2,72252:2:0:0:0:
192,192,72252,128,2,72371:2:0:0:0:
320,192,72311,1,0,0:0:0:0:
64,192,72371,128,2,72490:2:0:0:0:
448,192,72490,128,2,72609:2:0:0:0:
320,192,72490,1,0,0:0:0:0:
192,192,72609,128,2,72728:2:0:0:0:
320,192,72728,128,2,72847:2:0:0:0:
64,192,72847,1,2,2:0:0:0:
320,192,72907,1,2,2:0:0:0:
64,192,72966,1,2,2:0:0:0:
320,192,73026,1,2,2:0:0:0:
64,192,73085,1,2,2:0:0:0:
320,192,73145,1,2,2:0:0:0:
64,192,73204,1,2,2:0:0:0:
320,192,73264,1,2,2:0:0:0:
64,192,73323,1,2,2:0:0:0:
320,192,73383,1,2,2:0:0:0:
64,192,73442,1,2,2:0:0:0:
320,192,73502,1,2,2:0:0:0:
64,192,73561,1,0,0:0:0:0:
192,192,73561,1,2,2:0:0:0:
448,192,73621,1,0,0:0:0:0:
320,192,73681,1,0,0:0:0:0:
192,192,73740,1,0,0:0:0:0:
64,192,73800,1,0,0:0:0:0:
320,192,73859,1,0,0:0:0:0:
64,192,73919,1,0,0:0:0:0:
192,192,73919,1,6,2:0:0:0:
448,192,73919,1,0,0:0:0:0:
320,192,76061,1,2,2:0:0:0:
192,192,78204,1,2,2:0:0:0:
64,192,80347,1,2,2:0:0:0:
64,192,81419,128,2,81776:2:0:0:0:
192,192,81776,128,2,82133:2:0:0:0:
320,192,82133,128,2,82490:2:0:0:0:
64,192,82490,1,8,3:0:0:0:
448,192,82490,1,4,2:0:0:0:
320,192,82579,1,8,3:0:0:0:
64,192,82669,1,8,3:0:0:0:
448,192,82669,1,8,3:0:0:0:
320,192,82758,1,8,3:0:0:0:
192,192,82847,1,8,3:0:0:0:
64,192,83026,1,8,3:0:0:0:
448,192,83026,1,8,3:0:0:0:
320,192,83115,1,8,3:0:0:0:
64,192,83204,1,8,3:0:0:0:
448,192,83204,1,8,3:0:0:0:
320,192,83294,1,8,3:0:0:0:
192,192,83383,1,8,3:0:0:0:
64,192,83561,1,8,3:0:0:0:
448,192,83561,1,8,3:0:0:0:
192,192,83651,1,8,3:0:0:0:
320,192,83740,1,8,3:0:0:0:
192,192,83829,1,8,3:0:0:0:
64,192,83919,1,8,3:0:0:0:
448,192,84008,1,8,3:0:0:0:
320,192,84097,1,8,3:0:0:0:
192,192,84186,1,8,3:0:0:0:
320,192,84276,1,8,3:0:0:0:
448,192,84365,1,8,3:0:0:0:
192,192,84454,1,8,3:0:0:0:
320,192,84544,1,8,3:0:0:0:
192,192,84633,1,4,2:0:0:0:
64,192,84633,1,8,3:0:0:0:
448,192,84722,1,8,3:0:0:0:
192,192,84811,1,8,3:0:0:0:
64,192,84811,1,8,3:0:0:0:
448,192,84901,1,8,3:0:0:0:
320,192,84990,1,8,3:0:0:0:
192,192,85169,1,8,3:0:0:0:
64,192,85169,1,8,3:0:0:0:
448,192,85258,1,8,3:0:0:0:
192,192,85347,1,8,3:0:0:0:
64,192,85347,1,10,3:0:0:0:
448,192,85436,1,8,3:0:0:0:
192,192,85526,1,8,3:0:0:0:
64,192,85704,1,8,3:0:0:0:
320,192,85704,1,8,3:0:0:0:
448,192,85794,1,8,3:0:0:0:
192,192,85883,1,8,3:0:0:0:
64,192,85972,1,8,3:0:0:0:
320,192,86061,1,8,3:0:0:0:
448,192,86151,1,8,3:0:0:0:
192,192,86240,1,8,3:0:0:0:
64,192,86329,1,8,3:0:0:0:
320,192,86419,1,8,3:0:0:0:
448,192,86508,1,8,3:0:0:0:
192,192,86597,1,8,3:0:0:0:
64,192,86686,1,8,3:0:0:0:
320,192,86776,1,4,2:0:0:0:
448,192,86776,1,8,3:0:0:0:
192,192,86865,1,8,3:0:0:0:
320,192,86954,1,8,3:0:0:0:
448,192,86954,1,8,3:0:0:0:
192,192,87044,1,8,3:0:0:0:
64,192,87133,1,8,3:0:0:0:
320,192,87311,1,8,3:0:0:0:
448,192,87311,1,8,3:0:0:0:
192,192,87401,1,8,3:0:0:0:
320,192,87490,1,8,3:0:0:0:
448,192,87490,1,8,3:0:0:0:
192,192,87579,1,8,3:0:0:0:
64,192,87669,1,8,3:0:0:0:
320,192,87847,1,8,3:0:0:0:
448,192,87847,1,8,3:0:0:0:
192,192,87936,1,8,3:0:0:0:
64,192,88026,1,8,3:0:0:0:
320,192,88115,1,8,3:0:0:0:
192,192,88204,1,8,3:0:0:0:
448,192,88294,1,8,3:0:0:0:
320,192,88383,128,2,88472:2:0:0:0:
192,192,88472,128,2,88561:2:0:0:0:
64,192,88561,128,2,88651:2:0:0:0:
448,192,88651,128,2,88740:2:0:0:0:
320,192,88740,128,2,88829:2:0:0:0:
192,192,88829,128,2,88919:2:0:0:0:
448,192,88919,128,6,89008:2:0:0:0:
64,192,88919,1,8,3:0:0:0:
192,192,89008,1,8,3:0:0:0:
64,192,89097,1,8,3:0:0:0:
320,192,89186,128,2,89276:2:0:0:0:
448,192,89186,1,8,3:0:0:0:
192,192,89276,1,8,3:0:0:0:
64,192,89454,128,2,89544:2:0:0:0:
448,192,89454,1,8,3:0:0:0:
320,192,89544,1,8,3:0:0:0:
448,192,89633,1,8,3:0:0:0:
192,192,89722,128,2,89811:2:0:0:0:
64,192,89722,1,8,3:0:0:0:
320,192,89811,1,8,3:0:0:0:
448,192,89990,128,2,90079:2:0:0:0:
64,192,89990,1,8,3:0:0:0:
192,192,90079,1,8,3:0:0:0:
64,192,90169,1,8,3:0:0:0:
192,192,90258,128,2,90347:2:0:0:0:
320,192,90258,1,8,3:0:0:0:
448,192,90347,1,8,3:0:0:0:
320,192,90436,1,8,3:0:0:0:
192,192,90526,1,8,3:0:0:0:
64,192,90526,1,8,3:0:0:0:
448,192,90615,1,8,3:0:0:0:
64,192,90704,1,8,3:0:0:0:
192,192,90764,1,8,3:0:0:0:
320,192,90823,1,8,3:0:0:0:
448,192,90883,1,8,3:0:0:0:
192,192,90942,1,8,3:0:0:0:
320,192,91002,1,8,3:0:0:0:
64,192,91061,1,4,2:0:0:0:
448,192,91061,1,0,0:0:0:0:
192,192,91061,1,0,0:0:0:0:
192,192,91240,1,0,0:0:0:0:
64,192,91329,1,0,0:0:0:0:
320,192,91419,1,0,0:0:0:0:
448,192,91419,1,0,0:0:0:0:
192,192,91508,1,0,0:0:0:0:
320,192,91597,1,0,0:0:0:0:
448,192,91686,1,0,0:0:0:0:
320,192,91776,1,0,0:0:0:0:
64,192,91776,1,0,0:0:0:0:
192,192,91954,1,0,0:0:0:0:
448,192,92133,1,0,0:0:0:0:
64,192,92133,1,0,0:0:0:0:
320,192,92311,1,0,0:0:0:0:
320,192,92490,1,0,0:0:0:0:
448,192,92490,1,0,0:0:0:0:
192,192,92669,1,0,0:0:0:0:
64,192,92847,1,0,0:0:0:0:
192,192,92847,1,0,0:0:0:0:
320,192,93026,1,0,0:0:0:0:
448,192,93204,1,0,0:0:0:0:
192,192,93204,1,0,0:0:0:0:
320,192,93383,1,0,0:0:0:0:
192,192,93472,1,0,0:0:0:0:
320,192,93561,1,0,0:0:0:0:
448,192,93561,1,0,0:0:0:0:
64,192,93651,1,0,0:0:0:0:
192,192,93740,1,0,0:0:0:0:
320,192,93829,1,0,0:0:0:0:
448,192,93919,1,0,0:0:0:0:
64,192,93919,1,0,0:0:0:0:
320,192,94097,1,0,0:0:0:0:
448,192,94276,1,0,0:0:0:0:
192,192,94276,1,0,0:0:0:0:
320,192,94454,1,0,0:0:0:0:
320,192,94633,1,0,0:0:0:0:
448,192,94633,1,0,0:0:0:0:
192,192,94811,1,0,0:0:0:0:
192,192,94990,1,0,0:0:0:0:
320,192,94990,1,0,0:0:0:0:
64,192,95169,1,0,0:0:0:0:
320,192,95347,1,0,0:0:0:0:
448,192,95347,1,4,2:0:0:0:
192,192,95436,1,0,0:0:0:0:
320,192,95526,1,0,0:0:0:0:
448,192,95615,1,0,0:0:0:0:
320,192,95704,1,0,0:0:0:0:
192,192,95794,1,0,0:0:0:0:
448,192,95883,1,0,0:0:0:0:
64,192,95883,1,4,2:0:0:0:
320,192,95972,1,0,0:0:0:0:
192,192,96061,1,0,0:0:0:0:
64,192,96151,1,0,0:0:0:0:
192,192,96240,1,0,0:0:0:0:
320,192,96329,1,0,0:0:0:0:
64,192,96419,1,0,0:0:0:0:
192,192,96419,1,4,2:0:0:0:
448,192,96508,1,0,0:0:0:0:
320,192,96597,1,0,0:0:0:0:
192,192,96686,1,0,0:0:0:0:
64,192,96776,1,0,0:0:0:0:
192,192,96865,1,0,0:0:0:0:
320,192,96954,1,4,2:0:0:0:
448,192,96954,1,0,0:0:0:0:
64,192,97044,1,0,0:0:0:0:
192,192,97133,1,0,0:0:0:0:
320,192,97222,1,0,0:0:0:0:
448,192,97311,1,0,0:0:0:0:
320,192,97401,1,0,0:0:0:0:
192,192,97490,128,6,97847:2:0:0:0:
448,192,97490,1,0,0:0:0:0:
64,192,97490,1,0,0:0:0:0:
320,192,97579,1,0,0:0:0:0:
64,192,97669,1,0,0:0:0:0:
320,192,97758,1,0,0:0:0:0:
448,192,97847,1,0,0:0:0:0:
64,192,98026,1,0,0:0:0:0:
320,192,98026,128,6,98383:2:0:0:0:
448,192,98026,1,0,0:0:0:0:
192,192,98115,1,0,0:0:0:0:
448,192,98204,1,0,0:0:0:0:
192,192,98294,1,0,0:0:0:0:
64,192,98383,1,0,0:0:0:0:
64,192,98561,1,0,0:0:0:0:
448,192,98561,1,4,2:0:0:0:
192,192,98651,1,0,0:0:0:0:
320,192,98740,1,0,0:0:0:0:
64,192,98829,1,0,0:0:0:0:
192,192,98829,1,4,2:0:0:0:
448,192,98919,1,0,0:0:0:0:
320,192,98919,1,4,2:0:0:0:
64,192,99008,1,0,0:0:0:0:
192,192,99097,1,0,0:0:0:0:
448,192,99097,1,0,0:0:0:0:
320,192,99186,1,0,0:0:0:0:
64,192,99276,1,0,0:0:0:0:
192,192,99276,1,4,2:0:0:0:
320,192,99365,1,0,0:0:0:0:
448,192,99454,1,0,0:0:0:0:
64,192,99499,1,0,0:0:0:0:
192,192,99544,1,0,0:0:0:0:
320,192,99588,1,0,0:0:0:0:
192,192,99633,1,0,0:0:0:0:
64,192,99633,1,0,0:0:0:0:
448,192,99633,1,4,2:0:0:0:
320,192,99722,1,0,0:0:0:0:
64,192,99811,1,0,0:0:0:0:
448,192,99901,1,0,0:0:0:0:
320,192,99990,1,0,0:0:0:0:
192,192,99990,1,0,0:0:0:0:
64,192,100079,1,0,0:0:0:0:
192,192,100169,1,0,0:0:0:0:
320,192,100258,1,0,0:0:0:0:
192,192,100347,1,0,0:0:0:0:
448,192,100347,1,0,0:0:0:0:
448,192,100704,1,0,0:0:0:0:
64,192,100704,1,0,0:0:0:0:
320,192,100794,1,0,0:0:0:0:
192,192,100883,1,0,0:0:0:0:
64,192,100972,1,0,0:0:0:0:
192,192,101061,1,0,0:0:0:0:
448,192,101061,1,0,0:0:0:0:
320,192,101151,1,0,0:0:0:0:
448,192,101240,1,0,0:0:0:0:
192,192,101329,1,0,0:0:0:0:
320,192,101419,1,0,0:0:0:0:
64,192,101419,1,0,0:0:0:0:
448,192,101776,1,0,0:0:0:0:
64,192,101776,1,0,0:0:0:0:
192,192,101865,1,0,0:0:0:0:
320,192,101954,1,0,0:0:0:0:
448,192,102044,1,0,0:0:0:0:
64,192,102133,1,0,0:0:0:0:
320,192,102133,1,0,0:0:0:0:
192,192,102222,1,0,0:0:0:0:
448,192,102311,1,0,0:0:0:0:
320,192,102401,1,0,0:0:0:0:
192,192,102490,1,0,0:0:0:0:
64,192,102490,1,0,0:0:0:0:
448,192,102579,1,0,0:0:0:0:
320,192,102669,1,0,0:0:0:0:
192,192,102758,1,0,0:0:0:0:
320,192,102847,1,0,0:0:0:0:
448,192,102847,1,0,0:0:0:0:
64,192,102936,1,0,0:0:0:0:
192,192,103026,1,0,0:0:0:0:
320,192,103115,1,0,0:0:0:0:
64,192,103204,1,0,0:0:0:0:
448,192,103204,1,0,0:0:0:0:
192,192,103294,1,0,0:0:0:0:
320,192,103383,1,0,0:0:0:0:
448,192,103472,1,0,0:0:0:0:
192,192,103561,1,0,0:0:0:0:
64,192,103561,1,0,0:0:0:0:
320,192,103651,1,0,0:0:0:0:
448,192,103740,1,0,0:0:0:0:
192,192,103829,1,0,0:0:0:0:
320,192,103919,128,6,104276:2:0:0:0:
448,192,103919,1,0,0:0:0:0:
64,192,103919,1,0,0:0:0:0:
192,192,104008,1,0,0:0:0:0:
64,192,104097,1,0,0:0:0:0:
192,192,104186,1,0,0:0:0:0:
448,192,104276,1,0,0:0:0:0:
320,192,104365,1,0,0:0:0:0:
192,192,104454,128,2,104811:2:0:0:0:
64,192,104454,1,0,0:0:0:0:
320,192,104544,1,0,0:0:0:0:
448,192,104633,1,0,0:0:0:0:
64,192,104990,1,0,0:0:0:0:
320,192,104990,128,6,105347:2:0:0:0:
448,192,104990,1,0,0:0:0:0:
192,192,105079,1,0,0:0:0:0:
448,192,105169,1,0,0:0:0:0:
192,192,105258,1,0,0:0:0:0:
64,192,105347,1,0,0:0:0:0:
192,192,105436,1,0,0:0:0:0:
448,192,105526,128,2,105883:2:0:0:0:
320,192,105526,1,0,0:0:0:0:
192,192,105615,1,0,0:0:0:0:
64,192,105704,1,0,0:0:0:0:
64,192,106061,1,0,0:0:0:0:
192,192,106061,128,6,106419:2:0:0:0:
448,192,106061,1,0,0:0:0:0:
320,192,106151,1,0,0:0:0:0:
448,192,106240,1,0,0:0:0:0:
64,192,106329,1,0,0:0:0:0:
320,192,106419,1,0,0:0:0:0:
64,192,106508,1,0,0:0:0:0:
320,192,106597,128,6,106954:2:0:0:0:
192,192,106597,1,0,0:0:0:0:
448,192,106597,1,0,0:0:0:0:
64,192,106686,1,0,0:0:0:0:
192,192,106776,1,0,0:0:0:0:
448,192,106865,1,0,0:0:0:0:
64,192,106954,1,0,0:0:0:0:
448,192,107044,1,0,0:0:0:0:
320,192,107133,1,2,2:0:0:0:
192,192,107133,128,6,107669:2:0:0:0:
64,192,107133,1,0,0:0:0:0:
448,192,107222,1,2,2:0:0:0:
320,192,107311,1,2,2:0:0:0:
448,192,107401,1,2,2:0:0:0:
320,192,107490,1,2,2:0:0:0:
448,192,107579,1,2,2:0:0:0:
320,192,107669,128,0,107936:0:0:0:0:
64,192,108204,1,2,2:0:0:0:
448,192,108204,1,8,3:0:0:0:
192,192,108204,1,6,2:0:0:0:
320,192,108294,1,8,3:0:0:0:
64,192,108383,1,2,2:0:0:0:
192,192,108383,1,2,2:0:0:0:
320,192,108472,1,8,3:0:0:0:
448,192,108561,1,8,3:0:0:0:
64,192,108740,1,2,2:0:0:0:
192,192,108740,1,2,2:0:0:0:
320,192,108829,1,8,3:0:0:0:
64,192,108919,1,2,2:0:0:0:
192,192,108919,1,2,2:0:0:0:
320,192,109008,1,8,3:0:0:0:
448,192,109097,1,8,3:0:0:0:
64,192,109276,128,2,109365:2:0:0:0:
320,192,109276,128,0,109365:0:0:0:0:
192,192,109365,128,2,109454:2:0:0:0:
320,192,109454,128,2,109544:2:0:0:0:
448,192,109454,128,0,109544:0:0:0:0:
64,192,109544,128,2,109633:2:0:0:0:
192,192,109633,128,2,109722:2:0:0:0:
320,192,109722,128,2,109811:2:0:0:0:
448,192,109811,128,2,109901:2:0:0:0:
64,192,109811,128,0,109901:0:0:0:0:
192,192,109901,128,2,109990:2:0:0:0:
320,192,109990,128,2,110079:2:0:0:0:
448,192,110079,128,2,110169:2:0:0:0:
320,192,110169,128,0,110258:0:0:0:0:
64,192,110169,128,2,110258:2:0:0:0:
192,192,110258,128,2,110347:2:0:0:0:
320,192,110347,1,6,2:0:0:0:
448,192,110347,1,2,2:0:0:0:
64,192,110436,1,8,3:0:0:0:
320,192,110526,1,2,2:0:0:0:
448,192,110526,1,2,2:0:0:0:
64,192,110615,1,8,3:0:0:0:
192,192,110704,1,8,3:0:0:0:
320,192,110883,1,2,2:0:0:0:
448,192,110883,1,2,2:0:0:0:
64,192,110972,1,8,3:0:0:0:
320,192,111061,1,2,2:0:0:0:
448,192,111061,1,2,2:0:0:0:
64,192,111151,1,8,3:0:0:0:
192,192,111240,1,8,3:0:0:0:
448,192,111419,128,2,111508:2:0:0:0:
192,192,111419,128,0,111508:0:0:0:0:
320,192,111508,128,2,111597:2:0:0:0:
192,192,111597,128,2,111686:2:0:0:0:
64,192,111597,128,0,111686:0:0:0:0:
448,192,111686,128,2,111776:2:0:0:0:
320,192,111776,128,2,111865:2:0:0:0:
192,192,111865,128,2,111954:2:0:0:0:
64,192,111954,128,2,112044:2:0:0:0:
448,192,111954,128,0,112044:0:0:0:0:
320,192,112044,128,2,112133:2:0:0:0:
192,192,112133,128,2,112222:2:0:0:0:
64,192,112222,128,2,112311:2:0:0:0:
192,192,112311,128,0,112401:0:0:0:0:
448,192,112311,128,2,112401:2:0:0:0:
320,192,112401,128,2,112490:2:0:0:0:
64,192,112490,1,6,2:0:0:0:
448,192,112490,1,2,2:0:0:0:
192,192,112579,1,8,3:0:0:0:
320,192,112669,1,2,2:0:0:0:
448,192,112669,1,2,2:0:0:0:
192,192,112758,1,8,3:0:0:0:
64,192,112847,1,8,3:0:0:0:
320,192,113026,1,2,2:0:0:0:
448,192,113026,1,2,2:0:0:0:
192,192,113115,1,8,3:0:0:0:
320,192,113204,1,10,3:0:0:0:
448,192,113204,1,2,2:0:0:0:
192,192,113294,1,8,3:0:0:0:
64,192,113383,1,8,3:0:0:0:
320,192,113561,1,8,3:0:0:0:
448,192,113561,1,8,3:0:0:0:
192,192,113651,1,8,3:0:0:0:
320,192,113740,1,8,3:0:0:0:
448,192,113740,1,8,3:0:0:0:
192,192,113829,1,8,3:0:0:0:
64,192,113919,1,8,3:0:0:0:
192,192,114008,1,8,3:0:0:0:
320,192,114097,1,8,3:0:0:0:
448,192,114097,1,8,3:0:0:0:
64,192,114186,1,8,3:0:0:0:
192,192,114276,1,8,3:0:0:0:
64,192,114365,1,8,3:0:0:0:
320,192,114454,1,8,3:0:0:0:
448,192,114454,1,8,3:0:0:0:
192,192,114544,1,8,3:0:0:0:
448,192,114633,128,2,114722:2:0:0:0:
64,192,114633,128,0,114722:0:0:0:0:
320,192,114722,128,2,114811:2:0:0:0:
192,192,114811,128,2,114901:2:0:0:0:
64,192,114811,128,0,114901:0:0:0:0:
448,192,114901,128,2,114990:2:0:0:0:
320,192,114990,128,2,115079:2:0:0:0:
192,192,115079,128,2,115169:2:0:0:0:
64,192,115169,128,2,115258:2:0:0:0:
448,192,115169,128,0,115258:0:0:0:0:
320,192,115258,128,2,115347:2:0:0:0:
192,192,115347,128,0,115436:0:0:0:0:
64,192,115347,128,2,115436:2:0:0:0:
448,192,115436,128,2,115526:2:0:0:0:
320,192,115526,128,2,115615:2:0:0:0:
192,192,115615,128,2,115704:2:0:0:0:
64,192,115704,1,8,3:0:0:0:
448,192,115704,1,8,3:0:0:0:
320,192,115794,1,8,3:0:0:0:
448,192,115883,1,8,3:0:0:0:
64,192,115883,1,8,3:0:0:0:
320,192,115972,1,8,3:0:0:0:
192,192,116061,1,8,3:0:0:0:
320,192,116151,1,8,3:0:0:0:
448,192,116240,1,8,3:0:0:0:
64,192,116240,1,8,3:0:0:0:
192,192,116329,1,8,3:0:0:0:
320,192,116419,1,8,3:0:0:0:
192,192,116508,1,8,3:0:0:0:
448,192,116597,1,8,3:0:0:0:
64,192,116597,1,8,3:0:0:0:
320,192,116686,1,8,3:0:0:0:
64,192,116776,1,8,3:0:0:0:
192,192,116776,128,4,116865:2:0:0:0:
320,192,116865,128,8,116954:3:0:0:0:
448,192,116954,1,8,3:0:0:0:
64,192,116954,128,8,117044:3:0:0:0:
192,192,117044,128,8,117133:3:0:0:0:
448,192,117133,128,8,117222:3:0:0:0:
448,192,117311,1,8,3:0:0:0:
320,192,117311,128,8,117401:3:0:0:0:
192,192,117401,128,8,117490:3:0:0:0:
64,192,117490,1,8,3:0:0:0:
448,192,117490,128,8,117579:3:0:0:0:
320,192,117579,128,8,117669:3:0:0:0:
64,192,117669,128,8,117758:3:0:0:0:
448,192,117847,1,0,0:0:0:0:
192,192,117847,128,2,117936:2:0:0:0:
320,192,117936,128,2,118026:2:0:0:0:
64,192,118026,1,0,0:0:0:0:
448,192,118026,128,2,118115:2:0:0:0:
320,192,118115,128,2,118204:2:0:0:0:
192,192,118204,128,2,118294:2:0:0:0:
320,192,118294,128,2,118383:2:0:0:0:
448,192,118383,1,0,0:0:0:0:
64,192,118383,128,2,118472:2:0:0:0:
192,192,118472,128,2,118561:2:0:0:0:
320,192,118561,128,2,118651:2:0:0:0:
192,192,118651,128,2,118740:2:0:0:0:
320,192,118740,1,0,0:0:0:0:
64,192,118740,128,2,118829:2:0:0:0:
448,192,118829,128,2,118919:2:0:0:0:
192,192,118919,1,8,3:0:0:0:
320,192,118919,128,4,119008:2:0:0:0:
448,192,119008,128,8,119097:3:0:0:0:
64,192,119097,1,8,3:0:0:0:
192,192,119097,128,8,119186:3:0:0:0:
448,192,119186,128,8,119276:3:0:0:0:
320,192,119276,128,8,119365:3:0:0:0:
64,192,119365,128,8,119454:3:0:0:0:
192,192,119454,1,8,3:0:0:0:
320,192,119454,128,8,119544:3:0:0:0:
448,192,119544,128,8,119633:3:0:0:0:
64,192,119633,1,8,3:0:0:0:
192,192,119633,128,8,119722:3:0:0:0:
448,192,119722,128,8,119811:3:0:0:0:
320,192,119811,128,8,119901:3:0:0:0:
64,192,119901,128,8,119990:3:0:0:0:
320,192,119990,1,0,0:0:0:0:
192,192,119990,128,2,120079:2:0:0:0:
448,192,120079,128,2,120169:2:0:0:0:
192,192,120169,1,0,0:0:0:0:
64,192,120169,128,2,120258:2:0:0:0:
448,192,120258,128,2,120347:2:0:0:0:
320,192,120347,128,2,120436:2:0:0:0:
64,192,120436,128,2,120526:2:0:0:0:
448,192,120526,1,0,0:0:0:0:
192,192,120526,128,2,120615:2:0:0:0:
320,192,120615,128,2,120704:2:0:0:0:
448,192,120704,128,2,120794:2:0:0:0:
64,192,120794,1,0,0:0:0:0:
448,192,120883,1,0,0:0:0:0:
192,192,120883,1,0,0:0:0:0:
64,192,120972,1,0,0:0:0:0:
320,192,121061,1,4,3:0:0:0:
448,192,121061,1,4,3:0:0:0:
320,192,121240,1,4,3:0:0:0:
448,192,121240,1,4,3:0:0:0:
448,192,121419,1,4,3:0:0:0:
320,192,121419,1,4,3:0:0:0:
64,192,121597,1,4,3:0:0:0:
192,192,121597,1,4,3:0:0:0:
192,192,121776,1,4,3:0:0:0:
64,192,121776,1,4,3:0:0:0:
64,192,121954,1,4,3:0:0:0:
192,192,121954,1,4,3:0:0:0:
448,192,122133,1,4,3:0:0:0:
64,192,122133,1,4,3:0:0:0:
64,192,122311,1,4,3:0:0:0:
448,192,122311,1,4,3:0:0:0:
64,192,122490,1,4,3:0:0:0:
448,192,122490,1,4,3:0:0:0:
320,192,122669,1,4,3:0:0:0:
192,192,122669,1,4,3:0:0:0:
320,192,122847,1,4,3:0:0:0:
192,192,122847,1,4,3:0:0:0:
320,192,123026,1,4,3:0:0:0:
192,192,123026,1,4,3:0:0:0:
448,192,123204,1,4,3:0:0:0:
320,192,123204,1,4,3:0:0:0:
64,192,123294,1,4,3:0:0:0:
192,192,123294,1,4,3:0:0:0:
448,192,123383,1,4,3:0:0:0:
320,192,123383,1,4,3:0:0:0:
64,192,123472,1,4,3:0:0:0:
192,192,123472,1,4,3:0:0:0:
448,192,123561,1,4,3:0:0:0:
320,192,123561,1,4,3:0:0:0:
64,192,123651,1,4,3:0:0:0:
192,192,123651,1,4,3:0:0:0:
448,192,123740,1,4,3:0:0:0:
320,192,123740,1,4,3:0:0:0:
64,192,123829,1,4,3:0:0:0:
192,192,123829,1,4,3:0:0:0:
448,192,123919,1,4,3:0:0:0:
320,192,123919,1,4,3:0:0:0:
64,192,124008,1,4,3:0:0:0:
192,192,124008,1,4,3:0:0:0:
320,192,124097,1,4,3:0:0:0:
448,192,124097,1,4,3:0:0:0:
192,192,124186,1,4,3:0:0:0:
64,192,124276,1,8,3:0:0:0:
192,192,124320,1,8,3:0:0:0:
320,192,124365,1,8,3:0:0:0:
448,192,124410,1,8,3:0:0:0:
64,192,124454,1,8,3:0:0:0:
192,192,124499,1,8,3:0:0:0:
320,192,124544,1,8,3:0:0:0:
448,192,124588,1,8,3:0:0:0:
192,192,124633,1,8,3:0:0:0:
64,192,124678,1,8,3:0:0:0:
448,192,124722,1,8,3:0:0:0:
320,192,124767,1,8,3:0:0:0:
192,192,124811,1,8,3:0:0:0:
64,192,124856,1,8,3:0:0:0:
448,192,124901,1,8,3:0:0:0:
320,192,124945,1,8,3:0:0:0:
192,192,124990,1,8,3:0:0:0:
64,192,125035,1,8,3:0:0:0:
320,192,125079,1,8,3:0:0:0:
448,192,125124,1,8,3:0:0:0:
64,192,125169,1,8,3:0:0:0:
192,192,125213,1,8,3:0:0:0:
320,192,125258,1,8,3:0:0:0:
448,192,125303,1,8,3:0:0:0:
64,192,125347,1,8,3:0:0:0:
64,192,126419,1,6,2:0:0:0:
448,192,126419,1,6,2:0:0:0:
192,192,126463,1,2,2:0:0:0:
320,192,126508,1,2,2:0:0:0:
