osu file format v14

[General]
AudioFilename: audio.mp3
AudioLeadIn: 0
PreviewTime: 246905
Countdown: 0
SampleSet: Soft
StackLeniency: 0.3
Mode: 0
LetterboxInBreaks: 0
WidescreenStoryboard: 0

[Editor]
Bookmarks: 225037
DistanceSpacing: 0.8
BeatDivisor: 8
GridSize: 32
TimelineZoom: 3.999998

[Metadata]
Title:Parodia Sonatina -Grande-
TitleUnicode:Parodia Sonatina -Grande-
Artist:ICE
ArtistUnicode:ICE
Creator:deemoplayer47
Version:L
Source:Deemo
Tags:Deemo ICE Extra L Expert Marathon
BeatmapID:1440147
BeatmapSetID:681198

[Difficulty]
HPDrainRate:0
CircleSize:3.6
OverallDifficulty:7
ApproachRate:9.6
SliderMultiplier:1.99999990463257
SliderTickRate:4

[Events]
//Background and Video events
0,0,"bg.png",0,0
//Break Periods
2,113001,134670
2,163825,202434
2,214647,225022
2,288060,295822
2,304913,309410
//Storyboard Layer 0 (Background)
//Storyboard Layer 1 (Fail)
//Storyboard Layer 2 (Pass)
//Storyboard Layer 3 (Foreground)
//Storyboard Sound Samples

[TimingPoints]
1523.25922131147,500,4,2,0,40,1,0
9523,-133.333333333333,4,2,0,40,0,0
33743,352.941176470588,4,2,0,100,1,0
33743,-133.333333333333,4,2,0,40,0,0
45037,-133.333333333333,4,2,0,40,0,1
54919,-133.333333333333,4,2,0,40,0,0
67625,-66.6666666666667,4,2,0,40,0,0
78919,-100,4,2,0,40,0,0
111390,-400,4,2,0,40,0,0
112801,-100,4,2,0,40,0,0
135389,-66.6666666666667,4,2,0,40,0,0
146684,-133.333333333333,4,2,0,40,0,0
160801,-100,4,2,0,40,0,1
160978,-100,4,2,0,40,0,0
203154,-66.6666666666667,4,2,0,40,0,0
214448,-100,4,2,0,40,0,0
225742,-80,4,2,0,40,0,0
229978,-133.333333333333,4,2,0,40,0,0
230330,-66.6666666666667,4,2,0,40,0,0
230683,-50,4,2,0,40,0,0
230860,-88.8888888888889,4,2,0,40,0,0
231389,-80,4,2,0,40,0,0
233860,-500,4,2,0,40,0,0
243389,-1000,4,2,0,40,0,0
245771,-133.333333333333,4,2,0,40,0,0
246918,-80,4,2,0,40,0,0
248331,-100,4,2,0,40,0,1
254507,-200,4,2,0,40,0,1
259625,-66.6666666666667,4,2,0,40,0,1
270919,-100,4,2,0,40,0,0
296331,-100,4,2,0,100,0,0
299860,-66.6666666666667,4,2,0,40,0,0
300213,-57.1428571428571,4,2,0,40,0,0
300566,-54.054054054054,4,2,0,40,0,0
302154,-133.333333333333,4,2,0,40,0,0
303390,-76.9230769230769,4,2,0,40,0,0
304095,-153.846153846154,4,2,0,40,0,0
321741,-800,4,2,0,40,0,0
361272,-50,4,2,0,40,0,0

[Colours]
Combo1 : 217,0,0
Combo2 : 153,153,153
Combo3 : 117,202,202
Combo4 : 149,47,47
Combo5 : 199,199,199
Combo6 : 0,213,213

[HitObjects]
256,192,67625,38,0,L|256:352,1,150.000005722046
203,139,67978,2,0,L|318:254,1,150.000005722046
309,139,68331,2,0,L|193:255,1,150.000005722046
256,192,68684,1,0,0:0:0:0:
256,192,68860,2,0,L|256:32,1,150.000005722046
384,64,69213,1,0,0:0:0:0:
373,81,69566,1,0,0:0:0:0:
463,47,69742,37,0,0:0:0:0:
460,77,69831,1,0,0:0:0:0:
451,105,69919,1,0,0:0:0:0:
435,130,70007,1,0,0:0:0:0:
407,155,70095,1,0,0:0:0:0:
374,174,70184,1,0,0:0:0:0:
338,185,70272,1,0,0:0:0:0:
300,190,70360,1,0,0:0:0:0:
256,192,70448,38,0,L|256:32,1,150.000005722046
309,245,70801,2,0,L|189:124,1,149.999998569489
202,245,71154,2,0,L|311:137,1,149.999998569489
256,192,71507,1,0,0:0:0:0:
256,192,71684,2,0,L|256:352,1,150.000005722046
185,299,72037,1,0,0:0:0:0:
173,307,72390,1,0,0:0:0:0:
46,331,72566,37,0,0:0:0:0:
51,309,72654,1,0,0:0:0:0:
59,288,72742,1,0,0:0:0:0:
76,263,72831,1,0,0:0:0:0:
98,242,72919,1,0,0:0:0:0:
122,224,73007,1,0,0:0:0:0:
157,211,73095,1,0,0:0:0:0:
200,200,73184,1,0,0:0:0:0:
256,192,73272,38,0,L|256:352,1,150.000005722046
203,139,73625,2,0,L|318:254,1,150.000005722046
309,139,73978,2,0,L|193:255,1,150.000005722046
256,192,74331,1,0,0:0:0:0:
256,192,74507,2,0,L|256:32,1,150.000005722046
384,64,74860,1,0,0:0:0:0:
373,81,75213,1,0,0:0:0:0:
463,47,75390,37,0,0:0:0:0:
460,77,75479,1,0,0:0:0:0:
451,105,75567,1,0,0:0:0:0:
435,130,75655,1,0,0:0:0:0:
407,155,75743,1,0,0:0:0:0:
374,174,75832,1,0,0:0:0:0:
338,185,75920,1,0,0:0:0:0:
300,190,76008,1,0,0:0:0:0:
256,192,76095,38,0,L|256:352,1,150.000005722046
203,139,76448,2,0,L|318:254,1,150.000005722046
309,139,76801,2,0,L|193:255,1,150.000005722046
256,192,77154,1,0,0:0:0:0:
256,192,77331,2,0,L|256:32,1,150.000005722046
384,64,77684,1,0,0:0:0:0:
373,81,78037,1,0,0:0:0:0:
461,88,78213,38,0,L|473:40,12,50.0000019073487
385,145,79095,21,0,0:0:0:0:
471,182,79272,2,0,L|412:242,1,49.9999952316283
453,295,79448,1,0,0:0:0:0:
425,308,79537,1,0,0:0:0:0:
338,332,79625,2,0,P|309:315|288:290,1,49.9999952316283
213,287,79801,2,0,P|185:302|170:322,1,49.9999952316283
83,318,79978,6,0,P|90:290|112:266,1,49.9999952316283
80,250,80154,1,0,0:0:0:0:
39,241,80242,1,0,0:0:0:0:
113,190,80331,2,0,P|87:136|55:108,1,99.9999904632566
75,35,80684,1,0,0:0:0:0:
154,50,80860,2,0,P|195:51|218:63,1,49.9999952316283
230,75,81037,37,0,0:0:0:0:
314,150,81213,1,0,0:0:0:0:
296,186,81301,1,0,0:0:0:0:
248,205,81390,1,0,0:0:0:0:
175,252,81566,1,0,0:0:0:0:
214,322,81654,1,0,0:0:0:0:
243,336,81742,70,0,P|327:344|413:327,1,149.999985694885
414,303,82095,1,0,0:0:0:0:
372,199,82272,1,0,0:0:0:0:
433,144,82448,70,0,P|418:113|390:92,1,49.9999952316283
361,82,82625,1,0,0:0:0:0:
311,89,82713,1,0,0:0:0:0:
283,130,82801,2,0,P|275:156|282:183,1,49.9999952316283
340,205,82978,2,0,P|347:177|338:149,1,49.9999952316283
315,114,83154,37,0,0:0:0:0:
212,46,83331,1,0,0:0:0:0:
208,175,83507,1,0,0:0:0:0:
108,106,83684,1,0,0:0:0:0:
87,133,83860,2,0,P|67:162|49:228,1,99.9999904632566
72,315,84213,5,0,0:0:0:0:
86,301,84301,1,0,0:0:0:0:
100,287,84390,1,0,0:0:0:0:
114,273,84478,1,0,0:0:0:0:
129,259,84566,2,0,P|169:232|219:212,1,99.9999952316285
238,283,84919,21,0,0:0:0:0:
328,261,85007,1,0,0:0:0:0:
238,283,85095,1,0,0:0:0:0:
207,302,85184,1,0,0:0:0:0:
240,309,85272,1,0,0:0:0:0:
240,202,85360,2,0,P|231:164|212:136,1,49.9999952316283
165,115,85537,1,0,0:0:0:0:
159,187,85625,1,0,0:0:0:0:
105,292,85801,5,0,0:0:0:0:
117,277,85978,2,0,B|150:234|198:220,1,99.9999952316285
207,302,86331,53,0,0:0:0:0:
270,269,86419,1,0,0:0:0:0:
207,302,86507,1,0,0:0:0:0:
188,322,86595,1,0,0:0:0:0:
201,326,86684,1,0,0:0:0:0:
173,235,86772,2,0,P|160:210|147:191,1,49.9999952316283
81,150,86948,1,0,0:0:0:0:
78,227,87037,1,0,0:0:0:0:
90,314,87213,1,0,0:0:0:0:
101,291,87390,70,0,P|138:255|183:232,1,99.9999952316285
188,312,87742,1,0,0:0:0:0:
271,266,87831,1,0,0:0:0:0:
188,312,87919,1,0,0:0:0:0:
175,345,88007,1,0,0:0:0:0:
164,271,88095,2,0,P|137:230|88:215,1,99.9999904632566
55,220,88360,1,0,0:0:0:0:
75,250,88448,2,0,P|42:247|17:230,2,49.9999952316283
38,275,88713,1,0,0:0:0:0:
63,305,88801,5,0,0:0:0:0:
84,346,88890,2,0,P|109:333|138:328,2,49.9999952316283
185,314,89154,1,0,0:0:0:0:
206,295,89242,1,0,0:0:0:0:
279,256,89331,2,0,B|267:284|267:284|237:301,1,49.9999952316283
300,220,89507,37,0,0:0:0:0:
224,193,89595,1,0,0:0:0:0:
224,193,89684,1,0,0:0:0:0:
272,148,89772,1,0,0:0:0:0:
286,142,89860,1,0,0:0:0:0:
377,117,89948,1,0,0:0:0:0:
306,61,90037,1,0,0:0:0:0:
451,41,90125,1,0,0:0:0:0:
469,57,90213,21,0,0:0:0:0:
477,171,90390,1,0,0:0:0:0:
464,243,90566,2,0,P|437:266|424:291,1,49.9999952316283
344,335,90742,1,0,0:0:0:0:
372,324,90831,1,0,0:0:0:0:
305,255,90919,2,0,P|279:233|254:224,1,49.9999952316283
212,228,91095,1,0,0:0:0:0:
221,301,91184,1,0,0:0:0:0:
153,270,91272,6,0,B|90:265|52:299|52:299|42:342,1,149.999985694885
63,252,91625,2,0,P|73:222|90:199,1,49.9999952316283
52,165,91801,1,0,0:0:0:0:
72,138,91890,1,0,0:0:0:0:
116,112,91978,1,0,0:0:0:0:
103,39,92154,2,0,L|162:39,1,49.9999952316283
173,55,92331,1,0,0:0:0:0:
288,112,92507,1,0,0:0:0:0:
263,141,92595,1,0,0:0:0:0:
200,162,92684,1,0,0:0:0:0:
182,283,92860,1,0,0:0:0:0:
194,272,92948,1,0,0:0:0:0:
208,260,93037,70,0,B|261:205|317:199|352:206,1,149.999992847443
365,229,93390,1,0,0:0:0:0:
424,160,93566,1,0,0:0:0:0:
468,72,93742,22,0,P|442:52|427:44,1,49.9999976158143
358,116,93919,2,0,P|391:104|408:92,1,49.9999976158143
350,42,94095,2,0,P|323:51|300:67,1,49.9999952316283
283,94,94272,1,0,0:0:0:0:
161,44,94448,37,0,0:0:0:0:
65,114,94625,1,0,0:0:0:0:
170,160,94801,1,0,0:0:0:0:
108,227,94978,2,0,B|120:292|190:297,1,99.9999952316285
97,304,95331,1,0,0:0:0:0:
185,218,95507,5,0,0:0:0:0:
193,210,95595,1,0,0:0:0:0:
201,202,95684,1,0,0:0:0:0:
209,194,95772,1,0,0:0:0:0:
217,186,95860,1,0,0:0:0:0:
260,253,95948,1,0,0:0:0:0:
328,301,96125,1,0,0:0:0:0:
295,223,96213,1,0,0:0:0:0:
369,282,96301,1,0,0:0:0:0:
402,271,96478,1,0,0:0:0:0:
385,170,96566,21,0,0:0:0:0:
454,247,96654,1,0,0:0:0:0:
468,210,96831,1,0,0:0:0:0:
455,89,96919,1,0,0:0:0:0:
448,213,97007,1,0,0:0:0:0:
429,239,97184,1,0,0:0:0:0:
404,153,97272,5,0,0:0:0:0:
389,265,97360,1,0,0:0:0:0:
361,281,97537,1,0,0:0:0:0:
328,197,97625,1,0,0:0:0:0:
283,253,97713,1,0,0:0:0:0:
258,265,97890,1,0,0:0:0:0:
262,165,97978,53,0,0:0:0:0:
178,187,98066,1,0,0:0:0:0:
157,171,98242,1,0,0:0:0:0:
135,80,98331,1,0,0:0:0:0:
141,215,98419,1,0,0:0:0:0:
94,250,98595,1,0,0:0:0:0:
58,151,98684,69,0,0:0:0:0:
100,208,98772,1,0,0:0:0:0:
145,169,98948,1,0,0:0:0:0:
135,80,99037,1,0,0:0:0:0:
181,168,99125,1,0,0:0:0:0:
204,146,99301,1,0,0:0:0:0:
210,56,99390,1,0,0:0:0:0:
270,165,99478,1,0,0:0:0:0:
280,214,99654,1,0,0:0:0:0:
169,208,99742,1,0,0:0:0:0:
215,238,99831,1,0,0:0:0:0:
202,281,100007,1,0,0:0:0:0:
186,299,100095,6,0,L|237:310,2,49.9999976158143
149,285,100360,1,0,0:0:0:0:
120,245,100448,1,0,0:0:0:0:
81,253,100537,1,0,0:0:0:0:
58,264,100625,1,0,0:0:0:0:
128,159,100713,1,0,0:0:0:0:
141,177,100801,37,0,0:0:0:0:
166,139,100890,1,0,0:0:0:0:
194,156,100978,1,0,0:0:0:0:
222,91,101066,1,0,0:0:0:0:
251,141,101154,1,0,0:0:0:0:
264,23,101242,1,0,0:0:0:0:
342,73,101331,1,0,0:0:0:0:
395,103,101419,1,0,0:0:0:0:
449,71,101507,53,0,0:0:0:0:
449,71,101684,1,0,0:0:0:0:
244,222,102037,1,0,0:0:0:0:
115,288,102390,22,0,P|123:257|139:233,1,49.9999976158143
177,180,102566,1,0,0:0:0:0:
234,131,102654,1,0,0:0:0:0:
302,101,102742,1,0,0:0:0:0:
375,82,102831,1,0,0:0:0:0:
449,71,102919,53,0,0:0:0:0:
449,71,103095,1,0,0:0:0:0:
244,222,103448,1,0,0:0:0:0:
115,288,103801,2,0,P|123:257|139:233,1,49.9999976158143
177,180,103978,1,0,0:0:0:0:
234,131,104066,1,0,0:0:0:0:
302,101,104154,1,0,0:0:0:0:
375,82,104242,1,0,0:0:0:0:
428,135,104331,5,0,0:0:0:0:
428,135,104507,1,0,0:0:0:0:
244,222,104860,1,0,0:0:0:0:
180,332,105742,5,0,0:0:0:0:
84,370,105831,1,0,0:0:0:0:
180,332,105919,1,0,0:0:0:0:
199,317,106007,1,0,0:0:0:0:
240,294,106095,2,0,P|269:282|287:270,2,49.9999976158143
302,260,106360,1,0,0:0:0:0:
274,188,106448,2,0,P|243:203|232:222,2,49.9999976158143
348,203,106713,1,0,0:0:0:0:
364,183,106801,2,0,P|389:172|407:153,2,49.9999976158143
443,83,107066,1,0,0:0:0:0:
449,71,107154,21,0,0:0:0:0:
449,71,107331,1,0,0:0:0:0:
244,222,107684,1,0,0:0:0:0:
115,288,108037,22,0,P|123:257|139:233,1,49.9999976158143
177,180,108213,1,0,0:0:0:0:
234,131,108301,1,0,0:0:0:0:
302,101,108390,1,0,0:0:0:0:
375,82,108478,1,0,0:0:0:0:
449,71,108566,53,0,0:0:0:0:
449,71,108742,1,0,0:0:0:0:
244,222,109095,1,0,0:0:0:0:
115,288,109448,2,0,P|123:257|139:233,1,49.9999976158143
177,180,109625,1,0,0:0:0:0:
234,131,109713,1,0,0:0:0:0:
302,101,109801,1,0,0:0:0:0:
375,82,109890,1,0,0:0:0:0:
435,145,109978,1,0,0:0:0:0:
435,145,110154,1,0,0:0:0:0:
244,222,110507,1,0,0:0:0:0:
417,79,111037,1,0,0:0:0:0:
427,89,111125,1,0,0:0:0:0:
437,99,111213,1,0,0:0:0:0:
447,109,111301,1,0,0:0:0:0:
455,117,111390,70,0,B|273:184,1,187.499991059303
256,192,112801,5,0,0:0:0:0:
256,192,135390,70,0,L|256:352,1,150.000005722046
203,139,135742,2,0,L|318:254,1,150.000005722046
309,139,136095,2,0,L|193:255,1,150.000005722046
256,192,136448,1,0,0:0:0:0:
256,192,136625,2,0,L|256:32,1,150.000005722046
384,64,136978,1,0,0:0:0:0:
373,81,137331,1,0,0:0:0:0:
463,47,137507,37,0,0:0:0:0:
456,66,137595,1,0,0:0:0:0:
443,90,137684,1,0,0:0:0:0:
417,111,137772,1,0,0:0:0:0:
427,143,137860,1,0,0:0:0:0:
395,166,137948,1,0,0:0:0:0:
356,183,138037,1,0,0:0:0:0:
310,190,138125,1,0,0:0:0:0:
256,192,138213,38,0,L|256:32,1,150.000005722046
203,139,138566,2,0,L|318:254,1,150.000005722046
309,139,138919,2,0,L|193:255,1,150.000005722046
256,192,139272,1,0,0:0:0:0:
256,192,139448,2,0,L|256:352,1,150.000005722046
185,299,139801,1,0,0:0:0:0:
173,307,140154,1,0,0:0:0:0:
46,331,140331,37,0,0:0:0:0:
46,322,140419,1,0,0:0:0:0:
97,296,140507,1,0,0:0:0:0:
95,283,140595,1,0,0:0:0:0:
110,257,140684,1,0,0:0:0:0:
126,247,140772,1,0,0:0:0:0:
201,225,140860,1,0,0:0:0:0:
172,209,140948,1,0,0:0:0:0:
256,192,141037,38,0,L|256:352,1,150.000005722046
203,139,141390,2,0,L|318:254,1,150.000005722046
309,139,141742,2,0,L|193:255,1,150.000005722046
256,192,142095,1,0,0:0:0:0:
256,192,142272,2,0,L|256:32,1,150.000005722046
384,64,142625,1,0,0:0:0:0:
373,81,142978,1,0,0:0:0:0:
463,47,143154,37,0,0:0:0:0:
456,66,143242,1,0,0:0:0:0:
443,90,143331,1,0,0:0:0:0:
417,111,143419,1,0,0:0:0:0:
427,143,143507,1,0,0:0:0:0:
395,166,143595,1,0,0:0:0:0:
356,183,143684,1,0,0:0:0:0:
310,190,143772,1,0,0:0:0:0:
256,192,143860,38,0,L|256:352,1,150.000005722046
203,139,144213,2,0,L|318:254,1,150.000005722046
309,139,144566,2,0,L|193:255,1,150.000005722046
256,192,144919,1,0,0:0:0:0:
256,192,145095,2,0,L|256:32,1,150.000005722046
128,64,145448,1,0,0:0:0:0:
139,81,145801,1,0,0:0:0:0:
60,115,145978,2,0,L|83:159,5,49.9999995231629
95,181,146331,1,0,0:0:0:0:
125,203,146419,1,0,0:0:0:0:
158,221,146507,1,0,0:0:0:0:
195,229,146595,1,0,0:0:0:0:
220,232,146684,6,0,L|280:124,1,112.499998927116
289,68,147037,1,0,0:0:0:0:
428,134,147302,1,0,0:0:0:0:
428,189,147390,2,0,L|392:204,1,37.4999996423721
318,242,147566,2,0,L|350:260,1,37.4999996423721
427,297,147742,2,0,L|393:315,1,37.4999996423721
316,347,147919,2,0,L|280:328,1,37.4999996423721
221,297,148095,6,0,L|183:310,1,37.4999996423721
66,332,148272,2,0,L|66:304,1,18.7499998211861
66,287,148360,2,0,L|63:260,1,18.7499998211861
66,242,148448,2,0,L|72:213,1,18.7499998211861
66,196,148537,2,0,L|56:168,1,18.7499998211861
66,151,148625,2,0,L|79:123,1,18.7499998211861
66,106,148713,2,0,L|44:81,1,18.7499998211861
66,61,148801,2,0,L|90:38,1,18.7499998211861
156,64,148978,2,0,L|203:42,1,37.4999996423721
308,67,149155,2,0,L|264:89,1,37.4999996423721
211,188,149331,2,0,L|257:160,1,37.4999996423721
367,192,149507,2,0,B|434:217|466:312,1,149.999998569489
437,261,149684,1,0,0:0:0:0:
448,224,150037,1,0,0:0:0:0:
424,255,150125,1,0,0:0:0:0:
407,267,150213,2,0,L|240:281,1,149.999998569489
84,155,150743,1,0,0:0:0:0:
121,186,150831,1,0,0:0:0:0:
143,213,150919,1,0,0:0:0:0:
210,98,151096,1,0,0:0:0:0:
306,155,151272,1,0,0:0:0:0:
212,217,151449,5,0,0:0:0:0:
62,201,151625,1,0,0:0:0:0:
74,215,151713,1,0,0:0:0:0:
84,227,151802,1,0,0:0:0:0:
95,239,151890,1,0,0:0:0:0:
108,252,151978,1,0,0:0:0:0:
119,262,152066,1,0,0:0:0:0:
128,272,152155,1,0,0:0:0:0:
134,279,152243,1,0,0:0:0:0:
162,297,152331,1,0,0:0:0:0:
195,299,152419,1,0,0:0:0:0:
235,286,152507,1,0,0:0:0:0:
248,262,152596,1,0,0:0:0:0:
268,243,152684,1,0,0:0:0:0:
326,207,152772,1,0,0:0:0:0:
341,174,152860,1,0,0:0:0:0:
293,230,152949,1,0,0:0:0:0:
347,142,153037,1,0,0:0:0:0:
440,186,153125,1,0,0:0:0:0:
351,257,153213,1,0,0:0:0:0:
256,198,153302,1,0,0:0:0:0:
223,198,153390,1,0,0:0:0:0:
194,185,153478,1,0,0:0:0:0:
178,178,153566,1,0,0:0:0:0:
88,103,153655,1,0,0:0:0:0:
100,127,153743,1,0,0:0:0:0:
431,287,153919,1,0,0:0:0:0:
461,186,154007,1,0,0:0:0:0:
331,239,154096,1,0,0:0:0:0:
368,148,154184,1,0,0:0:0:0:
278,113,154272,1,0,0:0:0:0:
240,199,154360,1,0,0:0:0:0:
131,58,154449,1,0,0:0:0:0:
69,151,154625,1,0,0:0:0:0:
142,248,154802,1,0,0:0:0:0:
196,242,154978,1,0,0:0:0:0:
142,248,155155,1,0,0:0:0:0:
150,110,155684,1,0,0:0:0:0:
183,161,155772,1,0,0:0:0:0:
116,102,155860,1,0,0:0:0:0:
393,141,156390,1,0,0:0:0:0:
376,123,156478,1,0,0:0:0:0:
325,105,156566,1,0,0:0:0:0:
203,150,156655,5,0,0:0:0:0:
196,187,156743,1,0,0:0:0:0:
231,154,156831,1,0,0:0:0:0:
276,141,156919,1,0,0:0:0:0:
292,186,157007,1,0,0:0:0:0:
284,218,157096,1,0,0:0:0:0:
334,189,157184,1,0,0:0:0:0:
387,133,157272,1,0,0:0:0:0:
366,158,157360,69,0,0:0:0:0:
308,212,157448,1,0,0:0:0:0:
301,230,157537,1,0,0:0:0:0:
274,267,157625,1,0,0:0:0:0:
234,282,157713,1,0,0:0:0:0:
221,298,157801,1,0,0:0:0:0:
203,202,157890,1,0,0:0:0:0:
190,219,157978,1,0,0:0:0:0:
281,122,158242,37,0,0:0:0:0:
281,122,158286,1,0,0:0:0:0:
281,122,158330,1,0,0:0:0:0:
126,201,158507,69,0,0:0:0:0:
82,224,158595,1,0,0:0:0:0:
63,255,158684,1,0,0:0:0:0:
269,161,158948,1,0,0:0:0:0:
269,161,158992,1,0,0:0:0:0:
269,161,159037,1,0,0:0:0:0:
112,276,159213,37,0,0:0:0:0:
98,301,159301,1,0,0:0:0:0:
52,328,159390,1,0,0:0:0:0:
220,202,159654,1,0,0:0:0:0:
220,202,159698,1,0,0:0:0:0:
220,202,159742,1,0,0:0:0:0:
90,338,160095,53,0,0:0:0:0:
45,265,160184,1,0,0:0:0:0:
94,211,160272,1,0,0:0:0:0:
131,183,160360,1,0,0:0:0:0:
146,158,160448,1,0,0:0:0:0:
151,185,160537,1,0,0:0:0:0:
164,229,160625,1,0,0:0:0:0:
219,260,160713,1,0,0:0:0:0:
200,299,160801,1,0,0:0:0:0:
51,99,161066,1,0,0:0:0:0:
51,99,161110,1,0,0:0:0:0:
51,99,161154,1,0,0:0:0:0:
145,254,161331,53,0,0:0:0:0:
159,217,161419,1,0,0:0:0:0:
173,180,161507,1,0,0:0:0:0:
42,41,161772,1,0,0:0:0:0:
42,41,161816,1,0,0:0:0:0:
42,41,161860,1,0,0:0:0:0:
125,159,162037,37,0,0:0:0:0:
160,125,162125,1,0,0:0:0:0:
196,92,162213,1,0,0:0:0:0:
10,10,162478,1,0,0:0:0:0:
10,10,162522,1,0,0:0:0:0:
10,10,162566,1,0,0:0:0:0:
196,92,162742,1,0,0:0:0:0:
210,74,162831,1,0,0:0:0:0:
256,60,162919,1,0,0:0:0:0:
234,119,163007,1,0,0:0:0:0:
266,179,163095,1,0,0:0:0:0:
323,210,163184,1,0,0:0:0:0:
389,198,163272,1,0,0:0:0:0:
434,155,163360,1,0,0:0:0:0:
438,87,163448,1,0,0:0:0:0:
409,56,163537,1,0,0:0:0:0:
376,82,163625,1,0,0:0:0:0:
256,192,203154,54,0,L|256:352,1,150.000005722046
203,139,203507,2,0,L|318:254,1,150.000005722046
309,139,203860,2,0,L|193:255,1,150.000005722046
256,192,204213,1,0,0:0:0:0:
256,192,204390,2,0,L|256:32,1,150.000005722046
384,64,204742,1,0,0:0:0:0:
373,81,205095,1,0,0:0:0:0:
463,47,205272,37,0,0:0:0:0:
456,66,205360,1,0,0:0:0:0:
443,90,205448,1,0,0:0:0:0:
417,111,205537,1,0,0:0:0:0:
427,143,205625,1,0,0:0:0:0:
395,166,205713,1,0,0:0:0:0:
356,183,205801,1,0,0:0:0:0:
310,190,205890,1,0,0:0:0:0:
256,192,205978,38,0,L|256:32,1,150.000005722046
203,139,206331,2,0,L|318:254,1,150.000005722046
309,139,206684,2,0,L|193:255,1,150.000005722046
256,192,207037,1,0,0:0:0:0:
256,192,207213,2,0,L|256:352,1,150.000005722046
185,299,207566,1,0,0:0:0:0:
173,307,207919,1,0,0:0:0:0:
46,331,208095,37,0,0:0:0:0:
46,322,208184,1,0,0:0:0:0:
97,296,208272,1,0,0:0:0:0:
95,283,208360,1,0,0:0:0:0:
110,257,208448,1,0,0:0:0:0:
126,247,208537,1,0,0:0:0:0:
201,225,208625,1,0,0:0:0:0:
172,209,208713,1,0,0:0:0:0:
256,192,208801,38,0,L|256:352,1,150.000005722046
203,139,209154,2,0,L|318:254,1,150.000005722046
309,139,209507,2,0,L|193:255,1,150.000005722046
256,192,209860,1,0,0:0:0:0:
256,192,210037,2,0,L|256:32,1,150.000005722046
384,64,210390,1,0,0:0:0:0:
373,81,210742,1,0,0:0:0:0:
463,47,210919,37,0,0:0:0:0:
456,66,211007,1,0,0:0:0:0:
443,90,211095,1,0,0:0:0:0:
417,111,211184,1,0,0:0:0:0:
427,143,211272,1,0,0:0:0:0:
395,166,211360,1,0,0:0:0:0:
356,183,211448,1,0,0:0:0:0:
310,190,211537,1,0,0:0:0:0:
256,192,211625,38,0,L|256:352,1,150.000005722046
203,139,211978,2,0,L|318:254,1,150.000005722046
309,139,212331,2,0,L|193:255,1,150.000005722046
256,192,212684,1,0,0:0:0:0:
256,192,212860,2,0,L|256:32,1,150.000005722046
384,64,213213,1,0,0:0:0:0:
373,81,213566,1,0,0:0:0:0:
458,95,213742,38,0,L|472:36,12,50.0000019073487
317,101,225742,5,0,0:0:0:0:
279,173,225919,2,0,P|237:112|249:60,1,124.999994039536
358,80,226272,1,0,0:0:0:0:
317,101,226360,1,0,0:0:0:0:
304,119,226448,5,0,0:0:0:0:
198,32,226625,2,0,B|253:59|253:59|206:110,1,124.999994039536
221,135,226978,1,0,0:0:0:0:
195,113,227066,1,0,0:0:0:0:
172,93,227154,69,0,0:0:0:0:
54,106,227331,1,0,0:0:0:0:
89,179,227507,1,0,0:0:0:0:
119,190,227595,1,0,0:0:0:0:
89,203,227684,1,0,0:0:0:0:
58,218,227772,1,0,0:0:0:0:
69,289,227860,69,0,0:0:0:0:
69,289,227948,1,0,0:0:0:0:
69,289,228037,2,0,B|138:277|138:277|120:333,1,124.999994039536
203,340,228390,5,0,0:0:0:0:
250,316,228478,1,0,0:0:0:0:
264,295,228566,1,0,0:0:0:0:
248,270,228654,1,0,0:0:0:0:
281,259,228742,1,0,0:0:0:0:
309,240,228831,1,0,0:0:0:0:
327,214,228919,1,0,0:0:0:0:
203,340,229095,1,0,0:0:0:0:
427,285,229272,37,0,0:0:0:0:
410,257,229360,1,0,0:0:0:0:
437,234,229448,1,0,0:0:0:0:
443,216,229537,1,0,0:0:0:0:
450,176,229625,1,0,0:0:0:0:
320,320,229801,1,0,0:0:0:0:
209,228,229978,54,0,L|244:263,2,37.4999996423721
173,193,230242,1,0,0:0:0:0:
167,160,230331,2,0,L|240:184,2,74.9999964237214
114,125,230595,1,0,0:0:0:0:
76,102,230684,38,0,L|16:19,1,99.7499911339764
76,102,230860,2,0,L|26:129,1,56.2499994635582
76,102,231037,1,0,0:0:0:0:
87,201,231125,1,0,0:0:0:0:
150,177,231213,1,0,0:0:0:0:
170,181,231301,1,0,0:0:0:0:
196,199,231390,21,0,0:0:0:0:
131,162,231566,2,0,P|127:228|172:270,1,124.999994039536
235,230,231919,1,0,0:0:0:0:
263,250,232007,1,0,0:0:0:0:
273,265,232095,5,0,0:0:0:0:
364,240,232272,2,0,B|319:193|319:193|379:177,1,124.999994039536
315,118,232625,1,0,0:0:0:0:
302,103,232713,1,0,0:0:0:0:
287,87,232801,69,0,0:0:0:0:
233,145,232978,1,0,0:0:0:0:
273,218,233154,1,0,0:0:0:0:
281,238,233242,1,0,0:0:0:0:
302,223,233331,1,0,0:0:0:0:
324,209,233419,1,0,0:0:0:0:
385,251,233507,22,0,B|418:191|418:191|475:179,1,124.999994039536
470,133,233772,1,0,0:0:0:0:
449,59,233860,6,0,L|252:254,1,269.999987125397
261,269,236331,5,0,0:0:0:0:
257,248,236419,1,0,0:0:0:0:
234,203,236507,1,0,0:0:0:0:
223,226,236595,1,0,0:0:0:0:
212,154,236684,1,0,0:0:0:0:
242,180,236772,1,0,0:0:0:0:
221,110,236860,1,0,0:0:0:0:
265,132,236948,1,0,0:0:0:0:
194,60,237037,21,0,0:0:0:0:
57,108,237390,1,0,0:0:0:0:
109,183,237742,1,0,0:0:0:0:
133,170,237831,1,0,0:0:0:0:
119,194,237919,1,0,0:0:0:0:
142,181,238007,1,0,0:0:0:0:
129,205,238095,1,0,0:0:0:0:
152,192,238184,1,0,0:0:0:0:
139,217,238272,1,0,0:0:0:0:
162,204,238360,1,0,0:0:0:0:
148,228,238448,1,0,0:0:0:0:
171,215,238537,1,0,0:0:0:0:
158,240,238625,1,0,0:0:0:0:
181,227,238713,1,0,0:0:0:0:
168,251,238801,1,0,0:0:0:0:
191,238,238890,1,0,0:0:0:0:
177,263,238978,1,0,0:0:0:0:
200,250,239066,1,0,0:0:0:0:
187,274,239154,1,0,0:0:0:0:
210,261,239242,1,0,0:0:0:0:
197,286,239331,1,0,0:0:0:0:
220,273,239419,1,0,0:0:0:0:
206,297,239507,1,0,0:0:0:0:
229,284,239595,1,0,0:0:0:0:
216,309,239684,1,0,0:0:0:0:
239,296,239772,1,0,0:0:0:0:
226,320,239860,1,0,0:0:0:0:
204,53,240213,21,0,0:0:0:0:
270,98,240566,1,0,0:0:0:0:
310,91,240654,1,0,0:0:0:0:
273,109,240742,1,0,0:0:0:0:
313,102,240831,1,0,0:0:0:0:
277,121,240919,1,0,0:0:0:0:
317,114,241007,1,0,0:0:0:0:
281,133,241095,1,0,0:0:0:0:
321,126,241184,1,0,0:0:0:0:
285,145,241272,1,0,0:0:0:0:
325,138,241360,1,0,0:0:0:0:
289,157,241448,1,0,0:0:0:0:
329,150,241537,1,0,0:0:0:0:
293,169,241625,1,0,0:0:0:0:
333,162,241713,1,0,0:0:0:0:
297,181,241801,1,0,0:0:0:0:
337,174,241890,1,0,0:0:0:0:
301,193,241978,1,0,0:0:0:0:
341,186,242066,1,0,0:0:0:0:
305,204,242154,1,0,0:0:0:0:
345,197,242242,1,0,0:0:0:0:
309,216,242331,1,0,0:0:0:0:
349,209,242419,1,0,0:0:0:0:
312,228,242507,1,0,0:0:0:0:
352,221,242595,1,0,0:0:0:0:
316,240,242684,1,0,0:0:0:0:
344,0,243037,37,0,0:0:0:0:
411,43,243390,1,0,0:0:0:0:
461,48,243478,1,0,0:0:0:0:
411,52,243566,1,0,0:0:0:0:
461,57,243654,1,0,0:0:0:0:
411,62,243742,1,0,0:0:0:0:
461,67,243831,1,0,0:0:0:0:
411,72,243919,1,0,0:0:0:0:
461,77,244007,1,0,0:0:0:0:
411,82,244095,1,0,0:0:0:0:
461,87,244184,1,0,0:0:0:0:
411,92,244272,1,0,0:0:0:0:
461,97,244360,1,0,0:0:0:0:
411,102,244448,1,0,0:0:0:0:
461,107,244537,1,0,0:0:0:0:
411,112,244625,1,0,0:0:0:0:
461,117,244713,1,0,0:0:0:0:
411,122,244801,1,0,0:0:0:0:
461,127,244890,1,0,0:0:0:0:
411,132,244978,1,0,0:0:0:0:
461,137,245066,1,0,0:0:0:0:
411,142,245154,1,0,0:0:0:0:
461,147,245242,1,0,0:0:0:0:
411,152,245331,1,0,0:0:0:0:
461,157,245419,1,0,0:0:0:0:
411,162,245507,1,0,0:0:0:0:
446,53,245772,6,0,L|270:164,1,206.249998033047
262,169,246301,2,0,L|59:296,1,234.374997764826
77,320,246919,5,0,0:0:0:0:
50,341,247007,1,0,0:0:0:0:
164,294,247095,1,0,0:0:0:0:
152,320,247184,1,0,0:0:0:0:
241,249,247272,1,0,0:0:0:0:
240,282,247360,1,0,0:0:0:0:
275,182,247448,1,0,0:0:0:0:
290,220,247537,1,0,0:0:0:0:
191,154,247625,37,0,0:0:0:0:
213,191,247713,1,0,0:0:0:0:
124,127,247801,1,0,0:0:0:0:
139,165,247890,1,0,0:0:0:0:
192,74,247978,1,0,0:0:0:0:
194,100,248066,1,0,0:0:0:0:
293,52,248154,1,0,0:0:0:0:
282,72,248242,1,0,0:0:0:0:
265,121,248331,21,0,0:0:0:0:
320,126,248860,1,0,0:0:0:0:
323,173,248948,1,0,0:0:0:0:
247,212,249037,5,0,0:0:0:0:
200,153,249566,1,0,0:0:0:0:
178,141,249654,1,0,0:0:0:0:
112,109,249742,69,0,0:0:0:0:
53,197,249919,1,0,0:0:0:0:
144,251,250095,1,0,0:0:0:0:
167,265,250184,1,0,0:0:0:0:
191,251,250272,1,0,0:0:0:0:
217,235,250360,1,0,0:0:0:0:
255,313,250448,69,0,0:0:0:0:
345,335,250978,53,0,0:0:0:0:
394,314,251066,1,0,0:0:0:0:
411,292,251154,1,0,0:0:0:0:
394,273,251242,1,0,0:0:0:0:
411,254,251331,1,0,0:0:0:0:
446,216,251419,1,0,0:0:0:0:
469,172,251507,1,0,0:0:0:0:
345,335,251684,1,0,0:0:0:0:
345,228,251860,69,0,0:0:0:0:
367,208,251948,1,0,0:0:0:0:
346,190,252037,1,0,0:0:0:0:
324,173,252125,1,0,0:0:0:0:
301,156,252213,1,0,0:0:0:0:
345,228,252390,1,0,0:0:0:0:
207,267,252566,69,0,0:0:0:0:
224,249,252654,1,0,0:0:0:0:
206,230,252742,1,0,0:0:0:0:
156,205,252831,1,0,0:0:0:0:
138,188,252919,1,0,0:0:0:0:
155,170,253007,1,0,0:0:0:0:
137,151,253095,1,0,0:0:0:0:
89,122,253184,1,0,0:0:0:0:
68,40,253272,37,0,0:0:0:0:
88,22,253360,1,0,0:0:0:0:
114,38,253448,1,0,0:0:0:0:
136,58,253537,1,0,0:0:0:0:
164,41,253625,2,0,L|175:105,1,49.9999976158143
269,82,253801,1,0,0:0:0:0:
250,97,253890,1,0,0:0:0:0:
218,149,253978,21,0,0:0:0:0:
106,137,254066,1,0,0:0:0:0:
78,177,254154,1,0,0:0:0:0:
89,223,254242,1,0,0:0:0:0:
115,226,254331,1,0,0:0:0:0:
131,272,254419,1,0,0:0:0:0:
155,294,254507,54,0,L|170:265,2,24.9999988079071
203,172,254772,1,0,0:0:0:0:
248,192,254860,1,0,0:0:0:0:
260,211,254948,1,0,0:0:0:0:
301,240,255037,1,0,0:0:0:0:
288,257,255125,1,0,0:0:0:0:
254,312,255213,70,0,L|270:337,1,24.9999988079071
175,54,255478,1,0,0:0:0:0:
60,54,255566,1,0,0:0:0:0:
60,169,255654,1,0,0:0:0:0:
175,169,255742,1,0,0:0:0:0:
198,179,255831,1,0,0:0:0:0:
221,189,255919,1,0,0:0:0:0:
242,199,256007,1,0,0:0:0:0:
296,222,256095,21,0,0:0:0:0:
421,82,256272,1,0,0:0:0:0:
352,177,256360,1,0,0:0:0:0:
463,141,256448,1,0,0:0:0:0:
352,105,256537,1,0,0:0:0:0:
421,200,256625,1,0,0:0:0:0:
387,169,256713,1,0,0:0:0:0:
367,161,256801,37,0,0:0:0:0:
351,167,256890,1,0,0:0:0:0:
335,158,256978,1,0,0:0:0:0:
309,96,257066,1,0,0:0:0:0:
351,44,257154,1,0,0:0:0:0:
373,50,257242,1,0,0:0:0:0:
400,84,257331,1,0,0:0:0:0:
424,154,257419,1,0,0:0:0:0:
383,214,257507,53,0,0:0:0:0:
370,227,257595,1,0,0:0:0:0:
353,213,257684,1,0,0:0:0:0:
282,176,257772,1,0,0:0:0:0:
218,130,257860,1,0,0:0:0:0:
175,155,257948,1,0,0:0:0:0:
147,195,258037,1,0,0:0:0:0:
117,270,258125,6,0,L|111:239,1,24.9999988079071
107,113,258302,1,0,0:0:0:0:
195,52,258390,1,0,0:0:0:0:
257,140,258478,1,0,0:0:0:0:
272,124,258566,1,0,0:0:0:0:
288,140,258654,1,0,0:0:0:0:
319,168,258742,1,0,0:0:0:0:
358,199,258831,1,0,0:0:0:0:
439,133,258919,69,0,0:0:0:0:
452,146,259095,1,0,0:0:0:0:
439,133,259272,1,0,0:0:0:0:
256,192,259625,53,0,0:0:0:0:
256,342,259801,1,0,0:0:0:0:
203,139,259978,1,0,0:0:0:0:
309,245,260154,1,0,0:0:0:0:
309,139,260331,1,0,0:0:0:0:
202,245,260507,1,0,0:0:0:0:
256,192,260684,1,0,0:0:0:0:
256,192,260860,1,0,0:0:0:0:
256,42,261037,1,0,0:0:0:0:
384,64,261213,1,0,0:0:0:0:
256,192,261390,1,0,0:0:0:0:
373,81,261566,1,0,0:0:0:0:
463,47,261742,37,0,0:0:0:0:
456,66,261831,1,0,0:0:0:0:
443,90,261919,1,0,0:0:0:0:
417,111,262007,1,0,0:0:0:0:
427,143,262095,1,0,0:0:0:0:
395,166,262184,1,0,0:0:0:0:
356,183,262272,1,0,0:0:0:0:
310,190,262360,1,0,0:0:0:0:
256,192,262448,37,0,0:0:0:0:
256,42,262625,1,0,0:0:0:0:
309,245,262801,1,0,0:0:0:0:
203,139,262978,1,0,0:0:0:0:
202,245,263154,1,0,0:0:0:0:
309,139,263331,1,0,0:0:0:0:
256,192,263507,1,0,0:0:0:0:
256,192,263684,1,0,0:0:0:0:
256,342,263860,1,0,0:0:0:0:
185,299,264037,1,0,0:0:0:0:
256,192,264213,1,0,0:0:0:0:
173,307,264390,1,0,0:0:0:0:
46,331,264566,37,0,0:0:0:0:
46,322,264654,1,0,0:0:0:0:
97,296,264742,1,0,0:0:0:0:
95,283,264831,1,0,0:0:0:0:
110,257,264919,1,0,0:0:0:0:
126,247,265007,1,0,0:0:0:0:
201,225,265095,1,0,0:0:0:0:
172,209,265184,1,0,0:0:0:0:
256,192,265272,37,0,0:0:0:0:
256,342,265448,1,0,0:0:0:0:
203,139,265625,1,0,0:0:0:0:
309,245,265801,1,0,0:0:0:0:
309,139,265978,1,0,0:0:0:0:
202,245,266154,1,0,0:0:0:0:
256,192,266331,1,0,0:0:0:0:
256,192,266507,1,0,0:0:0:0:
256,42,266684,1,0,0:0:0:0:
384,64,266860,1,0,0:0:0:0:
256,192,267037,1,0,0:0:0:0:
373,81,267213,1,0,0:0:0:0:
463,47,267390,37,0,0:0:0:0:
456,66,267478,1,0,0:0:0:0:
443,90,267566,1,0,0:0:0:0:
417,111,267654,1,0,0:0:0:0:
427,143,267742,1,0,0:0:0:0:
395,166,267831,1,0,0:0:0:0:
356,183,267919,1,0,0:0:0:0:
310,190,268007,1,0,0:0:0:0:
256,192,268095,37,0,0:0:0:0:
256,342,268272,1,0,0:0:0:0:
203,139,268448,1,0,0:0:0:0:
309,245,268625,1,0,0:0:0:0:
309,139,268801,1,0,0:0:0:0:
202,245,268978,1,0,0:0:0:0:
256,192,269154,1,0,0:0:0:0:
256,192,269331,1,0,0:0:0:0:
256,42,269507,1,0,0:0:0:0:
384,64,269684,1,0,0:0:0:0:
256,192,269860,1,0,0:0:0:0:
373,81,270037,1,0,0:0:0:0:
500,36,270213,37,0,0:0:0:0:
479,53,270272,1,0,0:0:0:0:
500,36,270331,1,0,0:0:0:0:
479,53,270390,1,0,0:0:0:0:
500,36,270448,1,0,0:0:0:0:
479,53,270507,1,0,0:0:0:0:
485,74,270566,1,0,0:0:0:0:
482,96,270654,1,0,0:0:0:0:
476,117,270742,1,0,0:0:0:0:
465,136,270831,1,0,0:0:0:0:
434,176,270919,2,0,L|218:200,1,199.999990463257
445,294,271448,1,0,0:0:0:0:
410,259,271537,1,0,0:0:0:0:
375,249,271625,2,0,L|327:259,1,49.9999976158143
248,314,271801,2,0,L|205:289,1,49.9999976158143
275,184,271978,2,0,L|216:214,1,49.9999976158143
148,195,272154,2,0,L|136:255,1,49.9999976158143
43,255,272331,2,0,L|72:313,1,49.9999976158143
163,310,272507,1,0,0:0:0:0:
200,264,272595,1,0,0:0:0:0:
252,319,272684,1,0,0:0:0:0:
279,277,272772,1,0,0:0:0:0:
336,314,272860,1,0,0:0:0:0:
325,268,272948,1,0,0:0:0:0:
396,279,273037,1,0,0:0:0:0:
456,161,273213,2,0,L|423:107,1,49.9999976158143
340,68,273390,2,0,L|307:119,1,49.9999976158143
230,180,273566,2,0,L|207:121,1,49.9999976158143
127,80,273742,2,0,L|42:270,1,199.999990463257
129,248,274272,1,0,0:0:0:0:
154,279,274360,1,0,0:0:0:0:
171,291,274448,2,0,L|389:306,1,199.999990463257
428,155,274978,1,0,0:0:0:0:
391,186,275066,1,0,0:0:0:0:
369,213,275154,1,0,0:0:0:0:
302,98,275331,1,0,0:0:0:0:
206,155,275507,1,0,0:0:0:0:
300,217,275684,1,0,0:0:0:0:
450,201,275860,1,0,0:0:0:0:
438,215,275948,1,0,0:0:0:0:
428,227,276037,1,0,0:0:0:0:
417,239,276125,1,0,0:0:0:0:
404,252,276213,1,0,0:0:0:0:
393,262,276301,1,0,0:0:0:0:
384,272,276390,1,0,0:0:0:0:
378,279,276478,1,0,0:0:0:0:
350,297,276566,1,0,0:0:0:0:
317,299,276654,1,0,0:0:0:0:
277,286,276742,1,0,0:0:0:0:
264,262,276831,1,0,0:0:0:0:
244,243,276919,1,0,0:0:0:0:
186,207,277007,1,0,0:0:0:0:
171,174,277095,1,0,0:0:0:0:
219,230,277184,1,0,0:0:0:0:
165,142,277272,1,0,0:0:0:0:
72,186,277360,1,0,0:0:0:0:
161,257,277448,1,0,0:0:0:0:
256,198,277537,1,0,0:0:0:0:
289,198,277625,1,0,0:0:0:0:
318,185,277713,1,0,0:0:0:0:
334,178,277801,1,0,0:0:0:0:
424,103,277890,1,0,0:0:0:0:
412,127,277978,1,0,0:0:0:0:
81,287,278154,1,0,0:0:0:0:
51,186,278242,1,0,0:0:0:0:
181,239,278331,1,0,0:0:0:0:
144,148,278419,1,0,0:0:0:0:
234,113,278507,1,0,0:0:0:0:
272,199,278595,1,0,0:0:0:0:
381,58,278684,1,0,0:0:0:0:
443,151,278860,1,0,0:0:0:0:
370,248,279037,1,0,0:0:0:0:
316,242,279213,1,0,0:0:0:0:
370,248,279390,1,0,0:0:0:0:
362,110,279919,1,0,0:0:0:0:
329,161,280007,1,0,0:0:0:0:
396,102,280095,1,0,0:0:0:0:
119,141,280625,1,0,0:0:0:0:
136,123,280713,1,0,0:0:0:0:
187,105,280801,1,0,0:0:0:0:
203,150,280890,1,0,0:0:0:0:
196,187,280978,1,0,0:0:0:0:
231,154,281066,1,0,0:0:0:0:
276,141,281154,1,0,0:0:0:0:
292,186,281242,1,0,0:0:0:0:
284,218,281331,1,0,0:0:0:0:
334,189,281419,1,0,0:0:0:0:
387,133,281507,1,0,0:0:0:0:
330,196,281595,69,0,0:0:0:0:
297,225,281683,1,0,0:0:0:0:
287,242,281772,1,0,0:0:0:0:
238,260,281860,1,0,0:0:0:0:
207,283,281948,1,0,0:0:0:0:
193,299,282036,1,0,0:0:0:0:
166,227,282125,1,0,0:0:0:0:
133,250,282213,1,0,0:0:0:0:
283,133,282477,37,0,0:0:0:0:
283,133,282521,1,0,0:0:0:0:
283,133,282565,1,0,0:0:0:0:
126,201,282742,69,0,0:0:0:0:
82,224,282830,1,0,0:0:0:0:
63,255,282919,1,0,0:0:0:0:
269,161,283183,1,0,0:0:0:0:
269,161,283227,1,0,0:0:0:0:
269,161,283272,1,0,0:0:0:0:
112,276,283448,37,0,0:0:0:0:
98,301,283536,1,0,0:0:0:0:
52,328,283625,1,0,0:0:0:0:
220,202,283889,1,0,0:0:0:0:
220,202,283933,1,0,0:0:0:0:
220,202,283977,1,0,0:0:0:0:
90,338,284330,53,0,0:0:0:0:
45,265,284419,1,0,0:0:0:0:
94,211,284507,1,0,0:0:0:0:
131,183,284595,1,0,0:0:0:0:
146,158,284683,1,0,0:0:0:0:
151,185,284772,1,0,0:0:0:0:
164,229,284860,1,0,0:0:0:0:
219,260,284948,1,0,0:0:0:0:
200,299,285036,1,0,0:0:0:0:
51,99,285301,1,0,0:0:0:0:
51,99,285345,1,0,0:0:0:0:
51,99,285389,1,0,0:0:0:0:
145,254,285566,53,0,0:0:0:0:
159,217,285654,1,0,0:0:0:0:
173,180,285742,1,0,0:0:0:0:
42,41,286007,1,0,0:0:0:0:
42,41,286051,1,0,0:0:0:0:
42,41,286095,1,0,0:0:0:0:
125,159,286272,37,0,0:0:0:0:
160,125,286360,1,0,0:0:0:0:
196,92,286448,1,0,0:0:0:0:
10,10,286713,1,0,0:0:0:0:
10,10,286757,1,0,0:0:0:0:
10,10,286801,1,0,0:0:0:0:
196,92,286977,1,0,0:0:0:0:
210,74,287066,1,0,0:0:0:0:
256,60,287154,1,0,0:0:0:0:
234,119,287242,1,0,0:0:0:0:
266,179,287330,1,0,0:0:0:0:
323,210,287419,1,0,0:0:0:0:
389,198,287507,1,0,0:0:0:0:
434,155,287595,1,0,0:0:0:0:
438,87,287683,1,0,0:0:0:0:
409,56,287772,1,0,0:0:0:0:
376,82,287860,1,0,0:0:0:0:
465,46,296331,5,0,0:0:0:0:
450,52,296419,1,0,0:0:0:0:
439,63,296595,1,0,0:0:0:0:
425,77,296684,1,0,0:0:0:0:
411,91,296772,1,0,0:0:0:0:
396,105,296860,1,0,0:0:0:0:
381,119,296948,2,0,B|355:143|327:159|302:162|302:162|365:176|365:176|342:184|342:184|374:191|404:204|404:204|358:216|316:238|299:251|299:251|330:259|330:259|262:275|262:275|297:279|318:293|318:293|280:319|230:337|180:343|180:343|164:334|120:325|120:325|142:319|142:319|111:309|82:293,1,799.999961853028
84,291,298448,53,0,0:0:0:0:
70,280,298537,1,0,0:0:0:0:
56,270,298625,2,0,B|30:253|30:253|89:232|108:221|108:221|86:209|72:204|72:204|100:191|135:183|164:184,1,249.999988079071
193,182,299154,22,0,P|225:173|238:162,1,49.9999976158143
257,139,299331,1,0,0:0:0:0:
280,161,299419,1,0,0:0:0:0:
235,121,299507,2,0,P|213:108|179:100,1,49.9999976158143
149,99,299684,1,0,0:0:0:0:
107,114,299742,1,0,0:0:0:0:
102,160,299801,1,0,0:0:0:0:
59,173,299860,54,0,B|70:192|95:206|95:206|73:218|73:218|101:238|139:257,1,149.999998569489
156,241,300125,1,0,0:0:0:0:
179,144,300213,2,0,B|214:157|251:177|251:177|221:197|179:213|179:213|194:227,1,174.99999332428
236,221,300478,1,0,0:0:0:0:
194,99,300566,70,0,B|244:120|293:137|339:151|339:151|313:164|280:177|280:177|321:183|371:199|371:199|395:191|395:191|395:215|428:236|428:236|385:260|367:265|367:265|400:299|400:299|371:324|316:342|261:345,1,647.499966654778
240,327,301272,21,0,0:0:0:0:
182,356,301360,1,0,0:0:0:0:
161,332,301448,1,0,0:0:0:0:
114,302,301537,1,0,0:0:0:0:
148,260,301625,1,0,0:0:0:0:
160,245,301684,1,0,0:0:0:0:
174,232,301742,1,0,0:0:0:0:
187,220,301801,1,0,0:0:0:0:
203,209,301860,1,0,0:0:0:0:
218,197,301919,1,0,0:0:0:0:
239,186,301978,53,0,0:0:0:0:
98,189,302154,1,0,0:0:0:0:
73,153,302242,1,0,0:0:0:0:
61,108,302331,2,0,P|120:118|172:151,1,112.499998927116
191,109,302684,2,0,L|298:154,1,112.499998927116
320,117,303037,2,0,P|361:145|389:147,1,74.9999992847443
457,137,303301,1,0,0:0:0:0:
421,32,303390,2,0,B|373:65|300:92|300:92|336:111|336:111|303:131|266:140|239:146|239:146|264:154|296:174|328:188|360:202|360:202|338:218|315:227,1,454.999957475665
301,234,304095,2,0,B|257:244|235:287|214:299,1,108.333323208492
197,311,304448,1,0,0:0:0:0:
167,324,304537,1,0,0:0:0:0:
135,333,304625,1,0,0:0:0:0:
103,337,304713,1,0,0:0:0:0:
238,219,309919,5,0,0:0:0:0:
258,198,310007,1,0,0:0:0:0:
311,174,310095,1,0,0:0:0:0:
320,165,310154,1,0,0:0:0:0:
328,156,310213,1,0,0:0:0:0:
336,147,310272,1,0,0:0:0:0:
351,142,310360,1,0,0:0:0:0:
352,128,310448,1,0,0:0:0:0:
70,177,311154,2,0,B|70:158|156:127|156:127|154:175|136:231|126:258|79:306|88:366|40:397|-24:396|-11:305|25:256|98:269|114:324|143:351|172:354|210:341|262:318|262:318|251:347,1,649.999969005585
463,97,314684,5,0,0:0:0:0:
371,137,314742,1,0,0:0:0:0:
417,116,314801,1,0,0:0:0:0:
417,156,314860,1,0,0:0:0:0:
371,175,314919,1,0,0:0:0:0:
325,196,314978,1,0,0:0:0:0:
277,213,315037,1,0,0:0:0:0:
229,226,315095,1,0,0:0:0:0:
178,227,315154,1,0,0:0:0:0:
129,216,315213,1,0,0:0:0:0:
92,182,315272,1,0,0:0:0:0:
82,132,315331,1,0,0:0:0:0:
99,85,315390,5,0,0:0:0:0:
142,108,315448,1,0,0:0:0:0:
186,132,315507,1,0,0:0:0:0:
140,153,315566,1,0,0:0:0:0:
184,173,315625,1,0,0:0:0:0:
228,196,315684,1,0,0:0:0:0:
275,212,315742,1,0,0:0:0:0:
321,195,315801,1,0,0:0:0:0:
366,173,315860,1,0,0:0:0:0:
321,150,315919,1,0,0:0:0:0:
365,129,315978,1,0,0:0:0:0:
409,105,316037,1,0,0:0:0:0:
466,44,316095,5,0,0:0:0:0:
459,57,316154,1,0,0:0:0:0:
440,75,316213,1,0,0:0:0:0:
417,95,316272,1,0,0:0:0:0:
380,115,316331,1,0,0:0:0:0:
337,131,316390,1,0,0:0:0:0:
285,142,316448,1,0,0:0:0:0:
321,150,316507,1,0,0:0:0:0:
352,163,316566,1,0,0:0:0:0:
376,176,316625,1,0,0:0:0:0:
390,189,316684,1,0,0:0:0:0:
378,206,316742,1,0,0:0:0:0:
351,223,316801,5,0,0:0:0:0:
309,240,316860,1,0,0:0:0:0:
259,252,316919,1,0,0:0:0:0:
293,257,316978,1,0,0:0:0:0:
320,266,317037,1,0,0:0:0:0:
336,275,317095,1,0,0:0:0:0:
349,282,317154,1,0,0:0:0:0:
337,292,317213,1,0,0:0:0:0:
320,300,317272,1,0,0:0:0:0:
298,306,317331,1,0,0:0:0:0:
268,315,317390,1,0,0:0:0:0:
224,321,317448,1,0,0:0:0:0:
