osu file format v14

[General]
AudioFilename: audio.mp3
AudioLeadIn: 0
PreviewTime: 66009
Countdown: 0
SampleSet: Soft
StackLeniency: 0.2
Mode: 0
LetterboxInBreaks: 0
WidescreenStoryboard: 1

[Editor]
Bookmarks: 18013
DistanceSpacing: 0.2
BeatDivisor: 4
GridSize: 4
TimelineZoom: 2.5

[Metadata]
Title:Majestic Phoenix
TitleUnicode:百鳥朝凰
Artist:ICE
ArtistUnicode:ICE
Creator:Zetera
Version:milr_'s Insane
Source:Cytus
Tags:Chapter V five 5 VANESSA Entrance Iceloki Myxomatosis Desperate-kun Deramok Nerova Riuz GX milr_ Sala-
BeatmapID:1774004
BeatmapSetID:845094

[Difficulty]
HPDrainRate:6
CircleSize:4
OverallDifficulty:7
ApproachRate:9
SliderMultiplier:1.4
SliderTickRate:1

[Events]
//Background and Video events
0,0,"bg.jpg",0,0
//Break Periods
//Storyboard Layer 0 (Background)
//Storyboard Layer 1 (Fail)
//Storyboard Layer 2 (Pass)
//Storyboard Layer 3 (Foreground)
//Storyboard Sound Samples

[TimingPoints]
2010,333.333333333333,3,2,0,40,1,0
10010,-100,3,3,0,40,0,0
17177,-100,3,3,0,20,0,0
17260,-100,3,3,0,24,0,0
17343,-100,3,3,0,28,0,0
17427,-100,3,3,0,32,0,0
17510,-100,3,3,0,36,0,0
17593,-100,3,3,0,40,0,0
17677,-100,3,3,0,44,0,0
17760,-100,3,3,0,48,0,0
17843,-100,3,3,0,52,0,0
17927,-100,3,3,0,56,0,0
18009,-80,3,2,0,60,0,0
33177,-80,3,2,0,20,0,0
33260,-80,3,2,0,22,0,0
33343,-80,3,2,0,24,0,0
33427,-80,3,2,0,26,0,0
33510,-80,3,2,0,28,0,0
33593,-80,3,2,0,30,0,0
33677,-80,3,2,0,32,0,0
33760,-80,3,2,0,34,0,0
33843,-80,3,2,0,36,0,0
33927,-80,3,2,0,38,0,0
34009,-133.333333333333,3,2,0,40,0,0
49176,-100,3,2,0,27,0,0
49259,-100,3,2,0,28,0,0
49342,-100,3,2,0,29,0,0
49426,-100,3,2,0,30,0,0
49509,-100,3,2,0,31,0,0
49592,-100,3,2,0,32,0,0
49676,-100,3,2,0,33,0,0
49759,-100,3,2,0,34,0,0
49842,-100,3,2,0,35,0,0
50010,-100,3,2,0,40,0,0
58010,-100,3,2,0,40,0,0
65343,-100,3,2,0,30,0,0
65427,-100,3,2,0,33,0,0
65510,-100,3,2,0,36,0,0
65593,-100,3,2,0,39,0,0
65677,-100,3,2,0,42,0,0
65760,-100,3,2,0,45,0,0
65843,-100,3,2,0,48,0,0
65927,-100,3,2,0,51,0,0
66009,-80,3,2,0,55,0,1
81677,-80,3,2,0,58,0,1
81760,-80,3,2,0,61,0,1
81843,-80,3,2,0,64,0,1
81927,-80,3,2,0,67,0,1
82010,-80,3,2,0,70,0,1
98009,-133.333333333333,3,2,0,70,0,0
106010,-133.333333333333,3,2,0,50,0,0
108010,-133.333333333333,3,2,1,40,0,0
108177,-133.333333333333,3,2,0,30,0,0
108343,-133.333333333333,3,2,1,20,0,0
109010,-133.333333333333,3,2,0,70,0,0

[Colours]
Combo1 : 232,74,74
Combo2 : 224,224,224
Combo3 : 255,128,128
Combo4 : 131,131,131

[HitObjects]
96,176,10009,5,8,0:0:0:0:
178,196,10176,1,0,0:0:0:0:
178,196,10259,1,0,0:0:0:0:
178,196,10343,1,0,0:0:0:0:
119,256,10509,1,0,0:0:0:0:
119,256,10676,2,0,P|128:304|140:348,1,70,4|0,0:0|0:0,0:0:0:0:
296,368,11009,5,8,0:0:0:0:
214,348,11176,1,0,0:0:0:0:
214,348,11259,1,0,0:0:0:0:
214,348,11343,1,0,0:0:0:0:
271,287,11509,1,0,0:0:0:0:
271,287,11676,2,0,P|280:239|292:195,1,70,8|0,0:0|0:0,0:0:0:0:
224,161,12009,6,0,P|189:167|155:175,1,70,8|0,0:0|0:0,0:0:0:0:
115,163,12259,1,0,0:0:0:0:
115,163,12343,1,0,0:0:0:0:
145,85,12509,1,0,0:0:0:0:
64,61,12676,2,0,P|31:52|-13:37,1,70,4|0,0:0|0:0,0:0:0:0:
165,18,13009,6,0,P|150:61|141:106,1,70,8|0,0:0|0:0,0:0:0:0:
179,109,13259,1,0,0:0:0:0:
179,109,13343,1,0,0:0:0:0:
115,163,13509,1,0,0:0:0:0:
194,192,13676,2,0,P|246:184|290:176,1,70,8|0,0:0|0:0,0:0:0:0:
51,217,14009,5,8,0:0:0:0:
64,300,14176,1,0,0:0:0:0:
64,300,14259,1,0,0:0:0:0:
64,300,14343,1,0,0:0:0:0:
77,383,14509,1,0,0:0:0:0:
160,368,14676,2,0,P|204:358|249:351,1,70,4|0,0:0|0:0,0:0:0:0:
172,264,15009,5,8,0:0:0:0:
254,277,15176,1,0,0:0:0:0:
254,277,15259,1,0,0:0:0:0:
254,277,15343,1,0,0:0:0:0:
337,290,15509,1,0,0:0:0:0:
349,206,15676,2,0,P|353:161|360:116,1,70,8|0,0:0|0:0,0:0:0:0:
245,10,16009,6,0,P|247:44|252:79,1,70,8|0,0:0|0:0,0:0:0:0:
279,101,16259,1,0,0:0:0:0:
279,101,16343,1,0,0:0:0:0:
349,55,16509,1,0,0:0:0:0:
356,136,16676,2,0,P|408:144|458:154,1,70,4|0,0:0|0:0,0:0:0:0:
288,246,17009,1,8,0:0:0:0:
221,195,17176,2,0,P|218:169|215:149,3,35,4|4|4|0,0:0|0:0|0:3|0:3,0:0:0:0:
172,259,17509,2,0,P|169:285|166:305,5,35,4|4|4|4|4|0,0:0|0:0|0:0|0:0|0:0|0:0,0:0:0:0:
236,348,18009,6,0,B|300:344|300:344|353:311|353:311|421:306,1,175,4|0,1:2|0:0,0:0:0:0:
312,233,18509,1,0,0:0:0:0:
474,367,18676,2,0,P|486:307|498:263,1,87.5,0|0,1:0|0:0,0:0:0:0:
312,233,19009,6,0,B|306:185|277:155|277:155|242:114|242:62,1,175,2|0,1:3|0:0,0:0:0:0:
386,9,19509,1,0,0:0:0:0:
470,140,19676,2,0,P|435:161|365:160,1,87.5,4|2,1:3|0:0,0:0:0:0:
242,75,20009,5,8,1:3:0:0:
242,75,20093,1,0,0:0:0:0:
242,75,20176,1,0,0:0:0:0:
242,75,20343,1,0,3:0:0:0:
386,9,20509,1,0,0:0:0:0:
470,140,20676,1,4,3:0:0:0:
326,206,20843,1,0,0:0:0:0:
242,75,21009,5,2,1:3:0:0:
242,75,21343,2,0,P|176:64|136:56,1,87.5,2|0,0:0|0:0,0:0:0:0:
325,205,21676,2,0,P|368:197|412:191,1,87.5,4|2,3:0|0:0,0:0:0:0:
183,317,22009,6,0,P|235:216|212:131,2,175,8|2|2,1:3|0:0|1:2,0:0:0:0:
102,352,22843,1,0,0:0:0:0:
17,162,23009,5,2,1:3:0:0:
17,162,23343,1,2,0:0:0:0:
97,127,23509,2,0,L|141:131,3,29.1666666666667,2|0|0|4,0:0|0:0|0:0|0:3,0:0:0:0:
4,308,23843,1,2,0:0:0:0:
192,347,24009,6,0,L|262:343,2,43.75,0|0|0,1:0|0:0|0:0,0:0:0:0:
62,239,24343,2,0,P|122:243|166:247,1,87.5,4|0,0:3|0:0,0:0:0:0:
235,344,24676,2,0,P|295:340|339:336,1,87.5,8|0,0:3|0:0,0:0:0:0:
478,196,25009,5,2,1:3:0:0:
386,145,25176,2,0,P|394:109|398:85,3,43.75,0|0|4|0,0:0|0:0|0:3|0:0,0:0:0:0:
478,196,25509,2,0,P|486:232|490:256,5,43.75,2|2|2|2|0|0,0:3|0:3|0:3|0:3|0:0|0:0,0:0:0:0:
404,364,26009,6,0,B|407:336|414:307|414:307|396:276|384:254|384:254|349:250|309:243,1,175,4|0,1:0|0:0,0:0:0:0:
176,207,26509,1,0,0:0:0:0:
235,344,26676,2,0,P|295:340|339:336,1,87.5,0|0,1:0|0:0,0:0:0:0:
396,164,27009,6,0,B|303:151|303:151|248:126|221:78,1,175,2|0,1:3|0:0,0:0:0:0:
190,11,27509,1,0,0:0:0:0:
19,134,27676,2,0,L|31:234,1,87.5,4|0,1:3|0:0,0:0:0:0:
77,315,28009,5,8,1:3:0:0:
77,315,28093,1,0,0:0:0:0:
77,315,28176,1,0,0:0:0:0:
77,315,28343,1,0,3:0:0:0:
19,134,28509,1,0,0:0:0:0:
190,11,28676,1,4,3:0:0:0:
248,192,28843,1,0,0:0:0:0:
77,315,29009,5,2,1:3:0:0:
77,315,29343,2,0,P|92:236|104:192,1,87.5,2|0,0:0|0:0,0:0:0:0:
231,106,29676,2,0,P|246:185|258:229,1,87.5,4|0,1:3|0:0,0:0:0:0:
170,347,30009,6,0,P|242:364|333:304,2,175,0|2|4,1:0|0:0|0:3,0:0:0:0:
77,315,30843,1,0,0:0:0:0:
247,191,31009,5,2,1:3:0:0:
247,191,31343,1,2,0:0:0:0:
180,48,31509,2,0,L|132:44,3,29.1666666666667,2|0|0|4,0:0|0:0|0:0|0:3,0:0:0:0:
296,4,31843,1,2,0:0:0:0:
363,147,32009,6,0,P|400:144|436:145,2,43.75,0|2|0,1:0|0:0|0:0,0:0:0:0:
247,191,32343,2,0,P|260:247|272:304,1,87.5,4|0,0:3|0:0,0:0:0:0:
406,143,32676,2,0,P|419:87|431:30,1,87.5,4|0,1:3|0:0,0:0:0:0:
209,5,33009,5,2,1:3:0:0:
126,69,33176,2,0,P|98:65|62:61,3,43.75,4|4|4|4,0:3|0:3|0:3|0:3,0:0:0:0:
209,5,33509,2,0,P|230:2|252:0,5,43.75,2|2|2|2|2|2,0:3|0:3|0:3|0:3|0:3|0:3,0:0:0:0:
221,108,34009,6,0,P|209:172|200:236,2,105.000004005432,4|2|0,1:0|0:0|0:0,0:0:0:0:
295,72,35009,1,2,0:0:0:0:
373,93,35343,1,0,0:0:0:0:
407,167,35676,1,2,0:0:0:0:
441,374,36009,5,2,0:0:0:0:
455,294,36343,1,0,0:0:0:0:
374,281,36676,1,0,0:0:0:0:
360,361,37009,2,0,B|267:303|254:382|153:320,1,210.000008010865,8|4,0:3|0:3,0:0:0:0:
115,255,38009,6,0,P|55:259|2:266,2,105.000004005432,8|0|0,1:3|0:0|0:0,3:3:0:0:
180,205,39009,1,2,3:0:0:0:
259,228,39343,1,0,3:0:0:0:
284,305,39676,1,0,0:0:0:0:
491,268,40009,5,2,3:0:0:0:
482,187,40343,1,0,3:0:0:0:
473,106,40676,1,0,3:0:0:0:
464,25,41009,2,0,B|384:20|384:20|344:41|344:41|260:36,1,210.000008010865,8|4,0:3|0:3,0:0:0:0:
188,76,42009,6,0,P|129:62|72:51,2,105.000004005432,8|2|0,1:3|0:0|0:0,0:0:0:0:
238,141,43009,1,2,0:3:0:0:
215,217,43343,1,2,0:0:0:0:
137,243,43676,1,2,0:0:0:0:
352,228,44009,5,2,0:0:0:0:
368,148,44343,1,0,0:0:0:0:
433,241,44676,1,2,0:0:0:0:
449,161,45009,2,0,P|432:96|296:104,1,210.000008010865,8|4,1:3|0:3,0:0:0:0:
229,114,46009,6,0,P|217:74|205:6,2,105.000004005432,8|0|0,1:3|0:0|0:0,0:0:0:0:
255,191,47009,1,2,0:0:0:0:
312,248,47343,1,0,0:0:0:0:
384,284,47676,1,0,0:0:0:0:
168,364,48009,5,2,0:0:0:0:
183,283,48343,1,0,0:0:0:0:
89,349,48676,1,2,0:0:0:0:
104,268,49009,5,2,0:0:0:0:
58,198,49176,2,0,P|28:192|-2:190,3,35
104,268,49509,2,0,P|120:264|164:260,5,35
212,221,50009,5,4,1:0:0:0:
398,270,50343,1,2,0:0:0:0:
291,299,50509,1,0,0:0:0:0:
291,299,50593,1,0,0:0:0:0:
291,299,50676,1,2,0:0:0:0:
319,192,50843,1,0,0:0:0:0:
212,221,51009,6,0,P|201:266|180:318,1,70,4|0,1:2|0:0,0:0:0:0:
167,358,51259,1,2,0:0:0:0:
167,358,51343,1,0,0:0:0:0:
306,380,51509,1,0,0:0:0:0:
398,270,51676,5,2,0:0:0:0:
291,299,51843,1,4,0:0:0:0:
115,200,52009,6,0,P|107:165|98:131,1,70,0|0,1:0|0:0,0:0:0:0:
253,67,52343,2,0,P|245:101|236:135,1,70,2|0,0:0|0:0,0:0:0:0:
26,289,52676,2,0,P|83:281|123:278,1,70,2|0,0:0|0:0,0:0:0:0:
222,217,53009,5,6,1:2:0:0:
239,219,53092,1,0,0:0:0:0:
256,220,53175,1,2,0:0:0:0:
274,222,53259,1,0,0:0:0:0:
292,224,53343,2,0,P|304:271|309:313,1,70,2|0,0:0|0:0,0:0:0:0:
114,370,53676,1,2,0:0:0:0:
200,302,53843,1,4,0:0:0:0:
406,350,54009,5,4,1:3:0:0:
433,162,54176,1,0,0:0:0:0:
476,268,54343,1,2,0:0:0:0:
363,251,54509,1,0,0:0:0:0:
363,251,54593,1,0,0:0:0:0:
363,251,54676,1,2,0:0:0:0:
512,151,54843,1,0,0:0:0:0:
351,75,55009,6,0,P|334:116|321:157,1,70,6|0,1:2|0:0,0:0:0:0:
300,316,55343,2,0,P|283:275|270:234,1,70,2|0,0:0|0:0,0:0:0:0:
160,148,55676,1,2,0:0:0:0:
244,172,55843,1,4,0:0:0:0:
104,300,56009,6,0,P|68:304|20:316,1,70,0|0,1:0|0:0,0:0:0:0:
184,236,56343,1,2,0:0:0:0:
198,267,56426,1,0,0:0:0:0:
202,302,56509,1,2,0:0:0:0:
195,336,56593,1,0,0:0:0:0:
179,367,56676,1,2,0:0:0:0:
35,311,56843,1,0,0:0:0:0:
88,168,57009,6,0,P|36:160|-12:148,1,70,4|0,1:2|0:0,0:0:0:0:
208,96,57343,2,0,P|216:44|228:-4,1,70,2|0,0:0|0:0,0:0:0:0:
276,252,57676,1,2,0:0:0:0:
293,247,57759,1,0,0:0:0:0:
310,244,57842,1,0,0:0:0:0:
327,240,57926,1,0,0:0:0:0:
344,237,58009,5,4,1:0:0:0:
152,360,58343,1,2,0:0:0:0:
172,272,58509,1,0,0:0:0:0:
172,272,58593,1,2,0:0:0:0:
172,272,58676,1,0,0:0:0:0:
288,344,58843,1,2,0:0:0:0:
445,215,59009,6,0,P|453:167|465:127,1,70,6|0,1:2|0:0,0:0:0:0:
480,76,59259,1,2,0:0:0:0:
480,76,59343,1,0,0:0:0:0:
340,136,59509,1,2,0:0:0:0:
248,12,59676,5,2,0:0:0:0:
396,52,59843,1,4,0:0:0:0:
260,172,60009,6,0,P|272:224|284:266,1,70,2|0,1:2|0:0,0:0:0:0:
148,110,60343,2,0,P|160:58|172:16,1,70,2|0,0:0|0:0,0:0:0:0:
184,232,60676,2,0,P|132:244|90:256,1,70,2|0,0:0|0:0,0:0:0:0:
4,80,61009,5,6,1:2:0:0:
12,113,61092,1,0,0:0:0:0:
20,148,61175,1,2,0:0:0:0:
26,182,61259,1,0,0:0:0:0:
31,217,61343,2,0,P|16:256|-4:296,1,70,2|0,0:0|0:0,0:0:0:0:
124,368,61676,1,2,0:0:0:0:
267,329,61843,1,6,0:0:0:0:
364,168,62009,5,4,1:3:0:0:
408,352,62176,1,2,0:0:0:0:
438,251,62343,1,0,0:0:0:0:
336,274,62509,1,0,0:0:0:0:
336,274,62593,1,2,0:0:0:0:
336,274,62676,1,0,0:0:0:0:
220,196,62843,1,0,0:0:0:0:
377,99,63009,6,0,P|369:143|357:199,1,70,4|0,1:2|0:0,0:0:0:0:
248,352,63343,2,0,P|240:308|228:252,1,70,2|0,0:0|0:0,0:0:0:0:
284,125,63676,1,2,0:0:0:0:
198,109,63843,1,6,0:0:0:0:
24,220,64009,5,2,1:2:0:0:
41,218,64092,1,0,0:0:0:0:
58,215,64175,1,0,0:0:0:0:
75,212,64259,1,0,0:0:0:0:
93,209,64342,1,2,0:0:0:0:
110,205,64425,1,0,0:0:0:0:
127,201,64509,1,0,0:0:0:0:
144,197,64592,1,0,0:0:0:0:
160,192,64676,2,0,P|192:196|212:200,3,35,2|0|0|0,3:2|0:0|0:0|0:0,0:0:0:0:
253,267,65009,6,0,P|231:271|201:275,1,35,6|0,1:2|0:0,0:0:0:0:
253,140,65176,2,0,P|270:142|287:145,1,35
352,212,65343,2,0,P|330:216|300:220,7,35,6|4|4|4|4|4|4|4,0:3|0:3|0:3|0:3|0:3|0:3|0:3|0:3,0:0:0:0:
296,336,66009,5,4,1:0:0:0:
336,351,66092,1,2,0:0:0:0:
379,347,66175,1,0,0:0:0:0:
417,326,66258,1,2,0:0:0:0:
442,290,66343,2,0,P|456:228|468:184,1,87.5,0|0,0:0|3:0,0:0:0:0:
280,108,66676,1,4,0:3:0:0:
352,212,66843,1,2,0:0:0:0:
512,80,67009,5,4,1:2:0:0:
480,88,67092,1,2,0:0:0:0:
447,87,67175,1,0,0:0:0:0:
415,79,67258,1,2,0:0:0:0:
387,63,67342,1,2,0:0:0:0:
296,0,67509,1,0,0:0:0:0:
224,180,67676,1,4,0:3:0:0:
356,136,67843,1,6,0:0:0:0:
152,40,68009,6,0,P|148:80|144:116,3,43.75,4|0|0|0,1:0|0:0|0:0|0:0,0:0:0:0:
219,136,68343,2,0,P|223:176|227:212,3,43.75,2|0|0|0,0:0|0:0|0:0|0:0,0:0:0:0:
88,224,68676,2,0,P|124:228|152:232,1,43.75,2|0,1:2|0:0,0:0:0:0:
236,292,68843,2,0,P|214:294|192:296,1,43.75,0|0,0:0|0:0,0:0:0:0:
93,354,69009,5,6,1:2:0:0:
93,321,69092,1,0,0:0:0:0:
93,288,69175,1,0,0:0:0:0:
90,255,69258,1,0,0:0:0:0:
87,223,69342,1,2,0:0:0:0:
0,132,69509,1,0,0:0:0:0:
140,40,69676,1,2,1:2:0:0:
228,132,69843,1,4,0:0:0:0:
87,223,70009,5,4,1:0:0:0:
130,225,70092,1,2,0:0:0:0:
172,238,70175,1,0,0:0:0:0:
209,261,70258,1,2,0:0:0:0:
240,292,70343,2,0,P|228:344|220:388,1,87.5,2|0,0:3|0:0,0:0:0:0:
348,260,70676,1,6,0:3:0:0:
320,152,70843,1,0,0:0:0:0:
452,320,71009,5,4,1:2:0:0:
431,345,71092,1,2,0:0:0:0:
404,364,71175,1,0,0:0:0:0:
374,376,71258,1,2,0:0:0:0:
341,380,71342,1,2,0:0:0:0:
244,331,71509,2,0,P|220:326|195:323,3,29.1666666666667,2|2|2|4,0:0|0:0|0:0|0:3,0:0:0:0:
320,152,71843,1,4,0:0:0:0:
152,28,72009,6,0,P|144:60|140:96,3,43.75,4|0|2|2,1:0|0:0|0:0|0:0,0:0:0:0:
228,88,72343,2,0,P|236:120|240:156,3,43.75,0|0|2|0,0:0|0:0|0:0|0:0,0:0:0:0:
172,196,72676,1,4,0:3:0:0:
150,190,72759,1,0,0:0:0:0:
129,189,72842,1,2,0:0:0:0:
107,194,72925,1,2,0:0:0:0:
88,204,73009,5,4,1:2:0:0:
61,223,73092,1,0,0:0:0:0:
45,251,73175,1,2,0:0:0:0:
40,283,73258,1,0,0:0:0:0:
49,315,73343,2,0,P|64:348|100:372,1,43.75,2|0,0:0|0:0,0:0:0:0:
148,312,73509,2,0,P|133:279|97:255,1,43.75,2|0,0:0|0:0,0:0:0:0:
228,344,73676,2,0,P|242:376|278:400,1,43.75,2|0,0:0|0:0,0:0:0:0:
327,341,73842,2,0,P|312:308|276:284,1,43.75,2|2,0:0|0:0,0:0:0:0:
232,220,74009,5,4,1:0:0:0:
275,226,74092,1,2,0:0:0:0:
317,216,74175,1,0,0:0:0:0:
352,190,74258,1,2,0:0:0:0:
375,153,74343,2,0,P|388:80|404:28,1,87.5,0|0,0:0|0:0,0:0:0:0:
504,224,74676,1,4,0:3:0:0:
384,268,74843,1,2,0:0:0:0:
284,128,75009,5,4,1:2:0:0:
278,95,75092,1,2,0:0:0:0:
271,63,75175,1,0,0:0:0:0:
265,31,75258,1,2,0:0:0:0:
259,0,75342,1,2,0:0:0:0:
391,67,75509,1,0,0:0:0:0:
299,206,75676,1,4,0:3:0:0:
167,139,75843,1,6,0:0:0:0:
232,304,76009,6,0,P|220:344|216:376,3,43.75,4|0|0|0,1:0|0:0|0:0|0:0,0:0:0:0:
160,260,76343,2,0,P|148:220|144:188,3,43.75,2|0|0|0,0:0|0:0|0:0|0:0,0:0:0:0:
167,139,76676,2,0,P|135:135|91:127,1,43.75,2|0,1:2|0:0,0:0:0:0:
228,208,76843,2,0,P|249:204|271:202,1,43.75,0|0,0:0|0:0,0:0:0:0:
208,68,77009,5,4,1:2:0:0:
240,74,77092,1,0,0:0:0:0:
272,80,77175,1,0,0:0:0:0:
304,85,77258,1,0,0:0:0:0:
337,89,77342,1,2,0:0:0:0:
456,24,77509,1,2,0:0:0:0:
496,172,77676,1,4,0:3:0:0:
378,238,77843,1,6,0:0:0:0:
337,89,78009,5,4,1:0:0:0:
296,105,78092,1,2,0:0:0:0:
264,134,78175,1,0,0:0:0:0:
244,173,78258,1,2,0:0:0:0:
240,216,78343,2,0,P|237:251|226:318,1,87.5
358,384,78676,1,4,0:3:0:0:
381,259,78843,1,0,0:0:0:0:
105,337,79009,5,6,1:2:0:0:
112,305,79092,1,2,0:0:0:0:
120,273,79175,1,0,0:0:0:0:
127,241,79258,1,2,0:0:0:0:
134,209,79342,1,2,0:0:0:0:
19,242,79509,2,0,P|26:274|28:291,3,29.1666666666667,2|2|2|4,0:0|0:0|0:0|0:3,0:0:0:0:
250,177,79843,1,4,0:0:0:0:
164,92,80009,6,0,P|126:87|94:79,3,43.75,4|0|2|2,1:0|0:0|0:0|0:0,0:0:0:0:
250,177,80343,2,0,P|271:173|293:170,3,43.75,0|0|2|2,0:0|0:0|0:0|0:0,0:0:0:0:
240,50,80676,1,4,0:3:0:0:
261,55,80759,1,0,0:0:0:0:
282,59,80842,1,2,0:0:0:0:
304,64,80925,1,2,0:0:0:0:
328,68,81009,5,4,1:2:0:0:
359,60,81092,1,0,0:0:0:0:
391,53,81175,1,2,0:0:0:0:
424,47,81258,1,0,0:0:0:0:
456,42,81343,2,0,P|448:72|440:112,1,43.75,2|0,0:0|0:0,0:0:0:0:
368,140,81509,2,0,P|376:169|384:209,1,43.75,2|0,0:0|0:0,0:0:0:0:
488,244,81676,2,0,P|458:236|420:223,3,43.75,4|4|4|4,0:3|0:3|0:3|0:3,0:0:0:0:
337,295,82009,6,0,P|358:273|388:246,3,43.75,6|0|0|0,1:0|0:0|0:0|0:0,0:0:0:0:
379,182,82343,1,2,0:0:0:0:
369,150,82426,1,0,0:0:0:0:
360,119,82509,1,2,0:0:0:0:
350,87,82592,1,0,0:1:0:0:
340,56,82676,1,4,0:3:0:0:
437,17,82843,1,0,0:0:0:0:
245,90,83009,6,0,L|189:82,3,43.75,6|0|0|0,1:2|0:0|0:0|0:0,0:0:0:0:
256,212,83343,2,2,P|296:204|320:196,3,43.75,0|0|2|0,0:0|0:0|0:0|0:1,0:0:0:0:
185,162,83676,1,6,1:3:0:0:
136,360,83843,1,0,0:0:0:0:
224,328,84009,6,0,P|216:304|208:272,3,43.75,4|0|0|0,1:0|0:0|0:0|0:0,0:0:0:0:
64,264,84343,1,2,0:0:0:0:
74,233,84426,1,0,0:0:0:0:
84,201,84509,1,0,0:0:0:0:
93,170,84592,1,0,0:0:0:0:
101,138,84676,2,0,P|93:114|85:82,3,43.75,2|0|0|0,1:2|0:0|0:0|0:0,0:0:0:0:
180,192,85009,6,0,P|204:197|236:206,3,43.75,4|0|0|0,1:2|0:0|0:0|0:0,0:0:0:0:
272,88,85343,1,2,0:0:0:0:
101,138,85509,1,0,0:0:0:0:
222,6,85676,1,2,1:2:0:0:
393,56,85842,1,6,0:0:0:0:
267,186,86009,6,0,P|304:192|336:200,1,43.75,4|0,1:0|0:0,0:0:0:0:
315,80,86176,2,0,P|289:83|269:88,1,43.75
380,140,86343,1,2,0:0:0:0:
393,169,86426,1,0,0:0:0:0:
395,202,86509,1,2,0:0:0:0:
386,233,86592,1,2,0:0:0:0:
367,260,86676,1,4,0:3:0:0:
359,302,86759,1,2,0:0:0:0:
371,344,86842,1,0,0:0:0:0:
402,374,86925,1,2,0:0:0:0:
446,384,87009,6,0,P|452:347|460:315,3,43.75,6|0|0|0,1:2|0:0|0:0|0:0,0:0:0:0:
273,267,87343,2,0,P|279:304|287:336,3,43.75,2|0|0|0,0:0|0:0|0:0|0:0,0:0:0:0:
393,169,87676,1,4,1:3:0:0:
371,168,87759,1,2,0:0:0:0:
349,166,87842,1,0,0:0:0:0:
327,164,87925,1,2,0:0:0:0:
305,161,88009,6,0,P|311:124|319:92,3,43.75,4|0|0|0,1:0|0:0|0:0|0:0,0:0:0:0:
236,199,88343,2,0,P|200:212|169:221,3,43.75,2|0|2|2,0:0|0:0|0:0|0:0,0:0:0:0:
303,239,88676,1,4,0:3:0:0:
311,245,88759,1,0,0:0:0:0:
320,252,88842,1,2,0:0:0:0:
328,259,88925,1,0,0:0:0:0:
336,266,89009,6,0,P|332:306|332:350,3,43.75,4|2|0|2,1:2|0:0|0:0|0:0,0:0:0:0:
188,360,89343,2,0,P|184:320|184:276,3,43.75,2|0|0|2,0:0|0:0|0:0|0:0,0:0:0:0:
256,288,89676,1,2,0:0:0:0:
245,245,89759,1,0,0:0:0:0:
255,204,89842,1,0,0:0:0:0:
267,162,89925,1,2,0:0:0:0:
256,121,90009,6,0,P|176:112|92:108,1,131.25,4|2,1:0|0:0,0:0:0:0:
67,162,90343,1,2,0:0:0:0:
132,20,90509,1,2,0:0:0:0:
287,6,90676,1,4,0:3:0:0:
376,132,90843,1,2,0:0:0:0:
312,274,91009,6,0,P|231:283|147:287,1,131.25,6|2,0:0|0:0,0:0:0:0:
126,228,91343,1,2,0:0:0:0:
231,360,91509,1,2,0:0:0:0:
286,134,91676,1,2,1:2:0:0:
391,266,91843,1,2,0:0:0:0:
512,168,92009,6,0,P|500:88|484:8,1,131.25,4|2,1:0|0:0,0:0:0:0:
416,8,92343,1,2,0:0:0:0:
398,182,92509,1,0,0:0:0:0:
380,356,92676,1,4,0:3:0:0:
512,280,92843,1,2,0:0:0:0:
266,258,93009,6,0,P|277:193|287:128,1,131.25,4|2,1:2|0:0,0:0:0:0:
215,94,93343,1,2,0:0:0:0:
398,182,93509,1,0,0:0:0:0:
344,24,93676,2,0,P|300:28|272:28,3,43.75,4|2|2|0,0:3|0:0|0:0|0:0,0:0:0:0:
171,90,94009,6,0,P|215:94|243:94,3,43.75,4|2|0|0,1:0|0:0|0:0|0:0,0:0:0:0:
286,128,94343,1,2,0:0:0:0:
282,160,94426,1,2,0:0:0:0:
276,193,94509,1,0,0:0:0:0:
271,225,94592,1,0,0:0:0:0:
266,258,94676,1,2,0:0:0:0:
274,278,94759,1,2,0:0:0:0:
282,298,94842,1,0,0:0:0:0:
288,319,94925,1,0,0:0:0:0:
293,340,95009,6,0,P|271:341|249:343,3,43.75,6|2|2|0,1:2|0:0|0:0|0:0,0:0:0:0:
184,251,95343,2,0,P|162:250|140:248,3,43.75,2|2|0|2,0:0|0:0|0:0|0:0,0:0:0:0:
265,136,95676,1,4,1:3:0:0:
266,157,95759,1,0,0:0:0:0:
268,179,95842,1,6,0:0:0:0:
270,201,95925,1,2,0:0:0:0:
272,224,96009,6,0,P|293:222|315:221,1,43.75,4|2,1:0|0:0,0:0:0:0:
412,290,96176,2,0,P|399:272|387:254,1,43.75,0|2,0:0|0:0,0:0:0:0:
399,135,96343,2,0,P|390:154|380:173,3,43.75,2|0|2|2,0:0|0:0|0:0|0:0,0:0:0:0:
500,144,96676,1,4,0:3:0:0:
483,115,96759,1,0,0:0:0:0:
469,86,96842,1,2,0:0:0:0:
455,56,96925,1,2,0:0:0:0:
443,25,97009,5,6,1:2:0:0:
423,18,97092,1,0,0:0:0:0:
401,16,97175,1,0,0:0:0:0:
380,20,97258,1,0,0:0:0:0:
360,30,97343,1,2,0:0:0:0:
331,45,97426,1,0,0:0:0:0:
308,69,97509,1,4,0:3:0:0:
295,98,97592,1,4,0:3:0:0:
291,131,97676,2,0,P|296:168|328:204,3,43.75,4|4|4|4,0:3|0:3|0:2|0:2,0:0:0:0:
256,300,98009,6,0,P|264:256|172:300,1,210.000008010865,4|0,1:0|0:0,0:0:0:0:
197,359,99009,5,2,0:0:0:0:
345,281,99343,2,0,P|353:225|373:169,1,105.000004005432,0|0,0:0|0:0,0:0:0:0:
168,144,100009,5,2,0:0:0:0:
312,4,100343,2,0,P|320:60|340:116,1,105.000004005432,0|0,0:0|0:0,0:0:0:0:
496,128,101009,5,2,0:0:0:0:
394,257,101343,2,0,P|377:306|370:358,1,105.000004005432,0|0,0:0|0:0,0:0:0:0:
209,335,102009,5,2,0:0:0:0:
314,210,102343,2,0,P|297:160|290:108,1,105.000004005432,0|0,0:0|0:0,0:0:0:0:
152,23,103009,5,2,0:0:0:0:
47,148,103343,2,0,P|63:197|70:249,1,105.000004005432,0|0,0:0|0:0,0:0:0:0:
209,335,104009,5,2,0:0:0:0:
70,249,104343,2,0,P|146:233|186:221,1,105.000004005432,0|0,0:0|0:0,0:0:0:0:
306,83,105009,5,2,0:0:0:0:
393,221,105343,2,0,P|317:202|276:195,1,105.000004005432,0|0,0:0|0:0,0:0:0:0:
158,105,106009,6,2,B|138:89|134:53|166:21|206:17|242:45|251:78|234:121|218:161|218:161|202:203|215:253|276:278|276:278|218:273|167:298|167:298|156:284|156:284|138:272|138:272|117:265|117:265|97:264|97:264|78:271|78:271,1,603.750023031236,2|0,0:2|0:0,0:0:0:0:
24,328,108009,6,0,L|32:372,3,26.2500010013581,2|0|0|0,0:0|0:0|0:0|0:0,0:0:0:0:
78,270,108343,1,2,0:0:0:0:
81,243,108426,1,0,0:0:0:0:
85,217,108509,1,0,0:0:0:0:
88,191,108592,1,0,0:0:0:0:
92,166,108676,1,2,0:0:0:0:
96,140,108759,1,0,0:0:0:0:
101,114,108842,1,0,0:0:0:0:
105,88,108926,1,0,0:0:0:0:
110,62,109009,5,4,1:0:0:0:
