osu file format v14

[General]
AudioFilename: audio.mp3
AudioLeadIn: 0
PreviewTime: 66009
Countdown: 0
SampleSet: Soft
StackLeniency: 0.7
Mode: 0
LetterboxInBreaks: 0
WidescreenStoryboard: 1

[Editor]
DistanceSpacing: 1
BeatDivisor: 4
GridSize: 4
TimelineZoom: 2.5

[Metadata]
Title:Majestic Phoenix
TitleUnicode:百鳥朝凰
Artist:ICE
ArtistUnicode:ICE
Creator:Zetera
Version:Normal
Source:Cytus
Tags:Chapter V five 5 VANESSA Entrance Iceloki Myxomatosis Desperate-kun Deramok Nerova Riuz GX milr_ Sala-
BeatmapID:1777851
BeatmapSetID:845094

[Difficulty]
HPDrainRate:4.5
CircleSize:3.5
OverallDifficulty:4.5
ApproachRate:6
SliderMultiplier:0.9
SliderTickRate:1

[Events]
//Background and Video events
0,0,"bg.jpg",0,0
//Break Periods
//Storyboard Layer 0 (Background)
//Storyboard Layer 1 (Fail)
//Storyboard Layer 2 (Pass)
//Storyboard Layer 3 (Foreground)
//Storyboard Sound Samples

[TimingPoints]
2010,333.333333333333,3,2,0,40,1,0
18009,-76.9230769230769,3,2,0,60,0,0
33176,-76.9230769230769,3,2,0,20,0,0
33259,-76.9230769230769,3,2,0,22,0,0
33342,-76.9230769230769,3,2,0,24,0,0
33426,-76.9230769230769,3,2,0,26,0,0
33509,-76.9230769230769,3,2,0,28,0,0
33592,-76.9230769230769,3,2,0,30,0,0
33676,-76.9230769230769,3,2,0,32,0,0
34009,-133.333333333333,3,2,0,40,0,0
49093,-133.333333333333,3,2,0,26,0,0
49177,-133.333333333333,3,2,0,27,0,0
49260,-133.333333333333,3,2,0,28,0,0
49343,-133.333333333333,3,2,0,29,0,0
49427,-133.333333333333,3,2,0,30,0,0
49510,-133.333333333333,3,2,0,31,0,0
49593,-133.333333333333,3,2,0,32,0,0
49677,-133.333333333333,3,2,0,33,0,0
49760,-133.333333333333,3,2,0,34,0,0
49843,-133.333333333333,3,2,0,35,0,0
50009,-100,3,2,0,40,0,0
65342,-100,3,2,0,30,0,0
65426,-100,3,2,0,33,0,0
65509,-100,3,2,0,36,0,0
65592,-100,3,2,0,39,0,0
65676,-100,3,2,0,42,0,0
66009,-66.6666666666667,3,2,0,55,0,1
81676,-66.6666666666667,3,2,0,58,0,1
81759,-66.6666666666667,3,2,0,61,0,1
81842,-66.6666666666667,3,2,0,64,0,1
81926,-66.6666666666667,3,2,0,67,0,1
82009,-66.6666666666667,3,2,0,70,0,1
98009,-66.6666666666667,3,2,0,70,0,0
99009,-133.333333333333,3,2,0,40,0,0
106009,-66.6666666666667,3,2,0,50,0,0
109009,-66.6666666666667,3,2,0,70,0,0

[Colours]
Combo1 : 232,74,74
Combo2 : 224,224,224
Combo3 : 255,128,128
Combo4 : 131,131,131

[HitObjects]
67,355,2010,6,0,P|36:318|51:229,1,135,2|0,0:0|0:0,0:0:0:0:
70,217,2677,2,0,L|118:211,1,45,2|0,0:0|0:0,0:0:0:0:
187,253,3010,2,0,P|204:190|161:115,1,135,2|0,0:0|0:0,0:0:0:0:
151,113,3677,2,0,L|88:120,2,45,2|2|2,0:0|0:0|0:0,0:0:0:0:
241,337,6010,6,0,L|376:349,1,135,2|0,0:0|0:0,0:0:0:0:
397,335,6677,2,0,P|403:305|402:279,1,45,2|0,0:0|0:0,0:0:0:0:
355,228,7010,2,0,L|207:214,1,135,2|0,0:0|0:0,0:0:0:0:
198,192,7677,2,0,P|194:150|197:132,2,45,2|2|2,0:0|0:0|0:0,0:0:0:0:
191,19,10010,6,0,L|199:161,1,135,8|0,0:0|0:0,0:0:0:0:
188,166,10677,2,0,P|162:154|137:147,1,45,4|0,0:0|0:0,0:0:0:0:
81,200,11010,2,0,L|95:349,1,135,8|0,0:0|0:0,0:0:0:0:
106,346,11677,2,0,P|137:337|161:320,1,45,8|0,0:0|0:0,0:0:0:0:
221,284,12010,6,0,L|504:309,2,270,8|8|8,0:0|0:0|0:0,0:0:0:0:
18,315,14510,2,0,L|9:378,2,45,0|4|0,0:0|0:0|0:0,0:0:0:0:
88,256,15010,1,8,0:0:0:0:
6,78,15510,2,0,L|-3:15,2,45,0|8|0,0:0|0:0|0:0,0:0:0:0:
84,125,16010,1,8,0:0:0:0:
256,192,16343,12,4,18009,1:2:0:0:
430,38,18676,6,0,P|438:66|441:96,1,58.4999973220826,4|0,0:3|1:0,0:0:0:0:
427,119,19010,2,0,P|407:155|409:303,1,175.499991966248,2|0,1:3|0:0,0:0:0:0:
395,320,19677,2,0,P|363:303|321:297,1,58.4999973220826,4|2,1:3|0:0,0:0:0:0:
314,320,20010,6,0,L|79:341,1,233.999989288331,8|4,1:3|3:0,0:0:0:0:
10,247,21010,1,2,1:3:0:0:
125,231,21343,6,0,L|192:224,2,58.4999973220826,2|0|4,0:0|0:0|3:0,0:0:0:0:
58,134,22010,2,0,L|46:13,1,116.999994644165,0|2,1:3|0:0,0:0:0:0:
163,16,22677,1,2,1:2:0:0:
251,91,23010,2,0,P|303:121|359:102,1,116.999994644165,2|2,1:3|0:0,0:0:0:0:
454,27,23677,1,4,0:3:0:0:
480,159,24010,6,0,L|475:107,2,29.2499986610413,0|0|0,1:0|0:0|0:0,0:0:0:0:
382,313,24677,1,8,0:3:0:0:
459,364,25010,2,0,L|478:129,1,233.999989288331,2|6,1:3|0:3,0:0:0:0:
430,56,26010,6,0,P|368:37|286:127,1,175.499991966248,4|0,1:0|0:0,0:0:0:0:
264,127,26677,2,0,P|245:92|220:69,1,58.4999973220826,0|0,1:0|0:0,0:0:0:0:
220,45,27010,2,0,P|130:51|84:140,1,175.499991966248,2|0,1:3|0:0,0:0:0:0:
97,149,27677,2,0,P|106:193|100:226,1,58.4999973220826,4|0,1:3|0:0,0:0:0:0:
78,229,28010,6,0,L|317:207,1,233.999989288331,8|4,1:3|3:0,0:0:0:0:
339,321,29010,1,2,1:3:0:0:
455,307,29343,6,0,L|467:385,2,58.4999973220826,2|0|4,0:0|0:0|1:3,0:0:0:0:
447,190,30010,2,0,L|429:70,1,116.999994644165,0|2,1:0|0:0,0:0:0:0:
348,0,30677,1,4,0:3:0:0:
322,113,31010,2,0,P|256:130|203:93,1,116.999994644165,2|2,1:3|0:0,0:0:0:0:
158,6,31677,1,4,0:3:0:0:
99,107,32010,6,0,P|68:115|49:116,2,29.2499986610413,0|2|0,1:0|0:0|0:0,0:0:0:0:
79,358,32677,1,4,1:3:0:0:
49,282,33010,2,0,P|161:274|213:393,1,233.999989288331,2|6,1:3|0:3,0:0:0:0:
288,315,34010,6,0,L|431:301,1,135.000005149842,4|0,1:0|0:0,0:0:0:0:
504,225,35010,2,0,L|294:201,1,202.500007724762,2|2,0:0|0:0,0:0:0:0:
234,156,36343,2,0,P|219:197|224:231,1,67.5000025749208,0|0,0:0|0:0,0:0:0:0:
130,116,37010,2,0,P|116:178|139:250,1,135.000005149842,8|4,0:3|0:3,0:0:0:0:
89,316,38010,5,8,1:3:0:0:
193,25,39010,2,0,L|212:171,1,135.000005149842,2|0,3:0|0:0,3:3:0:0:
233,238,40010,2,0,P|253:171|319:141,1,135.000005149842,2|0,3:0|3:0,0:0:0:0:
381,179,41010,1,8,0:3:0:0:
437,330,41677,1,4,0:3:0:0:
437,330,42010,6,0,B|405:320|357:323|387:357|325:366|304:354,1,135.000005149842,8|0,1:3|0:0,0:0:0:0:
318,277,43010,2,0,L|327:139,1,135.000005149842,2|2,0:3|0:0,0:0:0:0:
281,69,44010,2,0,L|286:-3,2,67.5000025749208,2|0|2,0:0|0:0|0:0,0:0:0:0:
214,127,45010,2,0,P|146:132|95:85,1,135.000005149842,8|4,1:3|0:3,0:0:0:0:
56,24,46010,6,0,L|65:232,1,202.500007724762,8|2,1:3|0:0,0:0:0:0:
24,300,47343,2,0,P|59:312|99:302,1,67.5000025749208,0|0,0:0|0:0,0:0:0:0:
145,245,48010,1,2,0:0:0:0:
256,192,48343,12,4,50009,1:0:0:0:
67,59,50677,5,2,0:0:0:0:
151,47,51010,2,0,L|350:24,1,180,4|2,1:2|0:0,0:0:0:0:
419,1,52010,2,0,B|436:104|378:70|412:176,1,180,0|2,1:0|0:0,0:0:0:0:
492,198,53009,1,6,1:2:0:0:
316,143,53677,1,2,0:0:0:0:
256,82,54010,6,0,P|169:62|87:120,1,180,4|2,1:3|0:0,0:0:0:0:
47,176,55010,2,0,L|58:283,1,90,6|2,1:2|0:0,0:0:0:0:
125,322,55677,1,2,0:0:0:0:
141,231,56010,6,0,B|180:220|235:214|218:272|277:264|319:244,1,180,0|2,1:0|0:0,0:0:0:0:
370,175,57010,2,0,L|351:369,1,180,4|2,1:2|0:0,0:0:0:0:
442,346,58010,5,4,1:0:0:0:
486,267,58343,1,2,0:0:0:0:
457,181,58677,2,0,L|453:119,1,45,0|2,0:0|0:0,0:0:0:0:
479,98,59010,2,0,L|284:78,1,180,6|2,1:2|0:0,0:0:0:0:
231,131,60010,6,0,L|224:183,1,45,2|0,1:2|0:0,0:0:0:0:
201,204,60343,2,0,L|204:248,1,45,2|0,0:0|0:0,0:0:0:0:
230,276,60677,2,0,L|223:328,1,45,2|0,0:0|0:0,0:0:0:0:
220,348,61010,6,0,B|110:384|155:315|38:354,1,180,6|2,1:2|0:0,0:0:0:0:
5,281,62010,6,0,L|11:189,1,90,4|0,1:3|0:0,0:0:0:0:
82,114,62677,2,0,L|91:178,1,45,0|0,0:0|0:0,0:0:0:0:
98,172,63010,2,0,P|144:184|195:152,1,90,4|2,1:2|0:0,0:0:0:0:
222,98,63677,1,2,0:0:0:0:
279,32,64010,6,0,P|337:33|364:57,1,90,2|2,1:2|0:0,0:0:0:0:
393,119,64677,1,2,3:2:0:0:
363,198,65010,2,0,P|427:138|517:155,1,180,6|4,1:2|0:3,0:0:0:0:
456,219,66010,6,0,B|400:195|355:231|355:231|290:212|246:262,1,202.500007724762,4|0,1:0|3:0,0:0:0:0:
250,264,66677,2,0,L|243:343,1,67.5000025749208,4|2,0:3|0:0,0:0:0:0:
163,378,67010,2,0,L|152:148,1,202.500007724762,4|0,1:2|0:0,0:0:0:0:
69,127,67677,2,0,L|72:208,1,67.5000025749208,4|6,0:3|0:0,0:0:0:0:
73,284,68010,5,4,1:0:0:0:
153,175,68343,2,0,L|145:20,2,135.000005149842,2|2|6,0:0|1:2|1:2,0:0:0:0:
260,10,69343,1,2,0:0:0:0:
374,42,69677,2,0,P|378:99|362:137,1,67.5000025749208,2|4,1:2|0:0,0:0:0:0:
314,162,70010,6,0,L|454:146,1,135.000005149842,4|2,1:0|0:3,0:0:0:0:
433,357,70677,1,6,0:3:0:0:
479,258,71010,2,0,L|327:272,1,135.000005149842,4|2,1:2|0:0,0:0:0:0:
204,336,71677,2,0,L|283:321,1,67.5000025749208,4|4,0:3|0:0,0:0:0:0:
282,328,72010,6,0,P|260:252|315:199,1,135.000005149842,4|0,1:0|0:0,0:0:0:0:
293,7,72677,2,0,P|293:41|280:72,1,67.5000025749208,4|2,0:3|0:0,0:0:0:0:
264,80,73010,6,0,L|106:95,1,135.000005149842,4|2,1:2|0:0,0:0:0:0:
105,105,73510,1,2,0:0:0:0:
83,115,73677,2,0,P|62:175|67:202,1,67.5000025749208,2|2,0:0|0:0,0:0:0:0:
3,240,74010,6,0,P|63:210|96:322,1,202.500007724762,4|0,1:0|0:0,0:0:0:0:
96,328,74677,2,0,L|195:341,1,67.5000025749208,4|2,0:3|0:0,0:0:0:0:
244,348,75010,2,0,L|223:140,1,202.500007724762,4|0,1:2|0:0,0:0:0:0:
278,90,75677,2,0,P|311:112|355:114,1,67.5000025749208,4|6,0:3|0:0,0:0:0:0:
395,48,76010,1,4,1:0:0:0:
459,160,76343,6,0,L|443:311,2,135.000005149842,2|2|4,0:0|1:2|1:2,0:0:0:0:
328,273,77343,1,2,0:0:0:0:
225,315,77677,2,0,L|209:230,1,67.5000025749208,4|6,0:3|0:0,0:0:0:0:
276,197,78010,6,0,P|214:214|154:172,1,135.000005149842,4|0,1:0|0:0,0:0:0:0:
147,17,78677,1,4,0:3:0:0:
228,129,79010,2,0,L|374:149,1,135.000005149842,6|2,1:2|0:0,0:0:0:0:
384,44,79677,2,0,L|450:34,1,67.5000025749208,4|4,0:3|0:0,0:0:0:0:
481,59,80010,6,0,P|504:115|484:208,1,135.000005149842,4|0,1:0|0:0,0:0:0:0:
332,274,80677,2,0,P|322:320|337:358,1,67.5000025749208,4|2,0:3|0:0,0:0:0:0:
333,355,81010,6,0,L|176:339,1,135.000005149842,4|2,1:2|0:0,0:0:0:0:
79,329,81510,2,0,L|10:363,2,67.5000025749208,2|4|4,0:0|0:3|0:3,0:0:0:0:
149,228,82010,6,2,B|191:193|247:217|247:217|282:170|340:174,1,202.500007724762,6|0,1:0|0:0,0:0:0:0:
326,265,82677,1,0,0:0:0:0:
408,226,82843,1,0,0:0:0:0:
487,276,83010,6,2,B|527:157|438:184|475:65,1,202.500007724762,6|0,1:2|0:0,0:0:0:0:
416,13,83677,1,4,1:3:0:0:
416,13,83843,1,0,0:0:0:0:
376,93,84010,5,4,1:0:0:0:
262,68,84343,2,0,P|209:55|143:96,2,135.000005149842,2|2|4,0:0|1:2|1:2,0:0:0:0:
58,117,85343,2,0,L|52:41,1,67.5000025749208,2|0,0:0|0:0,0:0:0:0:
144,96,85677,2,0,L|135:183,1,67.5000025749208,2|6,1:2|0:0,0:0:0:0:
59,215,86010,6,0,B|107:183|239:166|151:283|294:260|320:221,1,270.000010299683,4|4,1:0|0:3,0:0:0:0:
366,124,87010,2,0,P|402:84|423:207,1,270.000010299683,6|4,1:2|1:3,0:0:0:0:
316,321,88010,6,0,B|377:158|249:224|292:64,1,270.000010299683,4|4,1:0|0:3,0:0:0:0:
240,251,89010,2,0,L|33:235,1,202.500007724762,4|0,1:2|0:0,0:0:0:0:
0,153,89677,2,0,L|96:140,1,67.5000025749208,2|0,0:0|0:0,0:0:0:0:
121,61,90010,6,0,P|162:133|123:248,1,202.500007724762,4|2,1:0|0:0,0:0:0:0:
110,265,90677,2,0,P|94:304|105:346,1,67.5000025749208,4|2,0:3|0:0,0:0:0:0:
185,343,91010,6,0,L|405:355,1,202.500007724762,6|2,1:2|0:0,0:0:0:0:
415,338,91677,2,0,L|407:243,1,67.5000025749208,2|2,1:2|0:0,0:0:0:0:
474,209,92010,6,0,P|409:176|320:252,1,202.500007724762,4|0,1:0|0:0,0:0:0:0:
293,259,92677,2,0,P|266:219|232:206,1,67.5000025749208,4|2,0:3|0:0,0:0:0:0:
205,296,93010,2,0,P|124:311|38:219,1,202.500007724762,4|0,1:2|0:0,0:0:0:0:
57,215,93677,2,0,L|45:122,1,67.5000025749208,4|2,0:3|0:0,0:0:0:0:
98,81,94010,6,0,B|329:48|329:48,1,202.500007724762,4|0,1:0|0:0,0:0:0:0:
318,71,94677,2,0,P|313:126|324:162,1,67.5000025749208,2|0,0:0|0:0,0:0:0:0:
408,141,95010,6,0,P|424:227|393:354,1,202.500007724762,6|0,1:2|0:0,0:0:0:0:
380,348,95677,2,0,L|283:341,1,67.5000025749208,4|6,1:3|0:0,0:0:0:0:
261,273,96010,6,0,L|-25:307,1,270.000010299683,4|4,1:0|0:3,0:0:0:0:
62,69,97010,2,0,L|209:88,1,135.000005149842,6|2,1:2|0:0,0:0:0:0:
275,125,97510,2,0,L|299:197,2,67.5000025749208,4|4|4,0:3|0:3|0:2,0:0:0:0:
270,36,98010,5,4,1:0:0:0:
270,36,99009,6,0,L|337:42,1,67.5000025749208,2|0,0:0|0:0,0:0:0:0:
350,52,100009,6,0,L|358:130,1,67.5000025749208,2|0,0:0|0:0,0:0:0:0:
350,132,101009,6,0,L|340:200,1,67.5000025749208,2|0,0:0|0:0,0:0:0:0:
332,211,102009,6,0,L|258:200,1,67.5000025749208,2|0,0:0|0:0,0:0:0:0:
252,207,103009,6,0,L|259:290,1,67.5000025749208,2|0,0:0|0:0,0:0:0:0:
268,285,104009,6,0,L|262:365,1,67.5000025749208,2|0,0:0|0:0,0:0:0:0:
258,366,105009,6,0,L|186:370,1,67.5000025749208,2|0,0:0|0:0,0:0:0:0:
256,192,106010,12,4,109010,1:0:0:0:
