osu file format v14

[General]
AudioFilename: audio.mp3
AudioLeadIn: 0
PreviewTime: 66009
Countdown: 0
SampleSet: Soft
StackLeniency: 0
Mode: 0
LetterboxInBreaks: 0
WidescreenStoryboard: 0

[Editor]
DistanceSpacing: 0.4
BeatDivisor: 6
GridSize: 32
TimelineZoom: 3.599999

[Metadata]
Title:Majestic Phoenix
TitleUnicode:百鳥朝凰
Artist:ICE
ArtistUnicode:ICE
Creator:Zetera
Version:Down in Flames
Source:Cytus
Tags:Chapter V five 5 VANESSA Entrance Iceloki Myxomatosis Desperate-kun Deramok Nerova Riuz GX milr_ Sala-
BeatmapID:1767713
BeatmapSetID:845094

[Difficulty]
HPDrainRate:5
CircleSize:3.4
OverallDifficulty:8
ApproachRate:9
SliderMultiplier:1.6
SliderTickRate:1

[Events]
//Background and Video events
0,0,"bg.jpg",0,0
//Break Periods
//Storyboard Layer 0 (Background)
//Storyboard Layer 1 (Fail)
//Storyboard Layer 2 (Pass)
//Storyboard Layer 3 (Foreground)
//Storyboard Sound Samples

[TimingPoints]
2010,333.333333333333,3,2,0,40,1,0
10009,-100,3,3,0,40,0,0
17176,-100,3,3,0,20,0,0
17259,-100,3,3,0,24,0,0
17342,-100,3,3,0,28,0,0
17426,-100,3,3,0,32,0,0
17509,-100,3,3,0,36,0,0
17592,-100,3,3,0,40,0,0
17676,-100,3,3,0,44,0,0
17759,-100,3,3,0,48,0,0
17842,-100,3,3,0,52,0,0
17926,-100,3,3,0,56,0,0
18009,-100,3,2,0,60,0,0
20009,-71.4285714285714,3,2,0,60,0,0
20342,-100,3,2,0,60,0,0
28009,-71.4285714285714,3,2,0,60,0,0
28342,-100,3,2,0,60,0,0
33176,-100,3,2,0,20,0,0
33259,-100,3,2,0,22,0,0
33342,-100,3,2,0,24,0,0
33426,-100,3,2,0,26,0,0
33509,-100,3,2,0,28,0,0
33592,-100,3,2,0,30,0,0
33676,-100,3,2,0,32,0,0
33759,-100,3,2,0,34,0,0
33842,-100,3,2,0,36,0,0
33926,-100,3,2,0,38,0,0
34009,-133.333333333333,3,2,0,40,0,0
49092,-133.333333333333,3,2,0,26,0,0
49176,-133.333333333333,3,2,0,27,0,0
49259,-133.333333333333,3,2,0,28,0,0
49342,-133.333333333333,3,2,0,29,0,0
49426,-133.333333333333,3,2,0,30,0,0
49509,-133.333333333333,3,2,0,31,0,0
49592,-133.333333333333,3,2,0,32,0,0
49676,-133.333333333333,3,2,0,33,0,0
49759,-133.333333333333,3,2,0,34,0,0
49842,-133.333333333333,3,2,0,35,0,0
50009,-100,3,2,0,40,0,0
58009,-83.3333333333333,3,2,0,40,0,0
65342,-83.3333333333333,3,2,0,30,0,0
65426,-83.3333333333333,3,2,0,33,0,0
65509,-83.3333333333333,3,2,0,36,0,0
65592,-83.3333333333333,3,2,0,39,0,0
65676,-83.3333333333333,3,2,0,42,0,0
65759,-83.3333333333333,3,2,0,45,0,0
65842,-83.3333333333333,3,2,0,48,0,0
65926,-83.3333333333333,3,2,0,51,0,0
66009,-58.8235294117647,3,2,0,55,0,1
81676,-58.8235294117647,3,2,0,58,0,1
81759,-58.8235294117647,3,2,0,61,0,1
81842,-58.8235294117647,3,2,0,64,0,1
81926,-58.8235294117647,3,2,0,67,0,1
82009,-58.8235294117647,3,2,0,70,0,1
98009,-58.8235294117647,3,2,0,70,0,0
106009,-83.3333333333333,3,2,0,50,0,0
107842,-83.3333333333333,3,2,0,5,0,0
108009,-83.3333333333333,3,2,1,45,0,0
108176,-83.3333333333333,3,2,0,40,0,0
108342,-83.3333333333333,3,2,1,35,0,0
108509,-83.3333333333333,3,2,0,30,0,0
109009,-83.3333333333333,3,2,0,70,0,0

[Colours]
Combo1 : 232,74,74
Combo2 : 224,224,224
Combo3 : 255,128,128
Combo4 : 131,131,131

[HitObjects]
361,346,2009,5,2,0:0:0:0:
438,342,2176,1,0,0:0:0:0:
482,279,2343,1,0,0:0:0:0:
458,205,2509,1,0,0:0:0:0:
386,179,2676,1,2,0:0:0:0:
321,221,2843,1,0,0:0:0:0:
278,285,3009,5,2,0:0:0:0:
213,326,3176,1,0,0:0:0:0:
137,313,3343,1,0,0:0:0:0:
95,249,3509,1,0,0:0:0:0:
106,172,3676,1,2,0:0:0:0:
106,172,3843,1,2,0:0:0:0:
90,44,4009,5,2,0:0:0:0:
153,48,4176,1,0,0:0:0:0:
202,89,4343,1,0,0:0:0:0:
220,149,4509,1,0,0:0:0:0:
273,183,4676,1,2,0:0:0:0:
336,174,4843,1,0,0:0:0:0:
377,121,5009,5,2,0:0:0:0:
317,144,5176,1,0,0:0:0:0:
282,197,5343,1,0,0:0:0:0:
289,260,5509,1,0,0:0:0:0:
331,307,5676,1,2,0:0:0:0:
331,307,5843,1,2,0:0:0:0:
497,217,6009,5,2,0:0:0:0:
512,147,6176,1,0,0:0:0:0:
485,80,6343,1,0,0:0:0:0:
426,38,6509,1,0,0:0:0:0:
355,50,6676,1,2,0:0:0:0:
307,101,6843,1,0,0:0:0:0:
307,173,7009,5,2,0:0:0:0:
341,237,7176,1,0,0:0:0:0:
331,307,7343,1,0,0:0:0:0:
274,350,7509,1,0,0:0:0:0:
202,350,7676,1,2,0:0:0:0:
202,350,7843,1,2,0:0:0:0:
66,356,8009,5,2,0:0:0:0:
45,286,8176,1,0,0:0:0:0:
79,222,8343,1,0,0:0:0:0:
150,215,8509,1,0,0:0:0:0:
220,197,8676,1,2,0:0:0:0:
255,134,8843,1,0,0:0:0:0:
236,64,9009,5,2,0:0:0:0:
173,27,9176,1,0,0:0:0:0:
105,51,9343,1,0,0:0:0:0:
80,118,9509,1,0,0:0:0:0:
116,180,9676,1,2,0:0:0:0:
116,180,9843,1,0,0:0:0:0:
333,27,10009,5,8,0:0:0:0:
420,13,10176,1,0,0:0:0:0:
420,13,10259,1,0,0:0:0:0:
420,13,10343,1,0,0:0:0:0:
492,63,10509,1,0,0:0:0:0:
512,150,10676,1,4,0:0:0:0:
466,224,10843,1,0,0:0:0:0:
380,247,11009,5,8,0:0:0:0:
303,203,11176,1,0,0:0:0:0:
303,203,11259,1,0,0:0:0:0:
303,203,11343,1,0,0:0:0:0:
218,226,11509,1,0,0:0:0:0:
200,312,11676,1,8,0:0:0:0:
200,312,11843,1,0,0:0:0:0:
81,255,12009,5,8,0:0:0:0:
45,166,12176,1,0,0:0:0:0:
45,166,12259,1,0,0:0:0:0:
45,166,12343,1,0,0:0:0:0:
103,99,12509,1,0,0:0:0:0:
188,120,12676,1,4,0:0:0:0:
215,203,12843,1,0,0:0:0:0:
243,286,13009,5,8,0:0:0:0:
329,302,13176,1,0,0:0:0:0:
329,302,13259,1,0,0:0:0:0:
329,302,13343,1,0,0:0:0:0:
401,252,13509,1,0,0:0:0:0:
413,164,13676,1,8,0:0:0:0:
413,164,13843,1,0,0:0:0:0:
264,0,14009,5,8,0:0:0:0:
278,78,14176,1,0,0:0:0:0:
278,78,14259,1,0,0:0:0:0:
278,78,14343,1,0,0:0:0:0:
294,156,14509,1,0,0:0:0:0:
311,234,14676,1,4,0:0:0:0:
262,297,14843,1,0,0:0:0:0:
182,286,15009,5,8,0:0:0:0:
156,210,15176,1,0,0:0:0:0:
156,210,15259,1,0,0:0:0:0:
156,210,15343,1,0,0:0:0:0:
76,198,15509,1,0,0:0:0:0:
29,263,15676,1,8,0:0:0:0:
29,263,15843,1,0,0:0:0:0:
286,324,16009,5,8,0:0:0:0:
365,310,16176,1,0,0:0:0:0:
365,310,16259,1,0,0:0:0:0:
365,310,16343,1,0,0:0:0:0:
444,301,16509,1,0,0:0:0:0:
491,236,16676,1,4,0:0:0:0:
482,156,16843,1,0,0:0:0:0:
419,105,17009,5,8,0:0:0:0:
340,118,17176,1,4,0:0:0:0:
326,122,17259,1,4,0:0:0:0:
313,128,17343,1,4,0:0:0:0:
298,142,17426,1,4,0:0:0:0:
267,166,17509,1,4,0:0:0:0:
220,171,17593,1,4,0:0:0:0:
177,145,17676,1,4,0:0:0:0:
169,90,17759,1,4,0:0:0:0:
207,51,17843,1,4,0:0:0:0:
204,39,17926,1,4,0:0:0:0:
200,28,18009,6,0,L|188:293,1,240,4|0,1:2|0:0,0:0:0:0:
82,358,18676,1,0,1:0:0:0:
64,219,18843,1,0,0:0:0:0:
266,350,19009,6,0,B|405:367|348:255|520:297,1,240,2|0,1:3|0:0,0:0:0:0:
512,188,19676,1,4,1:3:0:0:
512,188,19843,1,2,0:0:0:0:
266,261,20009,6,0,L|221:252,2,27.9999991455078,8|0|0,1:3|0:0|0:0,0:0:0:0:
424,137,20343,2,0,L|417:31,1,80,0|0,3:0|0:0,0:0:0:0:
278,185,20676,2,0,L|285:291,1,80,4|0,3:0|0:0,0:0:0:0:
253,6,21009,1,2,1:3:0:0:
253,6,21343,5,2,0:0:0:0:
170,44,21509,1,0,0:0:0:0:
241,95,21676,1,4,3:0:0:0:
241,95,21843,1,2,0:0:0:0:
464,6,22009,6,0,P|504:77|477:163,2,160,8|2|2,1:3|0:0|1:2,0:0:0:0:
241,95,22843,1,0,0:0:0:0:
394,170,23009,1,2,1:3:0:0:
394,170,23343,5,0,0:0:0:0:
348,51,23509,1,2,0:0:0:0:
350,58,23565,1,0,0:0:0:0:
352,64,23621,1,0,0:0:0:0:
354,71,23676,1,4,0:3:0:0:
305,265,23843,1,2,0:0:0:0:
472,183,24009,6,0,L|529:174,2,40,0|0|0,1:0|0:0|0:0,0:0:0:0:
259,161,24343,1,4,0:3:0:0:
352,361,24509,1,0,0:0:0:0:
428,274,24676,5,8,0:3:0:0:
371,160,24843,1,0,0:0:0:0:
129,299,25009,5,2,1:3:0:0:
129,299,25343,1,4,0:3:0:0:
4,180,25509,1,2,0:3:0:0:
23,185,25593,1,2,0:3:0:0:
42,190,25676,1,6,0:3:0:0:
61,194,25759,1,6,0:3:0:0:
80,199,25843,1,6,0:3:0:0:
99,204,25926,1,6,0:3:0:0:
118,209,26009,6,0,L|106:15,1,160,4|0,1:0|0:0,0:0:0:0:
211,12,26509,1,0,0:0:0:0:
282,112,26676,2,0,L|170:105,1,80,0|0,1:0|0:0,0:0:0:0:
0,324,27009,6,0,B|140:275|97:379|233:327,1,240,2|0,1:3|0:0,0:0:0:0:
317,293,27676,1,4,1:3:0:0:
317,293,27843,1,0,0:0:0:0:
369,66,28009,6,0,L|371:36,2,27.9999991455078,8|0|0,1:3|0:0|0:0,0:0:0:0:
463,318,28343,2,0,P|390:343|361:327,1,80,0|0,3:0|0:0,0:0:0:0:
309,202,28676,2,0,P|348:204|380:227,1,80,4|0,3:0|0:0,0:0:0:0:
230,328,29009,1,2,1:3:0:0:
230,328,29343,5,2,0:0:0:0:
62,268,29509,1,0,0:0:0:0:
18,356,29676,5,4,1:3:0:0:
161,252,29843,1,0,0:0:0:0:
16,180,30009,2,0,L|-2:7,2,160,0|2|4,1:0|0:0|0:3,0:0:0:0:
228,81,30843,1,0,0:0:0:0:
90,29,31009,1,2,1:3:0:0:
90,29,31343,5,2,0:0:0:0:
161,252,31509,1,2,0:0:0:0:
147,250,31565,1,0,0:0:0:0:
133,248,31621,1,0,0:0:0:0:
119,246,31676,1,4,0:3:0:0:
137,109,31843,1,2,0:0:0:0:
243,306,32009,6,0,L|237:373,2,40,0|2|0,1:0|0:0|0:0,0:0:0:0:
253,178,32343,1,4,0:3:0:0:
29,223,32509,1,0,0:0:0:0:
137,109,32676,5,4,1:3:0:0:
373,214,32843,1,0,0:0:0:0:
135,327,33009,5,2,1:3:0:0:
246,64,33176,1,4,0:3:0:0:
262,41,33259,1,4,0:3:0:0:
297,27,33343,1,4,0:3:0:0:
340,38,33426,1,4,0:3:0:0:
370,79,33509,1,4,0:3:0:0:
392,121,33593,1,6,0:3:0:0:
442,144,33676,1,6,0:3:0:0:
488,132,33759,1,6,0:3:0:0:
512,92,33843,1,6,0:3:0:0:
504,73,33926,1,6,0:3:0:0:
484,60,34009,5,4,1:0:0:0:
373,214,34343,2,0,P|381:288|408:354,1,120.000004577637,2|0,0:0|0:0,0:0:0:0:
273,278,35009,2,0,P|209:248|161:243,2,120.000004577637,2|0|2,0:0|0:0|0:0,0:0:0:0:
269,146,36009,2,0,P|329:102|372:45,3,120.000004577637,2|0|0|8,0:0|0:0|0:0|0:3,0:0:0:0:
358,67,37676,1,4,0:3:0:0:
148,180,38009,6,0,L|14:154,1,120.000004577637,8|0,1:3|0:0,0:0:0:0:
238,239,38676,2,0,L|282:368,2,120.000004577637,0|2|0,0:0|3:0|3:0,3:0:0:0:
243,126,39676,2,0,L|332:22,3,120.000004577637,0|2|0|0,0:0|3:0|3:0|3:0,3:0:0:0:
148,180,41009,1,8,0:3:0:0:
148,180,41343,6,0,L|78:164,1,60.0000022888184
156,83,41676,2,0,L|124:23,1,60.0000022888184,4|0,0:3|0:0,0:0:0:0:
271,233,42009,6,0,P|294:315|284:366,1,120.000004577637,8|2,1:3|0:0,0:0:0:0:
311,153,42676,1,0,0:0:0:0:
311,153,43009,2,0,P|396:156|441:181,2,120.000004577637,2|2|2,0:3|0:0|0:0,0:0:0:0:
278,2,44009,2,0,P|241:49|226:107,3,120.000004577637,2|0|2|8,0:0|0:0|0:0|1:3,0:0:0:0:
78,114,45343,2,0,P|110:163|160:196,1,120.000004577637,0|4,0:0|0:3,0:0:0:0:
58,243,45843,1,0,0:0:0:0:
242,239,46009,6,0,P|202:317|195:364,1,120.000004577637,8|0,1:3|0:0,0:0:0:0:
177,104,46676,2,0,P|264:99|308:82,2,120.000004577637,0|2|0,0:0|0:0|0:0,0:0:0:0:
116,239,47676,2,0,P|68:165|31:135,3,120.000004577637,0|2|0|2,0:0|0:0|0:0|0:0,0:0:0:0:
106,54,49009,2,0,L|100:12,10,30.0000011444092,2|0|0|0|0|0|0|0|0|0|0,0:0|0:0|0:0|0:0|0:0|0:0|0:0|0:0|0:0|0:0|0:0,0:0:0:0:
53,306,50009,5,4,1:0:0:0:
125,255,50176,1,0,0:0:0:0:
209,251,50343,2,0,P|214:205|179:148,1,80,2|0,0:0|0:0,0:0:0:0:
237,255,50593,1,0,0:0:0:0:
263,271,50676,1,2,0:0:0:0:
323,337,50843,1,0,0:0:0:0:
495,151,51009,6,0,L|500:266,1,80,4|0,1:2|0:0,0:0:0:0:
468,140,51259,1,2,0:0:0:0:
438,136,51343,1,0,0:0:0:0:
359,182,51509,1,0,0:0:0:0:
283,130,51676,1,2,0:0:0:0:
308,43,51843,1,4,0:0:0:0:
414,266,52009,6,0,P|421:313|395:364,1,80,0|0,1:0|0:0,0:0:0:0:
285,332,52343,1,2,0:0:0:0:
199,355,52509,1,0,0:0:0:0:
130,305,52676,1,2,0:0:0:0:
123,218,52843,1,0,0:0:0:0:
186,163,53009,5,6,1:2:0:0:
204,162,53093,1,0,0:0:0:0:
224,162,53176,1,2,0:0:0:0:
244,161,53259,1,0,0:0:0:0:
264,160,53343,1,2,0:0:0:0:
340,215,53509,1,0,0:0:0:0:
422,177,53676,1,2,0:0:0:0:
420,90,53843,1,4,0:0:0:0:
299,31,54009,5,4,1:3:0:0:
202,45,54176,1,0,0:0:0:0:
128,112,54343,2,0,P|95:152|82:197,1,80,2|0,0:0|0:0,0:0:0:0:
109,106,54593,1,0,0:0:0:0:
89,93,54676,1,2,0:0:0:0:
57,9,54843,1,0,0:0:0:0:
148,243,55009,5,6,1:2:0:0:
183,362,55176,1,0,0:0:0:0:
275,185,55343,1,2,0:0:0:0:
283,312,55509,1,0,0:0:0:0:
424,203,55676,1,2,0:0:0:0:
388,347,55843,1,4,0:0:0:0:
347,81,56009,6,0,L|426:67,1,80,0|0,1:0|0:0,0:0:0:0:
512,295,56343,1,2,0:0:0:0:
493,290,56426,1,0,0:0:0:0:
477,286,56509,1,2,0:0:0:0:
458,282,56593,1,0,0:0:0:0:
442,278,56676,2,0,P|423:236|428:186,1,80,2|0,0:0|0:0,0:0:0:0:
279,23,57009,6,0,L|205:36,3,40,4|0|0|0,1:2|0:0|0:0|0:0,0:0:0:0:
257,117,57343,2,0,L|199:129,3,40,2|0|0|0,0:0|0:0|0:0|0:0,0:0:0:0:
152,57,57676,1,2,0:0:0:0:
133,62,57759,1,0,0:0:0:0:
114,67,57843,1,0,0:0:0:0:
95,72,57926,1,0,0:0:0:0:
76,76,58009,6,0,B|47:182|115:150|79:269,1,191.999994140625,4|2,1:0|0:0,0:0:0:0:
143,336,58509,1,0,0:0:0:0:
143,336,58593,1,2,0:0:0:0:
143,336,58676,1,0,0:0:0:0:
229,291,58843,1,2,0:0:0:0:
361,343,59009,6,0,L|475:358,1,95.9999970703126,6|0,1:2|0:0,0:0:0:0:
456,355,59259,1,2,0:0:0:0:
456,355,59343,1,0,0:0:0:0:
507,274,59509,1,2,0:0:0:0:
474,182,59676,2,0,L|363:193,1,95.9999970703126,2|4,0:0|0:0,0:0:0:0:
200,366,60009,5,2,1:2:0:0:
100,357,60176,1,0,0:0:0:0:
54,264,60343,1,2,0:0:0:0:
113,173,60509,1,0,0:0:0:0:
212,178,60676,1,2,0:0:0:0:
278,96,60843,1,0,0:0:0:0:
230,7,61009,5,6,1:2:0:0:
205,5,61093,1,0,0:0:0:0:
179,2,61176,1,2,0:0:0:0:
155,3,61259,1,0,0:0:0:0:
131,0,61343,2,0,L|141:105,1,95.9999970703126,2|0,0:0|0:0,0:0:0:0:
313,194,61676,1,2,0:0:0:0:
293,316,61843,1,6,0:0:0:0:
51,340,62009,5,4,1:3:0:0:
22,237,62176,1,2,0:0:0:0:
174,312,62343,1,0,0:0:0:0:
171,160,62509,1,0,0:0:0:0:
171,160,62593,1,2,0:0:0:0:
171,160,62676,1,0,0:0:0:0:
293,316,62843,1,0,0:0:0:0:
320,39,63009,5,4,1:2:0:0:
362,217,63176,1,0,0:0:0:0:
447,84,63343,5,2,0:0:0:0:
411,319,63509,1,0,0:0:0:0:
503,207,63676,5,2,0:0:0:0:
503,207,63843,1,6,0:0:0:0:
245,351,64009,5,2,1:2:0:0:
198,359,64093,1,0,0:0:0:0:
157,337,64176,1,0,0:0:0:0:
138,294,64259,1,0,0:0:0:0:
150,249,64343,1,2,0:0:0:0:
188,221,64426,1,0,0:0:0:0:
233,210,64509,1,0,0:0:0:0:
269,180,64593,1,0,0:0:0:0:
287,137,64676,1,2,3:2:0:0:
285,91,64759,1,0,0:0:0:0:
261,50,64843,1,0,0:0:0:0:
223,24,64926,1,0,0:0:0:0:
176,24,65009,5,6,1:2:0:0:
163,69,65093,1,0,0:0:0:0:
178,113,65176,1,0,0:0:0:0:
212,144,65259,1,0,0:0:0:0:
257,154,65343,1,6,0:3:0:0:
287,137,65426,1,4,0:3:0:0:
324,127,65509,1,4,0:3:0:0:
359,128,65593,1,4,0:3:0:0:
381,139,65676,1,4,0:3:0:0:
393,147,65759,1,4,0:3:0:0:
399,155,65843,1,4,0:3:0:0:
402,162,65926,1,4,0:3:0:0:
404,168,66009,5,4,1:0:0:0:
404,168,66093,1,2,0:0:0:0:
404,168,66176,1,0,0:0:0:0:
404,168,66259,1,2,0:0:0:0:
402,214,66343,1,0,0:0:0:0:
361,238,66426,1,2,0:0:0:0:
315,227,66509,5,0,3:0:0:0:
357,207,66593,1,2,0:0:0:0:
403,215,66676,1,4,0:3:0:0:
445,235,66759,1,0,0:0:0:0:
489,219,66843,1,2,0:0:0:0:
502,173,66926,1,2,0:0:0:0:
474,135,67009,5,4,1:2:0:0:
472,154,67093,1,2,0:0:0:0:
470,173,67176,1,0,0:0:0:0:
468,192,67259,1,2,0:0:0:0:
453,204,67343,5,2,0:0:0:0:
455,223,67426,1,2,0:0:0:0:
457,242,67509,1,0,0:0:0:0:
459,261,67593,1,0,0:0:0:0:
471,275,67676,2,0,L|464:384,1,68.0000012969971,4|0,0:3|0:0,0:0:0:0:
353,249,67843,2,0,L|358:332,1,68.0000012969971,6|0,0:0|0:0,0:0:0:0:
253,290,68009,5,4,1:0:0:0:
227,299,68093,1,0,0:0:0:0:
199,302,68176,1,0,0:0:0:0:
173,293,68259,1,0,0:0:0:0:
153,274,68343,1,2,0:0:0:0:
121,300,68426,1,0,0:0:0:0:
80,304,68509,1,0,0:0:0:0:
47,280,68593,1,0,0:0:0:0:
33,241,68676,5,2,1:2:0:0:
53,190,68759,1,0,0:0:0:0:
107,186,68843,1,0,0:0:0:0:
149,150,68926,1,0,0:0:0:0:
144,95,69009,5,6,1:2:0:0:
138,82,69093,1,0,0:0:0:0:
132,69,69176,1,0,0:0:0:0:
126,56,69259,1,0,0:0:0:0:
120,43,69343,2,0,L|26:33,1,68.0000012969971,2|0,0:0|0:0,0:0:0:0:
205,0,69509,1,0,0:0:0:0:
246,214,69676,1,2,1:2:0:0:
489,66,69843,1,4,0:0:0:0:
314,29,70009,5,4,1:0:0:0:
300,60,70093,1,2,0:0:0:0:
300,94,70176,1,0,0:0:0:0:
310,126,70259,1,2,0:0:0:0:
369,183,70343,1,2,0:3:0:0:
389,180,70426,1,2,0:0:0:0:
409,177,70509,1,0,0:0:0:0:
429,175,70593,1,2,0:0:0:0:
498,215,70676,1,6,0:3:0:0:
512,246,70759,1,2,0:0:0:0:
512,280,70843,1,0,0:0:0:0:
502,312,70926,1,2,0:0:0:0:
432,353,71009,5,4,1:2:0:0:
412,349,71093,1,2,0:0:0:0:
391,345,71176,1,0,0:0:0:0:
371,341,71259,1,2,0:0:0:0:
351,336,71343,1,2,0:0:0:0:
285,238,71509,5,2,0:0:0:0:
285,246,71565,5,2,0:0:0:0:
286,254,71621,5,2,0:0:0:0:
286,263,71676,5,4,0:3:0:0:
419,258,71843,1,4,0:0:0:0:
199,351,72009,5,4,1:0:0:0:
202,330,72093,1,0,0:0:0:0:
205,309,72176,1,2,0:0:0:0:
146,325,72259,1,2,0:0:0:0:
91,297,72343,1,0,0:0:0:0:
82,235,72426,1,0,0:0:0:0:
121,188,72509,1,2,0:0:0:0:
181,191,72593,1,0,0:0:0:0:
242,199,72676,1,4,0:3:0:0:
298,177,72759,1,0,0:0:0:0:
310,117,72843,1,2,0:0:0:0:
287,59,72926,1,2,0:0:0:0:
227,44,73009,5,4,1:2:0:0:
214,103,73093,1,0,0:0:0:0:
245,155,73176,1,2,0:0:0:0:
304,168,73259,1,0,0:0:0:0:
349,208,73343,1,2,0:0:0:0:
357,269,73426,1,0,0:0:0:0:
339,327,73509,1,2,0:0:0:0:
286,357,73593,1,0,0:0:0:0:
243,357,73676,1,2,0:0:0:0:
210,344,73759,1,0,0:0:0:0:
196,331,73843,1,2,0:0:0:0:
188,319,73926,1,2,0:0:0:0:
185,310,74009,5,4,1:0:0:0:
185,310,74093,1,2,0:0:0:0:
185,310,74176,1,0,0:0:0:0:
185,310,74259,1,2,0:0:0:0:
210,278,74343,1,0,0:0:0:0:
249,268,74426,1,2,0:0:0:0:
287,279,74509,1,0,0:0:0:0:
316,307,74593,1,2,0:0:0:0:
355,318,74676,1,4,0:3:0:0:
394,309,74759,1,0,0:0:0:0:
424,281,74843,1,2,0:0:0:0:
432,240,74926,1,2,0:0:0:0:
420,200,75009,5,4,1:2:0:0:
412,181,75093,1,2,0:0:0:0:
408,160,75176,1,0,0:0:0:0:
412,140,75259,1,2,0:0:0:0:
418,118,75343,1,2,0:0:0:0:
431,102,75426,1,2,0:0:0:0:
449,92,75509,1,0,0:0:0:0:
469,89,75593,1,2,0:0:0:0:
492,88,75676,2,0,P|454:56|442:18,1,68.0000012969971,4|0,0:3|0:0,0:0:0:0:
358,0,75843,2,0,P|328:14|310:43,1,68.0000012969971,6|0,0:0|0:0,0:0:0:0:
251,221,76009,5,4,1:0:0:0:
253,200,76093,1,0,0:0:0:0:
255,179,76176,1,0,0:0:0:0:
257,158,76259,1,0,0:0:0:0:
257,137,76343,1,2,0:0:0:0:
225,110,76426,1,0,0:0:0:0:
185,119,76509,1,0,0:0:0:0:
153,144,76593,1,0,0:0:0:0:
111,142,76676,5,2,1:2:0:0:
69,97,76759,1,0,0:0:0:0:
86,38,76843,1,0,0:0:0:0:
145,22,76926,1,0,0:0:0:0:
192,56,77009,5,4,1:2:0:0:
191,76,77093,1,0,0:0:0:0:
190,96,77176,1,0,0:0:0:0:
189,116,77259,1,0,0:0:0:0:
187,136,77343,2,0,L|182:232,1,68.0000012969971,2|0,0:0|0:0,0:0:0:0:
91,236,77509,1,2,0:0:0:0:
298,297,77676,1,4,0:3:0:0:
17,357,77843,1,6,0:0:0:0:
189,323,78009,5,4,1:0:0:0:
219,296,78093,1,2,0:0:0:0:
259,288,78176,1,0,0:0:0:0:
298,297,78259,1,2,0:0:0:0:
369,340,78343,1,0,0:0:0:0:
389,343,78426,1,2,0:0:0:0:
409,343,78509,1,0,0:0:0:0:
428,338,78593,1,2,0:0:0:0:
491,279,78676,1,4,0:3:0:0:
496,238,78759,1,2,0:0:0:0:
481,200,78843,1,0,0:0:0:0:
450,172,78926,1,2,0:0:0:0:
367,155,79009,5,6,1:2:0:0:
347,159,79093,1,2,0:0:0:0:
326,163,79176,1,0,0:0:0:0:
306,167,79259,1,2,0:0:0:0:
286,171,79343,1,2,0:0:0:0:
235,99,79509,5,2,0:0:0:0:
236,90,79565,5,2,0:0:0:0:
238,81,79621,5,2,0:0:0:0:
240,72,79676,5,4,0:3:0:0:
393,247,79843,1,4,0:0:0:0:
159,257,80009,5,4,1:0:0:0:
160,277,80093,1,0,0:0:0:0:
161,297,80176,1,2,0:0:0:0:
209,333,80259,1,2,0:0:0:0:
269,325,80343,1,0,0:0:0:0:
302,272,80426,1,0,0:0:0:0:
288,212,80509,1,2,0:0:0:0:
233,184,80593,1,2,0:0:0:0:
171,187,80676,1,4,0:3:0:0:
110,192,80759,1,0,0:0:0:0:
60,155,80843,1,2,0:0:0:0:
55,93,80926,1,2,0:0:0:0:
92,44,81009,5,4,1:2:0:0:
152,46,81093,1,0,0:0:0:0:
193,91,81176,1,2,0:0:0:0:
181,150,81259,1,0,0:0:0:0:
174,210,81343,1,2,0:0:0:0:
208,260,81426,1,0,0:0:0:0:
268,263,81509,1,2,0:0:0:0:
298,243,81593,1,0,0:0:0:0:
312,218,81676,1,4,0:3:0:0:
312,197,81759,1,4,0:3:0:0:
308,184,81843,1,4,0:3:0:0:
303,176,81926,1,4,0:3:0:0:
298,171,82009,5,6,1:0:0:0:
298,171,82093,1,0,0:0:0:0:
298,171,82176,1,0,0:0:0:0:
298,171,82259,1,0,0:0:0:0:
264,194,82343,1,0,0:0:0:0:
257,234,82426,1,0,0:0:0:0:
277,269,82509,2,2,L|270:372,1,68.0000012969971,0|2,0:0|0:1,0:1:0:0:
397,139,82676,1,0,0:0:0:0:
394,111,82759,1,0,0:0:0:0:
391,83,82843,2,2,L|382:3,1,68.0000012969971,0|2,0:0|0:1,0:1:0:0:
498,246,83009,5,6,1:2:0:0:
469,292,83093,1,0,0:0:0:0:
420,317,83176,1,0,0:0:0:0:
367,305,83259,1,0,0:0:0:0:
337,259,83343,1,0,0:0:0:0:
296,221,83426,1,0,0:0:0:0:
242,228,83509,2,2,P|204:278|207:328,1,68.0000012969971,0|2,0:0|0:1,0:1:0:0:
150,360,83676,2,2,P|112:310|115:260,1,68.0000012969971,4|0,1:3|0:0,0:1:0:0:
37,247,83843,2,2,L|50:154,1,68.0000012969971,0|2,0:0|0:1,0:1:0:0:
131,44,84009,5,4,1:0:0:0:
161,30,84093,1,0,0:0:0:0:
194,25,84176,1,0,0:0:0:0:
226,35,84259,1,0,0:0:0:0:
251,56,84343,1,2,0:0:0:0:
293,33,84426,1,0,0:0:0:0:
340,35,84509,1,0,0:0:0:0:
374,67,84593,1,0,0:0:0:0:
380,114,84676,5,2,1:2:0:0:
342,161,84759,1,0,0:0:0:0:
339,221,84843,1,0,0:0:0:0:
377,269,84926,1,0,0:0:0:0:
433,271,85009,5,4,1:2:0:0:
453,267,85093,1,0,0:0:0:0:
473,263,85176,1,0,0:0:0:0:
493,259,85259,1,0,0:0:0:0:
505,226,85343,5,2,0:0:0:0:
391,369,85509,1,0,0:0:0:0:
418,189,85676,1,2,1:2:0:0:
508,351,85843,1,6,0:0:0:0:
280,284,86009,5,4,1:0:0:0:
259,281,86093,1,0,0:0:0:0:
210,304,86176,1,2,0:0:0:0:
189,302,86259,1,0,0:0:0:0:
140,325,86343,5,2,0:0:0:0:
104,345,86426,1,0,0:0:0:0:
63,340,86509,1,2,0:0:0:0:
35,310,86593,1,2,0:0:0:0:
32,268,86676,1,4,0:3:0:0:
53,233,86759,1,2,0:0:0:0:
89,216,86843,1,0,0:0:0:0:
137,224,86926,1,2,0:0:0:0:
190,207,87009,5,6,1:2:0:0:
213,155,87093,1,0,0:0:0:0:
208,110,87176,1,0,0:0:0:0:
183,83,87259,1,0,0:0:0:0:
150,76,87343,1,2,0:0:0:0:
125,78,87426,1,0,0:0:0:0:
111,87,87509,1,0,0:0:0:0:
106,100,87593,1,0,0:0:0:0:
103,113,87676,5,4,1:3:0:0:
102,92,87759,1,2,0:0:0:0:
101,71,87843,1,0,0:0:0:0:
100,50,87926,1,2,0:0:0:0:
99,29,88009,5,4,1:0:0:0:
159,33,88093,1,0,0:0:0:0:
202,76,88176,1,0,0:0:0:0:
212,136,88259,1,0,0:0:0:0:
193,193,88343,1,2,0:0:0:0:
144,231,88426,1,0,0:0:0:0:
83,235,88509,1,2,0:0:0:0:
69,231,88593,1,2,0:0:0:0:
55,229,88676,5,4,0:3:0:0:
112,207,88759,1,0,0:0:0:0:
170,224,88843,1,2,0:0:0:0:
201,277,88926,1,0,0:0:0:0:
187,329,89009,5,4,1:2:0:0:
166,324,89093,1,2,0:0:0:0:
145,321,89176,1,0,0:0:0:0:
125,319,89259,1,2,0:0:0:0:
105,315,89343,5,2,0:0:0:0:
144,276,89426,1,0,0:0:0:0:
197,267,89509,1,0,0:0:0:0:
245,290,89593,1,2,0:0:0:0:
281,330,89676,1,2,0:0:0:0:
335,331,89759,1,0,0:0:0:0:
378,298,89843,1,0,0:0:0:0:
383,243,89926,1,2,0:0:0:0:
351,201,90009,5,4,1:0:0:0:
38,166,90259,1,2,0:0:0:0:
38,166,90343,1,2,0:0:0:0:
160,142,90509,1,2,0:0:0:0:
184,352,90676,5,4,0:3:0:0:
15,303,90843,1,2,0:0:0:0:
86,23,91009,5,6,1:2:0:0:
448,104,91259,1,2,0:0:0:0:
448,104,91343,1,2,0:0:0:0:
285,124,91509,1,2,0:0:0:0:
279,235,91676,5,2,1:2:0:0:
223,4,91843,1,2,0:0:0:0:
138,311,92009,5,4,1:0:0:0:
506,212,92259,1,2,0:0:0:0:
506,212,92343,1,2,0:0:0:0:
512,87,92509,1,0,0:0:0:0:
295,16,92676,5,4,0:3:0:0:
308,156,92843,1,2,0:0:0:0:
493,324,93009,5,4,1:2:0:0:
21,291,93259,1,2,0:0:0:0:
21,291,93343,1,2,0:0:0:0:
155,117,93509,1,0,0:0:0:0:
228,339,93676,5,4,0:3:0:0:
233,319,93759,1,2,0:0:0:0:
238,299,93843,1,2,0:0:0:0:
244,279,93926,1,0,0:0:0:0:
250,259,94009,5,4,1:0:0:0:
281,284,94093,1,2,0:0:0:0:
319,297,94176,1,0,0:0:0:0:
359,292,94259,1,0,0:0:0:0:
394,271,94343,1,2,0:0:0:0:
417,229,94426,1,2,0:0:0:0:
408,182,94509,1,0,0:0:0:0:
363,166,94593,1,0,0:0:0:0:
341,182,94676,1,2,0:0:0:0:
333,191,94759,1,2,0:0:0:0:
332,202,94843,1,0,0:0:0:0:
334,207,94926,1,0,0:0:0:0:
336,209,95009,5,6,1:2:0:0:
374,161,95093,1,2,0:0:0:0:
362,100,95176,1,2,0:0:0:0:
317,58,95259,1,0,0:0:0:0:
256,67,95343,1,2,0:0:0:0:
215,113,95426,1,2,0:0:0:0:
218,173,95509,1,0,0:0:0:0:
175,216,95593,1,2,0:0:0:0:
114,205,95676,1,4,1:3:0:0:
110,185,95759,1,0,0:0:0:0:
105,165,95843,1,6,0:0:0:0:
101,144,95926,1,2,0:0:0:0:
97,123,96009,5,4,1:0:0:0:
45,140,96093,1,2,0:0:0:0:
17,187,96176,1,0,0:0:0:0:
21,240,96259,1,2,0:0:0:0:
59,277,96343,1,2,0:0:0:0:
87,294,96426,1,0,0:0:0:0:
132,285,96509,1,2,0:0:0:0:
160,302,96593,1,2,0:0:0:0:
196,323,96676,1,4,0:3:0:0:
248,311,96759,1,0,0:0:0:0:
279,266,96843,1,2,0:0:0:0:
268,212,96926,1,2,0:0:0:0:
223,176,97009,5,6,1:2:0:0:
234,242,97093,1,0,0:0:0:0:
297,266,97176,1,0,0:0:0:0:
361,244,97259,1,0,0:0:0:0:
381,179,97343,1,2,0:0:0:0:
414,156,97426,1,0,0:0:0:0:
460,161,97509,1,4,0:3:0:0:
492,191,97593,1,4,0:3:0:0:
495,224,97676,1,4,0:3:0:0:
487,242,97759,1,4,0:3:0:0:
479,252,97843,1,4,0:2:0:0:
473,254,97926,1,4,0:2:0:0:
467,257,98009,1,4,1:0:0:0:
31,45,99009,6,0,L|-12:37,1,34.0000006484985,2|0,0:0|0:0,0:0:0:0:
31,45,99343,1,0,0:0:0:0:
121,62,100009,2,0,L|62:74,1,34.0000006484985,2|0,0:0|0:0,0:0:0:0:
121,62,100343,1,0,0:0:0:0:
69,161,101009,6,0,L|26:153,1,34.0000006484985,2|0,0:0|0:0,0:0:0:0:
69,161,101343,1,0,0:0:0:0:
254,75,102009,2,0,L|209:96,1,34.0000006484985,2|0,0:0|0:0,0:0:0:0:
254,75,102343,1,0,0:0:0:0:
141,21,103009,6,0,L|83:8,1,34.0000006484985,2|0,0:0|0:0,0:0:0:0:
141,21,103343,1,0,0:0:0:0:
334,218,104009,2,0,L|281:232,1,34.0000006484985,2|0,0:0|0:0,0:0:0:0:
334,218,104343,1,0,0:0:0:0:
237,148,105009,6,0,L|180:136,1,34.0000006484985,2|0,0:0|0:0,0:0:0:0:
237,148,105343,1,0,0:0:0:0:
411,21,106009,2,2,B|341:10|304:75|304:75|226:48|153:71|77:156|150:321|307:268|307:268|370:302|411:275|411:275|372:266|358:235|358:235|424:241|457:218|457:218|409:205|387:196|387:196|468:197|481:120|481:120,1,1055.99996777344,2|0,0:2|2:0,0:1:0:0:
391,107,108009,5,2,0:0:0:0:
367,103,108093,1,0,0:0:0:0:
343,100,108176,1,0,0:0:0:0:
319,97,108259,1,0,0:0:0:0:
295,94,108343,1,2,0:0:0:0:
271,91,108426,1,0,0:0:0:0:
248,88,108509,1,0,0:0:0:0:
224,85,108593,1,0,0:0:0:0:
200,82,108676,1,2,0:0:0:0:
176,79,108759,1,0,0:0:0:0:
152,76,108843,1,0,0:0:0:0:
129,73,108926,1,0,0:0:0:0:
105,70,109009,5,4,1:0:0:0:
