osu file format v14

[General]
AudioFilename: audio.mp3
AudioLeadIn: 0
PreviewTime: -1
Countdown: 1
SampleSet: None
StackLeniency: 0.7
Mode: 0
LetterboxInBreaks: 0
WidescreenStoryboard: 0

[Editor]
Bookmarks: 3227,14065,15614,28001,34194,58968,83743,108517
DistanceSpacing: 1
BeatDivisor: 4
GridSize: 4
TimelineZoom: 1

[Metadata]
Title:L
TitleUnicode:L
Artist:ICE
ArtistUnicode:ICE
Creator:Nitronic Techno
Version:The Oncoming Storm
Source:BOF2012
Tags:BOF2012 L ICE Prequel Beat Nitro Nitronic Techno
BeatmapID:1539216
BeatmapSetID:729168

[Difficulty]
HPDrainRate:6
CircleSize:4.2
OverallDifficulty:7.6
ApproachRate:9
SliderMultiplier:1.9
SliderTickRate:1

[Events]
//Background and Video events
//Break Periods
//Storyboard Layer 0 (Background)
//Storyboard Layer 1 (Fail)
//Storyboard Layer 2 (Pass)
//Storyboard Layer 3 (Foreground)
//Storyboard Sound Samples

[TimingPoints]
3227,387.096774193548,4,1,0,60,1,0
14065,-125,4,2,0,60,0,0
15614,-90.9090909090909,4,1,0,60,0,0
34194,-133.333333333333,4,2,0,50,0,0
58968,-200,4,1,0,50,0,0
59936,-125,4,1,0,50,0,0
83743,-90.9090909090909,4,1,0,70,0,1
108517,-111.111111111111,4,1,0,70,0,0

[HitObjects]
71,76,3227,5,0,0:0:0:0:
115,60,3323,1,0,0:0:0:0:
162,62,3420,1,0,0:0:0:0:
201,89,3517,1,0,0:0:0:0:
187,134,3614,1,0,0:0:0:0:
149,163,3710,1,0,0:0:0:0:
103,177,3807,1,0,0:0:0:0:
59,158,3904,1,0,0:0:0:0:
88,120,4001,5,0,0:0:0:0:
132,104,4097,1,0,0:0:0:0:
178,112,4194,1,0,0:0:0:0:
220,134,4291,1,0,0:0:0:0:
239,177,4388,1,0,0:0:0:0:
231,223,4485,1,0,0:0:0:0:
202,260,4581,1,0,0:0:0:0:
159,281,4678,1,0,0:0:0:0:
111,280,4775,5,0,0:0:0:0:
82,258,4872,1,0,0:0:0:0:
71,231,4968,1,0,0:0:0:0:
71,202,5065,1,0,0:0:0:0:
81,175,5162,1,0,0:0:0:0:
100,154,5259,1,0,0:0:0:0:
125,141,5356,1,0,0:0:0:0:
152,135,5452,1,0,0:0:0:0:
180,140,5549,1,0,0:0:0:0:
203,156,5646,1,0,0:0:0:0:
216,181,5743,1,0,0:0:0:0:
208,208,5839,1,0,0:0:0:0:
184,224,5936,1,0,0:0:0:0:
155,219,6033,1,0,0:0:0:0:
139,195,6130,1,0,0:0:0:0:
148,167,6227,1,0,0:0:0:0:
167,96,6323,6,0,L|154:26,3,47.5
249,115,6710,2,0,L|239:177,3,47.5
340,94,7097,2,0,L|352:22,3,47.5
419,121,7485,2,0,L|430:201,3,47.5
348,170,7872,6,0,L|333:249,3,47.5
262,263,8259,2,0,L|257:206,3,47.5
191,291,8646,2,0,L|199:355,3,47.5
121,256,9033,2,0,L|138:173,1,47.5
63,189,9227,2,0,L|54:127,1,47.5
110,87,9420,5,0,0:0:0:0:
138,48,9517,1,0,0:0:0:0:
181,28,9614,1,0,0:0:0:0:
228,28,9710,1,0,0:0:0:0:
272,45,9807,1,0,0:0:0:0:
305,78,9904,1,0,0:0:0:0:
321,122,10001,1,0,0:0:0:0:
318,169,10097,1,0,0:0:0:0:
277,194,10194,5,0,0:0:0:0:
237,166,10291,1,0,0:0:0:0:
238,118,10388,1,0,0:0:0:0:
265,78,10485,1,0,0:0:0:0:
310,64,10581,1,0,0:0:0:0:
355,78,10678,1,0,0:0:0:0:
392,107,10775,1,0,0:0:0:0:
412,151,10872,1,0,0:0:0:0:
390,192,10968,5,0,0:0:0:0:
365,214,11065,1,0,0:0:0:0:
339,227,11162,1,0,0:0:0:0:
311,233,11259,1,0,0:0:0:0:
282,232,11356,1,0,0:0:0:0:
254,223,11452,1,0,0:0:0:0:
236,200,11549,1,0,0:0:0:0:
226,172,11646,1,0,0:0:0:0:
227,143,11743,1,0,0:0:0:0:
241,118,11839,1,0,0:0:0:0:
262,99,11936,1,0,0:0:0:0:
286,84,12033,1,0,0:0:0:0:
313,75,12130,1,0,0:0:0:0:
341,73,12227,1,0,0:0:0:0:
369,74,12323,1,0,0:0:0:0:
397,75,12420,1,0,0:0:0:0:
471,109,12517,6,0,L|483:174,3,47.5
402,153,12904,2,0,L|388:240,3,47.5
315,157,13291,2,0,L|311:85,3,47.5
225,155,13678,2,0,L|222:221,2,47.5
240,41,13968,6,0,P|303:32|357:42,2,95
203,50,14452,1,0,0:0:0:0:
181,81,14549,1,0,0:0:0:0:
160,113,14646,1,0,0:0:0:0:
140,145,14743,1,0,0:0:0:0:
130,181,14839,1,0,0:0:0:0:
142,217,14936,1,0,0:0:0:0:
173,238,15033,1,0,0:0:0:0:
210,246,15130,1,0,0:0:0:0:
251,241,15226,1,0,0:0:0:0:
288,215,15323,1,0,0:0:0:0:
303,172,15420,1,0,0:0:0:0:
324,131,15517,1,0,0:0:0:0:
375,119,15614,5,0,0:0:0:0:
412,154,15710,1,0,0:0:0:0:
420,210,15807,1,0,0:0:0:0:
394,261,15904,1,0,0:0:0:0:
338,290,16001,1,0,0:0:0:0:
283,273,16097,1,0,0:0:0:0:
253,223,16194,1,0,0:0:0:0:
232,174,16291,1,0,0:0:0:0:
210,126,16388,5,0,0:0:0:0:
175,86,16485,1,0,0:0:0:0:
118,91,16581,1,0,0:0:0:0:
77,132,16678,1,0,0:0:0:0:
69,194,16775,1,0,0:0:0:0:
94,251,16872,1,0,0:0:0:0:
134,291,16968,1,0,0:0:0:0:
189,307,17065,1,0,0:0:0:0:
238,290,17162,5,0,0:0:0:0:
267,246,17259,1,0,0:0:0:0:
277,189,17356,1,0,0:0:0:0:
250,138,17452,1,0,0:0:0:0:
187,136,17549,5,0,0:0:0:0:
164,189,17646,1,0,0:0:0:0:
142,242,17743,1,0,0:0:0:0:
118,288,17839,1,0,0:0:0:0:
160,319,17936,5,0,0:0:0:0:
208,300,18033,1,0,0:0:0:0:
242,254,18130,1,0,0:0:0:0:
248,197,18226,1,0,0:0:0:0:
190,171,18323,5,0,0:0:0:0:
149,218,18420,1,0,0:0:0:0:
112,262,18517,1,0,0:0:0:0:
78,308,18614,1,0,0:0:0:0:
30,287,18710,5,0,0:0:0:0:
17,236,18807,1,0,0:0:0:0:
27,179,18904,1,0,0:0:0:0:
60,132,19001,1,0,0:0:0:0:
117,107,19097,1,0,0:0:0:0:
178,118,19194,1,0,0:0:0:0:
227,147,19291,1,0,0:0:0:0:
268,187,19388,1,0,0:0:0:0:
310,217,19485,5,0,0:0:0:0:
352,246,19581,1,0,0:0:0:0:
408,257,19678,1,0,0:0:0:0:
459,231,19775,1,0,0:0:0:0:
480,171,19872,1,0,0:0:0:0:
463,111,19968,1,0,0:0:0:0:
413,81,20065,1,0,0:0:0:0:
355,81,20162,1,0,0:0:0:0:
308,104,20259,5,0,0:0:0:0:
287,104,20356,1,0,0:0:0:0:
268,94,20452,1,0,0:0:0:0:
260,74,20549,1,0,0:0:0:0:
258,32,20646,5,0,0:0:0:0:
208,48,20743,1,0,0:0:0:0:
158,64,20839,1,0,0:0:0:0:
108,80,20936,1,0,0:0:0:0:
97,120,21033,5,0,0:0:0:0:
104,139,21130,1,0,0:0:0:0:
98,158,21226,1,0,0:0:0:0:
84,173,21323,1,0,0:0:0:0:
56,204,21420,5,0,0:0:0:0:
103,225,21517,1,0,0:0:0:0:
150,245,21614,1,0,0:0:0:0:
197,266,21710,1,0,0:0:0:0:
253,294,21807,6,0,L|236:354,3,52.2500015945435
331,320,22194,2,0,L|347:267,3,52.2500015945435
436,252,22581,2,0,L|442:325,3,52.2500015945435
502,203,22968,2,0,L|514:135,1,52.2500015945435
435,152,23162,2,0,L|426:94,1,52.2500015945435
351,57,23356,6,0,L|345:134,3,52.2500015945435
264,143,23743,2,0,L|253:68,3,52.2500015945435
169,113,24130,2,0,L|160:170,1,52.2500015945435
74,134,24323,2,0,L|57:204,1,52.2500015945435
38,258,24517,2,0,L|51:338,1,52.2500015945435
121,284,24710,2,0,L|131:357,1,52.2500015945435
213,357,24904,5,0,0:0:0:0:
269,343,25001,1,0,0:0:0:0:
311,304,25097,1,0,0:0:0:0:
335,251,25194,1,0,0:0:0:0:
341,193,25291,1,0,0:0:0:0:
315,141,25388,1,0,0:0:0:0:
268,106,25485,1,0,0:0:0:0:
211,102,25581,1,0,0:0:0:0:
144,114,25678,5,0,0:0:0:0:
93,141,25775,1,0,0:0:0:0:
65,191,25872,1,0,0:0:0:0:
63,247,25968,1,0,0:0:0:0:
80,301,26065,1,0,0:0:0:0:
128,332,26162,1,0,0:0:0:0:
185,336,26259,1,0,0:0:0:0:
242,328,26356,1,0,0:0:0:0:
321,291,26452,5,0,0:0:0:0:
265,251,26549,1,0,0:0:0:0:
213,214,26646,1,0,0:0:0:0:
163,175,26743,1,0,0:0:0:0:
115,143,26839,1,0,0:0:0:0:
67,111,26936,1,0,0:0:0:0:
61,58,27033,1,0,0:0:0:0:
103,27,27130,1,0,0:0:0:0:
149,33,27226,1,0,0:0:0:0:
191,52,27323,1,0,0:0:0:0:
227,72,27420,1,0,0:0:0:0:
263,92,27517,1,0,0:0:0:0:
293,111,27614,1,0,0:0:0:0:
319,127,27710,1,0,0:0:0:0:
341,140,27807,1,0,0:0:0:0:
358,151,27904,1,0,0:0:0:0:
370,160,28001,5,0,0:0:0:0:
256,192,28097,12,0,30323,0:0:0:0:
256,192,32065,12,0,34194,0:0:0:0:
84,129,35549,5,0,0:0:0:0:
99,161,35646,1,0,0:0:0:0:
114,193,35743,1,0,0:0:0:0:
217,252,36130,2,0,P|225:191|196:81,2,142.500005435944
362,348,37291,6,0,B|376:239|376:239|409:226|419:188|408:134,1,213.750008153916
344,32,38839,6,0,B|330:141|330:141|297:154|287:192|298:246,1,213.750008153916
256,314,40388,5,0,0:0:0:0:
414,73,41743,5,0,0:0:0:0:
428,105,41839,1,0,0:0:0:0:
443,137,41936,1,0,0:0:0:0:
333,157,42323,2,0,P|386:215|468:235,2,142.500005435944
42,48,43485,6,0,B|94:100|94:100|70:140|88:212|146:241,1,213.750008153916
170,148,44259,1,0,0:0:0:0:
470,336,45033,6,0,B|418:284|418:284|442:244|424:172|366:143,1,213.750008153916
342,236,45807,1,0,0:0:0:0:
298,66,46001,5,0,0:0:0:0:
240,153,46194,1,0,0:0:0:0:
275,237,46388,1,0,0:0:0:0:
217,324,46581,1,0,0:0:0:0:
136,124,47356,5,0,0:0:0:0:
256,43,47743,1,0,0:0:0:0:
376,124,48130,1,0,0:0:0:0:
256,256,48710,5,0,0:0:0:0:
256,291,48807,1,0,0:0:0:0:
256,326,48904,1,0,0:0:0:0:
255,193,49291,1,0,0:0:0:0:
103,130,49678,6,0,P|104:198|161:279,1,142.500005435944
409,130,50452,2,0,P|408:198|351:279,1,142.500005435944
256,94,51226,1,0,0:0:0:0:
92,72,52001,6,0,L|71:183,1,95.0000036239625
149,326,52517,2,0,L|173:229,1,95.0000036239625
420,72,53549,6,0,L|441:183,1,95.0000036239625
363,326,54065,2,0,L|339:229,1,95.0000036239625
256,69,55097,5,0,0:0:0:0:
379,192,55356,1,0,0:0:0:0:
255,315,55614,1,0,0:0:0:0:
133,191,55872,1,0,0:0:0:0:
217,120,56452,6,0,B|217:235|217:235|319:235,1,213.750008153916
302,135,57420,5,0,0:0:0:0:
174,38,58194,5,0,0:0:0:0:
125,56,58291,1,0,0:0:0:0:
95,78,58388,1,0,0:0:0:0:
84,112,58485,1,0,0:0:0:0:
85,139,58581,1,0,0:0:0:0:
88,164,58678,1,0,0:0:0:0:
103,185,58775,1,0,0:0:0:0:
119,198,58872,1,0,0:0:0:0:
144,210,58968,6,0,P|186:224|294:204,1,142.5
374,118,59936,1,0,0:0:0:0:
192,90,60323,1,0,0:0:0:0:
206,125,60420,1,0,0:0:0:0:
219,160,60517,1,0,0:0:0:0:
125,126,60710,2,0,L|152:224,1,76
62,188,61097,2,0,L|83:267,1,76
16,290,61485,2,0,P|34:331|63:357,1,76
0,380,61872,1,0,0:0:0:0:
176,250,62065,5,0,0:0:0:0:
206,319,62259,1,0,0:0:0:0:
206,319,62646,1,0,0:0:0:0:
256,262,62839,1,0,0:0:0:0:
315,309,63033,1,0,0:0:0:0:
413,193,63420,1,0,0:0:0:0:
446,66,63614,5,0,0:0:0:0:
400,48,63710,1,0,0:0:0:0:
350,42,63807,1,0,0:0:0:0:
303,58,63904,1,0,0:0:0:0:
284,104,64001,1,0,0:0:0:0:
246,135,64097,1,0,0:0:0:0:
196,133,64194,1,0,0:0:0:0:
150,113,64291,1,0,0:0:0:0:
125,69,64388,5,0,0:0:0:0:
141,215,64581,1,0,0:0:0:0:
194,23,64775,5,0,0:0:0:0:
53,246,64968,1,0,0:0:0:0:
306,125,65162,5,0,0:0:0:0:
390,187,65549,2,0,L|418:216,2,38
323,224,65936,2,0,L|322:269,2,38
255,143,66323,1,0,0:0:0:0:
189,224,66517,2,0,L|190:269,2,38
122,187,66904,2,0,L|65:247,1,76
66,138,67291,2,0,L|136:67,1,76
197,160,67678,2,0,L|197:74,1,76
323,142,68065,1,0,0:0:0:0:
407,69,68259,5,0,0:0:0:0:
445,134,68452,1,0,0:0:0:0:
445,134,68839,1,0,0:0:0:0:
388,184,69033,1,0,0:0:0:0:
327,138,69226,1,0,0:0:0:0:
183,190,69614,1,0,0:0:0:0:
206,160,69710,1,0,0:0:0:0:
213,122,69807,5,0,0:0:0:0:
175,89,69904,1,0,0:0:0:0:
125,91,70001,1,0,0:0:0:0:
85,119,70097,1,0,0:0:0:0:
73,167,70194,1,0,0:0:0:0:
66,216,70291,1,0,0:0:0:0:
59,265,70388,1,0,0:0:0:0:
55,314,70485,1,0,0:0:0:0:
49,362,70581,5,0,0:0:0:0:
167,249,70775,1,0,0:0:0:0:
226,295,70968,1,0,0:0:0:0:
285,342,71162,1,0,0:0:0:0:
434,252,71356,6,0,P|418:186|335:136,1,152
315,129,71839,1,0,0:0:0:0:
278,119,71936,1,0,0:0:0:0:
89,130,72130,2,0,L|62:161,2,38
165,192,72517,2,0,L|196:233,2,38
63,281,72904,5,0,0:0:0:0:
63,281,73097,1,0,0:0:0:0:
101,297,73194,1,0,0:0:0:0:
146,302,73291,1,0,0:0:0:0:
186,293,73388,1,0,0:0:0:0:
212,265,73485,1,0,0:0:0:0:
225,225,73581,1,0,0:0:0:0:
233,180,73678,5,0,0:0:0:0:
286,55,73872,1,0,0:0:0:0:
420,126,74065,1,0,0:0:0:0:
367,282,74259,1,0,0:0:0:0:
457,220,74452,5,0,0:0:0:0:
326,174,74646,1,0,0:0:0:0:
286,242,74839,5,0,0:0:0:0:
417,196,75033,1,0,0:0:0:0:
191,241,75226,5,0,0:0:0:0:
45,220,75614,5,0,0:0:0:0:
67,219,75710,1,0,0:0:0:0:
86,206,75807,1,0,0:0:0:0:
92,184,75904,1,0,0:0:0:0:
87,161,76001,5,0,0:0:0:0:
106,138,76097,1,0,0:0:0:0:
136,133,76194,1,0,0:0:0:0:
165,140,76291,1,0,0:0:0:0:
193,165,76388,5,0,0:0:0:0:
226,182,76485,1,0,0:0:0:0:
263,176,76581,1,0,0:0:0:0:
288,147,76678,1,0,0:0:0:0:
301,103,76775,5,0,0:0:0:0:
281,61,76872,1,0,0:0:0:0:
239,42,76968,1,0,0:0:0:0:
193,41,77065,1,0,0:0:0:0:
168,88,77162,5,0,0:0:0:0:
144,135,77259,1,0,0:0:0:0:
134,187,77356,1,0,0:0:0:0:
139,239,77452,1,0,0:0:0:0:
145,291,77549,5,0,0:0:0:0:
327,195,78323,5,0,0:0:0:0:
327,195,78581,1,0,0:0:0:0:
327,195,78839,1,0,0:0:0:0:
327,195,79097,1,0,0:0:0:0:
125,84,79872,5,0,0:0:0:0:
125,84,80130,1,0,0:0:0:0:
125,84,80388,1,0,0:0:0:0:
125,84,80646,1,0,0:0:0:0:
255,31,81226,5,0,0:0:0:0:
256,107,81420,1,0,0:0:0:0:
341,192,81807,1,0,0:0:0:0:
255,277,82194,5,0,0:0:0:0:
219,310,82291,1,0,0:0:0:0:
173,328,82388,1,0,0:0:0:0:
124,320,82485,1,0,0:0:0:0:
97,279,82581,1,0,0:0:0:0:
101,229,82678,1,0,0:0:0:0:
134,192,82775,1,0,0:0:0:0:
174,163,82872,1,0,0:0:0:0:
213,133,82968,6,0,L|209:97,1,19
257,129,83065,2,0,L|261:154,1,19
301,118,83162,2,0,L|299:88,1,19
344,119,83259,2,0,L|348:145,1,19
390,108,83356,1,0,0:0:0:0:
437,119,83452,1,0,0:0:0:0:
471,154,83549,1,0,0:0:0:0:
485,201,83646,1,0,0:0:0:0:
494,245,83743,5,0,0:0:0:0:
464,293,83839,1,0,0:0:0:0:
408,309,83936,1,0,0:0:0:0:
354,287,84033,1,0,0:0:0:0:
349,229,84130,5,0,0:0:0:0:
361,173,84226,1,0,0:0:0:0:
347,116,84323,1,0,0:0:0:0:
299,83,84420,1,0,0:0:0:0:
236,72,84517,5,0,0:0:0:0:
175,90,84614,1,0,0:0:0:0:
136,138,84710,1,0,0:0:0:0:
131,200,84807,1,0,0:0:0:0:
171,247,84904,5,0,0:0:0:0:
192,306,85001,1,0,0:0:0:0:
153,355,85097,1,0,0:0:0:0:
90,357,85194,1,0,0:0:0:0:
35,325,85291,6,0,P|17:258|106:132,2,209.000006378174
61,325,86162,1,0,0:0:0:0:
86,320,86259,1,0,0:0:0:0:
106,303,86356,1,0,0:0:0:0:
116,279,86452,5,0,0:0:0:0:
162,269,86549,1,0,0:0:0:0:
208,259,86646,1,0,0:0:0:0:
254,250,86743,1,0,0:0:0:0:
300,242,86839,5,0,0:0:0:0:
446,97,87033,1,0,0:0:0:0:
409,67,87130,1,0,0:0:0:0:
353,53,87226,5,0,0:0:0:0:
298,71,87323,1,0,0:0:0:0:
242,86,87420,1,0,0:0:0:0:
187,68,87517,1,0,0:0:0:0:
169,41,87614,5,0,0:0:0:0:
152,67,87710,1,0,0:0:0:0:
134,93,87807,1,0,0:0:0:0:
117,119,87904,1,0,0:0:0:0:
90,135,88001,5,0,0:0:0:0:
105,195,88097,1,0,0:0:0:0:
158,228,88194,1,0,0:0:0:0:
220,234,88291,1,0,0:0:0:0:
278,210,88388,5,0,0:0:0:0:
392,342,88581,1,0,0:0:0:0:
438,292,88678,1,0,0:0:0:0:
456,232,88775,1,0,0:0:0:0:
444,170,88872,1,0,0:0:0:0:
408,118,88968,1,0,0:0:0:0:
348,97,89065,1,0,0:0:0:0:
295,90,89162,1,0,0:0:0:0:
242,85,89259,1,0,0:0:0:0:
190,78,89356,1,0,0:0:0:0:
138,75,89452,1,0,0:0:0:0:
97,85,89549,1,0,0:0:0:0:
65,112,89646,1,0,0:0:0:0:
52,151,89743,1,0,0:0:0:0:
44,191,89839,1,0,0:0:0:0:
44,222,89936,5,0,0:0:0:0:
61,248,90033,1,0,0:0:0:0:
90,259,90130,1,0,0:0:0:0:
121,257,90226,1,0,0:0:0:0:
156,234,90323,5,0,0:0:0:0:
195,219,90420,1,0,0:0:0:0:
236,218,90517,1,0,0:0:0:0:
274,233,90614,1,0,0:0:0:0:
321,253,90710,5,0,0:0:0:0:
373,258,90807,1,0,0:0:0:0:
420,236,90904,1,0,0:0:0:0:
453,195,91001,1,0,0:0:0:0:
435,135,91097,5,0,0:0:0:0:
387,93,91194,1,0,0:0:0:0:
324,85,91291,1,0,0:0:0:0:
271,120,91388,1,0,0:0:0:0:
240,148,91485,5,0,0:0:0:0:
201,164,91581,1,0,0:0:0:0:
162,147,91678,1,0,0:0:0:0:
151,106,91775,1,0,0:0:0:0:
173,70,91872,5,0,0:0:0:0:
238,52,91968,1,0,0:0:0:0:
290,95,92065,1,0,0:0:0:0:
300,162,92162,1,0,0:0:0:0:
285,217,92259,5,0,0:0:0:0:
240,253,92356,1,0,0:0:0:0:
183,256,92452,1,0,0:0:0:0:
134,224,92549,1,0,0:0:0:0:
102,175,92646,6,0,P|94:104|128:58,1,104.500003189087
271,60,93033,6,0,L|302:7,5,52.2500015945435
307,114,93614,1,0,0:0:0:0:
331,136,93710,1,0,0:0:0:0:
300,152,93807,1,0,0:0:0:0:
324,174,93903,1,0,0:0:0:0:
300,192,94001,1,0,0:0:0:0:
324,214,94097,1,0,0:0:0:0:
376,236,94194,5,0,0:0:0:0:
394,296,94291,1,0,0:0:0:0:
363,351,94388,1,0,0:0:0:0:
300,357,94485,1,0,0:0:0:0:
247,323,94581,6,0,P|202:306|136:326,1,104.500003189087
101,342,94872,1,0,0:0:0:0:
49,341,94968,1,0,0:0:0:0:
27,293,95065,1,0,0:0:0:0:
55,248,95162,1,0,0:0:0:0:
100,221,95259,1,0,0:0:0:0:
140,187,95356,6,0,L|150:119,1,52.2500015945435
227,184,95549,2,0,L|290:136,1,52.2500015945435
291,238,95743,2,0,L|362:232,1,52.2500015945435
328,311,95936,2,0,L|391:344,1,52.2500015945435
253,337,96130,5,0,0:0:0:0:
211,338,96226,1,0,0:0:0:0:
173,319,96323,1,0,0:0:0:0:
148,285,96420,1,0,0:0:0:0:
168,242,96517,5,0,0:0:0:0:
177,195,96614,1,0,0:0:0:0:
165,149,96710,1,0,0:0:0:0:
131,116,96807,1,0,0:0:0:0:
176,90,96904,5,0,0:0:0:0:
228,88,97001,1,0,0:0:0:0:
277,104,97097,1,0,0:0:0:0:
320,132,97194,1,0,0:0:0:0:
354,178,97291,5,0,0:0:0:0:
347,235,97388,1,0,0:0:0:0:
303,273,97485,1,0,0:0:0:0:
248,256,97581,1,0,0:0:0:0:
224,190,97678,6,0,L|184:134,3,52.2500015945435
317,177,98065,2,0,L|351:227,3,52.2500015945435
141,209,98452,2,0,L|107:151,3,52.2500015945435
414,177,98839,2,0,L|452:228,4,52.2500015945435
386,269,99420,5,0,0:0:0:0:
357,282,99517,1,0,0:0:0:0:
325,285,99614,1,0,0:0:0:0:
298,268,99710,1,0,0:0:0:0:
287,238,99807,1,0,0:0:0:0:
292,207,99904,1,0,0:0:0:0:
281,166,100001,5,0,0:0:0:0:
248,139,100097,1,0,0:0:0:0:
206,133,100194,1,0,0:0:0:0:
167,148,100291,1,0,0:0:0:0:
130,185,100388,5,0,0:0:0:0:
79,199,100485,1,0,0:0:0:0:
33,174,100581,1,0,0:0:0:0:
31,121,100678,1,0,0:0:0:0:
61,78,100775,5,0,0:0:0:0:
258,31,100968,1,0,0:0:0:0:
329,45,101065,1,0,0:0:0:0:
385,83,101162,1,0,0:0:0:0:
414,138,101259,1,0,0:0:0:0:
424,194,101356,1,0,0:0:0:0:
415,245,101452,1,0,0:0:0:0:
389,284,101549,2,0,P|330:331|202:301,1,209.000006378174
182,259,102033,1,0,0:0:0:0:
191,202,102130,1,0,0:0:0:0:
240,163,102226,1,0,0:0:0:0:
307,158,102323,6,0,P|383:152|407:252,1,156.750004783631
350,214,102710,1,0,0:0:0:0:
324,240,102807,1,0,0:0:0:0:
284,254,102904,1,0,0:0:0:0:
238,240,103001,1,0,0:0:0:0:
203,201,103097,1,0,0:0:0:0:
202,143,103194,1,0,0:0:0:0:
242,94,103291,1,0,0:0:0:0:
305,69,103388,1,0,0:0:0:0:
366,82,103485,1,0,0:0:0:0:
403,100,103581,1,0,0:0:0:0:
437,145,103678,1,0,0:0:0:0:
440,186,103775,1,0,0:0:0:0:
407,240,103872,5,0,0:0:0:0:
253,294,104065,1,0,0:0:0:0:
278,236,104162,1,0,0:0:0:0:
273,178,104259,1,0,0:0:0:0:
240,136,104356,1,0,0:0:0:0:
197,117,104452,1,0,0:0:0:0:
155,119,104549,1,0,0:0:0:0:
125,141,104646,1,0,0:0:0:0:
114,170,104743,1,0,0:0:0:0:
116,201,104839,1,0,0:0:0:0:
134,226,104936,1,0,0:0:0:0:
162,238,105033,1,0,0:0:0:0:
188,238,105130,1,0,0:0:0:0:
205,226,105226,1,0,0:0:0:0:
217,209,105323,1,0,0:0:0:0:
232,194,105420,6,0,P|253:128|248:62,1,104.500003189087
326,224,105807,2,0,P|298:290|292:360,1,104.500003189087
206,244,106194,2,0,P|144:245|99:225,1,104.500003189087
362,149,106581,2,0,P|443:134|492:161,1,104.500003189087
397,279,106968,5,0,0:0:0:0:
348,299,107065,1,0,0:0:0:0:
296,289,107162,1,0,0:0:0:0:
260,250,107259,1,0,0:0:0:0:
295,211,107356,5,0,0:0:0:0:
324,168,107452,1,0,0:0:0:0:
332,116,107549,1,0,0:0:0:0:
309,68,107646,1,0,0:0:0:0:
257,56,107743,6,0,L|267:27,1,26.1250007972718
219,54,107839,2,0,L|215:92,1,26.1250007972718
166,62,107936,2,0,L|144:34,1,26.1250007972718
141,93,108033,2,0,L|160:122,1,26.1250007972718
103,126,108130,5,0,0:0:0:0:
74,169,108226,1,0,0:0:0:0:
70,221,108323,1,0,0:0:0:0:
98,265,108420,1,0,0:0:0:0:
134,287,108517,1,0,0:0:0:0:
391,217,109097,5,0,0:0:0:0:
284,82,109485,1,0,0:0:0:0:
217,134,109678,1,0,0:0:0:0:
169,152,109775,1,0,0:0:0:0:
118,144,109872,1,0,0:0:0:0:
87,103,109968,1,0,0:0:0:0:
123,66,110065,5,0,0:0:0:0:
187,66,110162,1,0,0:0:0:0:
251,67,110259,1,0,0:0:0:0:
315,68,110356,1,0,0:0:0:0:
348,87,110452,5,0,0:0:0:0:
367,120,110549,1,0,0:0:0:0:
365,158,110646,1,0,0:0:0:0:
339,187,110743,1,0,0:0:0:0:
300,188,110839,5,0,0:0:0:0:
244,187,110936,1,0,0:0:0:0:
193,209,111033,1,0,0:0:0:0:
161,254,111130,1,0,0:0:0:0:
156,296,111226,5,0,0:0:0:0:
176,333,111323,1,0,0:0:0:0:
215,350,111420,1,0,0:0:0:0:
257,350,111517,1,0,0:0:0:0:
297,337,111614,6,0,L|288:311,1,21.3749993476868
331,327,111710,2,0,L|338:351,1,21.3749993476868
358,309,111807,2,0,L|348:284,1,21.3749993476868
391,300,111904,2,0,L|400:326,1,21.3749993476868
420,282,112001,1,0,0:0:0:0:
449,252,112097,1,0,0:0:0:0:
467,213,112194,1,0,0:0:0:0:
462,170,112291,1,0,0:0:0:0:
433,138,112388,1,0,0:0:0:0:
121,51,112775,6,0,L|80:52,7,21.3749993476868
133,119,113162,2,0,L|157:118,7,21.3749993476868
138,190,113549,2,0,L|110:190,11,21.3749993476868
166,264,114130,2,0,L|195:263,12,21.3749993476868
388,299,115097,6,0,L|388:272,8,21.3749993476868
351,320,115581,1,0,0:0:0:0:
308,327,115678,1,0,0:0:0:0:
270,306,115775,1,0,0:0:0:0:
254,265,115872,1,0,0:0:0:0:
262,223,115968,1,0,0:0:0:0:
288,189,116065,1,0,0:0:0:0:
324,166,116162,1,0,0:0:0:0:
366,160,116259,6,0,L|397:160,4,21.3749993476868
337,127,116549,1,0,0:0:0:0:
297,109,116646,2,0,L|297:77,4,21.3749993476868
263,135,116936,1,0,0:0:0:0:
241,172,117033,1,0,0:0:0:0:
210,202,117130,1,0,0:0:0:0:
169,215,117226,1,0,0:0:0:0:
126,216,117323,1,0,0:0:0:0:
87,197,117420,1,0,0:0:0:0:
71,156,117517,1,0,0:0:0:0:
76,113,117614,1,0,0:0:0:0:
98,76,117710,1,0,0:0:0:0:
140,81,117807,5,0,0:0:0:0:
188,98,117904,1,0,0:0:0:0:
236,115,118001,1,0,0:0:0:0:
283,132,118097,1,0,0:0:0:0:
307,172,118194,5,0,0:0:0:0:
310,219,118291,1,0,0:0:0:0:
293,263,118388,1,0,0:0:0:0:
263,299,118485,1,0,0:0:0:0:
220,317,118581,1,0,0:0:0:0:
220,206,118968,5,0,0:0:0:0:
271,204,119065,1,0,0:0:0:0:
320,217,119162,1,0,0:0:0:0:
357,252,119259,1,0,0:0:0:0:
320,293,119356,5,0,0:0:0:0:
267,308,119452,1,0,0:0:0:0:
213,293,119549,1,0,0:0:0:0:
182,246,119646,1,0,0:0:0:0:
190,186,119743,5,0,0:0:0:0:
184,126,119839,1,0,0:0:0:0:
141,84,119936,1,0,0:0:0:0:
82,70,120033,1,0,0:0:0:0:
29,107,120130,5,0,0:0:0:0:
16,169,120226,1,0,0:0:0:0:
31,231,120323,1,0,0:0:0:0:
66,284,120420,1,0,0:0:0:0:
125,308,120517,5,0,0:0:0:0:
160,270,120614,1,0,0:0:0:0:
191,309,120710,1,0,0:0:0:0:
224,269,120807,1,0,0:0:0:0:
255,309,120904,1,0,0:0:0:0:
409,292,121291,6,0,L|383:292,4,21.3749993476868
366,288,121581,1,0,0:0:0:0:
325,273,121678,1,0,0:0:0:0:
298,239,121775,1,0,0:0:0:0:
292,196,121872,1,0,0:0:0:0:
311,158,121968,1,0,0:0:0:0:
289,111,122065,5,0,0:0:0:0:
248,78,122162,1,0,0:0:0:0:
197,67,122259,1,0,0:0:0:0:
158,100,122356,1,0,0:0:0:0:
138,146,122452,1,0,0:0:0:0:
137,284,122646,6,0,L|160:284,8,21.3749993476868
104,274,123130,1,0,0:0:0:0:
73,244,123226,1,0,0:0:0:0:
68,201,123323,1,0,0:0:0:0:
81,160,123420,1,0,0:0:0:0:
105,124,123517,1,0,0:0:0:0:
159,135,123614,5,0,0:0:0:0:
213,143,123710,1,0,0:0:0:0:
268,136,123807,1,0,0:0:0:0:
317,111,123904,1,0,0:0:0:0:
341,61,124001,5,0,0:0:0:0:
411,229,124194,2,0,L|411:262,11,21.3749993476868
369,297,124775,5,0,0:0:0:0:
182,136,124968,2,0,L|153:152,11,21.3749993476868
102,133,125549,5,0,0:0:0:0:
89,298,125743,2,0,L|89:331,7,21.3749993476868
155,285,126130,2,0,L|155:256,7,21.3749993476868
225,286,126517,2,0,L|225:313,12,21.3749993476868
300,226,127291,6,0,L|325:226,7,21.3749993476868
299,159,127678,2,0,L|275:158,7,21.3749993476868
319,92,128065,2,0,L|345:92,7,21.3749993476868
311,24,128452,2,0,L|286:23,4,21.3749993476868
119,71,128839,6,0,L|94:71,7,21.3749993476868
120,138,129226,2,0,L|144:139,7,21.3749993476868
100,205,129613,2,0,L|74:205,7,21.3749993476868
108,273,130000,2,0,L|133:274,4,21.3749993476868
202,333,130388,6,0,P|260:320|288:290,1,85.4999973907472
233,163,130775,2,0,P|217:215|228:266,1,85.4999973907472
380,205,131162,2,0,P|324:198|270:217,1,85.4999973907472
337,354,131549,2,0,P|347:303|337:265,1,85.4999973907472
315,225,131839,1,0,0:0:0:0:
282,185,131936,1,0,0:0:0:0:
242,152,132033,1,0,0:0:0:0:
192,137,132130,1,0,0:0:0:0:
141,140,132226,1,0,0:0:0:0:
99,170,132323,1,0,0:0:0:0:
86,219,132420,1,0,0:0:0:0:
95,269,132517,6,0,L|70:275,1,21.3749993476868
116,304,132614,2,0,L|94:323,1,21.3749993476868
150,320,132710,2,0,L|141:348,1,21.3749993476868
193,327,132807,2,0,L|194:358,1,21.3749993476868
236,318,132904,2,0,L|247:344,1,21.3749993476868
273,294,133001,2,0,L|293:313,1,21.3749993476868
300,259,133097,2,0,L|324:267,1,21.3749993476868
310,214,133194,2,0,L|345:217,1,21.3749993476868
308,169,133291,5,0,0:0:0:0:
256,192,133388,12,0,137936,0:0:0:0:
