osu file format v14

[General]
AudioFilename: audio.mp3
AudioLeadIn: 0
PreviewTime: 369085
Countdown: 1
SampleSet: Soft
StackLeniency: 0.2
Mode: 0
LetterboxInBreaks: 0
WidescreenStoryboard: 0

[Editor]
Bookmarks: 76078,88465,125626,206975,268031,286980,293295,343822,446453
DistanceSpacing: 1
BeatDivisor: 4
GridSize: 16
TimelineZoom: 3.499998

[Metadata]
Title:L
TitleUnicode:L
Artist:ICE
ArtistUnicode:ICE
Creator:MujouSekai
Version:Life
Source:Cytus
Tags:cytus loom chapter 7 marathon stream lost liberation
BeatmapID:1291690
BeatmapSetID:611982

[Difficulty]
HPDrainRate:6
CircleSize:4.2
OverallDifficulty:9
ApproachRate:9.4
SliderMultiplier:1.4
SliderTickRate:1

[Events]
//Background and Video events
0,0,"Death Note Images.jpg",0,0
//Break Periods
2,125826,130674
//Storyboard Layer 0 (Background)
//Storyboard Layer 1 (Fail)
//Storyboard Layer 2 (Pass)
//Storyboard Layer 3 (Foreground)
//Storyboard Sound Samples

[TimingPoints]
1756,387.096774193548,4,1,0,100,1,0
1756,-200,4,2,0,40,0,0
21110,-142.857142857143,4,2,0,40,0,0
22659,-100,4,2,0,40,0,0
32336,-76.9230769230769,4,2,0,40,0,0
32723,-100,4,2,0,40,0,0
44530,-100,4,2,0,5,0,0
44594,-100,4,2,0,40,0,0
46078,-100,4,2,0,5,0,0
46143,-100,4,2,0,40,0,0
46852,-90.9090909090909,4,2,0,40,0,0
47626,-90.9090909090909,4,2,0,5,0,0
47691,-90.9090909090909,4,2,0,40,0,0
51304,-76.9230769230769,4,2,0,40,0,1
77626,-90.9090909090909,4,2,0,40,0,1
78401,-76.9230769230769,4,2,0,40,0,1
100852,-76.9230769230769,4,2,0,40,0,0
102014,-83.3333333333333,4,2,0,40,0,0
105110,-76.9230769230769,4,2,0,40,0,0
118659,-76.9230769230769,4,2,0,40,0,0
121175,-71.4285714285714,4,2,0,40,0,0
132234,789.520779220781,4,2,0,40,1,0
147432,-100,4,2,0,5,0,0
147629,-100,4,2,0,35,0,0
163716,-100,4,2,0,5,0,0
163814,-100,4,2,0,35,0,0
175657,-83.3333333333333,4,2,0,40,0,0
189079,-133.333333333333,4,2,0,40,0,0
190658,-100,4,2,0,40,0,0
192237,-133.333333333333,4,2,0,40,0,0
193421,-100,4,2,0,40,0,0
200922,-66.6666666666667,4,2,0,40,0,0
203192,-66.6666666666667,4,2,0,5,0,0
203290,-66.6666666666667,4,2,0,40,0,0
203685,-58.8235294117647,4,2,0,40,0,0
214344,394.762813342983,4,2,0,40,1,0
214344,-100,4,2,0,40,0,1
264873,-133.333333333333,4,2,0,20,0,0
274347,-200,4,2,0,20,0,0
274447,-200,4,2,0,20,0,0
275433,-133.333333333333,4,2,0,20,0,0
279874,-133.333333333333,4,2,0,20,0,0
282243,-200,4,2,0,20,0,0
283032,-133.333333333333,4,2,0,20,0,0
285401,-200,4,2,0,20,0,0
286980,394.736842105263,4,2,0,40,1,0
288855,-100,4,2,0,5,0,0
288953,-90.9090909090909,4,2,0,40,0,0
289249,-90.9090909090909,4,2,0,5,0,0
289348,-83.3333333333333,4,2,0,40,0,0
289644,-83.3333333333333,4,2,0,5,0,0
289743,-76.9230769230769,4,2,0,40,0,0
293295,-66.6666666666667,4,2,0,40,0,0
344019,-133.333333333333,4,2,0,40,0,0
349348,-66.6666666666667,4,2,0,40,0,0
366914,-62.5,4,2,0,40,0,0
367703,-58.8235294117647,4,2,0,40,0,0
368493,-55.5555555555556,4,2,0,40,0,0
370664,-55.5555555555556,4,2,0,40,0,1
377769,-62.5,4,2,0,40,0,1
378756,-55.5555555555556,4,2,0,40,0,1
379348,-52.6315789473684,4,2,0,40,0,1
379743,-50,4,2,0,40,0,1
383295,-66.6666666666667,4,2,0,40,0,1
395927,-66.6666666666667,4,2,0,40,0,0
408164,-66.6666666666667,4,2,0,40,0,0
408558,-66.6666666666667,4,2,0,40,0,1
410137,-66.6666666666667,4,2,0,40,0,1
414085,-66.6666666666667,4,2,0,40,0,0
418822,-50,4,2,0,40,0,0
421190,-66.6666666666667,4,2,0,40,0,0
424348,-133.333333333333,4,2,0,40,0,0
443295,-66.6666666666667,4,2,0,40,0,0
445269,-62.5,4,2,0,40,0,0
445664,-58.8235294117647,4,2,0,40,0,0
446058,-55.5555555555556,4,2,0,40,0,0
446453,-55.5555555555556,4,2,0,70,0,0

[HitObjects]
232,144,1756,5,0,0:0:0:0:
328,264,3110,5,0,0:0:0:0:
328,264,3207,1,0,0:0:0:0:
328,264,3304,1,0,0:0:0:0:
269,203,3691,1,0,0:0:0:0:
283,125,4078,1,0,0:0:0:0:
350,85,4465,1,0,0:0:0:0:
251,228,4852,6,0,P|194:233|160:224,1,70
181,230,5433,2,0,P|200:191|192:125,1,105
89,259,6401,6,0,P|120:300|168:319,2,105
72,149,7949,1,0,0:0:0:0:
68,270,9304,5,0,0:0:0:0:
68,270,9401,1,0,0:0:0:0:
68,270,9498,1,0,0:0:0:0:
139,224,9885,1,0,0:0:0:0:
213,254,10272,1,0,0:0:0:0:
238,328,10659,1,0,0:0:0:0:
260,163,11046,6,0,P|281:114|329:91,1,105
338,170,11820,2,0,P|391:193|441:182,1,105
252,221,12594,6,0,P|244:255|183:298,1,105
190,296,13368,1,0,0:0:0:0:
265,133,13562,5,0,0:0:0:0:
344,160,13755,1,0,0:0:0:0:
411,110,13949,1,0,0:0:0:0:
488,141,14143,1,0,0:0:0:0:
256,287,14917,6,0,P|218:284|184:258,1,70
328,233,15691,2,0,P|343:270|344:306,1,70
246,199,16272,1,0,0:0:0:0:
246,199,16368,1,0,0:0:0:0:
246,199,16465,6,0,P|268:167|307:151,1,70
420,137,17239,5,0,0:0:0:0:
229,275,17626,1,0,0:0:0:0:
352,107,18014,1,0,0:0:0:0:
289,311,18401,1,0,0:0:0:0:
161,183,18788,6,0,P|108:180|83:185,1,70
324,346,19562,6,0,L|339:295,2,52.5
303,271,20336,1,0,0:0:0:0:
188,38,21110,6,0,L|166:115,2,73.4999977569581
200,158,21884,1,0,0:0:0:0:
464,296,22659,6,0,P|419:326|344:331,2,105
296,297,23433,1,0,0:0:0:0:
416,384,24014,1,0,0:0:0:0:
258,73,24594,5,0,0:0:0:0:
241,163,24981,1,0,0:0:0:0:
384,288,25755,5,0,0:0:0:0:
361,280,25819,1,0,0:0:0:0:
338,276,25884,1,0,0:0:0:0:
315,276,25948,1,0,0:0:0:0:
292,279,26013,1,0,0:0:0:0:
270,285,26077,1,0,0:0:0:0:
248,296,26143,5,0,0:0:0:0:
225,302,26207,1,0,0:0:0:0:
202,305,26272,1,0,0:0:0:0:
179,305,26336,1,0,0:0:0:0:
156,301,26401,1,0,0:0:0:0:
134,293,26465,1,0,0:0:0:0:
88,268,26530,5,0,0:0:0:0:
122,271,26626,1,0,0:0:0:0:
150,252,26723,1,0,0:0:0:0:
161,219,26820,1,0,0:0:0:0:
148,187,26917,1,0,0:0:0:0:
119,170,27013,1,0,0:0:0:0:
85,176,27110,1,0,0:0:0:0:
62,201,27207,1,0,0:0:0:0:
48,233,27304,5,0,0:0:0:0:
82,236,27400,1,0,0:0:0:0:
110,217,27497,1,0,0:0:0:0:
121,184,27594,1,0,0:0:0:0:
108,152,27691,1,0,0:0:0:0:
79,135,27787,1,0,0:0:0:0:
45,141,27884,1,0,0:0:0:0:
22,166,27981,1,0,0:0:0:0:
43,193,28078,6,0,L|83:197,3,35
186,264,28465,2,0,L|152:264,3,35
249,112,28852,1,0,0:0:0:0:
248,146,28948,1,0,0:0:0:0:
248,181,29045,1,0,0:0:0:0:
248,216,29142,1,0,0:0:0:0:
272,242,29239,6,0,L|294:253,2,23.3333333333333
373,211,29433,2,0,L|345:197,2,23.3333333333333
304,345,29626,1,0,0:0:0:0:
271,331,29722,1,0,0:0:0:0:
239,317,29819,1,0,0:0:0:0:
207,304,29916,1,0,0:0:0:0:
171,304,30014,1,0,0:0:0:0:
139,291,30110,1,0,0:0:0:0:
106,278,30207,1,0,0:0:0:0:
74,265,30304,1,0,0:0:0:0:
109,263,30401,5,0,0:0:0:0:
141,252,30497,1,0,0:0:0:0:
164,226,30594,1,0,0:0:0:0:
173,193,30691,1,0,0:0:0:0:
156,162,30788,6,0,L|128:155,2,23.3333333333333
237,132,30981,2,0,L|268:140,2,23.3333333333333
275,233,31175,5,0,0:0:0:0:
308,222,31271,1,0,0:0:0:0:
334,199,31368,1,0,0:0:0:0:
350,168,31465,1,0,0:0:0:0:
359,135,31562,1,0,0:0:0:0:
376,105,31659,1,0,0:0:0:0:
402,82,31756,1,0,0:0:0:0:
435,71,31852,1,0,0:0:0:0:
469,75,31949,5,0,0:0:0:0:
434,106,32045,1,0,0:0:0:0:
390,119,32142,1,0,0:0:0:0:
344,113,32239,1,0,0:0:0:0:
301,98,32336,1,0,0:0:0:0:
256,86,32433,1,0,0:0:0:0:
210,90,32530,1,0,0:0:0:0:
169,108,32626,1,0,0:0:0:0:
143,142,32723,6,0,P|114:92|68:83,1,105
75,223,33110,1,0,0:0:0:0:
95,250,33206,1,0,0:0:0:0:
126,267,33303,1,0,0:0:0:0:
160,268,33400,1,0,0:0:0:0:
193,255,33497,6,0,L|219:232,5,23.3333333333333
223,345,33885,2,0,L|194:366,5,23.3333333333333
125,258,34272,5,0,0:0:0:0:
128,235,34336,1,0,0:0:0:0:
130,212,34401,1,0,0:0:0:0:
132,189,34465,1,0,0:0:0:0:
134,165,34530,1,0,0:0:0:0:
136,142,34594,1,0,0:0:0:0:
137,119,34659,6,0,L|113:97,5,23.3333333333333
216,202,35046,5,0,0:0:0:0:
233,216,35110,1,0,0:0:0:0:
254,228,35175,1,0,0:0:0:0:
275,236,35239,1,0,0:0:0:0:
298,240,35304,1,0,0:0:0:0:
322,240,35368,1,0,0:0:0:0:
345,235,35433,2,0,L|360:267,5,23.3333333333333
258,52,35820,5,0,0:0:0:0:
223,53,35916,1,0,0:0:0:0:
191,67,36013,1,0,0:0:0:0:
166,91,36110,1,0,0:0:0:0:
151,122,36207,1,0,0:0:0:0:
148,157,36303,1,0,0:0:0:0:
158,191,36400,1,0,0:0:0:0:
178,218,36497,1,0,0:0:0:0:
210,232,36594,6,0,L|242:232,5,23.3333333333333
331,178,36981,2,0,L|359:178,5,23.3333333333333
226,126,37368,6,0,L|199:126,5,23.3333333333333
181,196,37755,5,0,0:0:0:0:
178,215,37819,1,0,0:0:0:0:
176,233,37884,1,0,0:0:0:0:
174,252,37948,1,0,0:0:0:0:
172,271,38013,1,0,0:0:0:0:
169,289,38077,1,0,0:0:0:0:
138,303,38143,5,0,0:0:0:0:
169,289,38239,1,0,0:0:0:0:
204,283,38336,1,0,0:0:0:0:
238,284,38433,1,0,0:0:0:0:
272,294,38530,1,0,0:0:0:0:
303,309,38626,1,0,0:0:0:0:
303,309,38723,1,0,0:0:0:0:
303,309,38820,1,0,0:0:0:0:
303,309,38917,6,0,P|295:258|305:215,1,70
308,203,39207,1,0,0:0:0:0:
333,173,39304,1,0,0:0:0:0:
184,352,39497,5,0,0:0:0:0:
184,352,39594,1,0,0:0:0:0:
184,352,39691,2,0,L|101:330,1,70
4,232,40078,2,0,L|93:264,1,70
355,43,40465,6,0,P|368:112|371:197,1,140
341,281,41046,1,0,0:0:0:0:
381,300,41143,1,0,0:0:0:0:
418,308,41239,2,0,L|471:308,1,35
292,346,41433,2,0,L|255:346,1,35
442,287,41626,2,0,L|502:288,1,35
310,324,41820,2,0,L|250:324,1,35
125,57,42014,5,0,0:0:0:0:
200,339,42207,5,0,0:0:0:0:
219,315,42272,1,0,0:0:0:0:
226,285,42336,1,0,0:0:0:0:
227,254,42401,1,0,0:0:0:0:
125,57,42594,5,0,0:0:0:0:
125,57,42788,1,0,0:0:0:0:
125,293,42981,5,0,0:0:0:0:
143,317,43046,1,0,0:0:0:0:
171,331,43110,1,0,0:0:0:0:
200,339,43175,1,0,0:0:0:0:
125,57,43368,5,2,0:0:0:0:
125,57,43562,1,0,0:0:0:0:
204,215,43755,5,0,0:0:0:0:
214,236,43819,1,0,0:0:0:0:
219,258,43884,1,0,0:0:0:0:
219,281,43948,1,0,0:0:0:0:
214,304,44013,1,0,0:0:0:0:
205,325,44077,1,0,0:0:0:0:
191,344,44142,1,0,0:0:0:0:
176,325,44207,1,0,0:0:0:0:
175,301,44272,1,0,0:0:0:0:
180,282,44336,6,0,P|206:261|242:271,1,70
261,281,44594,2,0,P|323:294|363:286,1,93.3333333333333
376,282,44917,1,0,0:0:0:0:
192,351,45110,5,0,0:0:0:0:
203,188,45304,6,0,L|202:144,1,35
234,84,45497,5,0,0:0:0:0:
213,95,45561,1,0,0:0:0:0:
192,103,45626,1,0,0:0:0:0:
169,107,45690,1,0,0:0:0:0:
145,107,45755,1,0,0:0:0:0:
122,103,45819,1,0,0:0:0:0:
100,94,45885,6,0,P|74:126|63:171,1,70
74,237,46143,6,0,P|124:209|146:166,1,93.3333333333333
169,107,46465,1,0,0:0:0:0:
336,351,46659,5,0,0:0:0:0:
319,175,46852,6,0,L|312:116,1,38.5000011749268
288,65,47046,5,0,0:0:0:0:
308,80,47110,1,0,0:0:0:0:
331,92,47175,1,0,0:0:0:0:
355,99,47239,1,0,0:0:0:0:
381,103,47304,1,0,0:0:0:0:
406,102,47368,1,0,0:0:0:0:
431,95,47433,2,0,P|441:135|440:174,1,77.0000023498536
439,246,47691,6,0,P|395:231|368:178,1,102.666669799805
355,99,48014,1,0,0:0:0:0:
151,122,48207,5,0,0:0:0:0:
153,136,48303,1,0,0:0:0:0:
154,151,48400,1,0,0:0:0:0:
155,166,48497,1,0,0:0:0:0:
156,181,48594,1,0,0:0:0:0:
157,196,48690,1,0,0:0:0:0:
158,211,48787,1,0,0:0:0:0:
159,226,48884,1,0,0:0:0:0:
160,241,48981,5,0,0:0:0:0:
206,240,49078,1,0,0:0:0:0:
252,239,49175,1,0,0:0:0:0:
298,237,49272,1,0,0:0:0:0:
272,273,49368,5,0,0:0:0:0:
257,241,49464,1,0,0:0:0:0:
252,207,49561,1,0,0:0:0:0:
257,172,49658,1,0,0:0:0:0:
274,137,49755,5,0,0:0:0:0:
289,105,49852,1,0,0:0:0:0:
294,71,49948,1,0,0:0:0:0:
276,36,50045,1,0,0:0:0:0:
249,111,50143,5,0,0:0:0:0:
218,127,50239,1,0,0:0:0:0:
184,133,50336,1,0,0:0:0:0:
149,129,50433,1,0,0:0:0:0:
88,87,50530,5,0,0:0:0:0:
97,69,50594,1,0,0:0:0:0:
116,61,50659,1,0,0:0:0:0:
134,70,50723,1,0,0:0:0:0:
140,90,50788,1,0,0:0:0:0:
131,107,50852,1,0,0:0:0:0:
109,115,50917,5,0,0:0:0:0:
96,119,50981,1,0,0:0:0:0:
83,124,51046,1,0,0:0:0:0:
70,128,51110,1,0,0:0:0:0:
57,133,51175,1,0,0:0:0:0:
43,137,51239,1,0,0:0:0:0:
22,165,51304,6,0,L|0:76,1,90.9999958343508
313,224,51691,5,0,0:0:0:0:
297,265,51787,1,0,0:0:0:0:
308,309,51884,1,0,0:0:0:0:
341,338,51981,1,0,0:0:0:0:
386,343,52078,1,0,0:0:0:0:
425,322,52174,1,0,0:0:0:0:
446,282,52271,1,0,0:0:0:0:
440,238,52368,1,0,0:0:0:0:
401,213,52465,2,0,P|396:240|396:275,1,45.4999979171754
473,154,52659,2,0,P|473:121|462:76,1,45.4999979171754
192,144,52852,6,0,P|235:158|305:166,1,90.9999958343508
330,166,53143,1,0,0:0:0:0:
378,156,53239,1,0,0:0:0:0:
192,144,53433,5,0,0:0:0:0:
168,117,53530,1,0,0:0:0:0:
166,82,53626,1,0,0:0:0:0:
145,122,53722,1,0,0:0:0:0:
145,167,53819,1,0,0:0:0:0:
164,208,53916,1,0,0:0:0:0:
217,197,54014,5,0,0:0:0:0:
199,202,54078,1,0,0:0:0:0:
182,207,54143,1,0,0:0:0:0:
164,212,54207,1,0,0:0:0:0:
147,217,54272,1,0,0:0:0:0:
129,222,54336,1,0,0:0:0:0:
113,226,54401,6,0,L|14:207,1,90.9999958343508
23,208,54691,1,0,0:0:0:0:
23,208,54788,1,0,0:0:0:0:
188,316,54981,1,0,0:0:0:0:
188,316,55078,1,0,0:0:0:0:
188,316,55175,5,0,0:0:0:0:
213,279,55271,1,0,0:0:0:0:
215,234,55368,1,0,0:0:0:0:
193,195,55465,1,0,0:0:0:0:
163,174,55562,5,0,0:0:0:0:
137,210,55658,1,0,0:0:0:0:
135,255,55755,1,0,0:0:0:0:
157,294,55852,1,0,0:0:0:0:
200,280,55949,6,0,P|243:270|310:294,1,90.9999958343508
403,324,56207,5,0,0:0:0:0:
395,308,56271,1,0,0:0:0:0:
389,292,56336,1,0,0:0:0:0:
385,275,56400,1,0,0:0:0:0:
382,258,56465,1,0,0:0:0:0:
382,240,56529,1,0,0:0:0:0:
382,223,56594,1,0,0:0:0:0:
385,206,56658,1,0,0:0:0:0:
403,189,56723,6,0,P|379:200|342:203,1,45.4999979171754
439,116,56917,2,0,P|460:131|481:161,1,45.4999979171754
362,121,57110,2,0,P|364:94|380:61,1,45.4999979171754
269,277,57304,5,0,0:0:0:0:
224,288,57401,1,0,0:0:0:0:
181,303,57497,2,0,L|59:331,1,90.9999958343508
218,214,57885,5,0,0:0:0:0:
254,240,57981,1,0,0:0:0:0:
273,281,58078,1,0,0:0:0:0:
270,326,58175,1,0,0:0:0:0:
307,300,58272,1,0,0:0:0:0:
345,276,58368,1,0,0:0:0:0:
390,272,58465,1,0,0:0:0:0:
432,288,58562,1,0,0:0:0:0:
435,334,58659,5,0,0:0:0:0:
409,296,58755,1,0,0:0:0:0:
401,252,58852,1,0,0:0:0:0:
412,208,58949,1,0,0:0:0:0:
448,184,59046,5,0,0:0:0:0:
403,194,59142,1,0,0:0:0:0:
358,194,59239,1,0,0:0:0:0:
314,184,59336,1,0,0:0:0:0:
271,168,59433,5,0,0:0:0:0:
226,157,59530,1,0,0:0:0:0:
181,157,59627,1,0,0:0:0:0:
137,168,59723,1,0,0:0:0:0:
167,202,59820,5,0,0:0:0:0:
181,157,59917,1,0,0:0:0:0:
152,121,60014,1,0,0:0:0:0:
107,129,60110,1,0,0:0:0:0:
72,159,60207,6,0,L|12:211,1,45.4999979171754
56,320,60401,2,0,L|90:290,1,45.4999979171754
308,118,60594,6,0,P|365:129|414:127,1,90.9999958343508
443,122,60885,1,0,0:0:0:0:
481,99,60981,1,0,0:0:0:0:
456,137,61078,1,0,0:0:0:0:
438,179,61175,1,0,0:0:0:0:
451,222,61272,1,0,0:0:0:0:
480,256,61368,5,0,0:0:0:0:
434,258,61464,1,0,0:0:0:0:
389,260,61561,1,0,0:0:0:0:
343,263,61658,1,0,0:0:0:0:
320,223,61755,5,0,0:0:0:0:
283,196,61851,1,0,0:0:0:0:
237,192,61948,1,0,0:0:0:0:
196,212,62045,1,0,0:0:0:0:
176,253,62143,5,0,0:0:0:0:
334,312,62336,5,0,0:0:0:0:
327,282,62400,1,0,0:0:0:0:
331,252,62465,1,0,0:0:0:0:
344,225,62529,1,0,0:0:0:0:
360,199,62594,5,0,0:0:0:0:
366,169,62658,1,0,0:0:0:0:
362,139,62723,1,0,0:0:0:0:
349,112,62787,1,0,0:0:0:0:
324,94,62852,1,0,0:0:0:0:
294,86,62917,6,0,L|216:94,1,45.4999979171754
117,168,63110,2,0,L|195:160,1,45.4999979171754
293,191,63304,1,0,0:0:0:0:
310,232,63400,1,0,0:0:0:0:
320,277,63497,1,0,0:0:0:0:
322,322,63594,1,0,0:0:0:0:
320,367,63691,6,0,L|211:388,1,90.9999958343508
278,131,64078,2,0,L|381:111,1,90.9999958343508
406,137,64368,1,0,0:0:0:0:
443,163,64465,2,0,L|503:153,1,45.4999979171754
336,48,64659,2,0,L|281:58,1,45.4999979171754
183,135,64852,1,0,0:0:0:0:
202,176,64948,1,0,0:0:0:0:
205,221,65045,1,0,0:0:0:0:
193,264,65142,1,0,0:0:0:0:
162,292,65239,6,0,L|62:284,1,90.9999958343508
264,346,65626,2,0,L|375:350,1,90.9999958343508
421,259,65917,1,0,0:0:0:0:
421,259,66014,6,0,P|423:227|432:199,1,45.4999979171754
502,56,66207,2,0,P|500:88|491:116,1,45.4999979171754
285,149,66401,1,0,0:0:0:0:
239,145,66497,1,0,0:0:0:0:
196,158,66594,1,0,0:0:0:0:
161,186,66691,1,0,0:0:0:0:
140,227,66788,6,0,P|134:247|128:292,1,45.4999979171754
217,342,66981,2,0,P|223:320|227:297,1,45.4999979171754
122,242,67175,2,0,P|116:262|110:307,1,45.4999979171754
199,357,67368,2,0,P|205:335|209:312,1,45.4999979171754
212,138,67562,5,0,0:0:0:0:
199,95,67658,1,0,0:0:0:0:
218,55,67755,1,0,0:0:0:0:
259,37,67852,1,0,0:0:0:0:
300,58,67949,1,0,0:0:0:0:
312,101,68045,1,0,0:0:0:0:
293,141,68142,1,0,0:0:0:0:
253,158,68239,1,0,0:0:0:0:
218,188,68336,5,0,0:0:0:0:
316,271,68530,1,0,0:0:0:0:
293,268,68594,1,0,0:0:0:0:
270,265,68659,1,0,0:0:0:0:
248,262,68723,1,0,0:0:0:0:
225,260,68788,1,0,0:0:0:0:
203,257,68852,1,0,0:0:0:0:
180,254,68917,1,0,0:0:0:0:
157,251,68981,1,0,0:0:0:0:
135,249,69046,1,0,0:0:0:0:
105,245,69110,6,0,L|93:175,1,45.4999979171754
183,296,69304,2,0,L|187:354,1,45.4999979171754
240,91,69497,2,0,L|235:4,1,45.4999979171754
318,241,69691,5,0,0:0:0:0:
324,286,69788,1,0,0:0:0:0:
331,331,69885,6,0,L|427:350,1,90.9999958343508
318,241,70175,1,0,0:0:0:0:
273,231,70272,2,0,L|154:213,1,90.9999958343508
115,253,70659,5,0,0:0:0:0:
117,324,70755,1,0,0:0:0:0:
184,349,70852,1,0,0:0:0:0:
232,296,70949,1,0,0:0:0:0:
219,224,71046,6,0,P|222:180|263:115,1,90.9999958343508
351,114,71336,1,0,0:0:0:0:
350,113,71433,6,0,P|346:158|327:199,1,90.9999958343508
238,236,71723,1,0,0:0:0:0:
238,236,71820,6,0,L|342:255,1,90.9999958343508
404,340,72110,1,0,0:0:0:0:
404,340,72207,6,0,L|314:323,1,90.9999958343508
234,339,72497,1,0,0:0:0:0:
234,339,72594,5,0,0:0:0:0:
195,315,72690,1,0,0:0:0:0:
151,316,72787,1,0,0:0:0:0:
113,341,72884,1,0,0:0:0:0:
112,362,72981,5,0,0:0:0:0:
114,342,73077,1,0,0:0:0:0:
116,323,73174,1,0,0:0:0:0:
119,303,73271,1,0,0:0:0:0:
121,284,73368,1,2,0:0:0:0:
123,265,73464,1,0,0:0:0:0:
126,245,73561,1,0,0:0:0:0:
128,226,73659,1,0,0:0:0:0:
148,242,73755,5,0,0:0:0:0:
173,258,73851,1,0,0:0:0:0:
202,266,73948,1,0,0:0:0:0:
232,265,74045,1,0,0:0:0:0:
276,253,74143,1,0,0:0:0:0:
318,237,74239,1,0,0:0:0:0:
363,234,74336,1,0,0:0:0:0:
408,244,74433,1,0,0:0:0:0:
443,273,74530,5,0,0:0:0:0:
408,244,74626,1,0,0:0:0:0:
390,203,74723,1,0,0:0:0:0:
395,158,74820,1,0,0:0:0:0:
453,141,74917,5,0,0:0:0:0:
395,158,75013,1,0,0:0:0:0:
335,151,75110,1,0,0:0:0:0:
284,119,75207,1,0,0:0:0:0:
232,56,75304,6,0,P|224:41|221:-18,1,45.4999979171754
273,194,75497,2,0,P|241:209|202:218,1,45.4999979171754
433,182,75691,1,0,0:0:0:0:
435,199,75755,1,0,0:0:0:0:
437,218,75820,1,0,0:0:0:0:
437,236,75884,1,0,0:0:0:0:
437,254,75949,1,0,0:0:0:0:
436,272,76013,1,0,0:0:0:0:
435,294,76078,6,0,L|342:304,1,90.9999958343508
57,269,76465,5,0,0:0:0:0:
45,312,76561,1,0,0:0:0:0:
62,353,76658,1,0,0:0:0:0:
100,377,76755,1,0,0:0:0:0:
144,372,76852,1,0,0:0:0:0:
178,342,76948,1,0,0:0:0:0:
186,299,77045,1,0,0:0:0:0:
167,258,77142,1,0,0:0:0:0:
129,234,77239,2,0,L|77:234,1,45.4999979171754
220,330,77433,2,0,L|268:330,1,45.4999979171754
421,308,77626,5,0,0:0:0:0:
408,271,77722,1,0,0:0:0:0:
408,233,77819,1,0,0:0:0:0:
419,196,77916,1,0,0:0:0:0:
438,162,78014,1,0,0:0:0:0:
450,125,78110,1,0,0:0:0:0:
450,87,78207,1,0,0:0:0:0:
439,50,78304,1,0,0:0:0:0:
409,86,78401,5,0,0:0:0:0:
366,102,78497,1,0,0:0:0:0:
321,104,78594,1,0,0:0:0:0:
277,91,78691,1,0,0:0:0:0:
235,74,78788,1,0,0:0:0:0:
191,61,78885,1,0,0:0:0:0:
146,63,78982,1,0,0:0:0:0:
102,76,79078,1,0,0:0:0:0:
68,106,79175,6,0,L|77:161,1,45.4999979171754
131,280,79368,2,0,L|122:225,1,45.4999979171754
44,132,79562,2,0,L|53:187,1,45.4999979171754
107,306,79755,2,0,L|98:251,1,45.4999979171754
388,293,79949,6,0,L|376:356,2,45.4999979171754
348,223,80239,2,0,L|408:201,2,45.4999979171754
311,297,80530,2,0,L|262:255,2,45.4999979171754
485,135,80917,6,0,L|513:123,2,30.3333319447836
475,106,81110,2,0,L|497:73,2,30.3333319447836
452,85,81304,2,0,L|454:53,2,30.3333319447836
375,53,81497,5,0,0:0:0:0:
342,83,81593,1,0,0:0:0:0:
298,94,81690,1,0,0:0:0:0:
255,81,81787,1,0,0:0:0:0:
217,55,81885,1,0,0:0:0:0:
184,25,81981,1,0,0:0:0:0:
140,14,82078,1,0,0:0:0:0:
97,27,82175,1,0,0:0:0:0:
63,57,82272,5,0,0:0:0:0:
274,195,82465,1,0,0:0:0:0:
310,222,82562,1,0,0:0:0:0:
355,226,82659,1,0,0:0:0:0:
328,258,82755,1,0,0:0:0:0:
333,303,82852,1,0,0:0:0:0:
370,327,82949,1,0,0:0:0:0:
415,320,83046,1,0,0:0:0:0:
438,280,83143,1,0,0:0:0:0:
431,235,83239,1,0,0:0:0:0:
442,190,83336,1,0,0:0:0:0:
478,162,83433,6,0,L|400:156,2,60.6666638895672
362,95,83820,6,0,P|334:155|346:203,1,90.9999958343508
478,162,84207,5,0,0:0:0:0:
490,205,84303,1,0,0:0:0:0:
477,248,84400,1,0,0:0:0:0:
442,277,84497,1,0,0:0:0:0:
396,271,84594,5,0,0:0:0:0:
351,263,84690,1,0,0:0:0:0:
306,269,84787,1,0,0:0:0:0:
266,289,84884,1,0,0:0:0:0:
253,332,84981,5,0,0:0:0:0:
266,288,85077,1,0,0:0:0:0:
257,244,85174,1,0,0:0:0:0:
228,209,85271,1,0,0:0:0:0:
185,193,85368,6,0,P|158:192|111:199,1,45.4999979171754
0,261,85562,2,0,P|27:262|74:255,1,45.4999979171754
99,62,85755,2,0,P|97:94|99:122,1,45.4999979171754
147,330,85949,2,0,P|150:304|148:284,1,45.4999979171754
328,184,86143,5,0,0:0:0:0:
297,217,86239,1,0,0:0:0:0:
287,261,86336,1,0,0:0:0:0:
299,304,86433,1,0,0:0:0:0:
336,280,86530,1,0,0:0:0:0:
375,258,86626,1,0,0:0:0:0:
420,259,86723,1,0,0:0:0:0:
459,282,86820,1,0,0:0:0:0:
432,320,86917,6,0,P|440:240|504:296,1,181.999991668702
221,282,87497,5,0,0:0:0:0:
179,299,87594,1,0,0:0:0:0:
133,299,87691,2,0,P|108:297|60:278,1,45.4999979171754
212,203,87885,2,0,P|237:205|285:224,1,45.4999979171754
112,270,88078,2,0,P|87:268|39:249,1,45.4999979171754
191,174,88272,2,0,P|216:176|264:195,1,45.4999979171754
349,264,88465,5,0,0:0:0:0:
370,224,88561,1,0,0:0:0:0:
411,206,88658,1,0,0:0:0:0:
454,215,88755,1,0,0:0:0:0:
484,248,88852,1,0,0:0:0:0:
488,293,88948,1,0,0:0:0:0:
464,331,89045,1,0,0:0:0:0:
422,347,89142,1,0,0:0:0:0:
381,329,89239,5,0,0:0:0:0:
337,318,89335,1,0,0:0:0:0:
292,320,89432,1,0,0:0:0:0:
249,334,89529,1,0,0:0:0:0:
212,361,89626,1,0,0:0:0:0:
219,316,89722,1,0,0:0:0:0:
210,271,89819,1,0,0:0:0:0:
187,233,89916,1,0,0:0:0:0:
153,202,90014,5,0,0:0:0:0:
193,221,90110,1,0,0:0:0:0:
238,221,90207,1,0,0:0:0:0:
279,201,90304,1,0,0:0:0:0:
310,168,90401,5,0,0:0:0:0:
270,148,90498,1,0,0:0:0:0:
225,147,90595,1,0,0:0:0:0:
184,167,90691,1,0,0:0:0:0:
153,202,90788,5,0,0:0:0:0:
193,221,90884,1,0,0:0:0:0:
238,221,90981,1,0,0:0:0:0:
279,201,91078,1,0,0:0:0:0:
315,173,91175,5,0,0:0:0:0:
355,153,91272,1,0,0:0:0:0:
400,152,91369,1,0,0:0:0:0:
441,172,91465,1,0,0:0:0:0:
470,206,91562,6,0,L|469:258,1,45.4999979171754
398,263,91755,2,0,L|392:312,1,45.4999979171754
319,309,91949,2,0,L|280:346,1,45.4999979171754
217,298,92143,2,0,L|159:304,1,45.4999979171754
59,240,92336,5,0,0:0:0:0:
53,195,92432,1,0,0:0:0:0:
69,153,92529,1,0,0:0:0:0:
102,122,92626,1,0,0:0:0:0:
134,41,92723,5,0,0:0:0:0:
167,72,92820,1,0,0:0:0:0:
183,114,92917,1,0,0:0:0:0:
177,159,93013,1,0,0:0:0:0:
123,217,93110,6,0,P|172:234|234:217,1,90.9999958343508
385,79,93497,2,0,P|336:62|274:79,1,90.9999958343508
104,265,93885,5,0,0:0:0:0:
139,293,93981,1,0,0:0:0:0:
181,309,94078,1,0,0:0:0:0:
226,314,94175,1,0,0:0:0:0:
282,251,94272,5,0,0:0:0:0:
326,245,94368,1,0,0:0:0:0:
371,252,94465,1,0,0:0:0:0:
412,271,94562,1,0,0:0:0:0:
476,328,94659,6,0,L|488:216,1,90.9999958343508
368,32,95046,2,0,L|376:128,1,90.9999958343508
147,236,95433,5,0,0:0:0:0:
190,249,95529,1,0,0:0:0:0:
228,274,95626,1,0,0:0:0:0:
256,309,95723,1,0,0:0:0:0:
220,336,95820,2,0,P|222:281|306:301,1,136.499993751526
327,302,96207,5,0,0:0:0:0:
182,51,96401,5,0,0:0:0:0:
175,64,96465,1,0,0:0:0:0:
171,79,96530,1,0,0:0:0:0:
167,94,96594,1,0,0:0:0:0:
166,109,96659,1,0,0:0:0:0:
165,124,96723,1,0,0:0:0:0:
167,139,96788,1,0,0:0:0:0:
169,154,96852,1,0,0:0:0:0:
174,168,96917,1,0,0:0:0:0:
183,185,96981,6,0,L|32:200,2,136.499993751526
244,106,97755,1,0,0:0:0:0:
252,336,97949,1,0,0:0:0:0:
373,162,98143,1,0,0:0:0:0:
128,135,98336,1,0,0:0:0:0:
262,258,98530,5,0,0:0:0:0:
188,23,98723,1,0,0:0:0:0:
154,313,98917,1,0,0:0:0:0:
316,83,99110,1,0,0:0:0:0:
120,190,99304,5,0,0:0:0:0:
119,263,99400,1,0,0:0:0:0:
174,313,99497,1,0,0:0:0:0:
247,305,99594,1,0,0:0:0:0:
310,271,99691,1,0,0:0:0:0:
381,248,99787,1,0,0:0:0:0:
454,263,99884,1,0,0:0:0:0:
510,313,99981,1,0,0:0:0:0:
436,360,100078,5,0,0:0:0:0:
425,331,100142,1,0,0:0:0:0:
418,302,100207,1,0,0:0:0:0:
415,271,100271,1,0,0:0:0:0:
415,241,100336,1,0,0:0:0:0:
420,211,100400,1,0,0:0:0:0:
432,183,100465,2,0,L|469:169,5,30.3333319447836
499,125,100852,5,0,0:0:0:0:
128,79,102014,5,0,0:0:0:0:
158,106,102110,1,0,0:0:0:0:
166,147,102207,1,0,0:0:0:0:
147,183,102304,1,0,0:0:0:0:
116,211,102401,1,0,0:0:0:0:
97,247,102498,1,0,0:0:0:0:
105,288,102595,1,0,0:0:0:0:
135,315,102691,1,0,0:0:0:0:
169,290,102788,5,0,0:0:0:0:
205,270,102884,1,0,0:0:0:0:
247,268,102981,1,0,0:0:0:0:
285,284,103078,1,0,0:0:0:0:
312,317,103175,5,0,0:0:0:0:
299,277,103271,1,0,0:0:0:0:
305,235,103368,1,0,0:0:0:0:
328,201,103465,1,0,0:0:0:0:
353,167,103562,5,0,0:0:0:0:
311,169,103658,1,0,0:0:0:0:
270,158,103755,1,0,0:0:0:0:
236,135,103852,1,0,0:0:0:0:
212,64,103949,6,0,L|211:32,2,27.9999991455078
165,104,104143,2,0,L|175:74,2,27.9999991455078,2|0|2,0:0|0:0|0:0,0:0:0:0:
100,175,104336,6,0,L|44:170,1,41.9999987182618
150,245,104530,2,0,L|200:248,1,41.9999987182618
269,251,104723,1,0,0:0:0:0:
445,61,105110,5,0,0:0:0:0:
466,81,105174,1,0,0:0:0:0:
472,110,105239,1,0,0:0:0:0:
459,137,105303,1,0,0:0:0:0:
433,150,105368,1,0,0:0:0:0:
403,146,105432,1,0,0:0:0:0:
382,124,105497,6,0,L|374:76,5,30.3333319447836
323,193,105885,6,0,L|296:168,5,30.3333319447836
353,286,106272,6,0,P|328:300|310:310,5,30.3333319447836
435,322,106659,1,0,0:0:0:0:
434,291,106723,1,0,0:0:0:0:
434,261,106788,1,0,0:0:0:0:
433,231,106852,1,0,0:0:0:0:
433,200,106917,1,0,0:0:0:0:
433,170,106981,1,0,0:0:0:0:
477,123,107046,5,0,0:0:0:0:
141,231,107433,6,0,L|104:221,3,30.3333319447836
91,182,107723,1,0,0:0:0:0:
93,136,107820,1,0,0:0:0:0:
116,98,107916,1,0,0:0:0:0:
160,89,108013,1,0,0:0:0:0:
197,114,108110,1,0,0:0:0:0:
235,138,108207,5,0,0:0:0:0:
279,147,108303,1,0,0:0:0:0:
324,146,108400,1,0,0:0:0:0:
368,133,108497,1,0,0:0:0:0:
407,111,108594,6,0,L|421:81,3,30.3333319447836
362,225,108885,1,0,0:0:0:0:
350,268,108981,6,0,L|348:308,3,30.3333319447836
252,181,109272,5,0,0:0:0:0:
252,181,109368,1,0,0:0:0:0:
208,172,109464,1,0,0:0:0:0:
167,191,109561,1,0,0:0:0:0:
145,230,109658,1,0,0:0:0:0:
150,274,109755,5,0,0:0:0:0:
180,307,109851,1,0,0:0:0:0:
224,317,109948,1,0,0:0:0:0:
265,299,110045,1,0,0:0:0:0:
306,278,110143,5,0,0:0:0:0:
349,265,110239,1,0,0:0:0:0:
394,271,110336,1,0,0:0:0:0:
432,294,110433,1,0,0:0:0:0:
359,309,110530,5,0,0:0:0:0:
349,265,110626,1,0,0:0:0:0:
365,223,110723,1,0,0:0:0:0:
402,196,110820,1,0,0:0:0:0:
447,201,110917,5,0,0:0:0:0:
221,160,111304,5,0,0:0:0:0:
230,202,111400,1,0,0:0:0:0:
203,237,111497,1,0,0:0:0:0:
159,238,111594,1,0,0:0:0:0:
126,207,111691,1,0,0:0:0:0:
126,161,111787,1,0,0:0:0:0:
149,121,111885,1,0,0:0:0:0:
148,75,111981,1,0,0:0:0:0:
184,104,112078,5,0,0:0:0:0:
228,111,112174,1,0,0:0:0:0:
272,88,112272,1,0,0:0:0:0:
317,82,112368,1,0,0:0:0:0:
384,120,112465,5,0,0:0:0:0:
389,165,112561,1,0,0:0:0:0:
360,232,112659,1,0,0:0:0:0:
360,277,112755,1,0,0:0:0:0:
423,301,112852,5,0,0:0:0:0:
360,277,112948,1,0,0:0:0:0:
291,283,113045,1,0,0:0:0:0:
228,310,113142,1,0,0:0:0:0:
273,368,113239,6,0,P|299:312|235:240,1,136.499993751526
184,192,113626,6,0,L|192:160,3,30.3333319447836
256,112,113917,5,0,0:0:0:0:
256,112,114014,1,0,0:0:0:0:
300,107,114110,1,0,0:0:0:0:
343,123,114207,1,0,0:0:0:0:
373,156,114304,1,0,0:0:0:0:
400,192,114401,5,0,0:0:0:0:
441,200,114497,1,0,0:0:0:0:
465,164,114594,1,0,0:0:0:0:
440,130,114691,1,0,0:0:0:0:
398,149,114788,1,0,0:0:0:0:
273,323,114981,5,0,0:0:0:0:
256,307,115045,1,0,0:0:0:0:
243,288,115110,1,0,0:0:0:0:
233,268,115174,5,0,0:0:0:0:
226,246,115239,1,0,0:0:0:0:
223,224,115303,1,0,0:0:0:0:
223,201,115368,1,0,0:0:0:0:
227,179,115432,1,0,0:0:0:0:
235,157,115497,1,0,0:0:0:0:
261,142,115562,5,0,0:0:0:0:
221,164,115658,1,0,0:0:0:0:
177,172,115755,1,0,0:0:0:0:
132,166,115852,1,0,0:0:0:0:
99,135,115949,5,0,0:0:0:0:
102,180,116045,1,0,0:0:0:0:
91,224,116142,1,0,0:0:0:0:
66,262,116239,1,0,0:0:0:0:
22,275,116336,1,0,0:0:0:0:
313,259,116530,5,0,0:0:0:0:
343,261,116594,1,0,0:0:0:0:
372,270,116659,1,0,0:0:0:0:
398,284,116723,1,0,0:0:0:0:
78,131,116917,5,0,0:0:0:0:
78,131,117110,1,0,0:0:0:0:
313,259,117304,5,0,0:0:0:0:
333,280,117368,1,0,0:0:0:0:
350,306,117433,1,0,0:0:0:0:
360,334,117497,1,0,0:0:0:0:
230,56,117691,5,0,0:0:0:0:
230,56,117885,1,0,0:0:0:0:
313,259,118078,5,0,0:0:0:0:
301,287,118143,1,0,0:0:0:0:
275,302,118207,1,0,0:0:0:0:
245,293,118272,1,0,0:0:0:0:
216,283,118336,1,0,0:0:0:0:
186,279,118401,1,0,0:0:0:0:
156,282,118465,1,0,0:0:0:0:
127,291,118530,1,0,0:0:0:0:
100,306,118594,1,0,0:0:0:0:
78,326,118659,6,0,L|103:355,5,30.3333319447836
58,205,119046,2,0,L|33:180,5,30.3333319447836
259,361,119433,5,0,0:0:0:0:
429,111,119626,5,0,0:0:0:0:
424,81,119690,1,0,0:0:0:0:
406,57,119755,1,0,0:0:0:0:
379,44,119819,5,0,0:0:0:0:
349,45,119884,1,0,0:0:0:0:
323,61,119948,1,0,0:0:0:0:
308,86,120013,1,0,0:0:0:0:
306,116,120077,1,0,0:0:0:0:
319,144,120142,1,0,0:0:0:0:
342,163,120207,6,0,L|374:171,5,30.3333319447836
209,184,120594,2,0,L|164:176,5,30.3333319447836
477,230,120981,5,0,0:0:0:0:
246,53,121175,5,0,0:0:0:0:
230,81,121239,1,0,0:0:0:0:
222,113,121304,1,0,0:0:0:0:
220,145,121368,1,0,0:0:0:0:
224,178,121433,1,0,0:0:0:0:
233,209,121497,5,0,0:0:0:0:
248,237,121561,1,0,0:0:0:0:
256,269,121626,1,0,0:0:0:0:
258,301,121690,1,0,0:0:0:0:
254,334,121755,6,0,L|232:367,5,32.6666656697591
324,137,122143,2,0,L|353:101,5,32.6666656697591
36,40,122530,5,0,0:0:0:0:
56,83,122626,1,0,0:0:0:0:
95,113,122723,1,0,0:0:0:0:
142,122,122820,1,0,0:0:0:0:
191,113,122917,1,0,0:0:0:0:
236,97,123013,1,0,0:0:0:0:
284,105,123110,1,0,0:0:0:0:
322,135,123207,1,0,0:0:0:0:
340,180,123304,5,0,0:0:0:0:
334,229,123400,1,0,0:0:0:0:
305,268,123497,1,0,0:0:0:0:
261,288,123594,1,0,0:0:0:0:
214,274,123691,1,0,0:0:0:0:
169,254,123787,1,0,0:0:0:0:
120,255,123884,1,0,0:0:0:0:
76,276,123981,1,0,0:0:0:0:
49,317,124078,5,0,0:0:0:0:
256,226,124272,5,0,0:0:0:0:
256,213,124336,1,0,0:0:0:0:
256,201,124401,1,0,0:0:0:0:
256,189,124465,1,0,0:0:0:0:
256,177,124530,1,0,0:0:0:0:
256,164,124594,1,0,0:0:0:0:
256,152,124659,1,0,0:0:0:0:
256,140,124723,1,0,0:0:0:0:
256,128,124788,1,0,0:0:0:0:
276,101,124852,6,0,L|275:66,5,32.6666656697591
304,53,125239,2,0,L|303:11,5,32.6666656697591
328,211,125626,5,0,0:0:0:0:
312,275,132234,6,0,B|384:299|384:259|456:283,1,140
281,207,133319,2,0,P|264:218|248:240,1,43.75
200,342,133813,6,0,L|119:338,1,70
14,251,134602,2,0,L|93:253,1,70
404,148,135392,6,0,B|385:211|423:211|403:286,1,140
405,286,136971,5,0,0:0:0:0:
259,137,137760,6,0,P|257:101|262:61,1,70
261,68,138550,1,0,0:0:0:0:
336,89,138944,1,0,0:0:0:0:
318,17,139339,1,0,0:0:0:0:
261,68,139734,1,0,0:0:0:0:
380,167,140129,6,0,P|418:173|472:163,1,70
318,124,140918,2,0,P|305:162|308:191,1,70
315,291,141708,6,0,B|244:271|244:308|163:285,1,140
82,247,142793,6,0,P|53:252|30:261,2,46.6666666666667
347,80,143682,5,0,0:0:0:0:
359,192,144076,1,0,0:0:0:0:
436,129,144471,1,0,0:0:0:0:
352,303,144866,2,0,P|329:330|296:340,1,70
160,304,145655,2,0,P|186:332|218:340,1,70
224,192,146445,6,0,P|256:256|288:192,1,175
237,105,147629,5,0,0:0:0:0:
237,105,147827,1,0,0:0:0:0:
237,105,148024,6,0,P|196:109|140:132,1,70
34,296,148813,2,0,P|75:292|131:269,1,70
323,172,149603,6,0,B|311:231|311:231|312:257|312:257|300:318,1,140
287,291,150524,1,0,0:0:0:0:
270,274,150655,1,0,0:0:0:0:
249,265,150787,1,0,0:0:0:0:
226,262,150918,1,0,0:0:0:0:
203,268,151050,1,0,0:0:0:0:
186,279,151182,2,0,P|155:287|106:283,1,70
117,285,151972,1,0,0:0:0:0:
300,110,152366,6,0,P|329:121|358:125,1,52.5
351,125,152761,2,0,L|331:238,1,105
236,268,153551,5,0,0:0:0:0:
189,255,153682,1,0,0:0:0:0:
183,299,153814,1,0,0:0:0:0:
139,303,153945,1,0,0:0:0:0:
163,336,154077,1,0,0:0:0:0:
123,345,154208,1,0,0:0:0:0:
144,384,154340,6,0,L|131:240,1,140
348,111,155919,5,0,0:0:0:0:
289,235,156314,1,0,0:0:0:0:
289,236,156709,1,0,0:0:0:0:
223,164,157103,1,0,0:0:0:0:
326,316,157498,6,0,L|409:325,1,70
203,251,158288,2,0,L|111:269,1,70
236,135,159077,5,0,0:0:0:0:
296,219,159472,1,0,0:0:0:0:
413,28,159867,5,0,0:0:0:0:
389,139,160261,1,0,0:0:0:0:
119,363,160656,6,0,L|103:285,1,70
271,222,161446,5,0,0:0:0:0:
214,338,161841,1,0,0:0:0:0:
72,158,162235,5,0,0:0:0:0:
183,219,162630,1,0,0:0:0:0:
271,6,163025,5,0,0:0:0:0:
397,163,163420,6,0,P|403:195|397:226,1,52.5
400,214,163814,2,0,P|361:211|346:299,1,140
444,334,164999,1,0,0:0:0:0:
261,221,165393,6,0,P|222:211|186:209,1,70
17,302,166183,2,0,P|50:310|85:314,1,70
86,93,166972,5,0,0:0:0:0:
191,209,167367,1,0,0:0:0:0:
348,4,167762,5,0,0:0:0:0:
232,109,168157,1,0,0:0:0:0:
296,325,168551,5,0,0:0:0:0:
191,209,168946,1,0,0:0:0:0:
418,97,169341,6,0,P|410:133|394:164,1,70
310,343,170130,6,0,P|289:314|284:276,1,70
151,30,170920,6,0,P|212:44|256:116,1,140
204,227,172104,1,0,0:0:0:0:
303,156,172499,6,0,P|346:136|395:137,1,70
203,87,173289,2,0,P|160:67|111:68,1,70
256,227,174078,6,0,P|256:286|210:348,1,140
209,348,175262,1,0,0:0:0:0:
299,227,175657,6,0,P|306:286|278:336,2,83.9999974365235
213,145,176841,1,0,0:0:0:0:
302,72,177236,2,0,L|405:63,1,83.9999974365235
323,231,178026,6,0,L|320:318,1,83.9999974365235
215,215,178815,1,0,0:0:0:0:
292,315,179210,1,0,0:0:0:0:
350,108,179605,6,0,P|345:71|314:16,1,83.9999974365235
296,181,180394,2,0,P|345:195|401:192,1,83.9999974365235
142,268,181184,5,0,0:0:0:0:
179,137,181579,1,0,0:0:0:0:
69,164,181973,2,0,P|71:111|87:67,2,83.9999974365235
140,265,183158,1,0,0:0:0:0:
346,191,183552,6,0,P|387:205|426:254,1,83.9999974365235
256,296,184342,5,0,0:0:0:0:
240,118,184737,1,0,0:0:0:0:
152,201,185131,6,0,P|108:196|38:171,1,83.9999974365235
223,126,185921,5,0,0:0:0:0:
314,259,186316,1,0,0:0:0:0:
164,290,186710,6,0,L|57:298,1,83.9999974365235
256,151,187500,5,0,0:0:0:0:
339,159,187895,1,0,0:0:0:0:
403,213,188289,1,0,0:0:0:0:
411,296,188684,1,0,0:0:0:0:
259,214,189079,6,0,P|231:219|164:276,1,105.000004005432
204,118,190132,1,0,0:0:0:0:
204,118,190395,1,0,0:0:0:0:
259,214,190658,6,0,P|294:226|341:220,1,70
326,224,191842,1,0,0:0:0:0:
175,180,192237,6,0,P|118:184|75:219,1,105.000004005432
325,91,193421,1,0,0:0:0:0:
339,108,193552,1,0,0:0:0:0:
349,130,193684,1,0,0:0:0:0:
353,152,193816,6,0,P|353:197|337:235,1,70
160,191,194869,6,0,P|171:216|189:243,1,46.6666666666667
265,293,195395,2,0,L|266:309,1,11.6666666666667
128,331,195790,2,0,L|126:312,1,11.6666666666667
430,204,196579,6,0,L|446:206,1,11.6666666666667
362,114,196974,2,0,L|368:94,1,11.6666666666667
375,306,197369,2,0,L|373:319,1,11.6666666666667
167,197,198027,6,0,L|121:201,1,46.6666666666667
233,310,198553,2,0,L|233:292,1,11.6666666666667
257,79,198948,2,0,L|258:90,1,11.6666666666667
413,138,199606,6,0,L|357:149,1,46.6666666666667
195,227,200132,6,0,L|179:231,1,11.6666666666667
257,79,200527,2,0,L|274:75,1,11.6666666666667
352,346,200922,6,0,P|336:333|326:317,2,35.0000013351441
394,283,201317,2,0,P|396:261|403:239,2,35.0000013351441
470,273,201711,5,0,0:0:0:0:
204,62,202106,5,0,0:0:0:0:
188,83,202204,1,0,0:0:0:0:
166,97,202303,1,0,0:0:0:0:
141,104,202402,1,0,0:0:0:0:
116,110,202501,5,0,0:0:0:0:
90,116,202599,1,0,0:0:0:0:
69,131,202698,1,0,0:0:0:0:
53,152,202797,1,0,0:0:0:0:
42,176,202896,2,0,P|59:141|54:88,1,78.7500030040742
42,81,203290,5,0,0:0:0:0:
122,265,203685,5,0,0:0:0:0:
150,258,203783,1,0,0:0:0:0:
180,261,203882,1,0,0:0:0:0:
207,273,203981,1,0,0:0:0:0:
232,291,204080,1,0,0:0:0:0:
258,303,204178,1,0,0:0:0:0:
288,306,204277,1,0,0:0:0:0:
317,299,204376,1,0,0:0:0:0:
336,276,204475,5,0,0:0:0:0:
191,384,204672,1,0,0:0:0:0:
268,80,204869,5,0,0:0:0:0:
268,80,205067,2,0,L|262:125,2,29.7500005674362
206,199,205462,1,0,0:0:0:0:
299,269,205659,5,0,0:0:0:0:
264,109,205856,1,0,0:0:0:0:
229,199,206054,1,0,0:0:0:0:
249,220,206152,1,0,0:0:0:0:
274,235,206251,1,0,0:0:0:0:
303,243,206350,1,0,0:0:0:0:
328,228,206448,5,0,0:0:0:0:
356,219,206546,1,0,0:0:0:0:
385,218,206645,1,0,0:0:0:0:
414,227,206744,1,0,0:0:0:0:
438,244,206843,1,0,0:0:0:0:
457,266,206941,1,0,0:0:0:0:
467,294,207040,1,0,0:0:0:0:
466,323,207139,1,0,0:0:0:0:
448,347,207238,6,0,L|398:335,2,39.6666674232483
348,179,207633,2,0,L|375:139,2,39.6666674232483
152,274,208027,6,0,L|88:289,2,39.6666674232483
262,208,208422,1,0,0:0:0:0:
277,182,208520,1,0,0:0:0:0:
283,153,208619,1,0,0:0:0:0:
279,124,208718,1,0,0:0:0:0:
249,140,208817,5,0,0:0:0:0:
287,181,208915,1,0,0:0:0:0:
342,170,209014,1,0,0:0:0:0:
414,181,209113,1,0,0:0:0:0:
456,255,209212,2,0,P|455:281|449:314,2,39.6666674232483
353,314,209607,6,0,P|328:320|300:323,2,39.6666674232483
116,311,210001,1,2,0:0:0:0:
87,335,210099,1,0,0:0:0:0:
98,370,210198,1,0,0:0:0:0:
135,374,210297,1,0,0:0:0:0:
160,343,210396,5,0,0:0:0:0:
141,301,210495,1,0,0:0:0:0:
158,250,210593,1,0,0:0:0:0:
206,200,210692,1,0,0:0:0:0:
284,178,210791,2,0,L|330:187,2,39.6666674232483
150,87,211186,5,0,0:0:0:0:
304,288,211580,5,0,0:0:0:0:
288,136,211975,1,0,0:0:0:0:
232,328,212370,1,0,0:0:0:0:
384,96,212765,1,0,0:0:0:0:
192,200,213159,1,0,0:0:0:0:
396,296,213554,6,0,L|374:247,1,29.7500005674362
391,239,213752,2,0,L|369:190,1,29.7500005674362
390,184,213949,2,0,L|368:135,1,29.7500005674362
391,130,214146,2,0,L|369:81,1,29.7500005674362
312,78,214344,5,0,0:0:0:0:
304,82,214409,1,0,0:0:0:0:
297,86,214475,1,0,0:0:0:0:
289,90,214541,1,0,0:0:0:0:
281,94,214607,1,0,0:0:0:0:
273,98,214672,1,0,0:0:0:0:
266,101,214738,1,0,0:0:0:0:
258,105,214804,1,0,0:0:0:0:
250,108,214870,1,0,0:0:0:0:
241,111,214936,1,0,0:0:0:0:
233,113,215001,1,0,0:0:0:0:
225,116,215067,1,0,0:0:0:0:
217,118,215133,1,0,0:0:0:0:
208,120,215199,1,0,0:0:0:0:
200,122,215265,1,0,0:0:0:0:
192,124,215330,1,0,0:0:0:0:
183,126,215396,1,0,0:0:0:0:
175,127,215462,1,0,0:0:0:0:
166,128,215528,1,0,0:0:0:0:
158,129,215594,1,0,0:0:0:0:
149,130,215659,1,0,0:0:0:0:
140,131,215725,1,0,0:0:0:0:
132,131,215791,1,0,0:0:0:0:
123,131,215857,1,0,0:0:0:0:
115,131,215923,6,0,L|96:112,11,23.3333333333333
129,234,216712,2,0,L|146:251,11,23.3333333333333
208,84,217502,5,0,0:0:0:0:
212,91,217567,1,0,0:0:0:0:
217,99,217633,1,0,0:0:0:0:
223,106,217699,1,0,0:0:0:0:
229,113,217765,1,0,0:0:0:0:
236,119,217830,1,0,0:0:0:0:
243,125,217896,1,0,0:0:0:0:
250,130,217962,1,0,0:0:0:0:
258,135,218028,1,0,0:0:0:0:
266,139,218094,1,0,0:0:0:0:
274,143,218159,1,0,0:0:0:0:
283,147,218225,1,0,0:0:0:0:
291,151,218291,1,0,0:0:0:0:
299,155,218357,1,0,0:0:0:0:
307,160,218423,1,0,0:0:0:0:
314,165,218488,1,0,0:0:0:0:
322,171,218554,1,0,0:0:0:0:
329,177,218620,1,0,0:0:0:0:
335,183,218686,1,0,0:0:0:0:
341,190,218752,1,0,0:0:0:0:
346,197,218817,1,0,0:0:0:0:
352,205,218883,1,0,0:0:0:0:
356,213,218949,1,0,0:0:0:0:
361,221,219015,1,0,0:0:0:0:
364,230,219081,6,0,L|347:259,23,23.3333333333333
379,334,220660,5,0,0:0:0:0:
370,336,220725,1,0,0:0:0:0:
361,337,220791,1,0,0:0:0:0:
352,338,220857,1,0,0:0:0:0:
342,337,220923,1,0,0:0:0:0:
333,336,220988,1,0,0:0:0:0:
325,333,221054,1,0,0:0:0:0:
316,330,221120,1,0,0:0:0:0:
308,326,221186,1,0,0:0:0:0:
300,320,221252,1,0,0:0:0:0:
293,315,221317,1,0,0:0:0:0:
287,308,221383,1,0,0:0:0:0:
282,301,221449,1,0,0:0:0:0:
277,293,221515,1,0,0:0:0:0:
273,285,221581,1,0,0:0:0:0:
270,276,221646,1,0,0:0:0:0:
268,267,221712,1,0,0:0:0:0:
267,258,221778,1,0,0:0:0:0:
266,249,221844,1,0,0:0:0:0:
267,240,221910,1,0,0:0:0:0:
269,231,221975,1,0,0:0:0:0:
271,222,222041,1,0,0:0:0:0:
275,214,222107,1,0,0:0:0:0:
280,206,222173,1,0,0:0:0:0:
285,200,222239,6,0,L|290:169,11,23.3333333333333
362,102,223028,2,0,L|359:126,11,23.3333333333333
318,286,223818,5,0,0:0:0:0:
311,279,223883,1,0,0:0:0:0:
305,272,223949,1,0,0:0:0:0:
298,267,224015,1,0,0:0:0:0:
291,261,224081,1,0,0:0:0:0:
283,256,224146,1,0,0:0:0:0:
275,251,224212,1,0,0:0:0:0:
267,246,224278,1,0,0:0:0:0:
259,242,224344,1,0,0:0:0:0:
251,239,224410,1,0,0:0:0:0:
242,236,224475,1,0,0:0:0:0:
233,233,224541,1,0,0:0:0:0:
224,231,224607,1,0,0:0:0:0:
216,230,224673,1,0,0:0:0:0:
206,228,224739,1,0,0:0:0:0:
197,228,224804,1,0,0:0:0:0:
188,227,224870,1,0,0:0:0:0:
179,228,224936,1,0,0:0:0:0:
170,228,225002,1,0,0:0:0:0:
161,230,225068,1,0,0:0:0:0:
152,231,225133,1,0,0:0:0:0:
143,234,225199,1,0,0:0:0:0:
134,236,225265,1,0,0:0:0:0:
126,239,225331,1,0,0:0:0:0:
117,244,225397,6,0,L|103:270,23,23.3333333333333
208,136,226976,5,0,0:0:0:0:
216,133,227041,1,0,0:0:0:0:
225,131,227107,1,0,0:0:0:0:
234,129,227173,1,0,0:0:0:0:
243,128,227239,1,0,0:0:0:0:
252,127,227304,1,0,0:0:0:0:
261,127,227370,1,0,0:0:0:0:
271,127,227436,1,0,0:0:0:0:
280,127,227502,1,0,0:0:0:0:
289,128,227568,1,0,0:0:0:0:
298,129,227633,1,0,0:0:0:0:
307,130,227699,1,0,0:0:0:0:
316,132,227765,1,0,0:0:0:0:
324,135,227831,1,0,0:0:0:0:
333,138,227897,1,0,0:0:0:0:
342,141,227962,1,0,0:0:0:0:
350,144,228028,1,0,0:0:0:0:
358,148,228094,1,0,0:0:0:0:
366,153,228160,1,0,0:0:0:0:
374,157,228226,1,0,0:0:0:0:
382,162,228291,1,0,0:0:0:0:
389,168,228357,1,0,0:0:0:0:
396,173,228423,1,0,0:0:0:0:
403,179,228489,1,0,0:0:0:0:
408,184,228555,6,0,L|448:176,11,23.3333333333333
465,251,229344,2,0,L|500:258,11,23.3333333333333
258,346,230134,5,0,0:0:0:0:
254,337,230199,1,0,0:0:0:0:
252,328,230265,1,0,0:0:0:0:
250,319,230331,1,0,0:0:0:0:
248,310,230397,1,0,0:0:0:0:
248,301,230462,1,0,0:0:0:0:
247,292,230528,1,0,0:0:0:0:
248,283,230594,1,0,0:0:0:0:
249,274,230660,1,0,0:0:0:0:
250,265,230726,1,0,0:0:0:0:
251,256,230791,1,0,0:0:0:0:
253,247,230857,1,0,0:0:0:0:
254,238,230923,1,0,0:0:0:0:
255,229,230989,1,0,0:0:0:0:
256,220,231055,1,0,0:0:0:0:
257,210,231120,1,0,0:0:0:0:
257,201,231186,1,0,0:0:0:0:
257,192,231252,1,0,0:0:0:0:
255,186,231318,6,0,L|236:172,2,23.3333333333333
294,121,231516,2,0,L|304:100,2,23.3333333333333
146,288,231713,6,0,L|123:281,11,23.3333333333333
263,324,232503,2,0,L|285:330,11,23.3333333333333
221,242,233292,5,0,0:0:0:0:
219,233,233358,1,0,0:0:0:0:
217,224,233424,1,0,0:0:0:0:
215,216,233490,1,0,0:0:0:0:
213,207,233555,1,0,0:0:0:0:
211,198,233621,1,0,0:0:0:0:
209,189,233687,1,0,0:0:0:0:
207,181,233753,1,0,0:0:0:0:
205,171,233819,1,0,0:0:0:0:
203,162,233884,1,0,0:0:0:0:
201,153,233950,1,0,0:0:0:0:
199,144,234016,1,0,0:0:0:0:
196,136,234082,1,0,0:0:0:0:
194,127,234148,1,0,0:0:0:0:
192,118,234213,1,0,0:0:0:0:
190,110,234279,1,0,0:0:0:0:
188,100,234345,1,0,0:0:0:0:
186,91,234411,1,0,0:0:0:0:
184,82,234477,1,0,0:0:0:0:
182,74,234542,1,0,0:0:0:0:
180,65,234608,1,0,0:0:0:0:
178,56,234674,1,0,0:0:0:0:
176,47,234740,1,0,0:0:0:0:
174,39,234805,1,0,0:0:0:0:
190,55,234871,6,0,L|220:64,3,23.3333333333333
255,129,235134,2,0,L|282:114,3,23.3333333333333
349,143,235398,2,0,L|358:113,3,23.3333333333333
265,346,235661,6,0,L|235:337,3,23.3333333333333
202,270,235924,2,0,L|174:284,3,23.3333333333333
108,256,236188,2,0,L|99:286,3,23.3333333333333
254,194,236450,5,0,0:0:0:0:
254,189,236516,1,0,0:0:0:0:
258,192,236582,1,0,0:0:0:0:
254,194,236648,5,0,0:0:0:0:
254,189,236714,1,0,0:0:0:0:
258,192,236780,1,0,0:0:0:0:
254,194,236845,5,0,0:0:0:0:
254,189,236911,1,0,0:0:0:0:
258,192,236977,1,0,0:0:0:0:
253,195,237042,5,0,0:0:0:0:
253,188,237108,1,0,0:0:0:0:
260,192,237174,1,0,0:0:0:0:
253,196,237240,5,0,0:0:0:0:
253,187,237306,1,0,0:0:0:0:
261,192,237371,1,0,0:0:0:0:
252,197,237437,5,0,0:0:0:0:
252,186,237503,1,0,0:0:0:0:
262,192,237569,1,0,0:0:0:0:
251,199,237635,5,0,0:0:0:0:
251,185,237700,1,0,0:0:0:0:
264,192,237766,1,0,0:0:0:0:
251,200,237832,5,0,0:0:0:0:
251,183,237898,1,0,0:0:0:0:
265,192,237963,1,0,0:0:0:0:
250,201,238029,5,0,0:0:0:0:
250,182,238095,1,0,0:0:0:0:
266,192,238161,1,0,0:0:0:0:
249,202,238227,5,0,0:0:0:0:
249,181,238292,1,0,0:0:0:0:
268,192,238358,1,0,0:0:0:0:
249,203,238424,5,0,0:0:0:0:
249,180,238490,1,0,0:0:0:0:
269,192,238556,1,0,0:0:0:0:
248,204,238621,5,0,0:0:0:0:
248,179,238687,1,0,0:0:0:0:
270,192,238753,1,0,0:0:0:0:
247,206,238819,5,0,0:0:0:0:
247,178,238885,1,0,0:0:0:0:
272,192,238950,1,0,0:0:0:0:
247,207,239016,5,0,0:0:0:0:
247,176,239082,1,0,0:0:0:0:
274,191,239148,1,0,0:0:0:0:
247,207,239214,5,0,0:0:0:0:
247,176,239279,1,0,0:0:0:0:
274,191,239345,1,0,0:0:0:0:
246,208,239411,5,0,0:0:0:0:
246,175,239477,1,0,0:0:0:0:
274,191,239543,1,0,0:0:0:0:
190,276,239608,6,0,L|140:261,2,35
152,184,239904,2,0,L|108:172,2,35
228,117,240200,6,0,L|278:102,2,35
279,30,240496,2,0,L|323:18,2,35
400,247,240793,1,0,0:0:0:0:
414,278,240891,1,0,0:0:0:0:
418,313,240990,1,0,0:0:0:0:
409,346,241089,1,0,0:0:0:0:
389,375,241187,6,0,L|331:360,1,35
242,295,241385,2,0,L|275:303,1,35
407,302,241582,2,0,L|349:287,1,35
260,222,241780,2,0,L|293:230,1,35
416,180,241977,5,0,0:0:0:0:
396,168,242042,1,0,0:0:0:0:
382,149,242108,1,0,0:0:0:0:
376,127,242174,1,0,0:0:0:0:
379,104,242240,1,0,0:0:0:0:
391,84,242305,1,0,0:0:0:0:
409,70,242371,1,0,0:0:0:0:
431,64,242437,1,0,0:0:0:0:
454,67,242503,1,0,0:0:0:0:
474,79,242569,1,0,0:0:0:0:
488,97,242634,1,0,0:0:0:0:
495,119,242700,1,0,0:0:0:0:
491,142,242766,6,0,L|435:154,2,35
348,231,243062,6,0,L|382:223,2,35
143,239,243359,5,0,0:0:0:0:
130,206,243457,1,0,0:0:0:0:
133,171,243556,1,0,0:0:0:0:
167,123,243655,5,0,0:0:0:0:
170,88,243753,1,0,0:0:0:0:
157,55,243852,1,0,0:0:0:0:
89,18,243951,6,0,L|50:25,1,35
244,32,244148,2,0,L|283:21,1,35
240,237,244345,5,0,0:0:0:0:
252,269,244443,1,0,0:0:0:0:
252,304,244542,1,0,0:0:0:0:
238,336,244641,1,0,0:0:0:0:
207,319,244740,1,0,0:0:0:0:
219,286,244838,1,0,0:0:0:0:
248,267,244937,1,0,0:0:0:0:
282,268,245036,1,0,0:0:0:0:
315,282,245135,1,0,0:0:0:0:
346,296,245233,1,0,0:0:0:0:
380,302,245332,1,0,0:0:0:0:
415,297,245431,1,0,0:0:0:0:
443,276,245530,5,0,0:0:0:0:
337,102,245727,1,0,0:0:0:0:
228,220,245925,5,0,0:0:0:0:
212,251,246023,1,0,0:0:0:0:
205,285,246122,1,0,0:0:0:0:
208,319,246221,1,0,0:0:0:0:
178,302,246319,5,0,0:0:0:0:
148,283,246417,1,0,0:0:0:0:
127,255,246516,1,0,0:0:0:0:
117,222,246615,1,0,0:0:0:0:
118,186,246714,5,0,0:0:0:0:
111,152,246812,1,0,0:0:0:0:
93,122,246911,1,0,0:0:0:0:
67,99,247010,1,0,0:0:0:0:
34,86,247109,2,0,L|-11:100,1,35
142,128,247306,2,0,L|184:111,1,35
352,64,247504,6,0,L|385:73,5,23.3333333333333
453,122,247898,2,2,L|475:115,5,23.3333333333333
208,152,248293,6,0,L|241:161,5,23.3333333333333
309,210,248688,2,0,L|331:203,5,23.3333333333333
104,304,249083,5,0,0:0:0:0:
93,283,249148,1,0,0:0:0:0:
87,260,249214,1,0,0:0:0:0:
86,237,249280,1,0,0:0:0:0:
88,214,249346,1,0,0:0:0:0:
96,192,249411,1,0,0:0:0:0:
111,174,249477,6,0,L|105:125,1,35
45,30,249675,2,0,L|52:77,1,35
330,213,249872,5,0,0:0:0:0:
362,201,249970,1,0,0:0:0:0:
394,214,250069,1,0,0:0:0:0:
409,244,250168,1,0,0:0:0:0:
403,279,250267,1,0,0:0:0:0:
436,271,250365,1,0,0:0:0:0:
466,287,250464,1,0,0:0:0:0:
478,319,250563,1,0,0:0:0:0:
470,353,250662,5,0,0:0:0:0:
134,269,251056,1,0,0:0:0:0:
353,221,251451,2,0,L|372:176,3,35
395,169,251846,2,0,L|414:124,3,35
443,131,252241,6,0,B|376:103|376:103|435:61,1,140
387,244,253030,1,0,0:0:0:0:
284,195,253425,1,0,0:0:0:0:
207,312,253820,5,0,0:0:0:0:
184,307,253885,1,0,0:0:0:0:
161,303,253951,1,0,0:0:0:0:
138,299,254017,1,0,0:0:0:0:
115,295,254083,1,0,0:0:0:0:
92,290,254148,1,0,0:0:0:0:
68,286,254215,2,0,L|49:251,5,23.3333333333333
136,221,254609,5,0,0:0:0:0:
159,225,254674,1,0,0:0:0:0:
182,229,254740,1,0,0:0:0:0:
205,234,254806,1,0,0:0:0:0:
228,238,254872,1,0,0:0:0:0:
251,242,254937,1,0,0:0:0:0:
275,247,255004,2,0,L|286:267,5,23.3333333333333
284,291,255399,6,0,B|345:252|345:252|345:324,1,140
166,241,256188,5,0,0:0:0:0:
258,173,256583,1,0,0:0:0:0:
354,269,256978,5,0,0:0:0:0:
369,251,257043,1,0,0:0:0:0:
380,231,257109,1,0,0:0:0:0:
388,209,257175,1,0,0:0:0:0:
391,186,257241,1,0,0:0:0:0:
389,162,257306,1,0,0:0:0:0:
380,141,257373,6,0,L|358:112,5,23.3333333333333
277,248,257767,5,0,0:0:0:0:
288,268,257832,1,0,0:0:0:0:
303,285,257898,1,0,0:0:0:0:
322,299,257964,1,0,0:0:0:0:
343,309,258030,1,0,0:0:0:0:
366,314,258095,1,0,0:0:0:0:
390,312,258162,6,0,L|424:300,5,23.3333333333333
230,111,258557,5,0,0:0:0:0:
231,102,258622,1,0,0:0:0:0:
233,95,258688,1,0,0:0:0:0:
236,87,258754,1,0,0:0:0:0:
239,80,258820,1,0,0:0:0:0:
244,73,258885,1,0,0:0:0:0:
249,67,258951,1,0,0:0:0:0:
254,61,259017,1,0,0:0:0:0:
261,55,259083,1,0,0:0:0:0:
267,51,259149,1,0,0:0:0:0:
274,47,259214,1,0,0:0:0:0:
282,44,259280,1,0,0:0:0:0:
290,41,259346,1,0,0:0:0:0:
297,40,259412,1,0,0:0:0:0:
306,39,259478,1,0,0:0:0:0:
314,39,259543,1,0,0:0:0:0:
322,40,259609,1,0,0:0:0:0:
330,41,259675,1,0,0:0:0:0:
337,44,259741,1,0,0:0:0:0:
345,47,259807,1,0,0:0:0:0:
352,51,259872,1,0,0:0:0:0:
359,55,259938,1,0,0:0:0:0:
365,60,260004,1,0,0:0:0:0:
371,66,260070,1,0,0:0:0:0:
375,72,260136,6,0,L|368:105,1,23.3333333333333
380,118,260268,2,0,L|373:151,1,23.3333333333333
384,164,260399,2,0,L|377:197,1,23.3333333333333
389,210,260531,2,0,L|382:243,1,23.3333333333333
396,255,260662,2,0,L|389:288,1,23.3333333333333
401,301,260794,2,0,L|394:334,1,23.3333333333333
308,342,260926,5,0,0:0:0:0:
300,337,260991,1,0,0:0:0:0:
293,333,261057,1,0,0:0:0:0:
285,329,261123,1,0,0:0:0:0:
277,326,261189,1,0,0:0:0:0:
269,323,261254,1,0,0:0:0:0:
261,321,261320,1,0,0:0:0:0:
253,318,261386,1,0,0:0:0:0:
245,317,261452,1,0,0:0:0:0:
236,315,261518,1,0,0:0:0:0:
228,315,261583,1,0,0:0:0:0:
219,314,261649,1,0,0:0:0:0:
211,314,261715,6,0,L|187:293,47,23.3333333333333
159,161,264873,6,0,L|174:175,47,17.500000667572
159,161,268031,5,0,0:0:0:0:
252,112,268426,1,0,0:0:0:0:
349,150,268821,1,0,0:0:0:0:
351,255,269216,1,0,0:0:0:0:
247,322,269610,1,0,0:0:0:0:
330,155,270400,5,0,0:0:0:0:
408,84,270795,1,0,0:0:0:0:
402,188,271189,1,0,0:0:0:0:
185,139,271979,5,0,0:0:0:0:
175,348,272768,5,0,0:0:0:0:
78,267,273163,1,0,0:0:0:0:
125,150,273558,1,0,0:0:0:0:
251,158,273953,1,0,0:0:0:0:
281,281,274347,2,0,P|327:266|391:278,1,105.000004005432
382,273,275137,5,0,0:0:0:0:
349,167,275433,2,0,P|355:125|375:96,2,70.0000026702882
268,144,277506,5,0,0:0:0:0:
358,91,277703,1,0,0:0:0:0:
411,182,277900,1,0,0:0:0:0:
320,234,278098,1,0,0:0:0:0:
268,144,278295,5,0,0:0:0:0:
151,134,278492,1,0,0:0:0:0:
90,232,278690,1,0,0:0:0:0:
150,332,278887,1,0,0:0:0:0:
266,324,279085,1,0,0:0:0:0:
160,116,279874,6,0,P|117:115|72:136,2,70.0000026702882
221,178,280664,1,0,0:0:0:0:
394,60,281058,2,0,L|381:180,1,105.000004005432
382,164,281848,1,0,0:0:0:0:
311,337,282243,6,0,L|320:267,1,70
366,90,283295,6,0,P|405:111|428:130,2,70.0000026702882
250,384,284217,2,0,L|237:265,1,105.000004005432
238,279,285006,1,0,0:0:0:0:
259,0,285401,6,0,L|268:84,1,70
162,154,286388,5,0,0:0:0:0:
162,154,286586,1,0,0:0:0:0:
162,154,286783,1,0,0:0:0:0:
162,154,286980,6,0,P|238:162|278:222,1,140
274,209,287572,1,0,0:0:0:0:
387,68,287769,5,0,0:0:0:0:
443,184,287966,1,0,0:0:0:0:
125,68,288164,5,0,0:0:0:0:
69,184,288361,1,0,0:0:0:0:
256,342,288558,6,0,P|278:304|234:241,1,105
223,229,288953,2,0,P|183:192|179:122,1,115.50000352478
213,151,289348,2,0,P|181:168|182:88,1,125.999996154785
258,36,289743,5,0,0:0:0:0:
258,36,289940,2,0,L|316:52,1,45.4999979171754
335,74,290137,5,0,0:0:0:0:
323,89,290235,1,0,0:0:0:0:
317,108,290334,1,0,0:0:0:0:
314,127,290433,1,0,0:0:0:0:
317,146,290531,1,0,0:0:0:0:
324,164,290630,1,0,0:0:0:0:
335,180,290729,1,0,0:0:0:0:
350,192,290827,1,0,0:0:0:0:
366,200,290927,5,0,0:0:0:0:
325,179,291025,1,0,0:0:0:0:
280,178,291124,1,0,0:0:0:0:
239,197,291223,1,0,0:0:0:0:
201,219,291322,5,0,0:0:0:0:
161,240,291420,1,0,0:0:0:0:
116,241,291519,1,0,0:0:0:0:
75,222,291618,1,0,0:0:0:0:
112,196,291716,5,0,0:0:0:0:
129,219,291781,1,0,0:0:0:0:
130,249,291847,1,0,0:0:0:0:
115,274,291913,1,0,0:0:0:0:
87,286,291979,1,0,0:0:0:0:
58,280,292044,1,0,0:0:0:0:
38,256,292111,5,0,0:0:0:0:
66,244,292176,1,0,0:0:0:0:
96,242,292242,1,0,0:0:0:0:
125,248,292308,1,0,0:0:0:0:
152,263,292374,1,0,0:0:0:0:
173,284,292439,1,0,0:0:0:0:
197,304,292506,5,0,0:0:0:0:
219,324,292571,1,0,0:0:0:0:
246,337,292637,1,0,0:0:0:0:
276,342,292703,1,0,0:0:0:0:
306,340,292769,1,0,0:0:0:0:
335,330,292834,1,0,0:0:0:0:
311,309,292901,5,0,0:0:0:0:
311,279,292966,1,0,0:0:0:0:
331,257,293032,1,0,0:0:0:0:
360,253,293098,1,0,0:0:0:0:
385,270,293164,1,0,0:0:0:0:
392,298,293229,1,0,0:0:0:0:
378,325,293295,6,0,P|371:269|398:221,1,105.000004005432
430,190,293591,1,0,0:0:0:0:
471,157,293690,6,0,P|429:152|387:159,1,52.5000020027161
269,167,293887,2,0,P|306:176|335:178,1,52.5000020027161
88,105,294085,5,0,0:0:0:0:
62,150,294183,1,0,0:0:0:0:
58,202,294282,1,0,0:0:0:0:
76,250,294381,1,0,0:0:0:0:
113,287,294480,2,0,L|176:294,1,52.5000020027161
343,253,294677,2,0,L|267:246,1,52.5000020027161
183,89,294874,5,0,0:0:0:0:
224,119,294972,1,0,0:0:0:0:
276,123,295071,1,0,0:0:0:0:
322,98,295170,1,0,0:0:0:0:
347,53,295269,2,0,L|356:-14,1,52.5000020027161
290,248,295466,2,0,L|286:314,1,52.5000020027161
132,104,295664,5,0,0:0:0:0:
132,104,295762,1,0,0:0:0:0:
132,104,295861,2,0,L|194:85,1,52.5000020027161
285,123,296058,1,0,0:0:0:0:
285,123,296157,1,0,0:0:0:0:
285,123,296256,2,0,L|357:99,1,52.5000020027161
272,384,296453,5,0,0:0:0:0:
256,333,296551,1,0,0:0:0:0:
241,283,296650,1,0,0:0:0:0:
225,233,296749,1,0,0:0:0:0:
210,183,296848,2,0,L|128:175,1,52.5000020027161
323,287,297045,2,0,L|384:289,1,52.5000020027161
304,33,297243,6,0,P|298:79|300:107,1,52.5000020027161
357,189,297440,2,0,P|363:143|361:115,1,52.5000020027161
282,52,297637,2,0,P|276:98|278:126,1,52.5000020027161
335,208,297834,2,0,P|341:162|339:134,1,52.5000020027161
208,200,298032,5,0,0:0:0:0:
200,241,298131,1,0,0:0:0:0:
159,274,298230,1,0,0:0:0:0:
107,282,298328,1,0,0:0:0:0:
58,261,298427,2,0,P|24:271|-10:300,1,52.5000020027161
173,350,298624,2,0,P|200:339|234:303,1,52.5000020027161
204,52,298822,5,0,0:0:0:0:
232,95,298920,1,0,0:0:0:0:
275,125,299019,1,0,0:0:0:0:
326,137,299118,1,0,0:0:0:0:
377,128,299216,2,0,P|397:118|429:83,1,52.5000020027161
353,0,299414,2,0,P|355:32|366:68,1,52.5000020027161
421,285,299611,5,0,0:0:0:0:
463,258,299709,1,0,0:0:0:0:
508,280,299808,1,0,0:0:0:0:
512,330,299907,1,0,0:0:0:0:
471,360,300006,2,0,P|442:360|418:354,1,52.5000020027161
283,310,300203,2,0,P|309:309|335:315,1,52.5000020027161
219,367,300401,5,0,0:0:0:0:
193,322,300499,1,0,0:0:0:0:
200,271,300598,1,0,0:0:0:0:
236,234,300697,1,0,0:0:0:0:
288,227,300795,2,0,P|314:227|360:213,1,52.5000020027161
469,150,300993,2,0,P|433:150|376:166,1,52.5000020027161
140,308,301190,5,0,0:0:0:0:
140,308,301289,1,0,0:0:0:0:
140,308,301387,2,0,L|140:244,1,52.5000020027161
89,186,301585,5,0,0:0:0:0:
89,186,301684,1,0,0:0:0:0:
89,186,301782,2,0,L|89:122,1,52.5000020027161
316,8,301980,5,0,0:0:0:0:
361,33,302078,1,0,0:0:0:0:
406,59,302177,1,0,0:0:0:0:
409,111,302276,1,0,0:0:0:0:
410,163,302374,2,0,L|413:247,1,52.5000020027161
336,343,302572,2,0,L|334:269,1,52.5000020027161
110,143,302769,6,0,P|135:138|162:137,1,52.5000020027161
74,218,302966,2,0,P|49:224|23:226,1,52.5000020027161
86,126,303163,2,0,P|111:121|138:120,1,52.5000020027161
51,202,303360,2,0,P|26:208|0:210,1,52.5000020027161
235,21,303558,5,0,0:0:0:0:
284,34,303656,1,0,0:0:0:0:
319,73,303755,1,0,0:0:0:0:
326,124,303854,1,0,0:0:0:0:
304,171,303953,2,0,L|230:186,1,52.5000020027161
399,226,304151,2,0,L|469:209,1,52.5000020027161
144,307,304348,5,0,0:0:0:0:
99,280,304446,1,0,0:0:0:0:
77,233,304545,1,0,0:0:0:0:
86,183,304644,1,0,0:0:0:0:
125,218,304743,5,0,0:0:0:0:
176,226,304842,1,0,0:0:0:0:
222,204,304941,1,0,0:0:0:0:
248,159,305039,1,0,0:0:0:0:
242,107,305137,2,0,L|224:54,1,52.5000020027161
142,70,305335,2,0,L|100:9,1,52.5000020027161
19,12,305532,6,0,L|14:-5,12,13.125000500679
179,204,305927,6,0,P|208:202|233:206,1,52.5000020027161
288,261,306124,1,0,0:0:0:0:
297,248,306223,2,0,P|308:221|302:180,1,52.5000020027161
211,273,306420,5,0,0:0:0:0:
217,287,306519,2,0,P|258:328|334:324,1,105.000004005432
202,100,306815,6,0,P|162:104|122:117,1,52.5000020027161
271,64,307012,1,0,0:0:0:0:
261,51,307111,2,0,P|230:29|191:22,1,52.5000020027161
337,74,307308,2,0,P|341:47|321:-1,1,52.5000020027161
437,279,307506,6,0,P|471:305|489:317,1,52.5000020027161
361,248,307703,1,0,0:0:0:0:
359,263,307802,2,0,P|360:300|372:329,1,52.5000020027161
307,183,307999,1,0,0:0:0:0:
320,175,308098,2,0,P|386:168|436:201,1,105.000004005432
103,0,308394,6,0,P|94:26|88:68,1,52.5000020027161
129,118,308591,1,0,0:0:0:0:
131,130,308690,2,0,P|125:155|117:180,1,52.5000020027161
146,248,308887,2,0,P|110:255|74:248,1,52.5000020027161
286,381,309085,6,0,P|325:385|352:383,1,52.5000020027161
452,310,309282,1,0,0:0:0:0:
436,314,309381,2,0,P|397:318|370:316,1,52.5000020027161
258,235,309578,1,0,0:0:0:0:
274,230,309677,2,0,P|330:227|391:233,1,105.000004005432
152,81,309973,6,2,P|170:107|180:145,1,52.5000020027161
117,0,310170,1,0,0:0:0:0:
106,12,310269,2,0,P|75:26|32:26,1,52.5000020027161
6,13,310466,2,0,P|38:21|80:42,1,52.5000020027161
265,317,310664,6,0,P|254:274|224:237,1,52.5000020027161
184,257,310861,1,0,0:0:0:0:
198,263,310960,2,0,P|224:269|259:264,1,52.5000020027161
320,212,311157,1,0,0:0:0:0:
335,211,311256,2,0,P|371:262|326:292,1,105.000004005432
255,111,311552,6,0,L|254:49,1,52.5000020027161
78,225,311749,1,0,0:0:0:0:
90,234,311848,2,0,P|120:247|161:252,1,52.5000020027161
294,324,312045,2,0,P|270:335|244:341,1,52.5000020027161
405,91,312243,6,0,P|420:135|417:167,1,52.5000020027161
280,79,312440,1,0,0:0:0:0:
281,63,312539,2,0,P|287:32|298:6,1,52.5000020027161
338,133,312736,1,0,0:0:0:0:
327,144,312835,2,0,P|273:158|214:125,1,105.000004005432
129,95,313131,6,0,P|93:105|65:127,1,52.5000020027161
92,231,313328,1,0,0:0:0:0:
104,221,313427,2,0,P|123:194|121:157,1,52.5000020027161
73,306,313624,2,0,P|49:295|29:277,1,52.5000020027161
319,198,313822,6,0,P|356:206|386:220,1,52.5000020027161
386,289,314019,1,0,0:0:0:0:
400,284,314118,2,0,P|424:267|447:234,1,52.5000020027161
508,174,314315,5,0,0:0:0:0:
512,158,314414,2,0,L|510:294,1,105.000004005432
153,162,314710,6,0,L|153:108,1,52.5000020027161
74,252,314907,1,0,0:0:0:0:
84,263,315006,2,0,L|157:265,1,52.5000020027161
201,336,315203,2,0,L|129:335,1,52.5000020027161
429,201,315401,6,0,P|426:163|432:130,1,52.5000020027161
460,66,315598,1,0,0:0:0:0:
465,51,315697,2,0,P|469:28|465:-8,1,52.5000020027161
350,177,315894,5,0,0:0:0:0:
347,192,315993,2,0,P|363:251|396:275,1,105.000004005432
120,334,316289,6,0,P|87:339|48:347,1,52.5000020027161
200,384,316486,1,0,0:0:0:0:
215,384,316585,2,0,P|245:377|279:367,1,52.5000020027161
324,271,316782,2,0,P|294:278|260:288,1,52.5000020027161
220,50,316980,6,0,P|252:55|287:74,1,52.5000020027161
129,113,317177,1,0,0:0:0:0:
113,115,317276,2,0,P|87:111|62:102,1,52.5000020027161
25,26,317473,1,0,0:0:0:0:
33,12,317572,6,0,P|64:91|-16:194,1,210.000008010865
184,239,318065,5,0,0:0:0:0:
184,239,318164,2,0,P|212:250|249:283,1,52.5000020027161
311,255,318361,6,0,P|306:296|280:331,1,52.5000020027161
262,143,318558,6,0,P|294:65|376:50,1,157.500006008148
344,125,318953,2,0,P|295:105|275:60,1,105.000004005432
402,61,319249,2,0,P|421:94|424:132,1,52.5000020027161
439,194,319447,5,0,0:0:0:0:
439,194,319545,2,0,P|412:216|367:227,1,52.5000020027161
317,217,319743,2,0,P|324:252|341:276,1,52.5000020027161
252,160,319940,2,0,P|260:134|252:84,1,52.5000020027161
192,51,320137,6,0,P|172:111|181:211,1,157.500006008148
220,265,320532,2,0,P|160:253|103:270,1,105.000004005432
76,326,320828,2,0,P|111:336|150:330,1,52.5000020027161
340,210,321026,5,0,0:0:0:0:
340,210,321124,2,0,P|342:174|337:133,1,52.5000020027161
306,278,321322,2,0,P|339:285|377:281,1,52.5000020027161
463,227,321519,2,0,P|436:227|411:233,1,52.5000020027161
229,157,321716,6,0,P|144:151|81:203,1,157.500006008148
18,239,322111,2,0,P|59:270|124:265,1,105.000004005432
169,224,322407,6,0,P|184:260|182:294,1,52.5000020027161
318,291,322605,5,0,0:0:0:0:
336,246,322703,1,0,0:0:0:0:
380,221,322801,1,0,0:0:0:0:
427,241,322900,1,0,0:0:0:0:
440,290,322999,1,0,0:0:0:0:
411,331,323097,1,0,0:0:0:0:
360,333,323196,1,0,0:0:0:0:
313,307,323295,6,0,P|234:283|146:307,1,157.500006008148
104,349,323690,2,0,P|84:296|111:239,1,105.000004005432
159,204,323986,6,0,P|173:182|179:138,1,52.5000020027161
130,81,324183,5,0,0:0:0:0:
180,67,324282,1,0,0:0:0:0:
231,79,324381,1,0,0:0:0:0:
276,105,324480,1,0,0:0:0:0:
325,122,324578,1,0,0:0:0:0:
377,119,324677,1,0,0:0:0:0:
423,95,324776,1,0,0:0:0:0:
431,44,324874,6,0,L|421:218,1,157.500006008148
348,223,325269,6,0,P|406:273|443:274,1,105.000004005432
492,320,325565,2,0,P|461:344|432:350,1,52.5000020027161
168,333,325762,5,0,0:0:0:0:
168,333,325861,2,0,L|154:395,1,52.5000020027161
125,274,326058,2,0,L|87:327,1,52.5000020027161
119,201,326256,2,0,L|55:226,1,52.5000020027161
378,325,326453,6,0,L|350:153,1,157.500006008148
380,93,326848,6,0,P|330:91|282:127,1,105.000004005432
455,107,327144,2,0,P|452:72|434:28,1,52.5000020027161
170,75,327341,5,0,0:0:0:0:
170,75,327440,2,0,L|188:142,1,52.5000020027161
132,183,327637,2,0,L|119:255,1,52.5000020027161
183,293,327835,2,0,L|201:362,1,52.5000020027161
164,20,328032,6,0,L|324:56,1,157.500006008148
365,118,328427,6,0,P|398:68|374:2,1,105.000004005432
293,126,328723,2,0,P|308:166|341:191,1,52.5000020027161
434,365,328920,5,0,0:0:0:0:
434,365,329019,1,0,0:0:0:0:
434,365,329118,1,0,0:0:0:0:
434,365,329216,2,0,L|355:356,1,52.5000020027161
185,260,329414,2,0,L|254:273,1,52.5000020027161
336,119,329611,5,0,0:0:0:0:
329,68,329709,1,0,0:0:0:0:
357,25,329808,1,0,0:0:0:0:
407,13,329907,1,0,0:0:0:0:
452,38,330005,1,0,0:0:0:0:
469,86,330104,1,0,0:0:0:0:
450,133,330203,1,0,0:0:0:0:
403,155,330301,1,0,0:0:0:0:
356,180,330401,5,0,0:0:0:0:
323,220,330499,1,0,0:0:0:0:
313,271,330598,1,0,0:0:0:0:
328,321,330697,1,0,0:0:0:0:
337,270,330795,2,0,P|334:245|315:210,1,52.5000020027161
250,324,330993,2,0,P|259:353|282:386,1,52.5000020027161
157,177,331190,6,0,L|-31:161,2,157.500006008148
235,152,331881,5,0,0:0:0:0:
235,152,331980,2,0,L|208:287,1,105.000004005432
265,369,332374,2,0,L|277:301,1,52.5000020027161
318,31,332572,2,0,L|308:100,1,52.5000020027161
462,229,332769,6,0,L|293:216,2,157.500006008148
247,344,333460,5,0,0:0:0:0:
247,344,333558,2,0,L|234:222,1,105.000004005432
263,35,333953,5,0,0:0:0:0:
192,158,334151,1,0,0:0:0:0:
342,175,334348,5,0,0:0:0:0:
386,199,334446,1,0,0:0:0:0:
391,249,334545,1,0,0:0:0:0:
352,281,334644,1,0,0:0:0:0:
294,255,334743,1,2,0:0:0:0:
231,251,334841,1,0,0:0:0:0:
160,270,334940,1,0,0:0:0:0:
116,323,335039,1,0,0:0:0:0:
176,367,335137,5,0,0:0:0:0:
139,315,335236,1,0,0:0:0:0:
133,266,335335,1,0,0:0:0:0:
150,224,335433,1,0,0:0:0:0:
178,192,335532,1,0,0:0:0:0:
223,167,335630,1,0,0:0:0:0:
274,173,335729,1,0,0:0:0:0:
313,208,335828,1,0,0:0:0:0:
313,192,335927,5,0,0:0:0:0:
315,176,336026,1,0,0:0:0:0:
317,160,336124,1,0,0:0:0:0:
319,144,336223,1,0,0:0:0:0:
321,128,336322,1,0,0:0:0:0:
348,172,336420,1,0,0:0:0:0:
399,184,336519,1,0,0:0:0:0:
240,231,336914,5,0,0:0:0:0:
198,260,337012,1,0,0:0:0:0:
164,300,337111,1,0,0:0:0:0:
153,249,337209,1,0,0:0:0:0:
119,209,337308,1,0,0:0:0:0:
70,192,337407,1,0,0:0:0:0:
82,246,337506,6,0,L|100:108,1,105.000004005432
125,62,337802,2,2,P|174:102|235:109,1,105.000004005432,0|0,0:0|0:0,0:0:0:0:
292,74,338098,2,0,L|260:200,1,105.000004005432
207,240,338394,6,0,P|252:247|329:283,1,105.000004005432
349,336,338690,1,0,0:0:0:0:
352,143,338887,1,0,0:0:0:0:
211,328,339085,6,0,P|151:304|119:244,1,105.000004005432
166,211,339381,2,0,L|56:166,1,105.000004005432
120,112,339677,2,0,P|178:120|229:162,1,105.000004005432
249,218,339973,2,0,L|326:130,1,105.000004005432
318,119,340269,1,0,0:0:0:0:
390,215,340466,1,0,0:0:0:0:
235,312,340664,5,0,0:0:0:0:
185,297,340762,1,0,0:0:0:0:
153,257,340861,1,0,0:0:0:0:
151,205,340960,1,0,0:0:0:0:
184,114,341058,5,0,0:0:0:0:
235,122,341156,1,0,0:0:0:0:
276,153,341255,1,0,0:0:0:0:
299,200,341354,1,0,0:0:0:0:
335,288,341453,5,0,0:0:0:0:
386,282,341551,1,0,0:0:0:0:
427,251,341650,1,0,0:0:0:0:
445,202,341749,1,0,0:0:0:0:
398,117,341848,6,0,L|356:106,3,26.2500010013581
283,141,342045,2,0,L|237:143,3,26.2500010013581
161,114,342243,5,0,0:0:0:0:
246,12,342440,5,0,0:0:0:0:
281,71,342538,1,0,0:0:0:0:
283,141,342637,1,0,0:0:0:0:
252,202,342736,1,0,0:0:0:0:
208,256,342835,1,0,0:0:0:0:
201,322,342933,1,0,0:0:0:0:
258,356,343032,2,0,L|293:352,2,35.0000013351441
325,297,343229,1,0,0:0:0:0:
368,305,343328,1,0,0:0:0:0:
407,325,343427,1,0,0:0:0:0:
380,354,343525,1,0,0:0:0:0:
341,373,343624,1,0,0:0:0:0:
297,376,343723,1,0,0:0:0:0:
258,356,343822,5,0,0:0:0:0:
309,20,344019,6,0,L|302:91,1,52.5000020027161
309,20,344414,5,0,0:0:0:0:
191,182,344611,1,0,0:0:0:0:
309,20,344808,1,0,0:0:0:0:
289,292,345006,1,0,0:0:0:0:
309,20,345203,1,0,0:0:0:0:
397,187,345401,1,0,0:0:0:0:
85,204,345598,6,2,L|27:207,1,52.5000020027161,0|0,0:0|0:0,0:0:0:0:
32,206,345993,1,0,0:0:0:0:
170,280,346190,1,0,0:0:0:0:
32,206,346387,1,0,0:0:0:0:
291,192,346585,1,0,0:0:0:0:
32,206,346782,1,0,0:0:0:0:
166,117,346980,1,0,0:0:0:0:
252,303,347177,6,0,L|281:371,1,52.5000020027161
272,351,347572,1,0,0:0:0:0:
246,165,347769,1,0,0:0:0:0:
272,351,347966,1,0,0:0:0:0:
329,89,348164,1,0,0:0:0:0:
272,351,348361,1,0,0:0:0:0:
211,10,348558,1,0,0:0:0:0:
461,263,348756,6,0,L|522:273,1,52.5000020027161
512,271,349151,1,0,0:0:0:0:
273,307,349348,6,0,P|240:308|189:299,1,52.5000020027161
53,222,349545,2,0,P|79:222|123:230,1,52.5000020027161
277,159,349743,2,0,L|319:167,1,26.2500010013581
297,139,349841,2,0,L|332:146,1,26.2500010013581
327,117,349940,2,0,L|369:125,1,26.2500010013581
347,97,350038,2,0,L|382:104,1,26.2500010013581
379,76,350137,1,0,0:0:0:0:
338,308,350335,5,0,0:0:0:0:
288,323,350433,1,0,0:0:0:0:
236,314,350532,1,0,0:0:0:0:
194,285,350631,1,0,0:0:0:0:
168,239,350729,1,0,0:0:0:0:
122,264,350828,1,0,0:0:0:0:
69,257,350927,1,0,0:0:0:0:
272,192,351124,5,0,0:0:0:0:
321,207,351223,1,0,0:0:0:0:
367,185,351322,1,0,0:0:0:0:
387,138,351420,1,0,0:0:0:0:
371,89,351519,1,0,0:0:0:0:
326,64,351618,1,0,0:0:0:0:
276,76,351716,1,0,0:0:0:0:
114,46,351914,5,0,0:0:0:0:
138,91,352012,1,0,0:0:0:0:
144,143,352111,1,0,0:0:0:0:
129,193,352210,1,0,0:0:0:0:
97,234,352308,1,0,0:0:0:0:
53,205,352407,1,0,0:0:0:0:
49,151,352505,1,0,0:0:0:0:
238,105,352703,5,0,0:0:0:0:
277,139,352802,1,0,0:0:0:0:
329,138,352900,1,0,0:0:0:0:
334,190,352999,1,0,0:0:0:0:
367,230,353098,1,0,0:0:0:0:
418,242,353197,1,0,0:0:0:0:
468,231,353295,6,0,P|486:212|497:167,1,52.5000020027161
423,157,353493,2,0,P|430:125|425:80,1,52.5000020027161
354,39,353690,2,0,P|350:80|355:115,1,52.5000020027161
276,121,353887,2,0,P|292:148|336:175,1,52.5000020027161
413,250,354085,6,0,L|390:264,1,26.2500010013581
413,260,354183,2,0,L|390:274,1,26.2500010013581
414,271,354282,2,0,L|391:285,1,26.2500010013581
414,281,354380,2,0,L|391:295,1,26.2500010013581
414,281,354480,2,0,L|391:295,1,26.2500010013581
414,291,354578,2,0,L|391:305,1,26.2500010013581
415,302,354677,2,0,L|392:316,1,26.2500010013581
415,312,354775,2,0,L|392:326,1,26.2500010013581
415,324,354874,5,0,0:0:0:0:
170,162,355664,5,0,0:0:0:0:
320,88,356453,1,0,0:0:0:0:
272,288,357243,6,0,P|216:272|112:296,1,157.500006008148
120,291,357637,2,0,P|103:239|130:286,1,157.500006008148
199,208,358032,5,0,0:0:0:0:
152,104,358230,1,0,0:0:0:0:
104,80,358328,1,0,0:0:0:0:
51,79,358427,5,0,0:0:0:0:
246,136,358624,1,0,0:0:0:0:
246,136,358723,1,0,0:0:0:0:
246,136,358822,6,0,L|300:91,1,52.5000020027161
415,80,359019,2,0,L|359:128,1,52.5000020027161
222,360,359216,2,0,L|214:299,1,52.5000020027161
283,197,359414,2,0,L|297:285,1,52.5000020027161
62,117,359611,6,0,P|78:56|182:55,1,157.500006008148
189,85,360006,1,0,0:0:0:0:
234,110,360105,1,0,0:0:0:0:
285,102,360203,2,0,P|306:88|321:41,1,52.5000020027161
182,189,360401,6,0,P|177:209|180:261,1,52.5000020027161
329,188,360598,2,0,P|335:214|335:240,1,52.5000020027161
113,121,360795,2,0,P|102:154|99:189,1,52.5000020027161
399,121,360992,2,0,P|408:145|412:171,1,52.5000020027161
292,321,361190,6,0,P|357:343|446:342,1,157.500006008148
397,319,361585,5,0,0:0:0:0:
370,273,361683,1,0,0:0:0:0:
326,243,361782,2,0,P|283:238|228:245,1,52.5000020027161
125,331,361980,6,0,P|114:308|105:262,1,52.5000020027161
120,84,362177,2,0,P|138:125|143:158,1,52.5000020027161
271,314,362374,2,0,P|236:304|188:277,1,52.5000020027161
400,167,362572,2,0,P|430:177|465:200,1,52.5000020027161
255,208,362769,6,0,P|251:129|276:45,1,157.500006008148
313,23,363164,1,0,0:0:0:0:
174,144,363361,2,0,L|120:151,1,52.5000020027161
47,130,363558,5,0,0:0:0:0:
82,168,363656,1,0,0:0:0:0:
95,218,363755,1,0,0:0:0:0:
85,269,363854,1,0,0:0:0:0:
45,303,363953,1,0,0:0:0:0:
95,288,364051,1,0,0:0:0:0:
147,292,364150,1,0,0:0:0:0:
194,315,364249,1,0,0:0:0:0:
237,346,364348,2,0,P|280:357|315:351,1,52.5000020027161
363,202,364545,5,0,0:0:0:0:
375,253,364644,1,0,0:0:0:0:
413,288,364743,1,0,0:0:0:0:
434,240,364841,1,0,0:0:0:0:
439,188,364940,1,0,0:0:0:0:
428,136,365039,1,0,0:0:0:0:
397,93,365137,2,0,P|356:89|320:95,1,52.5000020027161
161,288,365335,5,0,0:0:0:0:
110,281,365433,1,0,0:0:0:0:
79,240,365532,1,0,0:0:0:0:
87,190,365631,1,0,0:0:0:0:
129,161,365729,1,0,0:0:0:0:
180,171,365828,1,0,0:0:0:0:
222,202,365927,2,0,P|251:210|292:204,1,52.5000020027161
473,58,366124,5,0,0:0:0:0:
456,108,366223,1,0,0:0:0:0:
489,148,366322,1,0,0:0:0:0:
442,123,366420,1,0,0:0:0:0:
390,118,366519,1,0,0:0:0:0:
340,132,366618,1,0,0:0:0:0:
299,164,366716,2,0,P|282:186|267:237,1,52.5000020027161
385,335,366914,5,0,0:0:0:0:
335,309,367012,1,0,0:0:0:0:
278,316,367111,1,0,0:0:0:0:
224,331,367209,1,0,0:0:0:0:
168,329,367308,1,0,0:0:0:0:
115,311,367407,1,0,0:0:0:0:
70,278,367506,2,0,L|74:205,1,56
163,83,367703,5,0,0:0:0:0:
207,122,367802,1,0,0:0:0:0:
237,173,367901,1,0,0:0:0:0:
264,120,367999,1,0,0:0:0:0:
308,81,368097,1,0,0:0:0:0:
366,71,368196,1,0,0:0:0:0:
420,94,368295,2,0,P|440:109|468:152,1,59.5000011348725
223,337,368493,5,0,0:0:0:0:
161,326,368591,1,0,0:0:0:0:
112,287,368690,1,0,0:0:0:0:
87,230,368789,1,0,0:0:0:0:
91,168,368887,1,0,0:0:0:0:
125,116,368986,1,0,0:0:0:0:
179,85,369085,6,0,L|252:89,1,62.9999980773926
423,188,369282,2,0,L|324:187,1,62.9999980773926
278,335,369480,6,0,L|282:258,1,62.9999980773926
359,26,369677,2,0,L|348:121,1,62.9999980773926
273,149,369874,6,0,L|236:165,7,31.4999990386963
150,206,370269,6,0,L|189:228,1,31.4999990386963
189,250,370368,2,0,L|233:249,1,31.4999990386963
243,270,370466,2,0,L|281:247,1,31.4999990386963
301,261,370565,2,0,L|323:222,1,31.4999990386963
368,176,370664,5,0,0:0:0:0:
375,113,370762,1,0,0:0:0:0:
435,93,370861,1,0,0:0:0:0:
483,133,370960,1,0,0:0:0:0:
424,207,371058,5,0,0:0:0:0:
368,176,371156,1,0,0:0:0:0:
308,160,371255,1,0,0:0:0:0:
245,160,371354,1,0,0:0:0:0:
170,214,371453,5,0,0:0:0:0:
166,197,371518,1,0,0:0:0:0:
163,181,371584,1,0,0:0:0:0:
162,164,371650,1,0,0:0:0:0:
162,147,371716,1,0,0:0:0:0:
164,130,371781,1,0,0:0:0:0:
189,95,371848,6,0,P|173:99|136:99,2,41.9999987182618
26,78,372045,2,0,P|42:74|79:74,2,41.9999987182618
111,238,372243,5,0,0:0:0:0:
167,214,372341,1,0,0:0:0:0:
231,214,372440,1,0,0:0:0:0:
287,246,372539,1,0,0:0:0:0:
337,283,372637,1,0,0:0:0:0:
397,264,372736,1,0,0:0:0:0:
414,203,372835,1,0,0:0:0:0:
366,162,372933,1,0,0:0:0:0:
304,184,373032,6,0,P|292:211|291:253,1,62.9999980773926
195,294,373230,2,0,P|226:319|267:340,1,62.9999980773926
132,104,373427,1,0,0:0:0:0:
56,125,373525,1,0,0:0:0:0:
55,204,373624,1,0,0:0:0:0:
130,228,373723,1,0,0:0:0:0:
187,170,373822,6,0,P|219:166|268:174,1,62.9999980773926
405,235,374019,2,0,P|373:239|324:231,1,62.9999980773926
186,91,374216,2,0,P|218:87|267:95,1,62.9999980773926
404,156,374413,2,0,P|372:160|323:152,1,62.9999980773926
117,73,374611,5,0,0:0:0:0:
153,123,374709,1,0,0:0:0:0:
154,185,374808,1,0,0:0:0:0:
118,236,374907,1,0,0:0:0:0:
85,180,375006,5,0,0:0:0:0:
140,208,375104,1,0,0:0:0:0:
202,219,375203,1,0,0:0:0:0:
265,212,375302,1,0,0:0:0:0:
319,180,375401,5,0,0:0:0:0:
297,218,375499,1,0,0:0:0:0:
299,263,375598,1,0,0:0:0:0:
326,298,375697,1,0,0:0:0:0:
367,314,375795,1,0,0:0:0:0:
410,305,375894,1,0,0:0:0:0:
442,274,375993,1,0,0:0:0:0:
451,230,376091,1,0,0:0:0:0:
390,167,376190,5,0,0:0:0:0:
382,183,376288,1,0,0:0:0:0:
376,200,376387,1,0,0:0:0:0:
373,218,376486,1,0,0:0:0:0:
372,236,376584,1,0,0:0:0:0:
373,254,376683,1,0,0:0:0:0:
377,271,376782,1,0,0:0:0:0:
382,288,376880,1,0,0:0:0:0:
423,299,376980,5,0,0:0:0:0:
382,288,377078,1,0,0:0:0:0:
340,287,377177,1,0,0:0:0:0:
299,295,377276,1,0,0:0:0:0:
258,307,377374,5,0,0:0:0:0:
217,315,377473,1,0,0:0:0:0:
175,314,377572,1,0,0:0:0:0:
134,303,377670,1,0,0:0:0:0:
178,268,377769,5,0,0:0:0:0:
218,229,377867,1,0,0:0:0:0:
236,177,377966,1,0,0:0:0:0:
227,122,378065,1,0,0:0:0:0:
184,86,378164,5,0,0:0:0:0:
233,111,378262,1,0,0:0:0:0:
288,110,378361,1,0,0:0:0:0:
336,83,378460,1,0,0:0:0:0:
376,44,378558,5,0,0:0:0:0:
376,44,378657,1,0,0:0:0:0:
376,44,378756,2,0,P|389:77|380:125,1,62.9999980773926
136,44,378953,5,0,0:0:0:0:
136,44,379052,1,0,0:0:0:0:
136,44,379151,2,0,P|123:77|132:125,1,62.9999980773926
461,177,379348,5,0,0:0:0:0:
461,177,379447,1,0,0:0:0:0:
461,177,379545,2,0,P|435:206|372:206,1,66.4999982242585
51,177,379743,5,0,0:0:0:0:
51,177,379842,1,0,0:0:0:0:
50,176,379940,2,0,P|71:202|102:214,1,66.4999982242585
373,99,380137,5,0,0:0:0:0:
314,57,380236,1,0,0:0:0:0:
255,95,380335,1,0,0:0:0:0:
311,137,380433,5,0,0:0:0:0:
370,179,380532,1,0,0:0:0:0:
433,142,380631,1,0,0:0:0:0:
370,179,380730,5,0,0:0:0:0:
328,237,380829,1,0,0:0:0:0:
365,300,380928,1,0,0:0:0:0:
328,237,381025,5,0,0:0:0:0:
265,200,381124,1,0,0:0:0:0:
206,242,381223,1,0,0:0:0:0:
161,318,381322,6,0,L|127:240,1,70
154,66,381519,2,0,L|191:160,1,70
291,347,381716,6,0,L|338:347,2,46.6666666666667
408,282,381914,5,0,0:0:0:0:
428,208,382012,1,0,0:0:0:0:
500,182,382111,1,0,0:0:0:0:
425,197,382209,1,0,0:0:0:0:
350,176,382308,1,0,0:0:0:0:
292,123,382407,1,0,0:0:0:0:
222,35,382506,6,0,P|224:78|207:144,1,70
148,146,382703,2,0,P|143:111|146:76,1,70
184,240,382901,5,0,0:0:0:0:
188,258,382966,1,0,0:0:0:0:
189,276,383032,1,0,0:0:0:0:
189,295,383098,1,0,0:0:0:0:
186,313,383164,1,0,0:0:0:0:
182,331,383229,1,0,0:0:0:0:
174,347,383295,2,0,P|96:334|16:335,2,157.500006008148
232,178,384085,6,0,P|239:211|233:262,1,52.5000020027161
149,209,384282,2,0,P|143:173|146:134,1,52.5000020027161
240,74,384479,5,0,0:0:0:0:
165,292,384677,1,0,0:0:0:0:
325,84,384874,6,0,B|361:38|387:3|387:3|383:43|402:66,1,157.500006008148
445,114,385269,1,0,0:0:0:0:
248,304,385466,5,0,0:0:0:0:
226,277,385531,1,0,0:0:0:0:
221,243,385597,1,0,0:0:0:0:
235,208,385664,5,0,0:0:0:0:
202,220,385729,1,0,0:0:0:0:
168,228,385795,1,0,0:0:0:0:
133,231,385861,1,0,0:0:0:0:
98,228,385927,1,0,0:0:0:0:
64,221,385992,1,0,0:0:0:0:
31,209,386058,1,0,0:0:0:0:
60,137,386157,5,0,0:0:0:0:
105,197,386256,1,0,0:0:0:0:
79,265,386354,1,0,0:0:0:0:
17,314,386453,2,0,P|95:313|173:326,2,157.500006008148
165,216,387243,6,0,L|173:180,2,35.0000013351441
251,130,387440,2,0,L|245:164,2,35.0000013351441
292,54,387637,5,0,0:0:0:0:
342,40,387736,1,0,0:0:0:0:
394,48,387835,1,0,0:0:0:0:
437,77,387933,1,0,0:0:0:0:
472,115,388032,6,0,P|445:125|400:120,1,52.5000020027161
374,122,388229,2,0,P|347:123|323:132,1,52.5000020027161
200,234,388427,5,0,0:0:0:0:
204,183,388525,1,0,0:0:0:0:
171,144,388624,1,0,0:0:0:0:
330,216,388953,5,0,0:0:0:0:
360,216,389018,1,0,0:0:0:0:
393,229,389084,1,0,0:0:0:0:
417,253,389150,1,0,0:0:0:0:
408,223,389216,1,0,0:0:0:0:
399,189,389281,1,0,0:0:0:0:
398,154,389347,1,0,0:0:0:0:
403,119,389413,1,0,0:0:0:0:
415,86,389479,1,0,0:0:0:0:
432,56,389544,1,0,0:0:0:0:
464,41,389611,6,0,P|345:60|285:31,1,157.500006008148
237,19,390006,2,0,P|199:48|249:106,1,105.000004005432
194,171,390302,2,0,P|247:166|286:127,1,105.000004005432
310,40,390598,5,0,0:0:0:0:
310,40,390697,1,0,0:0:0:0:
310,40,390795,2,0,P|337:60|356:82,1,52.5000020027161
432,89,390993,2,0,P|416:123|392:146,1,52.5000020027161
332,350,391190,6,0,P|331:277|365:198,1,157.500006008148
443,197,391585,2,0,P|437:233|358:273,1,105.000004005432
306,256,391881,2,0,P|286:212|311:137,1,105.000004005432
326,122,392177,5,0,0:0:0:0:
419,107,392374,1,0,0:0:0:0:
512,93,392572,1,0,0:0:0:0:
319,273,392769,5,0,0:0:0:0:
267,283,392867,1,0,0:0:0:0:
216,293,392966,1,0,0:0:0:0:
164,304,393065,1,0,0:0:0:0:
174,229,393164,5,0,0:0:0:0:
122,218,393263,1,0,0:0:0:0:
71,208,393362,1,0,0:0:0:0:
19,197,393460,1,0,0:0:0:0:
67,113,393558,6,0,L|49:184,1,52.5000020027161
164,304,393756,2,0,L|144:379,1,52.5000020027161
319,43,393953,2,0,L|300:115,1,52.5000020027161
411,273,394151,2,0,L|392:337,1,52.5000020027161
249,234,394348,5,0,0:0:0:0:
162,114,394545,5,0,0:0:0:0:
114,109,394644,1,0,0:0:0:0:
72,132,394743,1,0,0:0:0:0:
133,203,394940,1,0,0:0:0:0:
400,120,395137,5,0,0:0:0:0:
395,207,395334,1,0,0:0:0:0:
391,294,395531,1,0,0:0:0:0:
386,382,395729,1,0,0:0:0:0:
211,219,395927,6,0,L|98:227,1,105.000004005432
123,270,396223,1,0,0:0:0:0:
142,313,396322,1,0,0:0:0:0:
188,136,396519,1,0,0:0:0:0:
170,91,396618,1,0,0:0:0:0:
156,46,396716,6,0,L|94:38,1,52.5000020027161
255,98,396914,2,0,L|307:104,1,52.5000020027161
75,132,397111,2,0,L|13:124,1,52.5000020027161
159,207,397309,2,0,L|211:213,1,52.5000020027161
354,200,397506,6,0,L|332:374,1,157.500006008148
411,316,397901,2,0,L|420:245,1,52.5000020027161
430,173,398098,1,0,0:0:0:0:
279,274,398295,1,0,0:0:0:0:
249,178,398493,1,0,0:0:0:0:
354,200,398690,1,0,0:0:0:0:
150,294,398887,1,0,0:0:0:0:
155,246,398986,1,0,0:0:0:0:
158,198,399085,6,0,L|169:86,1,105.000004005432
209,69,399381,1,0,0:0:0:0:
251,48,399479,1,0,0:0:0:0:
438,89,399677,1,0,0:0:0:0:
396,110,399775,1,0,0:0:0:0:
352,129,399874,6,0,L|337:199,1,52.5000020027161
406,292,400072,2,0,L|421:222,1,52.5000020027161
318,323,400269,2,0,L|303:393,1,52.5000020027161
253,111,400466,2,0,L|273:26,1,52.5000020027161
189,212,400664,6,0,L|7:226,1,157.500006008148
83,149,401058,2,0,L|140:145,1,52.5000020027161
242,135,401256,1,0,0:0:0:0:
175,60,401453,5,0,0:0:0:0:
195,303,401651,1,0,0:0:0:0:
195,303,401848,1,0,0:0:0:0:
246,295,401946,1,0,0:0:0:0:
298,288,402045,1,0,0:0:0:0:
350,280,402144,1,0,0:0:0:0:
401,295,402243,6,0,L|384:187,1,105.000004005432
365,69,402637,1,0,0:0:0:0:
202,161,402835,5,0,0:0:0:0:
253,152,402933,1,0,0:0:0:0:
305,144,403032,1,0,0:0:0:0:
263,240,403229,1,0,0:0:0:0:
190,71,403427,1,0,0:0:0:0:
100,285,403624,1,0,0:0:0:0:
391,164,403822,6,0,B|442:149|442:149|499:169,1,105.000004005432
304,311,404216,2,0,B|255:328|255:328|204:313,1,105.000004005432
106,274,404611,1,0,0:0:0:0:
231,117,405006,6,0,L|320:113,2,70.0000026702882
153,108,405401,1,0,0:0:0:0:
404,204,405795,6,0,P|431:165|440:117,2,70.0000026702882
327,258,406190,1,0,0:0:0:0:
191,123,406585,5,0,0:0:0:0:
191,123,406716,1,0,0:0:0:0:
191,123,406848,1,0,0:0:0:0:
191,123,406979,6,0,P|223:141|258:182,2,70.0000026702882
173,204,407374,6,0,P|141:222|88:232,2,70.0000026702882
109,150,407769,6,0,P|84:125|53:108,2,70.0000026702882,0|0|0,0:3|0:3|0:3,0:3:0:0:
188,293,408164,5,0,0:0:0:0:
262,319,408295,1,0,0:0:0:0:
340,307,408427,1,0,0:0:0:0:
418,203,408558,5,0,0:0:0:0:
367,108,408690,1,0,0:0:0:0:
332,206,408822,1,0,0:0:0:0:
183,119,408953,5,0,0:0:0:0:
250,188,409085,1,0,0:0:0:0:
202,32,409216,1,0,0:0:0:0:
74,225,409348,5,0,0:0:0:0:
270,102,409479,1,0,0:0:0:0:
169,241,409611,1,0,0:0:0:0:
74,68,409743,5,0,0:0:0:0:
128,329,409874,1,0,0:0:0:0:
202,32,410006,1,0,0:0:0:0:
293,280,410137,6,0,P|333:302|382:304,1,70.0000026702882
512,297,410401,1,0,0:0:0:0:
298,142,410532,6,0,P|239:153|202:173,1,70.0000026702882
148,238,410795,1,0,0:0:0:0:
415,138,410927,6,0,P|400:97|374:63,1,70.0000026702882
319,17,411190,1,0,0:0:0:0:
255,248,411322,6,0,P|257:291|272:331,1,70.0000026702882
281,351,411585,1,0,0:0:0:0:
386,159,411716,5,0,0:0:0:0:
336,190,411814,1,0,0:0:0:0:
277,191,411913,1,0,0:0:0:0:
227,160,412012,1,0,0:0:0:0:
192,82,412111,5,0,0:0:0:0:
104,129,412243,1,0,0:0:0:0:
80,224,412374,1,0,0:0:0:0:
103,328,412506,2,0,P|137:350|186:361,2,70.0000026702882
104,129,412901,2,0,P|59:142|15:173,2,70.0000026702882
240,219,413295,5,0,0:0:0:0:
294,241,413393,1,0,0:0:0:0:
353,238,413492,1,0,0:0:0:0:
405,210,413591,1,0,0:0:0:0:
372,201,413690,5,0,0:0:0:0:
375,227,413755,1,0,0:0:0:0:
385,251,413821,1,0,0:0:0:0:
400,273,413887,1,0,0:0:0:0:
420,290,413953,1,0,0:0:0:0:
444,302,414018,1,0,0:0:0:0:
469,309,414084,5,0,0:0:0:0:
351,100,414282,1,0,0:0:0:0:
351,100,414479,1,0,0:0:0:0:
296,80,414577,1,0,0:0:0:0:
242,103,414676,1,0,0:0:0:0:
217,156,414775,1,0,0:0:0:0:
232,212,414874,6,0,L|80:224,1,140.000005340576
254,299,415335,1,0,0:0:0:0:
254,299,415401,2,0,L|405:289,1,140.000005340576
458,214,415795,1,0,0:0:0:0:
469,265,415861,1,0,0:0:0:0:
366,92,416058,1,0,0:0:0:0:
512,131,416256,1,0,0:0:0:0:
188,297,416453,6,0,L|174:147,1,140.000005340576
51,18,416914,1,0,0:0:0:0:
51,18,416979,2,0,L|70:186,1,140.000005340576
156,228,417374,1,0,0:0:0:0:
116,226,417439,1,0,0:0:0:0:
275,125,417637,1,0,0:0:0:0:
367,278,417835,1,0,0:0:0:0:
157,339,418032,5,0,0:0:0:0:
149,269,418130,1,0,0:0:0:0:
142,199,418229,1,0,0:0:0:0:
135,130,418328,1,0,0:0:0:0:
61,175,418427,5,0,0:0:0:0:
128,215,418525,1,0,0:0:0:0:
200,187,418624,1,0,0:0:0:0:
218,110,418723,1,0,0:0:0:0:
166,18,418822,6,0,L|100:6,7,35
281,164,419216,2,0,L|330:171,7,35
106,200,419611,5,0,0:0:0:0:
106,200,420203,6,0,L|33:193,2,70
291,175,421190,6,0,P|336:204|349:271,1,105.000004005432
240,279,421585,5,0,0:0:0:0:
226,287,421684,1,0,0:0:0:0:
213,295,421782,1,0,0:0:0:0:
105,274,421980,5,0,0:0:0:0:
91,282,422079,1,0,0:0:0:0:
78,290,422177,1,0,0:0:0:0:
78,290,422374,2,0,L|80:222,1,52.5000020027161
140,178,422572,2,0,L|142:112,1,52.5000020027161
215,45,422769,6,0,B|265:32|265:32|326:46,1,105.000004005432
400,174,423164,2,0,B|348:185|348:185|298:172,1,105.000004005432
172,123,423558,5,0,0:0:0:0:
173,138,423657,1,0,0:0:0:0:
176,153,423756,1,0,0:0:0:0:
234,250,423953,5,0,0:0:0:0:
235,265,424052,1,0,0:0:0:0:
238,280,424151,1,0,0:0:0:0:
336,349,424348,6,0,B|387:273|352:189|352:189|389:227|435:228,1,262.500010013581
315,115,425532,5,0,0:0:0:0:
186,0,425729,1,0,0:0:0:0:
74,116,425927,6,0,P|151:234|268:225,1,262.500010013581
303,104,427111,5,0,0:0:0:0:
258,87,427209,1,0,0:0:0:0:
210,86,427308,1,0,0:0:0:0:
165,102,427407,1,0,0:0:0:0:
128,168,427506,6,0,B|175:183|206:120|204:127|204:127|226:92|249:67|249:67|206:111|206:183|232:246|192:304|136:304|136:304|184:304|240:248|272:320|304:328|336:320|360:296,1,682.50002603531
392,200,430269,5,0,0:0:0:0:
344,136,430466,1,0,0:0:0:0:
186,233,430664,6,0,P|127:253|184:109,1,367.500014019013
267,244,432243,6,0,P|210:307|131:325,1,157.500006008148
241,163,433032,5,0,0:0:0:0:
266,159,433130,1,0,0:0:0:0:
292,162,433229,1,0,0:0:0:0:
316,173,433328,1,0,0:0:0:0:
335,191,433427,1,0,0:0:0:0:
340,165,433525,1,0,0:0:0:0:
352,142,433624,1,0,0:0:0:0:
371,123,433723,1,0,0:0:0:0:
396,119,433822,6,0,B|355:145|293:147|252:113|252:113|367:-5|497:78|497:78|476:188|376:207|376:207|386:223|385:236|385:236|370:257|377:281,1,682.50002603531
314,322,436585,2,0,L|242:323,1,52.5000020027161
65,196,436979,6,0,P|48:144|60:77,1,105.000004005432
133,30,437769,2,0,P|149:79|144:131,1,105.000004005432
89,246,438558,5,0,0:0:0:0:
204,167,438953,1,0,0:0:0:0:
309,276,439348,5,0,0:0:0:0:
322,253,439447,1,0,0:0:0:0:
347,249,439545,1,0,0:0:0:0:
365,268,439644,1,0,0:0:0:0:
359,303,439743,1,0,0:0:0:0:
319,328,439841,1,0,0:0:0:0:
267,318,439940,1,0,0:0:0:0:
229,273,440039,1,0,0:0:0:0:
194,217,440137,5,0,0:0:0:0:
327,158,440335,1,0,0:0:0:0:
275,294,440532,5,0,0:0:0:0:
327,158,440730,1,0,0:0:0:0:
386,291,440927,5,0,0:0:0:0:
327,158,441125,1,0,0:0:0:0:
463,211,441322,5,0,0:0:0:0:
327,158,441520,1,0,0:0:0:0:
460,99,441716,5,0,0:0:0:0:
327,158,441914,1,0,0:0:0:0:
380,23,442111,5,0,0:0:0:0:
327,158,442309,1,0,0:0:0:0:
268,25,442506,5,0,0:0:0:0:
327,158,442704,1,0,0:0:0:0:
192,106,442901,5,0,0:0:0:0:
327,158,443099,1,0,0:0:0:0:
193,330,443295,5,0,0:0:0:0:
141,333,443393,1,0,0:0:0:0:
96,307,443492,1,0,0:0:0:0:
72,261,443591,1,0,0:0:0:0:
78,209,443689,1,0,0:0:0:0:
111,169,443788,1,0,0:0:0:0:
160,154,443887,1,0,0:0:0:0:
210,168,443985,1,0,0:0:0:0:
260,187,444085,5,0,0:0:0:0:
309,201,444183,1,0,0:0:0:0:
359,185,444282,1,0,0:0:0:0:
392,145,444381,1,0,0:0:0:0:
397,94,444479,1,0,0:0:0:0:
374,48,444578,1,0,0:0:0:0:
329,22,444677,1,0,0:0:0:0:
277,25,444775,1,0,0:0:0:0:
244,66,444874,6,0,L|235:108,5,35.0000013351441
203,127,445269,6,0,L|185:186,5,37.3333333333333
167,197,445664,6,0,L|153:251,5,39.6666674232483
129,272,446058,6,0,L|106:335,5,41.9999987182618
210,360,446453,5,0,0:0:0:0:
