osu file format v14

[General]
AudioFilename: audio.mp3
AudioLeadIn: 0
PreviewTime: -1
Countdown: 1
SampleSet: None
StackLeniency: 0.7
Mode: 0
LetterboxInBreaks: 0
WidescreenStoryboard: 1

[Editor]
DistanceSpacing: 2.4
BeatDivisor: 3
GridSize: 4
TimelineZoom: 2.899999

[Metadata]
Title:Entrance (Ver. B)
TitleUnicode:Entrance (Ver. B)
Artist:ICE
ArtistUnicode:ICE
Creator:Tassadar
Version:Ultra
Source:Cytus
Tags:cytus ice entrance right wing ver b tassadar
BeatmapID:921829
BeatmapSetID:426620

[Difficulty]
HPDrainRate:6
CircleSize:4
OverallDifficulty:9
ApproachRate:9.7
SliderMultiplier:1.8
SliderTickRate:1

[Events]
//Background and Video events
0,0,"bg.jpg",0,0
//Break Periods
2,105638,106387
//Storyboard Layer 0 (Background)
//Storyboard Layer 1 (Fail)
//Storyboard Layer 2 (Pass)
//Storyboard Layer 3 (Foreground)
//Storyboard Sound Samples

[TimingPoints]
1550,333.333333333333,4,1,0,100,1,0
1550,-166.666666666667,4,1,0,100,0,0
9549,-142.857142857143,4,1,0,100,0,0
10216,-125,4,1,0,100,0,0
10883,-111.111111111111,4,1,0,100,0,0
11549,-100,4,1,0,100,0,0
84216,222.222222222222,3,1,0,100,1,0
84216,-100,4,1,0,100,0,1
105438,-100,4,1,0,100,0,0

[HitObjects]
186,328,1550,5,0,0:0:0:0:
144,228,1883,2,0,L|121:196,3,35.9999989013672
182,108,2549,1,0,0:0:0:0:
288,126,2883,2,0,P|316:176|236:301,2,215.999993408203
182,104,4549,2,0,L|140:126,9,35.9999989013672
152,228,5994,1,0,0:0:0:0:
152,228,6105,1,0,0:0:0:0:
152,228,6216,6,0,P|177:283|314:281,1,215.999993408203
313,172,7216,2,0,L|308:137,3,35.9999989013672
200,123,7883,2,0,L|213:90,2,35.9999989013672
97,190,8216,5,0,0:0:0:0:
97,190,8327,1,0,0:0:0:0:
97,190,8438,1,0,0:0:0:0:
97,190,8549,1,0,0:0:0:0:
97,190,8661,1,0,0:0:0:0:
97,190,8772,1,0,0:0:0:0:
97,190,8883,2,0,L|51:195,2,35.9999989013672
133,296,9216,2,0,L|95:323,2,35.9999989013672
233,319,9549,5,0,0:0:0:0:
330,263,9883,2,0,L|365:297,2,41.9999987182618
357,177,10216,2,0,L|408:191,2,48
351,80,10549,2,0,L|402:66,2,48
161,89,10883,6,0,L|115:56,2,53.9999983520508
129,191,11216,2,0,L|72:185,2,53.9999983520508
172,312,11549,2,0,L|147:321,8,15
283,323,11883,2,0,L|278:349,8,15
383,253,12216,6,0,P|413:197|383:137,1,135
355,115,12549,1,0,0:0:0:0:
193,96,12716,1,0,0:0:0:0:
79,212,12883,2,0,P|82:274|182:318,1,180
323,244,13383,1,0,0:0:0:0:
373,90,13549,5,0,0:0:0:0:
215,51,13716,1,0,0:0:0:0:
215,51,13799,1,0,0:0:0:0:
215,51,13883,2,0,L|154:116,1,90
63,251,14216,2,0,P|97:312|203:325,1,180
337,241,14716,1,0,0:0:0:0:
385,86,14883,5,0,0:0:0:0:
230,39,15049,1,0,0:0:0:0:
230,39,15133,1,0,0:0:0:0:
230,39,15216,2,0,P|188:62|171:99,1,90
163,261,15549,5,0,0:0:0:0:
315,316,15716,1,0,0:0:0:0:
199,164,15883,5,0,0:0:0:0:
121,345,16049,1,0,0:0:0:0:
396,343,16216,6,0,P|429:306|374:202,1,180
218,227,16716,1,0,0:0:0:0:
75,149,16883,1,0,0:0:0:0:
191,37,17049,1,0,0:0:0:0:
191,37,17133,1,0,0:0:0:0:
191,37,17216,1,0,0:0:0:0:
318,137,17383,1,0,0:0:0:0:
275,292,17549,6,0,P|236:322|152:313,1,135
123,295,17883,1,0,0:0:0:0:
78,140,18049,1,0,0:0:0:0:
210,46,18216,2,0,L|351:113,1,135
353,132,18549,1,0,0:0:0:0:
294,283,18716,1,0,0:0:0:0:
135,317,18883,5,0,0:0:0:0:
14,209,19049,1,0,0:0:0:0:
59,53,19216,1,0,0:0:0:0:
187,152,19383,1,0,0:0:0:0:
294,283,19549,6,0,L|342:276,2,45
135,317,19883,2,0,P|63:292|68:200,1,180
154,63,20383,1,0,0:0:0:0:
183,42,20466,1,0,0:0:0:0:
218,41,20549,1,0,0:0:0:0:
251,55,20633,1,0,0:0:0:0:
275,81,20716,2,0,P|292:124|275:165,1,90
191,301,21049,1,0,0:0:0:0:
74,188,21216,1,0,0:0:0:0:
209,98,21383,1,0,0:0:0:0:
351,173,21549,5,0,0:0:0:0:
296,325,21716,2,0,L|203:344,1,90
89,231,22049,2,0,L|119:140,1,90
244,43,22383,1,0,0:0:0:0:
375,135,22549,1,0,0:0:0:0:
384,297,22716,1,0,0:0:0:0:
100,318,22883,6,0,P|88:257|131:197,1,135
163,183,23216,1,0,0:0:0:0:
339,147,23383,1,0,0:0:0:0:
323,325,23549,2,0,L|229:281,1,90
91,184,23883,1,0,0:0:0:0:
226,66,24049,2,0,L|252:41,6,30
358,188,24549,2,0,P|371:244|358:271,1,90
187,334,24883,5,0,0:0:0:0:
96,179,25049,1,0,0:0:0:0:
240,71,25216,1,0,0:0:0:0:
211,249,25383,1,0,0:0:0:0:
90,116,25549,6,0,P|102:63|126:36,1,90
305,47,25883,1,0,0:0:0:0:
396,201,26049,1,0,0:0:0:0:
271,331,26216,5,0,0:0:0:0:
107,255,26383,1,0,0:0:0:0:
107,255,26466,1,0,0:0:0:0:
107,255,26549,2,0,L|86:167,1,90
165,57,26883,6,0,L|201:25,3,45
274,116,27216,2,0,L|293:57,2,60
372,195,27549,5,0,0:0:0:0:
394,243,27660,1,0,0:0:0:0:
388,296,27771,1,0,0:0:0:0:
355,337,27882,1,0,0:0:0:0:
305,355,27994,1,0,0:0:0:0:
253,343,28104,1,0,0:0:0:0:
210,309,28216,2,0,L|181:257,2,60
79,277,28549,2,0,L|79:217,2,60
77,111,28883,6,0,L|39:87,2,45
207,60,29216,1,0,0:0:0:0:
207,60,29299,1,0,0:0:0:0:
207,60,29383,1,0,0:0:0:0:
334,133,29549,1,0,0:0:0:0:
367,162,29632,1,0,0:0:0:0:
380,204,29715,1,0,0:0:0:0:
369,247,29798,1,0,0:0:0:0:
337,278,29883,2,0,L|278:291,2,45
125,251,30216,1,0,0:0:0:0:
125,251,30299,1,0,0:0:0:0:
46,123,30438,2,0,L|160:63,1,120
298,57,30883,5,0,0:0:0:0:
340,231,31049,2,0,L|303:250,9,30
151,327,31716,2,0,L|109:324,9,30
39,164,32383,2,0,L|4:141,9,30
164,49,33049,2,0,L|144:12,8,30,0|0|0|0|0|0|0|0|0,0:3|0:3|0:3|0:3|0:3|0:3|0:3|0:3|0:3,0:3:0:0:
250,66,33549,6,0,P|304:83|327:155,1,135
314,191,33883,1,0,0:0:0:0:
157,310,34049,1,0,0:0:0:0:
72,130,34216,6,0,L|155:76,1,90
314,191,34549,1,0,0:0:0:0:
180,337,34716,2,0,L|117:338,4,45
89,209,35216,5,0,0:0:0:0:
74,166,35299,1,0,0:0:0:0:
81,122,35382,1,0,0:0:0:0:
108,87,35466,1,0,0:0:0:0:
148,67,35549,2,0,L|239:67,1,90
406,224,35883,2,0,L|315:224,1,90
145,326,36216,5,0,0:0:0:0:
96,133,36383,2,0,L|82:102,3,30
276,60,36716,1,0,0:0:0:0:
276,60,36799,1,0,0:0:0:0:
276,60,36883,2,0,L|319:78,3,45
371,185,37216,1,0,0:0:0:0:
378,228,37299,1,0,0:0:0:0:
364,271,37382,1,0,0:0:0:0:
332,302,37466,1,0,0:0:0:0:
289,314,37549,5,0,0:0:0:0:
104,241,37716,1,0,0:0:0:0:
289,314,37883,5,0,0:0:0:0:
165,158,38050,1,0,0:0:0:0:
289,314,38216,5,0,0:0:0:0:
259,117,38383,1,0,0:0:0:0:
289,314,38550,5,0,0:0:0:0:
362,128,38717,1,0,0:0:0:0:
289,314,38883,6,0,L|258:353,5,45
138,343,39383,6,0,L|78:260,1,90
65,143,39716,1,0,0:0:0:0:
78,100,39799,1,0,0:0:0:0:
107,66,39882,1,0,0:0:0:0:
147,46,39966,1,0,0:0:0:0:
191,43,40049,1,0,0:0:0:0:
235,56,40133,1,0,0:0:0:0:
269,84,40216,2,0,P|298:123|292:162,1,90
172,342,40549,5,0,0:0:0:0:
65,143,40716,1,0,0:0:0:0:
292,161,40883,5,0,0:0:0:0:
95,249,41049,1,0,0:0:0:0:
168,45,41216,5,0,0:0:0:0:
384,50,41383,1,0,0:0:0:0:
362,264,41549,5,0,0:0:0:0:
333,298,41632,1,0,0:0:0:0:
294,320,41715,1,0,0:0:0:0:
250,327,41799,1,0,0:0:0:0:
206,317,41882,1,0,0:0:0:0:
26,197,42049,5,0,0:0:0:0:
21,152,42132,1,0,0:0:0:0:
32,108,42215,1,0,0:0:0:0:
57,71,42299,1,0,0:0:0:0:
92,44,42382,1,0,0:0:0:0:
135,31,42465,1,0,0:0:0:0:
180,32,42549,2,0,L|273:33,1,90
371,225,42883,5,0,0:0:0:0:
371,225,42966,1,0,0:0:0:0:
371,225,43049,1,0,0:0:0:0:
154,226,43216,1,0,0:0:0:0:
154,226,43299,1,0,0:0:0:0:
154,226,43383,1,0,0:0:0:0:
113,207,43466,1,0,0:0:0:0:
89,170,43549,1,0,0:0:0:0:
89,125,43633,1,0,0:0:0:0:
112,88,43716,1,0,0:0:0:0:
152,68,43799,1,0,0:0:0:0:
198,67,43883,2,0,L|245:67,3,45
327,155,44216,6,0,L|351:178,5,30
252,226,44549,2,0,L|261:257,5,30
147,264,44883,2,0,P|83:241|76:181,1,135
102,133,45216,1,0,0:0:0:0:
308,67,45383,1,0,0:0:0:0:
385,267,45549,6,0,L|295:303,1,90
84,313,45883,1,0,0:0:0:0:
69,98,46049,2,0,L|68:54,3,45
102,190,46383,1,0,0:0:0:0:
139,213,46466,1,0,0:0:0:0:
183,220,46549,1,0,0:0:0:0:
227,209,46633,1,0,0:0:0:0:
262,182,46716,1,0,0:0:0:0:
283,142,46799,1,0,0:0:0:0:
287,98,46883,2,0,L|283:61,5,30
178,43,47216,6,0,P|150:88|153:124,1,90
228,325,47549,1,0,0:0:0:0:
391,182,47716,1,0,0:0:0:0:
152,124,47883,1,0,0:0:0:0:
123,337,48049,1,0,0:0:0:0:
291,201,48216,2,0,L|312:158,2,45
164,25,48549,1,0,0:0:0:0:
84,226,48716,6,0,L|101:269,2,45
211,322,49049,1,0,0:0:0:0:
249,343,49132,1,0,0:0:0:0:
294,344,49215,1,0,0:0:0:0:
333,324,49299,1,0,0:0:0:0:
358,287,49382,1,0,0:0:0:0:
362,242,49465,1,0,0:0:0:0:
345,201,49549,6,0,P|311:154|283:142,1,90
114,230,49883,2,0,P|148:277|176:289,1,90
308,316,50216,1,0,0:0:0:0:
367,315,50327,1,0,0:0:0:0:
415,281,50438,1,0,0:0:0:0:
436,226,50549,2,0,L|438:192,5,30
364,90,50883,6,0,L|267:80,1,90
88,190,51216,2,0,L|127:279,1,90
330,338,51549,1,0,0:0:0:0:
367,313,51632,1,0,0:0:0:0:
389,274,51715,1,0,0:0:0:0:
374,57,51883,5,0,0:0:0:0:
329,53,51966,1,0,0:0:0:0:
287,70,52049,1,0,0:0:0:0:
257,102,52133,1,0,0:0:0:0:
243,144,52216,1,0,0:0:0:0:
408,343,52383,1,0,0:0:0:0:
437,309,52466,1,0,0:0:0:0:
449,266,52549,1,0,0:0:0:0:
354,71,52716,1,0,0:0:0:0:
159,166,52883,6,0,L|108:202,2,60
252,245,53216,2,0,L|225:301,2,60
340,240,53549,2,0,L|345:302,2,60
418,166,53883,2,0,L|454:217,2,60
316,54,54216,6,0,L|253:49,1,60
192,153,54438,2,0,L|219:210,1,60
188,340,54661,2,0,L|125:335,1,60
48,192,54883,5,0,0:0:0:0:
464,192,55216,1,0,0:0:0:0:
108,44,55549,1,0,0:0:0:0:
403,339,55882,1,0,0:0:0:0:
256,24,57549,5,0,0:0:0:0:
256,360,57883,1,0,0:0:0:0:
374,73,58216,1,0,0:0:0:0:
137,310,58550,1,0,0:0:0:0:
480,192,60216,5,0,0:0:0:0:
32,192,60549,1,0,0:0:0:0:
414,350,60883,1,0,0:0:0:0:
97,33,61216,1,0,0:0:0:0:
48,24,62883,5,0,0:0:0:0:
464,360,63216,1,0,0:0:0:0:
464,24,63549,1,0,0:0:0:0:
48,360,63883,1,0,0:0:0:0:
152,226,64216,6,0,L|91:207,2,60,0|0|0,0:0|0:0|0:0,0:0:0:0:
204,143,64549,2,0,L|160:96,2,60,0|0|0,0:0|0:0|0:0,0:0:0:0:
296,87,64883,2,0,L|290:54,11,30
384,108,65549,6,0,P|414:137|383:258,1,180
316,308,65994,1,0,0:0:0:0:
233,323,66105,1,0,0:0:0:0:
150,306,66216,2,0,P|93:261|121:163,3,180
242,47,67549,6,0,L|304:63,1,60
409,146,67772,2,0,L|346:162,1,60
210,233,67994,2,0,L|272:249,1,60
436,348,68216,6,0,P|484:289|463:192,1,180
405,131,68661,1,0,0:0:0:0:
325,104,68772,1,0,0:0:0:0:
243,123,68883,2,0,P|172:166|181:260,3,180
266,339,70216,6,0,L|284:352,8,15
351,263,70549,2,0,L|368:277,8,15
406,160,70883,6,0,P|405:99|309:41,1,180
229,55,71327,1,0,0:0:0:0:
161,105,71438,1,0,0:0:0:0:
129,182,71549,6,0,P|127:247|210:316,1,180
292,298,71994,1,0,0:0:0:0:
356,244,72105,1,0,0:0:0:0:
367,160,72216,6,0,P|360:87|249:47,1,180
193,72,72661,1,0,0:0:0:0:
128,125,72772,1,0,0:0:0:0:
112,207,72883,6,0,P|127:266|230:303,1,180
300,256,73327,1,0,0:0:0:0:
331,178,73438,1,0,0:0:0:0:
323,94,73549,1,0,0:0:0:0:
109,96,73883,6,0,L|74:93,8,30
101,201,74438,2,0,L|69:215,8,30
165,303,74994,2,0,L|144:331,8,30
279,309,75549,6,0,L|348:298,1,60
437,220,75772,1,0,0:0:0:0:
393,102,75883,2,0,L|334:131,1,60
226,184,76105,1,0,0:0:0:0:
132,268,76216,2,0,L|89:225,1,60
76,100,76438,1,0,0:0:0:0:
182,33,76549,5,0,0:0:0:0:
205,32,76604,1,0,0:0:0:0:
229,38,76660,1,0,0:0:0:0:
249,50,76715,1,0,0:0:0:0:
266,67,76771,1,0,0:0:0:0:
277,88,76826,1,0,0:0:0:0:
282,112,76883,2,0,L|284:152,5,30
152,199,77216,5,0,0:0:0:0:
153,222,77271,1,0,0:0:0:0:
159,246,77327,1,0,0:0:0:0:
170,267,77382,1,0,0:0:0:0:
184,286,77438,1,0,0:0:0:0:
203,301,77493,1,0,0:0:0:0:
224,313,77549,2,0,L|256:312,5,30
412,269,77883,6,0,L|421:238,5,30
318,226,78216,2,0,L|310:194,5,30,0|0|0|0|0|0,0:3|0:3|0:3|0:3|0:3|0:3,0:3:0:0:
238,241,78549,2,0,L|215:217,5,30,0|0|0|0|0|0,0:3|0:3|0:3|0:3|0:3|0:3,0:3:0:0:
125,282,78883,6,0,L|117:221,1,60
91,99,79105,1,0,0:0:0:0:
216,113,79216,1,0,0:0:0:0:
216,113,79883,6,0,L|241:169,1,60
336,249,80105,1,0,0:0:0:0:
235,324,80216,1,0,0:0:0:0:
235,324,80549,6,0,L|180:291,1,60
89,208,80772,1,0,0:0:0:0:
82,82,80883,6,0,L|139:66,1,60
265,70,81105,1,0,0:0:0:0:
338,171,81216,5,0,0:0:0:0:
311,293,81327,1,0,0:0:0:0:
187,319,81438,1,0,0:0:0:0:
63,294,81549,6,0,L|56:226,1,60
85,110,81772,1,0,0:0:0:0:
204,149,81883,1,0,0:0:0:0:
204,149,82549,6,0,L|257:182,1,60
271,306,82772,1,0,0:0:0:0:
374,234,82883,1,0,0:0:0:0:
374,234,83216,6,0,L|364:175,1,60
266,95,83438,1,0,0:0:0:0:
153,152,83549,5,0,0:0:0:0:
118,274,83661,1,0,0:0:0:0:
207,362,83772,1,0,0:0:0:0:
321,310,83883,5,0,0:0:0:0:
298,186,83994,1,0,0:0:0:0:
173,165,84105,1,0,0:0:0:0:
55,230,84216,6,0,P|27:174|34:146,1,90
363,80,84438,2,0,P|391:136|384:167,1,90
309,286,84660,1,0,0:0:0:0:
138,244,84771,1,0,0:0:0:0:
129,91,84882,6,0,L|224:56,1,90
467,178,85104,2,0,L|449:277,1,90
262,340,85327,2,0,P|209:305|201:271,1,100
61,151,85549,2,0,P|95:98|129:90,1,100
288,135,85771,1,0,0:0:0:0:
337,269,85882,5,0,0:0:0:0:
327,307,85937,1,0,0:0:0:0:
297,335,85993,1,0,0:0:0:0:
258,347,86048,1,0,0:0:0:0:
217,345,86104,1,0,0:0:0:0:
179,327,86160,1,0,0:0:0:0:
157,292,86216,2,0,L|150:238,3,45
96,125,86438,6,0,L|166:66,1,90
339,61,86660,2,0,L|355:151,1,90
329,291,86882,1,0,0:0:0:0:
189,326,86993,1,0,0:0:0:0:
68,246,87104,2,0,P|54:194|66:156,1,90
252,49,87327,2,0,P|266:101|254:139,1,90
189,326,87549,2,0,P|175:274|187:236,1,90
312,113,87771,5,0,0:0:0:0:
421,255,87882,1,0,0:0:0:0:
312,113,87993,2,0,L|223:90,1,90
68,182,88216,5,0,0:0:0:0:
49,360,88327,1,0,0:0:0:0:
68,182,88438,2,0,L|129:109,1,90
328,91,88660,5,0,0:0:0:0:
338,231,88771,1,0,0:0:0:0:
319,266,88826,1,0,0:0:0:0:
287,291,88882,1,0,0:0:0:0:
249,304,88937,1,0,0:0:0:0:
208,300,88993,1,0,0:0:0:0:
174,277,89049,1,0,0:0:0:0:
149,245,89104,2,0,L|134:193,3,45
95,83,89327,6,0,L|186:53,1,90
324,50,89549,1,0,0:0:0:0:
396,174,89660,5,0,0:0:0:0:
305,285,89771,1,0,0:0:0:0:
256,149,89882,1,0,0:0:0:0:
425,296,89993,2,0,P|413:346|378:365,1,90
127,206,90216,2,0,P|139:155|174:136,1,90
348,216,90438,2,0,P|336:266|301:285,1,90
128,338,90660,2,0,L|53:278,1,90
50,122,90882,5,0,0:0:0:0:
213,48,90993,1,0,0:0:0:0:
50,122,91104,2,0,L|77:209,1,90
228,306,91327,5,0,0:0:0:0:
406,287,91438,1,0,0:0:0:0:
228,306,91549,2,0,L|140:278,1,90
110,104,91771,2,0,P|121:55|152:34,1,90
364,152,91993,2,0,P|353:201|322:222,1,90
141,281,92215,5,0,0:0:0:0:
16,149,92327,1,0,0:0:0:0:
141,281,92438,2,0,L|222:322,1,90
398,291,92660,5,0,0:0:0:0:
417,112,92771,1,0,0:0:0:0:
251,40,92882,2,0,L|161:47,1,90
70,201,93104,2,0,P|64:245|91:278,1,90
322,338,93327,2,0,P|328:294|301:261,1,90
195,111,93549,5,0,0:0:0:0:
160,122,93604,1,0,0:0:0:0:
132,144,93660,1,0,0:0:0:0:
114,175,93715,1,0,0:0:0:0:
108,210,93771,2,0,L|115:260,3,45
204,283,93993,2,0,L|234:322,3,45
344,271,94215,5,0,0:0:0:0:
367,238,94270,1,0,0:0:0:0:
374,197,94326,1,0,0:0:0:0:
358,159,94381,1,0,0:0:0:0:
324,134,94438,2,0,L|273:122,3,45
201,189,94660,2,0,L|150:204,4,45
49,301,94993,5,0,0:0:0:0:
17,269,95048,1,0,0:0:0:0:
3,225,95104,1,0,0:0:0:0:
0,180,95159,1,0,0:0:0:0:
7,135,95215,1,0,0:0:0:0:
32,98,95270,1,0,0:0:0:0:
71,73,95327,2,0,L|124:57,3,45
169,152,95549,2,0,L|222:163,3,45
120,229,95771,5,0,0:0:0:0:
120,273,95826,1,0,0:0:0:0:
140,313,95882,1,0,0:0:0:0:
175,339,95937,1,0,0:0:0:0:
219,347,95993,2,0,L|266:348,3,45
381,298,96215,5,0,0:0:0:0:
390,263,96270,1,0,0:0:0:0:
385,226,96326,1,0,0:0:0:0:
366,195,96381,1,0,0:0:0:0:
335,173,96438,2,0,L|288:168,3,45
158,102,96660,6,0,L|121:185,1,90
108,322,96882,1,0,0:0:0:0:
145,337,96937,1,0,0:0:0:0:
185,342,96993,1,0,0:0:0:0:
223,329,97048,1,0,0:0:0:0:
256,305,97104,1,0,0:0:0:0:
271,268,97159,1,0,0:0:0:0:
272,227,97215,1,0,0:0:0:0:
260,188,97270,1,0,0:0:0:0:
233,155,97327,2,0,P|188:138|146:143,1,90
59,273,97549,6,0,L|48:317,3,45
161,301,97771,2,0,L|173:344,3,45
284,290,97993,1,0,0:0:0:0:
328,290,98048,1,0,0:0:0:0:
367,269,98104,1,0,0:0:0:0:
392,232,98159,1,0,0:0:0:0:
402,188,98215,2,0,L|386:135,3,45
292,92,98438,2,0,L|238:102,1,45
158,197,98549,2,0,L|212:187,1,45
328,290,98660,2,0,L|274:300,1,45
95,338,98771,6,0,P|54:292|52:264,1,90
104,47,98993,2,0,P|145:93|147:121,1,90
211,287,99215,2,0,L|258:293,1,45
399,204,99327,2,0,L|352:198,1,45
206,142,99438,2,0,L|253:148,1,45
394,59,99550,2,0,L|347:53,1,45
227,38,99660,5,0,0:0:0:0:
188,49,99715,1,0,0:0:0:0:
156,75,99771,1,0,0:0:0:0:
135,109,99826,1,0,0:0:0:0:
128,149,99882,1,0,0:0:0:0:
137,188,99937,1,0,0:0:0:0:
157,223,99993,2,0,L|195:251,4,45
332,350,100327,5,0,0:0:0:0:
221,121,100438,1,0,0:0:0:0:
88,294,100549,2,0,P|22:283|10:267,1,90
245,49,100771,6,0,P|310:59|324:78,1,90,0|0,0:3|0:3,0:3:0:0:
413,311,100993,2,0,L|328:351,1,90
93,234,101215,2,0,L|99:142,1,90
338,97,101438,1,0,0:0:0:0:
364,289,101549,5,0,0:0:0:0:
192,152,101660,1,0,0:0:0:0:
422,140,101771,5,0,0:0:0:0:
211,268,101882,1,0,0:0:0:0:
291,28,101993,6,0,L|380:21,1,90
442,271,102215,2,0,L|350:282,1,90
81,306,102438,5,0,0:0:0:0:
122,82,102549,1,0,0:0:0:0:
244,258,102660,2,0,L|203:338,1,90
17,158,102882,5,0,0:0:0:0:
247,120,102993,1,0,0:0:0:0:
70,272,103104,1,0,0:0:0:0:
137,48,103215,1,0,0:0:0:0:
244,258,103327,2,0,L|203:338,1,90
55,156,103549,5,0,0:0:0:0:
264,52,103660,1,0,0:0:0:0:
166,264,103771,1,0,0:0:0:0:
135,32,103882,1,0,0:0:0:0:
329,162,103993,2,0,L|425:170,1,90
233,340,104215,5,0,0:0:0:0:
104,142,104327,1,0,0:0:0:0:
313,245,104438,1,0,0:0:0:0:
81,275,104549,1,0,0:0:0:0:
241,104,104660,2,0,L|312:49,1,90
461,228,104882,5,0,0:0:0:0:
461,228,104993,1,0,0:0:0:0:
208,323,105104,1,0,0:0:0:0:
208,323,105215,1,0,0:0:0:0:
334,82,105327,1,0,0:0:0:0:
377,348,105438,1,0,0:0:0:0:
256,192,106882,5,0,0:0:0:0:
256,192,106993,12,0,117549,0:0:0:0:
