osu file format v14

[General]
AudioFilename: audio.mp3
AudioLeadIn: 0
PreviewTime: 85337
Countdown: 0
SampleSet: Soft
StackLeniency: 0.7
Mode: 0
LetterboxInBreaks: 0
WidescreenStoryboard: 1

[Editor]
Bookmarks: 10681,12004,22671,33337,38671,41337,52004,62671,83337,85337,96004,106671
DistanceSpacing: 0.3
BeatDivisor: 3
GridSize: 16
TimelineZoom: 2.9

[Metadata]
Title:Entrance
TitleUnicode:Entrance
Artist:Ice
ArtistUnicode:Ice
Creator:Icekalt
Version:Hard
Source:DEEMO
Tags:corsace open grand final gf hd3 hypercyte hypercute schoolboy rhythm game cytus vol.2 freeform hardcore electronic instrumental komore video rayark
BeatmapID:2817884
BeatmapSetID:1276389

[Difficulty]
HPDrainRate:4
CircleSize:3
OverallDifficulty:5
ApproachRate:7.6
SliderMultiplier:1.6
SliderTickRate:0.5

[Events]
//Background and Video events
0,0,"ausgang.jpg",0,0
//Break Periods
2,35220,36877
//Storyboard Layer 0 (Background)
//Storyboard Layer 1 (Fail)
//Storyboard Layer 2 (Pass)
//Storyboard Layer 3 (Foreground)
//Storyboard Layer 4 (Overlay)
//Storyboard Sound Samples

[TimingPoints]
354,333.333333333333,4,2,1,45,1,0
354,-153.846153846153,4,2,1,45,0,0
16353,-153.846153846153,4,2,1,55,0,0
21687,-117.647058823529,4,2,1,55,0,0
27020,-117.647058823529,4,2,1,60,0,0
31687,-117.647058823529,4,2,1,40,0,0
36020,-117.647058823529,4,2,1,5,0,0
37687,-100,4,2,1,60,0,0
61687,-100,4,2,2,60,0,0
71687,-100,4,2,1,60,0,0
72353,-100,4,2,2,60,0,0
82353,-100,4,2,2,65,0,0
83020,-100,4,2,2,70,0,0
83687,-100,4,2,2,75,0,0
84353,-100,4,2,2,70,0,0
94353,-100,4,2,1,40,0,0
94465,-100,4,2,2,70,0,0
108131,-100,4,2,2,5,0,0

[Colours]
Combo1 : 187,187,255
Combo2 : 147,103,237
Combo3 : 100,100,255

[HitObjects]
87,291,354,6,0,P|83:217|30:143,1,138.666660319011,4|0,1:0|0:0,0:0:0:0:
98,59,1020,2,0,L|178:40,2,69.3333301595054,2|0|0,0:0|0:0|0:0,0:0:0:0:
189,132,1687,5,2,0:0:0:0:
212,134,1909,1,0,0:0:0:0:
197,152,2131,1,0,0:0:0:0:
268,224,2353,5,2,0:0:0:0:
291,226,2575,1,0,0:0:0:0:
276,244,2797,1,0,0:0:0:0:
210,323,3020,6,0,P|271:273|340:260,1,138.666660319011,2|0,0:0|0:0,0:0:0:0:
365,155,3687,2,0,P|377:232|354:299,1,138.666660319011,2|0,0:0|0:0,0:0:0:0:
446,358,4353,2,0,P|372:330|326:276,1,138.666660319011,2|0,0:0|0:0,0:0:0:0:
258,206,5020,5,2,0:0:0:0:
230,203,5242,1,2,0:0:0:0:
202,200,5465,1,2,0:0:0:0:
185,307,5687,2,0,L|160:142,1,138.666660319011,2|0,1:2|0:0,0:0:0:0:
79,130,6353,2,0,L|10:170,2,69.3333301595054,2|0|0,0:0|0:0|0:0,0:0:0:0:
143,54,7020,5,2,0:0:0:0:
164,70,7242,1,0,0:0:0:0:
190,60,7465,1,0,0:0:0:0:
277,112,7687,5,2,0:0:0:0:
298,96,7909,1,0,0:0:0:0:
324,106,8132,1,0,0:0:0:0:
389,12,8353,6,0,P|370:59|372:169,1,138.666660319011,2|0,1:2|0:0,0:0:0:0:
471,241,9020,2,0,P|490:194|488:84,1,138.666660319011,2|0,0:0|0:0,0:0:0:0:
373,239,9687,2,0,L|209:263,1,138.666660319011,2|0,1:2|0:0,0:0:0:0:
189,166,10353,2,0,L|51:145,1,138.666660319011,2|0,0:0|0:0,0:0:0:0:
1,236,11020,1,6,1:2:0:0:
208,60,11687,6,0,L|198:6,4,34.6666650797527,2|0|0|0|0,0:0|0:0|0:0|0:0|0:0,0:0:0:0:
312,95,12353,2,0,L|322:41,4,34.6666650797527,2|0|0|0|0,0:0|0:0|0:0|0:0|0:0,0:0:0:0:
396,164,13020,2,0,L|424:117,4,34.6666650797527,2|0|0|0|0,0:0|0:0|0:0|0:0|0:0,0:0:0:0:
444,256,13687,6,0,B|413:212|413:212|316:237,1,138.666660319011,2|0,0:0|0:0,0:0:0:0:
284,325,14353,2,0,B|253:369|253:369|156:344,1,138.666660319011,2|0,0:0|0:0,0:0:0:0:
124,256,15020,2,0,B|93:212|93:212|-4:237,1,138.666660319011,2|0,0:0|0:0,0:0:0:0:
24,112,15687,5,2,0:0:0:0:
61,75,15909,1,2,0:0:0:0:
116,83,16131,1,2,0:0:0:0:
93,172,16353,1,2,1:2:0:0:
290,86,17020,6,0,P|266:147|267:240,1,138.666660319011,2|0,0:0|0:0,0:0:0:0:
386,168,17686,2,0,P|410:229|409:322,1,138.666660319011,0|0,1:2|0:0,0:0:0:0:
283,240,18353,2,0,P|259:301|260:394,1,138.666660319011,2|0,0:0|0:0,0:0:0:0:
126,305,19020,2,0,L|72:317,4,34.6666650797527,2|0|0|0|0,1:2|0:0|0:0|0:0|0:0,0:0:0:0:
161,213,19687,2,0,L|127:205,4,34.6666650797527,2|0|0|0|0,0:2|2:0|2:0|2:0|2:0,0:0:0:0:
256,148,20353,2,0,L|310:160,4,34.6666650797527,2|0|0|0|0,1:2|2:0|2:0|2:0|2:0,0:0:0:0:
221,56,21020,2,0,L|254:48,4,34.6666650797527,2|0|0|0|0,0:2|0:0|0:0|0:0|0:0,0:0:0:0:
363,62,21687,6,0,P|293:52|240:-4,1,136.000002593994,12|2,1:2|0:0,0:0:0:0:
136,48,22242,1,2,0:0:0:0:
136,48,22353,2,0,L|76:58,2,45.3333341979981,2|2|2,1:2|0:0|0:0,0:0:0:0:
200,109,22687,2,0,L|185:210,1,90.6666683959961,2|0,0:0|0:0,0:0:0:0:
293,227,23020,2,0,L|353:237,2,45.3333341979981,2|2|2,1:2|0:0|0:0,0:0:0:0:
229,288,23354,2,0,L|244:389,1,90.6666683959961,2|0,0:0|0:0,0:0:0:0:
334,379,23687,1,2,1:2:0:0:
337,365,23798,1,2,0:0:0:0:
340,351,23909,1,2,0:0:0:0:
343,337,24020,1,2,0:0:0:0:
453,384,24242,5,0,0:0:0:0:
453,384,24353,2,0,L|431:265,1,90.6666683959961,2|2,1:2|0:0,0:0:0:0:
449,280,24687,2,0,L|427:161,1,90.6666683959961,10|2,0:2|0:0,0:0:0:0:
345,193,25020,2,0,L|323:74,1,90.6666683959961,10|2,0:2|0:0,0:0:0:0:
341,89,25354,2,0,L|319:-30,1,90.6666683959961,10|2,0:2|0:0,0:0:0:0:
239,29,25687,6,0,L|189:35,2,45.3333341979981,2|0|0,1:2|0:0|0:0,0:0:0:0:
152,123,26020,2,0,L|197:128,2,45.3333341979981,10|0|0,0:2|0:0|0:0,0:0:0:0:
196,220,26353,1,10,0:2:0:0:
199,237,26465,1,2,0:0:0:0:
202,254,26576,1,2,0:0:0:0:
217,269,26687,1,10,0:0:0:0:
220,286,26799,1,2,0:0:0:0:
223,303,26910,1,2,0:0:0:0:
238,318,27020,6,0,P|289:284|371:276,1,136.000002593994,6|10,1:2|0:0,0:0:0:0:
300,133,27576,1,0,0:0:0:0:
300,133,27687,2,0,L|290:207,2,45.3333341979981,10|2|2,0:0|0:0|0:0,0:0:0:0:
313,44,28020,1,8,0:0:0:0:
193,93,28242,5,2,0:0:0:0:
193,93,28353,2,0,B|195:150|83:121|110:15,1,181.333336791992,2|2,1:2|0:0,0:0:0:0:
0,141,29020,2,0,L|44:134,5,45.3333341979981,10|0|0|0|0|0,0:0|0:0|0:0|0:0|0:0|0:0,0:0:0:0:
111,202,29687,1,2,1:2:0:0:
193,93,29909,5,2,0:0:0:0:
193,93,30020,2,0,L|256:100,2,45.3333341979981,10|2|2,0:0|0:0|0:0,0:0:0:0:
248,189,30353,2,0,L|311:182,2,45.3333341979981,2|2|2,0:0|0:0|0:0,0:0:0:0:
328,267,30687,2,0,L|386:242,2,45.3333341979981,2|2|2,0:0|0:0|0:0,0:0:0:0:
269,361,31020,5,8,1:2:0:0:
246,358,31131,1,0,0:0:0:0:
224,349,31242,1,2,0:0:0:0:
208,332,31353,2,0,L|217:273,2,45.3333341979981,8|0|2,0:0|0:0|0:0,0:0:0:0:
147,218,31687,1,4,3:0:0:0:
124,221,31798,1,0,0:0:0:0:
102,230,31909,1,0,0:0:0:0:
86,247,32020,2,0,L|95:306,2,45.3333341979981
2,164,32353,5,2,1:2:0:0:
19,42,32687,1,2,0:0:0:0:
116,115,33020,1,2,0:0:0:0:
2,164,33353,1,2,0:0:0:0:
19,42,33687,1,2,0:0:0:0:
116,115,34020,1,2,0:0:0:0:
199,25,34353,6,0,P|227:16|255:22,2,45.3333341979981,2|0|2,0:0|0:0|0:0,0:0:0:0:
239,106,34687,2,0,P|266:116|284:138,2,45.3333341979981,2|2|2,0:0|0:0|0:0,0:0:0:0:
214,190,35020,1,2,0:0:0:0:
33,173,37687,5,2,1:2:0:0:
58,164,37798,1,0,1:2:0:0:
83,156,37909,1,0,1:2:0:0:
108,148,38020,2,0,L|118:69,2,53.3333333333333,2|2|2,1:2|1:2|1:2,0:0:0:0:
169,220,38353,1,2,1:2:0:0:
194,211,38464,1,0,1:2:0:0:
219,203,38575,1,0,1:2:0:0:
244,195,38686,2,0,L|254:116,2,53.3333333333333,2|2|2,1:2|1:2|1:2,0:0:0:0:
305,267,39020,5,2,1:2:0:0:
330,258,39131,1,0,1:2:0:0:
355,250,39242,1,0,1:2:0:0:
380,242,39353,2,0,L|390:163,2,53.3333333333333,2|2|2,1:2|1:2|1:2,0:0:0:0:
484,197,39687,2,0,L|474:118,2,53.3333333333333,2|2|2,1:2|1:2|1:2,0:0:0:0:
376,151,40020,2,0,L|386:72,2,53.3333333333333,2|2|2,1:2|1:2|1:2,0:0:0:0:
464,53,40353,5,12,1:2:0:0:
259,29,40687,1,8,0:0:0:0:
201,114,40909,5,2,0:0:0:0:
201,114,41020,2,0,L|34:144,1,160,8|8,0:0|0:0,0:0:0:0:
162,246,41576,1,2,0:0:0:0:
162,246,41687,2,0,L|-5:276,1,160,8|8,0:0|0:0,0:0:0:0:
163,351,42242,1,2,0:0:0:0:
163,351,42353,2,0,L|232:360,2,53.3333333333333,8|0|2,0:0|0:0|0:0,0:0:0:0:
203,266,42687,2,0,L|272:275,2,53.3333333333333,8|0|2,0:0|0:0|0:0,0:0:0:0:
243,181,43020,5,8,0:0:0:0:
181,72,43242,1,2,0:0:0:0:
181,72,43353,1,8,0:0:0:0:
296,17,43576,1,2,0:0:0:0:
296,17,43687,2,0,B|397:-10|366:56|460:32,1,160,8|8,0:0|0:0,0:0:0:0:
431,200,44353,6,0,L|494:214,2,53.3333333333333,8|0|2,0:0|0:0|0:0,0:0:0:0:
431,287,44687,2,0,L|494:301,2,53.3333333333333,8|0|2,0:0|0:0|0:0,0:0:0:0:
357,337,45020,1,10,1:3:0:0:
234,356,45242,1,2,0:0:0:0:
234,356,45353,1,10,1:3:0:0:
110,372,45576,1,2,0:0:0:0:
110,372,45687,1,8,1:2:0:0:
62,234,46020,6,0,L|-1:252,2,53.3333333333333,8|0|2,0:0|0:0|0:0,0:0:0:0:
86,252,46353,2,0,P|101:174|146:132,1,106.666666666667,8|2,0:0|0:0,0:0:0:0:
191,61,46687,1,8,0:0:0:0:
222,68,46798,1,0,0:0:0:0:
253,75,46909,1,2,0:0:0:0:
284,82,47020,6,0,L|408:64,1,106.666666666667,8|2,0:0|0:0,0:0:0:0:
440,163,47353,2,0,L|501:175,2,53.3333333333333,8|0|2,0:0|0:0|0:0,0:0:0:0:
417,185,47687,2,0,L|441:309,1,106.666666666667,8|2,0:0|0:0,0:0:0:0:
367,361,48020,1,8,0:0:0:0:
336,352,48131,1,0,0:0:0:0:
312,330,48242,1,2,0:0:0:0:
305,298,48353,6,0,L|319:221,2,53.3333333333333,8|0|2,0:0|0:0|0:0,0:0:0:0:
199,277,48687,2,0,L|213:200,2,53.3333333333333,10|2|2,0:0|0:0|0:0,0:0:0:0:
115,355,49020,2,0,P|68:330|66:264,1,106.666666666667,8|2,0:0|0:0,0:0:0:0:
15,186,49353,1,10,0:0:0:0:
19,159,49465,1,2,0:0:0:0:
24,132,49576,1,2,0:0:0:0:
29,106,49687,2,0,L|22:39,2,53.3333333333333,8|0|2,0:0|0:0|0:0,0:0:0:0:
131,94,50020,2,0,L|124:27,2,53.3333333333333,8|0|2,0:0|0:0|0:0,0:0:0:0:
203,165,50353,5,8,1:3:0:0:
231,140,50465,1,2,1:3:0:0:
265,154,50576,1,2,1:3:0:0:
289,182,50687,1,8,1:3:0:0:
323,196,50798,1,2,1:3:0:0:
351,171,50910,1,2,1:3:0:0:
384,155,51020,6,0,P|443:176|449:285,1,160,4|8,1:2|0:0,0:0:0:0:
332,355,51576,1,2,0:0:0:0:
332,355,51687,2,0,L|415:365,2,53.3333333333333,8|0|2,0:0|0:0|0:0,0:0:0:0:
274,275,52020,1,8,0:0:0:0:
247,280,52131,1,0,0:0:0:0:
220,285,52242,1,2,0:0:0:0:
194,291,52353,6,0,L|74:274,1,106.666666666667,8|2,0:0|0:0,0:0:0:0:
37,184,52687,2,0,L|48:132,2,53.3333333333333,8|0|2,0:0|0:0|0:0,0:0:0:0:
151,168,53020,2,0,L|162:116,2,53.3333333333333,10|2|2,0:0|0:0|0:0,0:0:0:0:
265,152,53353,2,0,L|276:100,2,53.3333333333333,10|2|2,0:0|0:0|0:0,0:0:0:0:
322,232,53687,5,10,1:2:0:0:
437,215,53909,1,2,0:0:0:0:
437,215,54020,1,8,0:0:0:0:
508,301,54242,1,2,0:0:0:0:
508,301,54353,1,8,0:0:0:0:
397,323,54576,1,2,0:0:0:0:
397,323,54687,2,0,L|378:377,2,53.3333333333333,8|0|2,0:0|0:0|0:0,0:0:0:0:
373,301,55020,6,0,L|203:326,1,160,8|8,0:0|0:0,0:0:0:0:
27,178,55687,2,0,B|47:251|47:251|32:277|32:277|109:252|109:252|92:277|92:277|109:342,1,266.666666666667,8|0,0:3|0:0,0:0:0:0:
92,361,56353,1,14,1:2:0:0:
214,181,56687,6,0,L|198:109,2,53.3333333333333,8|0|2,0:0|0:0|0:0,0:0:0:0:
229,203,57020,2,0,P|290:199|335:238,1,106.666666666667,10|0,1:2|0:0,0:0:0:0:
420,268,57353,1,8,0:0:0:0:
445,258,57465,1,0,0:0:0:0:
463,238,57576,1,2,0:0:0:0:
474,214,57687,1,10,1:2:0:0:
392,130,57909,5,2,0:0:0:0:
392,130,58020,2,0,L|412:12,1,106.666666666667,8|2,0:0|0:0,0:0:0:0:
271,74,58353,2,0,L|288:179,1,106.666666666667,8|2,0:0|0:0,0:0:0:0:
150,130,58687,2,0,L|167:24,1,106.666666666667,8|2,0:0|0:0,0:0:0:0:
147,5,59020,1,10,1:2:0:0:
0,171,59353,5,8,0:0:0:0:
14,157,59465,2,0,L|91:170,1,53.3333333333333,0|2,0:0|0:0,0:0:0:0:
136,223,59687,1,8,0:0:0:0:
150,237,59799,2,0,L|227:224,1,53.3333333333333,0|2,0:0|0:0,0:0:0:0:
272,171,60019,1,8,0:0:0:0:
286,157,60131,2,0,L|363:170,1,53.3333333333333,0|2,0:0|0:0,0:0:0:0:
396,236,60353,5,10,1:3:0:0:
460,116,60576,1,2,0:0:0:0:
464,136,60687,1,10,1:3:0:0:
380,41,60909,1,0,0:0:0:0:
371,60,61020,2,0,L|296:64,3,53.3333333333333,8|0|0|10,1:0|1:0|1:0|1:2,0:0:0:0:
202,131,61576,5,2,0:0:0:0:
202,131,61687,2,0,L|222:268,1,106.666666666667,12|2,1:3|0:0,0:0:0:0:
180,319,62020,2,0,L|125:297,1,53.3333333333333,8|0,0:0|0:0,0:0:0:0:
294,377,62353,2,0,L|312:239,1,106.666666666667,8|2,0:0|0:0,0:0:0:0:
365,201,62686,2,0,P|442:239|505:291,1,160,8|8,0:0|0:2,0:0:0:0:
384,30,63353,5,8,1:2:0:0:
145,58,63687,1,8,1:2:0:0:
175,295,64020,1,8,1:2:0:0:
414,267,64353,2,0,P|401:200|333:231,2,160,8|8|8,1:3|0:0|0:0,0:0:0:0:
279,319,65242,6,0,P|229:295|197:338,1,106.666666666667,2|2,0:2|0:2,0:0:0:0:
102,384,65687,1,10,1:2:0:0:
50,149,66020,1,8,0:0:0:0:
283,93,66353,1,8,0:3:0:0:
208,178,66576,1,2,0:0:0:0:
208,178,66687,1,10,0:3:0:0:
305,239,66909,1,2,0:0:0:0:
305,239,67020,6,0,L|447:217,1,106.666666666667,8|2,1:2|0:0,0:0:0:0:
490,262,67353,2,0,P|486:292|472:315,1,53.3333333333333,8|0,0:0|0:0,0:0:0:0:
478,153,67687,2,0,P|451:101|352:86,2,160,8|8|8,0:0|0:0|0:0,0:0:0:0:
303,274,68687,2,0,L|287:166,1,106.666666666667,8|0,1:2|0:0,0:0:0:0:
198,230,69020,2,0,L|182:335,1,106.666666666667,8|0,1:2|0:0,0:0:0:0:
93,274,69353,2,0,L|77:168,1,106.666666666667,8|0,1:2|0:0,0:0:0:0:
144,97,69687,6,0,P|146:63|141:34,2,53.3333333333333,10|2|2,0:0|0:0|0:0,0:0:0:0:
222,141,70020,2,0,P|240:112|250:84,2,53.3333333333333,10|2|2,0:0|0:0|0:0,0:0:0:0:
287,203,70353,2,0,P|347:201|409:153,1,106.666666666667,8|2,0:0|0:0,0:0:0:0:
362,90,70687,2,0,P|393:39|466:9,1,106.666666666667,8|2,0:0|0:0,0:0:0:0:
486,89,71020,1,8,0:0:0:0:
281,0,71353,1,8,0:0:0:0:
300,237,71687,5,8,1:3:0:0:
272,262,71799,1,2,1:3:0:0:
238,248,71910,1,2,1:3:0:0:
214,220,72021,1,8,1:3:0:0:
180,206,72132,1,2,1:3:0:0:
152,231,72242,1,2,1:3:0:0:
119,247,72354,6,0,P|58:226|67:141,1,160,12|8,1:2|0:0,0:0:0:0:
216,0,73020,2,0,L|201:105,1,106.666666666667,8|2,0:0|0:0,0:0:0:0:
284,153,73353,2,0,P|346:104|370:14,1,160,8|8,0:0|0:0,0:0:0:0:
459,221,74020,5,8,1:2:0:0:
221,259,74354,1,8,1:2:0:0:
185,23,74687,1,8,1:2:0:0:
91,183,75020,2,0,P|78:116|10:147,2,160,8|8|8,1:3|0:0|0:0,0:0:0:0:
212,169,75909,6,0,P|247:122|290:147,1,106.666666666667,2|2,0:0|0:0,0:0:0:0:
333,254,76354,1,10,0:0:0:0:
414,57,76687,1,10,0:0:0:0:
512,245,77020,2,0,B|483:293|483:293|440:148|440:148|404:205,1,266.666666666667,8|8,0:3|0:3,0:0:0:0:
333,254,77687,6,0,P|282:235|206:236,1,106.666666666667,14|2,1:2|0:0,0:0:0:0:
151,282,78020,2,0,P|153:308|166:331,1,53.3333333333333,8|0,0:0|0:0,0:0:0:0:
98,192,78354,2,0,P|109:116|50:30,1,160,8|8,0:0|0:0,0:0:0:0:
215,185,79020,6,0,P|220:208|240:228,2,53.3333333333333,10|2|2,0:0|0:0|0:0,0:0:0:0:
260,101,79353,1,10,0:0:0:0:
264,86,79465,1,2,0:0:0:0:
268,71,79576,1,2,0:0:0:0:
274,56,79687,2,0,P|325:53|372:95,1,106.666666666667,8|2,0:0|0:0,0:0:0:0:
402,175,80020,2,0,P|453:178|500:136,1,106.666666666667,8|2,0:0|0:0,0:0:0:0:
502,252,80353,6,0,P|512:290|511:321,2,53.3333333333333,8|0|2,0:0|0:0|0:0,0:0:0:0:
397,315,80687,2,0,P|415:334|437:348,2,53.3333333333333,8|0|2,0:0|0:0|0:0,0:0:0:0:
316,364,81020,2,0,P|256:362|194:314,1,106.666666666667,8|2,0:0|0:0,0:0:0:0:
125,315,81354,2,0,P|100:260|115:191,1,106.666666666667,8|2,0:0|0:0,0:0:0:0:
181,154,81687,1,8,0:0:0:0:
202,151,81798,1,0,0:0:0:0:
223,148,81909,1,0,0:0:0:0:
244,145,82020,2,0,P|243:113|236:94,2,53.3333333333333,8|0|2,0:0|0:0|0:0,0:0:0:0:
317,201,82353,5,8,0:3:0:0:
432,221,82576,1,8,0:3:0:0:
392,110,82798,1,8,0:3:0:0:
325,211,83020,5,8,0:3:0:0:
266,324,83242,1,8,0:3:0:0:
196,216,83465,1,8,0:3:0:0:
66,182,83687,5,10,0:3:0:0:
155,75,83910,1,10,0:3:0:0:
202,205,84132,1,10,0:3:0:0:
310,116,84353,6,0,L|436:128,1,106.666666666667,14|2,1:2|0:0,0:0:0:0:
485,69,84687,2,0,L|469:6,2,53.3333333333333,10|2|2,0:0|0:0|0:0,0:0:0:0:
508,157,85020,1,8,0:0:0:0:
411,306,85353,1,10,0:0:0:0:
395,311,85465,1,2,0:0:0:0:
379,311,85576,1,2,0:0:0:0:
363,310,85687,6,0,P|301:287|247:283,1,106.666666666667,8|2,0:0|0:0,0:0:0:0:
176,239,86020,2,0,L|115:256,2,53.3333333333333,8|0|2,0:0|0:0|0:0,0:0:0:0:
153,150,86353,2,0,L|92:167,2,53.3333333333333,10|2|2,0:0|0:0|0:0,0:0:0:0:
224,84,86687,1,8,0:0:0:0:
240,84,86798,1,0,0:0:0:0:
256,89,86910,1,2,0:0:0:0:
267,99,87020,6,0,P|283:130|284:214,1,106.666666666667,8|2,1:2|0:0,0:0:0:0:
342,274,87353,2,0,L|331:339,2,53.3333333333333,8|0|2,0:0|0:0|0:0,0:0:0:0:
429,289,87687,2,0,L|418:354,2,53.3333333333333,10|2|2,0:0|0:0|0:0,0:0:0:0:
503,234,88020,1,8,0:0:0:0:
501,218,88131,1,0,0:0:0:0:
500,202,88242,1,2,0:0:0:0:
499,186,88353,1,8,0:0:0:0:
436,106,88576,5,2,0:0:0:0:
436,106,88687,2,0,L|446:40,2,53.3333333333333,10|2|2,0:0|0:0|0:0,0:0:0:0:
361,157,89020,1,10,0:3:0:0:
267,96,89242,1,2,0:0:0:0:
267,96,89353,1,10,0:3:0:0:
202,195,89576,1,2,0:0:0:0:
202,195,89687,1,12,1:2:0:0:
85,48,90020,6,0,L|163:62,2,53.3333333333333,10|2|2,0:0|0:0|0:0,0:0:0:0:
14,112,90353,2,0,L|37:238,1,106.666666666667,8|2,0:0|0:0,0:0:0:0:
99,279,90687,1,10,0:0:0:0:
114,275,90798,1,2,0:0:0:0:
129,271,90909,1,2,0:0:0:0:
144,267,91020,1,8,0:0:0:0:
228,336,91242,5,2,0:0:0:0:
228,336,91353,2,0,L|292:344,2,53.3333333333333,8|0|2,0:0|0:0|0:0,0:0:0:0:
240,245,91687,2,0,L|292:251,2,53.3333333333333,10|2|2,0:0|0:0|0:0,0:0:0:0:
175,179,92020,1,8,0:0:0:0:
169,164,92131,1,0,0:0:0:0:
166,148,92242,1,2,0:0:0:0:
166,132,92353,1,8,1:2:0:0:
242,59,92576,5,2,0:0:0:0:
242,59,92687,2,0,L|369:78,1,106.666666666667,8|2,0:0|0:0,0:0:0:0:
309,181,93020,2,0,L|436:162,1,106.666666666667,10|2,0:0|0:0,0:0:0:0:
482,228,93353,1,8,0:0:0:0:
481,245,93465,1,0,0:0:0:0:
475,260,93576,1,2,0:0:0:0:
464,272,93687,1,8,0:0:0:0:
375,310,93909,5,2,0:0:0:0:
375,310,94020,2,0,L|369:364,2,53.3333333333333,10|2|2,0:0|0:0|0:0,0:0:0:0:
300,237,94353,2,0,B|175:217|226:322|82:304,1,213.333333333333,4|2,3:0|0:0,0:0:0:0:
37,246,94909,1,2,0:0:0:0:
37,246,95020,6,0,L|59:130,1,106.666666666667,12|2,1:2|0:0,0:0:0:0:
104,63,95354,2,0,P|75:53|31:57,2,53.3333333333333,10|2|2,0:0|0:0|0:0,0:0:0:0:
153,141,95687,1,8,0:0:0:0:
255,27,96020,1,10,0:0:0:0:
271,22,96132,1,2,0:0:0:0:
287,22,96243,1,2,0:0:0:0:
303,23,96354,6,0,P|365:46|419:50,1,106.666666666667,8|2,0:0|0:0,0:0:0:0:
448,133,96687,2,0,L|529:140,2,53.3333333333333,8|0|2,0:0|0:0|0:0,0:0:0:0:
448,222,97020,2,0,L|529:229,2,53.3333333333333,10|2|2,0:0|0:0|0:0,0:0:0:0:
377,288,97354,1,8,0:0:0:0:
361,288,97465,1,0,0:0:0:0:
345,283,97577,1,10,0:0:0:0:
334,273,97687,6,0,P|318:242|306:155,1,106.666666666667,8|8,0:3|0:0,0:0:0:0:
232,113,98020,2,0,L|218:48,2,53.3333333333333,8|0|8,0:3|0:0|0:0,0:0:0:0:
145,130,98354,2,0,L|131:65,2,53.3333333333333,10|2|10,0:0|0:0|0:0,0:0:0:0:
71,199,98687,1,10,0:0:0:0:
67,214,98798,1,2,0:0:0:0:
65,230,98909,1,10,0:0:0:0:
63,246,99020,1,8,0:0:0:0:
272,238,99243,5,10,0:0:0:0:
272,238,99354,2,0,L|282:304,2,53.3333333333333,10|2|10,0:0|0:0|0:0,0:0:0:0:
355,159,99687,2,0,B|299:149|299:149|273:106|273:106|213:96|213:96|173:126|173:126|116:116,1,266.666666666667,8|0,0:3|0:0,0:0:0:0:
64,185,100353,6,0,L|76:272,1,53.3333333333333,8|0,0:0|0:0,0:0:0:0:
150,292,100576,1,8,0:0:0:0:
163,284,100686,2,0,L|175:196,1,53.3333333333333,8|0,0:0|0:0,0:0:0:0:
366,255,101020,2,0,L|353:342,1,53.3333333333333,8|0,0:0|0:0,0:0:0:0:
280,362,101243,1,8,0:0:0:0:
267,354,101353,2,0,L|254:266,1,53.3333333333333,8|0,0:0|0:0,0:0:0:0:
271,154,101687,6,0,P|294:134|322:123,1,53.3333333333333,10|2,0:0|0:0,0:0:0:0:
350,42,101909,1,10,0:0:0:0:
364,34,102020,2,0,P|394:33|422:43,1,53.3333333333333,8|0,0:0|0:0,0:0:0:0:
241,54,102353,2,0,P|213:66|191:87,1,53.3333333333333,10|2,0:0|0:0,0:0:0:0:
105,80,102575,1,10,0:0:0:0:
93,89,102686,2,0,P|79:115|77:145,1,53.3333333333333,10|2,0:0|0:0,0:0:0:0:
142,217,103020,6,0,B|198:258|210:328|210:328|242:268|327:251,1,266.666666666667,10|0,0:0|0:0,0:0:0:0:
388,194,103687,2,0,P|416:201|443:219,2,53.3333333333333,10|2|10,0:0|0:0|0:0,0:0:0:0:
331,126,104020,1,10,0:0:0:0:
329,110,104131,1,2,0:0:0:0:
331,94,104242,1,10,0:0:0:0:
336,79,104353,6,0,B|182:120|232:16|62:63,1,266.666666666667,10|0,0:0|0:0,0:0:0:0:
52,143,105020,2,0,P|30:168|15:192,2,53.3333333333333,8|0|2,0:0|0:0|0:0,0:0:0:0:
111,210,105353,2,0,P|110:243|114:271,2,53.3333333333333,8|0|2,0:0|0:0|0:0,0:0:0:0:
194,184,105687,1,14,1:2:0:0:
256,192,105798,12,0,108131,0:0:0:0:
