osu file format v14

[General]
AudioFilename: audio.mp3
AudioLeadIn: 0
PreviewTime: 85337
Countdown: 0
SampleSet: Soft
StackLeniency: 0.5
Mode: 0
LetterboxInBreaks: 0
WidescreenStoryboard: 1

[Editor]
Bookmarks: 12004,22671,33337,38671,41337,52004,62671,78337,83337,85337,96004,106671
DistanceSpacing: 0.3
BeatDivisor: 6
GridSize: 16
TimelineZoom: 3

[Metadata]
Title:Entrance
TitleUnicode:Entrance
Artist:Ice
ArtistUnicode:Ice
Creator:Icekalt
Version:Ausgang
Source:DEEMO
Tags:corsace open grand final gf hd3 hypercyte hypercute schoolboy rhythm game cytus vol.2 freeform hardcore electronic instrumental komore video rayark
BeatmapID:2651888
BeatmapSetID:1276389

[Difficulty]
HPDrainRate:5
CircleSize:4.8
OverallDifficulty:9.3
ApproachRate:8.5
SliderMultiplier:2
SliderTickRate:1

[Events]
//Background and Video events
0,0,"ausgang.jpg",0,0
//Break Periods
//Storyboard Layer 0 (Background)
//Storyboard Layer 1 (Fail)
//Storyboard Layer 2 (Pass)
//Storyboard Layer 3 (Foreground)
//Storyboard Layer 4 (Overlay)
//Storyboard Sound Samples

[TimingPoints]
354,333.333333333333,4,2,1,45,1,0
16353,-100,4,2,1,55,0,0
27020,-100,4,2,1,60,0,0
31687,-100,4,2,1,40,0,0
36020,-100,4,2,1,30,0,0
37687,-100,4,2,1,60,0,0
61576,-83.3333333333333,4,2,1,60,0,0
61687,-83.3333333333333,4,2,2,60,0,0
71687,-83.3333333333333,4,2,1,60,0,0
72353,-83.3333333333333,4,2,2,60,0,0
82353,-83.3333333333333,4,2,2,65,0,0
83020,-83.3333333333333,4,2,2,70,0,0
83687,-83.3333333333333,4,2,2,75,0,0
84353,-71.4285714285714,4,2,2,70,0,0
94353,-71.4285714285714,4,2,1,40,0,0
94465,-71.4285714285714,4,2,2,70,0,0
108131,-71.4285714285714,4,2,2,5,0,0

[Colours]
Combo1 : 187,187,255
Combo2 : 147,103,237
Combo3 : 100,100,255

[HitObjects]
121,255,354,6,0,P|126:218|84:194,1,66.6666666666667,4|0,1:0|0:0,0:0:0:0:
31,274,577,2,0,B|138:250|115:346|219:335,1,200,10|0,0:0|0:0,0:0:0:0:
271,279,1020,5,2,0:0:0:0:
265,266,1242,1,0,0:0:0:0:
251,258,1465,1,0,0:0:0:0:
286,356,1687,5,2,0:0:0:0:
365,343,1909,1,0,0:0:0:0:
395,269,2131,1,0,0:0:0:0:
302,127,2353,5,2,0:0:0:0:
305,108,2576,1,0,0:0:0:0:
309,90,2798,1,0,0:0:0:0:
251,201,3020,5,2,0:0:0:0:
175,190,3242,1,0,0:0:0:0:
117,240,3465,1,0,0:0:0:0:
250,278,3687,5,2,0:0:0:0:
351,259,3909,1,0,0:0:0:0:
425,328,4132,1,0,0:0:0:0:
259,194,4353,5,2,0:0:0:0:
123,167,4575,1,0,0:0:0:0:
23,261,4798,1,0,0:0:0:0:
211,116,5020,5,2,0:0:0:0:
202,112,5242,1,2,0:0:0:0:
211,108,5465,1,2,0:0:0:0:
306,182,5687,5,2,1:2:0:0:
320,174,5910,1,0,0:0:0:0:
326,161,6132,1,0,0:0:0:0:
309,267,6354,5,2,0:0:0:0:
235,219,6576,1,0,0:0:0:0:
148,235,6798,1,0,0:0:0:0:
210,356,7020,5,2,0:0:0:0:
213,337,7243,1,0,0:0:0:0:
217,319,7465,1,0,0:0:0:0:
113,164,7687,5,2,0:0:0:0:
137,247,7909,1,0,0:0:0:0:
78,312,8132,1,0,0:0:0:0:
208,187,8354,5,2,1:2:0:0:
308,167,8576,1,0,0:0:0:0:
382,237,8799,1,0,0:0:0:0:
430,120,9020,5,2,0:0:0:0:
294,93,9242,1,0,0:0:0:0:
194,187,9465,1,0,0:0:0:0:
34,52,9687,5,2,1:2:0:0:
168,68,9909,1,0,0:0:0:0:
206,197,10131,1,0,0:0:0:0:
288,289,10353,5,2,0:0:0:0:
125,144,10576,1,0,0:0:0:0:
23,331,10798,1,0,0:0:0:0:
345,91,11020,5,6,1:2:0:0:
104,166,11687,5,2,0:0:0:0:
62,218,11798,1,0,0:0:0:0:
56,220,11909,1,0,0:0:0:0:
43,207,12020,1,0,0:0:0:0:
37,209,12131,1,0,0:0:0:0:
175,108,12353,5,2,0:0:0:0:
133,56,12464,1,0,0:0:0:0:
127,54,12575,1,0,0:0:0:0:
114,67,12686,1,0,0:0:0:0:
108,65,12797,1,0,0:0:0:0:
237,202,13020,5,2,0:0:0:0:
195,254,13131,1,0,0:0:0:0:
189,256,13242,1,0,0:0:0:0:
176,243,13353,1,0,0:0:0:0:
170,245,13464,1,0,0:0:0:0:
307,348,13687,5,2,0:0:0:0:
357,302,13798,1,0,0:0:0:0:
359,289,13909,1,0,0:0:0:0:
338,286,14020,1,0,0:0:0:0:
340,274,14131,1,0,0:0:0:0:
216,315,14353,5,2,0:0:0:0:
164,259,14464,1,0,0:0:0:0:
162,246,14575,1,0,0:0:0:0:
192,236,14686,1,0,0:0:0:0:
190,224,14797,1,0,0:0:0:0:
343,263,15020,5,2,0:0:0:0:
397,203,15131,1,0,0:0:0:0:
399,190,15242,1,0,0:0:0:0:
366,165,15353,1,0,0:0:0:0:
368,153,15464,1,0,0:0:0:0:
297,47,15687,5,2,0:0:0:0:
296,55,15798,1,0,0:0:0:0:
229,55,15909,1,2,0:0:0:0:
228,47,16020,1,0,0:0:0:0:
166,86,16131,1,2,0:0:0:0:
58,245,16353,5,2,1:2:0:0:
109,292,16465,1,0,0:0:0:0:
122,296,16576,1,0,0:0:0:0:
142,318,16687,1,0,0:0:0:0:
129,322,16798,1,0,0:0:0:0:
175,217,17020,5,2,0:0:0:0:
233,165,17132,1,0,0:0:0:0:
246,161,17243,1,0,0:0:0:0:
266,139,17354,1,0,0:0:0:0:
253,135,17465,1,0,0:0:0:0:
240,131,17576,1,0,0:0:0:0:
283,68,17687,5,0,1:2:0:0:
296,65,17798,1,0,0:0:0:0:
309,62,17909,1,0,0:0:0:0:
322,59,18020,1,0,0:0:0:0:
335,56,18131,1,0,0:0:0:0:
348,53,18242,1,0,0:0:0:0:
391,113,18353,5,2,0:0:0:0:
404,116,18464,1,0,0:0:0:0:
417,119,18575,1,0,0:0:0:0:
399,147,18686,1,0,0:0:0:0:
386,150,18797,1,0,0:0:0:0:
373,153,18908,1,0,0:0:0:0:
304,207,19020,5,2,1:2:0:0:
307,226,19131,1,0,0:0:0:0:
310,245,19242,1,0,0:0:0:0:
313,264,19353,1,0,0:0:0:0:
316,284,19465,1,0,0:0:0:0:
319,303,19576,1,0,0:0:0:0:
248,368,19687,5,2,0:2:0:0:
244,348,19798,1,0,2:0:0:0:
240,328,19909,1,0,2:0:0:0:
218,316,20020,1,0,2:0:0:0:
222,296,20131,1,0,2:0:0:0:
226,276,20242,1,0,2:0:0:0:
165,213,20353,5,2,1:2:0:0:
139,220,20465,1,0,2:0:0:0:
113,226,20576,1,0,2:0:0:0:
87,233,20687,1,0,2:0:0:0:
61,240,20798,1,0,2:0:0:0:
35,247,20909,1,0,2:0:0:0:
8,172,21020,5,2,0:2:0:0:
19,147,21131,1,0,0:0:0:0:
30,122,21242,1,0,0:0:0:0:
34,57,21353,1,0,0:0:0:0:
45,82,21464,1,0,0:0:0:0:
56,107,21575,1,0,0:0:0:0:
140,142,21687,5,12,1:2:0:0:
185,87,21798,1,2,0:0:0:0:
255,97,21909,1,2,0:0:0:0:
223,182,22020,5,2,0:0:0:0:
226,187,22131,1,0,0:0:0:0:
228,193,22242,1,2,0:0:0:0:
255,97,22353,5,2,1:2:0:0:
185,87,22464,1,2,0:0:0:0:
140,142,22575,1,2,0:0:0:0:
228,193,22687,5,2,0:0:0:0:
231,198,22798,1,0,0:0:0:0:
233,204,22909,1,0,0:0:0:0:
301,248,23020,5,2,1:2:0:0:
359,187,23131,1,2,0:0:0:0:
435,223,23242,1,2,0:0:0:0:
485,151,23353,5,2,0:0:0:0:
483,144,23465,1,0,0:0:0:0:
481,137,23576,1,0,0:0:0:0:
479,130,23687,5,2,1:2:0:0:
446,232,23798,1,2,0:0:0:0:
413,334,23909,1,2,0:0:0:0:
355,285,24020,5,2,0:0:0:0:
331,291,24131,1,0,0:0:0:0:
307,297,24242,1,0,0:0:0:0:
230,324,24353,5,2,1:2:0:0:
229,336,24465,1,2,0:0:0:0:
228,349,24576,1,2,0:0:0:0:
156,304,24687,5,10,0:2:0:0:
155,292,24799,1,2,0:0:0:0:
154,279,24910,1,2,0:0:0:0:
252,224,25020,5,10,0:2:0:0:
251,236,25132,1,2,0:0:0:0:
250,249,25243,1,2,0:0:0:0:
164,182,25353,5,10,0:2:0:0:
145,106,25465,1,2,0:0:0:0:
168,197,25576,1,2,0:0:0:0:
239,62,25687,5,2,1:2:0:0:
269,48,25798,1,0,0:0:0:0:
302,44,25909,1,0,0:0:0:0:
331,58,26020,1,10,0:2:0:0:
349,85,26131,1,0,0:0:0:0:
327,69,26242,1,0,0:0:0:0:
341,94,26353,1,10,0:2:0:0:
365,116,26465,1,2,0:0:0:0:
395,129,26576,1,2,0:0:0:0:
428,131,26687,1,10,0:0:0:0:
398,138,26798,1,2,0:0:0:0:
426,142,26909,1,2,0:0:0:0:
456,167,27020,6,0,P|473:190|480:237,1,66.6666666666667,6|0,1:2|0:0,0:0:0:0:
472,247,27242,1,0,0:0:0:0:
369,213,27353,5,10,0:0:0:0:
320,265,27465,1,0,0:0:0:0:
347,331,27576,1,0,0:0:0:0:
446,317,27687,5,10,0:0:0:0:
461,329,27798,1,2,0:0:0:0:
470,344,27909,1,2,0:0:0:0:
347,331,28020,5,8,0:0:0:0:
320,265,28131,1,0,0:0:0:0:
369,213,28243,1,2,0:0:0:0:
317,129,28353,5,2,1:2:0:0:
271,135,28465,1,2,0:0:0:0:
225,129,28576,1,2,0:0:0:0:
183,149,28687,1,2,0:0:0:0:
155,186,28798,1,2,0:0:0:0:
156,228,28909,1,2,0:0:0:0:
175,145,29020,5,8,0:0:0:0:
147,182,29131,1,0,0:0:0:0:
147,228,29242,1,0,0:0:0:0:
135,272,29353,1,0,0:0:0:0:
101,303,29465,1,0,0:0:0:0:
55,310,29576,1,0,0:0:0:0:
10,298,29687,6,0,B|-4:269|8:231|8:231|46:209|43:161,1,133.333333333333,2|2,1:2|0:0,0:0:0:0:
18,112,30020,1,10,0:0:0:0:
35,83,30131,1,2,0:0:0:0:
65,69,30242,1,2,0:0:0:0:
97,74,30353,1,2,0:0:0:0:
130,96,30465,1,2,0:0:0:0:
153,128,30576,1,2,0:0:0:0:
185,150,30687,1,2,0:0:0:0:
231,145,30798,1,2,0:0:0:0:
264,113,30909,1,2,0:0:0:0:
190,159,31020,5,8,1:2:0:0:
236,154,31131,1,0,0:0:0:0:
269,122,31242,1,2,0:0:0:0:
322,202,31353,5,8,0:0:0:0:
276,197,31464,1,0,0:0:0:0:
243,165,31575,1,2,0:0:0:0:
342,110,31687,5,4,3:0:0:0:
361,121,31798,1,0,0:0:0:0:
370,143,31909,1,0,0:0:0:0:
377,132,32020,5,0,0:0:0:0:
371,116,32131,1,0,0:0:0:0:
357,108,32242,1,0,0:0:0:0:
395,224,32353,5,6,1:2:0:0:
395,232,32465,1,0,0:0:0:0:
389,228,32576,1,2,0:0:0:0:
456,175,32687,1,2,0:0:0:0:
449,171,32799,1,0,0:0:0:0:
455,167,32910,1,2,0:0:0:0:
472,257,33020,5,2,0:0:0:0:
478,253,33132,1,0,0:0:0:0:
478,260,33243,1,2,0:0:0:0:
395,224,33353,1,2,0:0:0:0:
395,232,33465,1,0,0:0:0:0:
389,228,33576,1,2,0:0:0:0:
448,339,33687,5,2,0:0:0:0:
454,335,33799,1,0,0:0:0:0:
454,342,33910,1,2,0:0:0:0:
371,306,34020,1,2,0:0:0:0:
371,314,34132,1,0,0:0:0:0:
365,310,34243,1,2,0:0:0:0:
308,254,34353,5,2,0:0:0:0:
236,258,34465,1,0,0:0:0:0:
185,310,34576,1,2,0:0:0:0:
121,267,34687,5,2,0:0:0:0:
118,260,34798,1,2,0:0:0:0:
115,253,34909,1,2,0:0:0:0:
121,241,35020,1,2,0:0:0:0:
306,153,37687,5,2,1:2:0:0:
306,153,37798,1,0,1:2:0:0:
306,153,37909,1,0,1:2:0:0:
259,225,38020,5,2,1:2:0:0:
310,168,38131,1,2,1:2:0:0:
380,203,38242,1,2,1:2:0:0:
412,105,38353,5,2,1:2:0:0:
412,105,38464,1,0,1:2:0:0:
412,105,38575,1,0,1:2:0:0:
485,75,38687,5,2,1:2:0:0:
378,31,38798,1,2,1:2:0:0:
452,0,38909,1,2,1:2:0:0:
322,95,39020,5,2,1:2:0:0:
322,95,39131,1,0,1:2:0:0:
322,95,39242,1,0,1:2:0:0:
244,78,39353,5,2,1:2:0:0:
265,12,39465,1,2,1:2:0:0:
227,84,39576,1,2,1:2:0:0:
164,25,39687,5,2,1:2:0:0:
114,82,39798,1,2,1:2:0:0:
165,140,39909,1,2,1:2:0:0:
109,78,40020,5,2,1:2:0:0:
159,21,40131,1,2,1:2:0:0:
105,73,40242,1,2,1:2:0:0:
30,82,40353,6,0,P|26:111|47:147,1,66.6666666666667,12|0,1:2|0:0,0:0:0:0:
57,152,40576,1,2,0:0:0:0:
12,240,40687,2,0,L|83:229,1,66.6666666666667,8|0,0:0|0:0,0:0:0:0:
88,220,40909,1,2,0:0:0:0:
169,324,41020,6,0,L|98:313,1,66.6666666666667,8|0,0:0|0:0,0:0:0:0:
93,304,41242,1,2,0:0:0:0:
160,251,41353,1,8,0:0:0:0:
166,206,41465,1,0,0:0:0:0:
172,253,41576,1,2,0:0:0:0:
248,291,41687,5,8,0:0:0:0:
269,285,41798,1,0,0:0:0:0:
285,272,41909,1,2,0:0:0:0:
360,273,42020,5,8,0:0:0:0:
372,254,42131,1,0,0:0:0:0:
376,234,42242,1,2,0:0:0:0:
434,187,42354,5,8,0:0:0:0:
431,164,42465,1,0,0:0:0:0:
421,147,42576,1,2,0:0:0:0:
376,234,42687,5,8,0:0:0:0:
372,254,42798,1,0,0:0:0:0:
360,273,42909,1,2,0:0:0:0:
286,218,43020,6,0,L|276:147,1,66.6666666666667,8|0,0:0|0:0,0:0:0:0:
287,142,43242,1,2,0:0:0:0:
210,73,43353,1,8,0:0:0:0:
168,75,43465,1,0,0:0:0:0:
208,88,43576,1,2,0:0:0:0:
132,145,43687,6,0,B|90:154|90:154|61:187|69:247,1,133.333333333333,8|0,0:0|0:0,0:0:0:0:
145,301,44020,1,8,0:0:0:0:
188,284,44131,1,0,0:0:0:0:
234,289,44242,1,2,0:0:0:0:
142,290,44353,5,8,0:0:0:0:
185,273,44464,1,0,0:0:0:0:
231,278,44575,1,2,0:0:0:0:
277,286,44687,1,8,0:0:0:0:
319,266,44798,1,0,0:0:0:0:
339,223,44909,1,2,0:0:0:0:
285,150,45020,6,0,B|268:120|268:120|273:74,1,66.6666666666667,10|0,1:3|0:0,0:0:0:0:
341,215,45242,1,2,0:0:0:0:
452,127,45353,2,0,B|443:158|443:158|417:180,1,66.6666666666667,10|0,1:3|0:0,0:0:0:0:
343,208,45576,1,2,0:0:0:0:
373,78,45687,5,12,1:2:0:0:
371,71,45798,1,0,0:0:0:0:
370,64,45909,1,2,0:0:0:0:
302,17,46020,5,8,0:0:0:0:
225,16,46131,1,0,0:0:0:0:
191,86,46242,1,2,0:0:0:0:
101,77,46353,6,0,L|88:5,1,66.6666666666667,8|0,0:0|0:0,0:0:0:0:
100,1,46576,1,2,0:0:0:0:
34,125,46687,5,8,0:0:0:0:
55,196,46798,1,0,0:0:0:0:
131,212,46909,1,2,0:0:0:0:
54,284,47020,5,8,0:0:0:0:
47,282,47131,1,0,0:0:0:0:
40,280,47242,1,2,0:0:0:0:
131,212,47353,5,8,0:0:0:0:
55,196,47464,1,0,0:0:0:0:
34,125,47575,1,2,0:0:0:0:
70,47,47687,5,8,0:0:0:0:
77,45,47798,1,0,0:0:0:0:
84,43,47909,1,2,0:0:0:0:
24,123,48020,5,8,0:0:0:0:
49,205,48131,1,0,0:0:0:0:
135,223,48242,1,2,0:0:0:0:
208,174,48353,5,8,0:0:0:0:
207,167,48465,1,0,0:0:0:0:
206,160,48576,1,2,0:0:0:0:
278,229,48687,5,10,0:0:0:0:
324,163,48798,1,2,0:0:0:0:
390,213,48909,1,2,0:0:0:0:
304,306,49020,2,0,B|360:347|360:347|396:290,1,133.333333333333,8|2,0:0|0:0,0:0:0:0:
402,213,49353,5,10,0:0:0:0:
322,152,49464,1,2,0:0:0:0:
266,232,49575,1,2,0:0:0:0:
202,164,49687,5,8,0:0:0:0:
187,97,49798,1,0,0:0:0:0:
173,30,49909,1,2,0:0:0:0:
107,110,50020,5,8,0:0:0:0:
106,116,50131,1,0,0:0:0:0:
105,122,50242,1,2,0:0:0:0:
133,216,50353,5,8,1:3:0:0:
30,177,50465,1,2,1:3:0:0:
134,223,50576,1,2,1:3:0:0:
33,270,50687,5,8,1:3:0:0:
136,231,50799,1,2,1:3:0:0:
32,277,50910,1,2,1:3:0:0:
166,338,51020,6,0,B|248:343|201:295|317:296,1,133.333333333333,4|2,1:2|0:0,0:0:0:0:
370,334,51353,1,8,0:0:0:0:
403,275,51465,1,0,0:0:0:0:
363,221,51576,1,2,0:0:0:0:
374,116,51687,2,0,B|339:147|339:147|362:267,1,133.333333333333,8|2,0:0|0:0,0:0:0:0:
258,164,52020,5,8,0:0:0:0:
239,99,52131,1,0,0:0:0:0:
272,41,52242,1,2,0:0:0:0:
173,29,52353,2,0,P|143:46|128:81,1,66.6666666666667,8|0,0:0|0:0,0:0:0:0:
135,87,52576,1,2,0:0:0:0:
85,160,52687,5,8,0:0:0:0:
79,151,52798,1,0,0:0:0:0:
73,142,52909,1,2,0:0:0:0:
57,232,53020,5,10,0:0:0:0:
123,231,53131,1,2,0:0:0:0:
165,179,53242,1,2,0:0:0:0:
222,246,53353,5,10,0:0:0:0:
216,288,53465,1,2,0:0:0:0:
233,250,53576,1,2,0:0:0:0:
282,175,53687,6,0,P|273:143|242:119,1,66.6666666666667,10|0,1:2|0:0,0:0:0:0:
238,127,53909,1,2,0:0:0:0:
283,51,54020,5,8,0:0:0:0:
313,41,54131,1,0,0:0:0:0:
344,48,54242,1,2,0:0:0:0:
270,46,54353,5,8,0:0:0:0:
327,11,54465,1,0,0:0:0:0:
389,34,54576,1,2,0:0:0:0:
426,112,54687,5,8,0:0:0:0:
423,131,54798,1,0,0:0:0:0:
420,150,54909,1,2,0:0:0:0:
345,224,55020,6,0,B|361:182|361:182|476:162,1,133.333333333333,8|2,0:0|0:0,0:0:0:0:
302,117,55353,1,8,0:0:0:0:
233,148,55465,1,0,0:0:0:0:
164,179,55576,1,2,0:0:0:0:
96,118,55687,6,0,L|99:94,10,16.6666666666667,8|0|0|0|0|0|0|0|0|0|0,0:3|0:0|0:0|0:0|0:0|0:0|0:0|0:0|0:0|0:0|0:0,0:0:0:0:
10,231,56020,2,0,L|7:207,10,16.6666666666667,8|0|0|0|0|0|0|0|0|0|0,0:3|0:0|0:0|0:0|0:0|0:0|0:0|0:0|0:0|0:0|0:0,0:0:0:0:
110,346,56353,6,0,P|139:305|218:308,1,133.333333333333,14|2,1:2|0:0,0:0:0:0:
288,266,56687,1,8,0:0:0:0:
339,318,56798,1,0,0:0:0:0:
407,292,56909,1,2,0:0:0:0:
388,201,57020,6,0,B|441:160|441:160|473:233,1,133.333333333333,10|0,1:2|0:0,0:0:0:0:
511,115,57353,1,8,0:0:0:0:
460,63,57464,1,0,0:0:0:0:
392,89,57575,1,2,0:0:0:0:
328,23,57687,6,0,P|307:3|260:3,1,66.6666666666667,10|0,1:2|0:0,0:0:0:0:
259,12,57909,1,2,0:0:0:0:
189,111,58020,5,8,0:0:0:0:
173,74,58131,1,0,0:0:0:0:
180,34,58242,1,2,0:0:0:0:
148,177,58353,5,8,0:0:0:0:
198,122,58464,1,0,0:0:0:0:
271,125,58576,1,2,0:0:0:0:
204,241,58687,5,8,0:0:0:0:
154,186,58798,1,0,0:0:0:0:
81,189,58910,1,2,0:0:0:0:
21,262,59020,5,10,1:2:0:0:
26,271,59131,1,0,0:0:0:0:
31,280,59242,1,2,0:0:0:0:
59,360,59353,5,8,0:0:0:0:
118,312,59465,1,0,0:0:0:0:
192,330,59576,1,2,0:0:0:0:
254,270,59687,5,8,0:0:0:0:
320,317,59798,1,0,0:0:0:0:
396,289,59909,1,2,0:0:0:0:
334,216,60020,5,8,0:0:0:0:
335,206,60131,1,0,0:0:0:0:
337,196,60242,1,2,0:0:0:0:
403,133,60353,6,0,L|485:147,1,66.6666666666667,10|0,1:3|0:0,0:0:0:0:
356,62,60576,1,2,0:0:0:0:
475,159,60687,2,0,B|488:188|488:188|476:248,1,66.6666666666667,10|0,1:3|0:0,0:0:0:0:
356,62,60909,1,0,0:0:0:0:
247,169,61020,5,8,1:0:0:0:
356,62,61131,1,0,1:0:0:0:
403,133,61242,1,0,1:0:0:0:
258,80,61353,1,10,1:2:0:0:
105,253,61576,5,2,0:0:0:0:
152,353,61687,2,0,P|197:310|296:322,1,159.999995117188,12|2,1:3|0:0,0:0:0:0:
358,192,62020,2,0,P|322:199|293:234,1,79.9999975585938,8|0,0:0|0:0,0:0:0:0:
299,309,62242,1,2,0:0:0:0:
435,377,62353,2,0,B|462:314|406:301|426:207,1,159.999995117188,8|2,0:0|0:0,0:0:0:0:
277,132,62687,6,0,P|301:104|345:96,1,79.9999975585938,8|0,0:0|0:0,0:0:0:0:
411,125,62909,1,2,0:0:0:0:
331,0,63020,2,0,P|369:6|396:35,1,79.9999975585938,8|0,0:2|0:0,0:0:0:0:
412,136,63242,1,2,0:0:0:0:
248,37,63353,6,0,L|87:64,1,159.999995117188,8|2,1:2|0:0,0:0:0:0:
300,118,63687,2,0,P|295:192|222:206,1,159.999995117188,8|2,1:2|0:0,0:0:0:0:
54,263,64020,2,0,L|174:119,1,159.999995117188,8|2,1:2|0:0,0:0:0:0:
189,371,64353,2,0,P|161:348|153:298,1,79.9999975585938,8|0,1:3|0:0,0:0:0:0:
221,205,64576,1,2,0:0:0:0:
304,310,64687,2,0,P|269:319|223:297,1,79.9999975585938,8|0,0:0|0:0,0:0:0:0:
214,194,64909,1,2,0:0:0:0:
143,314,65020,1,8,0:0:0:0:
37,61,65242,6,0,P|56:99|58:140,1,79.9999975585938,2|0,0:2|0:0,0:0:0:0:
129,30,65465,2,0,P|148:68|150:109,1,79.9999975585938,2|0,0:2|0:0,0:0:0:0:
302,59,65687,6,0,B|254:80|254:80|239:200,1,159.999995117188,10|2,1:2|0:0,0:0:0:0:
114,239,66020,2,0,B|162:260|162:260|177:380,1,159.999995117188,8|0,0:0|0:0,0:0:0:0:
336,291,66353,6,0,L|241:306,1,79.9999975585938,8|0,0:3|0:0,0:0:0:0:
414,333,66576,1,2,0:0:0:0:
359,211,66687,2,0,B|348:174|348:174|310:143,1,79.9999975585938,10|0,0:3|0:0,0:0:0:0:
403,329,66909,1,2,0:0:0:0:
471,220,67020,6,0,B|490:130|490:130|438:74,1,159.999995117188,12|2,1:2|0:0,0:0:0:0:
315,147,67353,2,0,P|293:107|304:65,1,79.9999975585938,8|0,0:0|0:0,0:0:0:0:
369,15,67576,1,2,0:0:0:0:
208,82,67687,2,0,P|220:38|258:16,1,79.9999975585938,8|0,0:0|0:0,0:0:0:0:
359,11,67909,1,2,0:0:0:0:
443,99,68020,6,0,B|396:161|396:161|419:266,1,159.999995117188,8|2,0:0|0:0,0:0:0:0:
480,352,68353,2,0,B|527:290|527:290|504:185,1,159.999995117188,8|0,0:0|0:0,0:0:0:0:
372,344,68687,2,0,P|279:342|262:256,1,159.999995117188,8|0,1:2|0:0,0:0:0:0:
102,206,69020,2,0,P|195:204|212:118,1,159.999995117188,8|0,1:2|0:0,0:0:0:0:
373,77,69353,2,0,P|280:75|263:-11,1,159.999995117188,8|0,1:2|0:0,0:0:0:0:
304,169,69687,5,10,0:0:0:0:
353,229,69798,1,2,0:0:0:0:
428,215,69909,1,2,0:0:0:0:
328,300,70020,5,10,0:0:0:0:
325,309,70131,1,2,0:0:0:0:
322,318,70242,1,2,0:0:0:0:
199,284,70353,6,0,P|228:253|290:242,1,79.9999975585938,8|0,0:0|0:0,0:0:0:0:
141,196,70576,1,2,0:0:0:0:
304,169,70687,2,0,P|275:138|213:127,1,79.9999975585938,8|0,0:0|0:0,0:0:0:0:
152,201,70910,1,2,0:0:0:0:
64,121,71020,5,8,0:0:0:0:
49,75,71131,1,0,0:0:0:0:
70,32,71242,1,2,0:0:0:0:
74,132,71353,5,8,0:0:0:0:
113,104,71465,1,0,0:0:0:0:
160,100,71576,1,2,0:0:0:0:
258,162,71687,5,8,1:3:0:0:
407,115,71798,1,2,1:3:0:0:
326,78,71909,1,2,1:3:0:0:
371,224,72020,5,8,1:3:0:0:
329,69,72131,1,2,1:3:0:0:
408,107,72242,1,2,1:3:0:0:
258,162,72353,6,0,P|231:227|280:334,1,159.999995117188,12|2,1:2|0:0,0:0:0:0:
116,247,72687,2,0,P|159:247|203:260,1,79.9999975585938,8|0,0:0|0:0,0:0:0:0:
273,320,72909,1,2,0:0:0:0:
366,211,73020,2,0,P|419:184|463:274,1,159.999995117188,8|2,0:0|0:0,0:0:0:0:
414,114,73353,6,0,P|389:85|344:100,1,79.9999975585938,8|0,0:0|0:0,0:0:0:0:
296,184,73576,1,2,0:0:0:0:
200,88,73687,2,0,P|225:59|270:74,1,79.9999975585938,8|0,0:0|0:0,0:0:0:0:
296,173,73909,1,0,0:0:0:0:
180,285,74020,6,0,B|209:239|209:239|345:268,1,159.999995117188,8|0,1:2|0:0,0:0:0:0:
156,178,74353,2,0,B|127:132|127:132|23:154,1,159.999995117188,8|0,1:2|0:0,0:0:0:0:
180,71,74687,2,0,B|209:25|209:25|312:47,1,159.999995117188,8|2,1:2|0:0,0:0:0:0:
458,195,75020,2,0,B|452:140|452:140|317:107,1,159.999995117188,8|2,1:3|0:0,0:0:0:0:
214,239,75353,2,0,P|245:210|299:204,1,79.9999975585938,8|0,0:0|0:0,0:0:0:0:
338,276,75576,1,2,0:0:0:0:
362,138,75687,1,8,0:0:0:0:
26,145,75909,6,0,P|64:149|108:176,1,79.9999975585938,2|0,0:0|0:0,0:0:0:0:
54,63,76131,2,0,P|92:67|136:94,1,79.9999975585938,2|0,0:0|0:0,0:0:0:0:
214,239,76353,6,0,B|263:205|263:205|248:86,1,159.999995117188,10|0,0:0|0:0,0:0:0:0:
425,354,76687,2,0,B|376:320|376:320|391:201,1,159.999995117188,10|0,0:0|0:0,0:0:0:0:
172,370,77020,2,0,L|165:338,10,19.9999993896485,8|0|0|0|0|0|0|0|0|0|0,0:3|0:0|0:0|0:0|0:0|0:0|0:0|0:0|0:0|0:0|0:0,0:0:0:0:
72,232,77353,2,0,L|79:200,6,19.9999993896485,8|0|0|0|0|0|0,0:3|0:0|0:0|0:0|0:0|0:0|0:0,0:0:0:0:
0,207,77576,1,8,0:3:0:0:
101,107,77687,6,0,B|149:153|149:153|244:128,1,159.999995117188,14|2,1:2|0:0,0:0:0:0:
351,254,78020,2,0,B|303:300|303:300|208:275,1,159.999995117188,8|2,0:0|0:0,0:0:0:0:
328,148,78353,2,0,B|361:123|361:123|406:130,1,79.9999975585938,8|0,0:0|0:0,0:0:0:0:
262,62,78576,1,2,0:0:0:0:
348,0,78687,2,0,B|371:33|371:33|416:41,1,79.9999975585938,8|0,0:0|0:0,0:0:0:0:
248,61,78909,1,2,0:0:0:0:
167,3,79020,5,10,0:0:0:0:
112,13,79131,1,2,0:0:0:0:
72,52,79242,1,2,0:0:0:0:
72,107,79353,1,10,0:0:0:0:
100,155,79465,1,2,0:0:0:0:
96,210,79576,1,2,0:0:0:0:
84,105,79687,5,8,0:0:0:0:
112,153,79799,1,0,0:0:0:0:
106,208,79910,1,2,0:0:0:0:
189,149,80020,5,8,0:0:0:0:
189,133,80131,1,0,0:0:0:0:
181,118,80242,1,2,0:0:0:0:
180,225,80353,5,8,0:0:0:0:
222,247,80465,1,0,0:0:0:0:
269,238,80576,1,2,0:0:0:0:
296,198,80687,1,8,0:0:0:0:
325,160,80798,1,0,0:0:0:0:
371,148,80909,1,2,0:0:0:0:
290,189,81020,5,8,0:0:0:0:
319,151,81131,1,0,0:0:0:0:
365,139,81242,1,2,0:0:0:0:
412,146,81353,1,8,0:0:0:0:
458,132,81465,1,0,0:0:0:0:
485,93,81576,1,2,0:0:0:0:
401,21,81687,5,8,0:0:0:0:
396,44,81798,1,0,0:0:0:0:
400,67,81909,1,0,0:0:0:0:
365,139,82020,5,8,0:0:0:0:
302,102,82131,1,0,0:0:0:0:
234,125,82242,1,2,0:0:0:0:
243,254,82353,5,12,0:3:0:0:
29,110,82576,1,8,0:3:0:0:
504,209,82798,1,8,0:3:0:0:
273,255,83020,5,8,0:3:0:0:
491,101,83243,1,8,0:3:0:0:
19,232,83465,1,8,0:3:0:0:
243,254,83687,5,10,0:3:0:0:
0,73,83910,1,10,0:3:0:0:
512,287,84132,1,10,0:3:0:0:
248,28,84353,6,0,L|232:133,1,93.3333304850261,14|0,1:2|0:0,0:0:0:0:
241,135,84576,1,2,0:0:0:0:
154,37,84687,5,10,0:0:0:0:
97,85,84798,1,2,0:0:0:0:
103,159,84909,1,2,0:0:0:0:
11,208,85020,2,0,P|111:195|159:285,1,186.666660970052,8|2,0:0|0:0,0:0:0:0:
222,373,85353,5,10,0:0:0:0:
241,301,85464,1,2,0:0:0:0:
311,275,85575,1,2,0:0:0:0:
316,171,85686,2,0,B|338:261|338:261|434:238,1,186.666660970052,8|2,0:0|0:0,0:0:0:0:
438,135,86020,5,8,0:0:0:0:
420,138,86131,1,0,0:0:0:0:
407,152,86242,1,2,0:0:0:0:
349,95,86353,5,10,0:0:0:0:
393,46,86465,1,2,0:0:0:0:
456,59,86576,1,2,0:0:0:0:
512,174,86687,5,8,0:0:0:0:
458,238,86798,1,0,0:0:0:0:
375,223,86909,1,2,0:0:0:0:
346,335,87020,2,0,P|343:234|279:173,1,186.666660970052,8|2,1:2|0:0,0:0:0:0:
188,252,87353,5,8,0:0:0:0:
215,257,87465,1,0,0:0:0:0:
241,249,87576,1,2,0:0:0:0:
132,196,87687,5,10,0:0:0:0:
165,139,87798,1,2,0:0:0:0:
229,127,87909,1,2,0:0:0:0:
316,77,88020,5,8,0:0:0:0:
270,6,88131,1,0,0:0:0:0:
186,13,88242,1,2,0:0:0:0:
304,161,88353,5,8,0:0:0:0:
0,252,88576,5,2,0:0:0:0:
23,289,88687,1,10,0:0:0:0:
109,253,88798,1,2,0:0:0:0:
158,331,88909,1,2,0:0:0:0:
271,277,89020,6,0,B|256:246|256:246|186:258,1,93.3333304850261,10|0,0:3|0:0,0:0:0:0:
339,335,89242,1,2,0:0:0:0:
366,213,89353,2,0,B|381:182|381:182|451:194,1,93.3333304850261,10|0,0:3|0:0,0:0:0:0:
338,349,89575,1,2,0:0:0:0:
273,146,89687,6,0,B|176:110|184:197|94:171,1,186.666660970052,12|0,1:2|0:0,0:0:0:0:
7,66,90020,5,10,0:0:0:0:
73,31,90131,1,2,0:0:0:0:
119,89,90242,1,2,0:0:0:0:
223,30,90353,2,0,P|144:99|136:195,1,186.666660970052,8|2,0:0|0:0,0:0:0:0:
91,310,90687,5,10,0:0:0:0:
149,263,90798,1,2,0:0:0:0:
219,287,90909,1,2,0:0:0:0:
299,196,91020,2,0,B|245:210|245:210|270:350,1,186.666660970052,8|2,0:0|0:0,0:0:0:0:
358,379,91353,5,8,0:0:0:0:
359,360,91465,1,0,0:0:0:0:
360,341,91576,1,2,0:0:0:0:
446,314,91687,5,10,0:0:0:0:
423,252,91798,1,2,0:0:0:0:
357,252,91909,1,2,0:0:0:0:
458,320,92020,5,8,0:0:0:0:
499,247,92131,1,0,0:0:0:0:
457,173,92242,1,2,0:0:0:0:
498,54,92353,2,0,P|457:150|379:119,1,186.666660970052,8|2,1:2|0:0,0:0:0:0:
316,31,92687,5,8,0:0:0:0:
303,56,92798,1,0,0:0:0:0:
303,83,92909,1,2,0:0:0:0:
263,169,93020,5,10,0:0:0:0:
214,125,93131,1,2,0:0:0:0:
214,59,93242,1,2,0:0:0:0:
169,199,93353,5,8,0:0:0:0:
84,196,93465,1,0,0:0:0:0:
128,128,93576,1,2,0:0:0:0:
127,137,93687,1,8,0:0:0:0:
313,237,93909,5,2,0:0:0:0:
306,232,94020,1,10,0:0:0:0:
322,304,94131,1,2,0:0:0:0:
394,288,94242,1,2,0:0:0:0:
378,216,94353,6,0,P|368:163|348:106,1,93.3333304850261,4|2,0:3|0:0,0:0:0:0:
466,134,94576,2,0,P|456:81|436:24,1,93.3333304850261,4|2,0:3|0:0,0:0:0:0:
368,55,94798,1,2,0:0:0:0:
337,124,94909,1,2,0:0:0:0:
281,279,95020,6,0,P|302:243|270:190,1,93.3333304850261,12|0,1:2|0:0,0:0:0:0:
268,190,95242,1,2,0:0:0:0:
186,270,95353,1,10,0:0:0:0:
116,231,95464,1,2,0:0:0:0:
128,157,95575,1,2,0:0:0:0:
78,77,95687,2,0,P|141:165|120:250,1,186.666660970052,8|2,0:0|0:0,0:0:0:0:
217,332,96019,5,10,0:0:0:0:
290,350,96130,1,2,0:0:0:0:
333,288,96241,1,2,0:0:0:0:
412,376,96353,2,0,B|357:329|357:329|379:208,1,186.666660970052,8|0,0:0|0:0,0:0:0:0:
310,132,96686,5,8,0:0:0:0:
328,135,96797,1,0,0:0:0:0:
341,149,96908,1,2,0:0:0:0:
227,126,97019,5,10,0:0:0:0:
251,64,97131,1,2,0:0:0:0:
312,43,97242,1,2,0:0:0:0:
327,230,97353,5,8,0:0:0:0:
406,203,97464,1,0,0:0:0:0:
425,121,97575,1,10,0:0:0:0:
393,286,97687,6,0,B|405:331|405:331|450:358,1,93.3333304850261,8|0,0:3|0:0,0:0:0:0:
476,279,97909,1,8,0:0:0:0:
318,236,98020,2,0,B|306:281|306:281|261:308,1,93.3333304850261,8|0,0:3|0:0,0:0:0:0:
235,229,98242,1,8,0:0:0:0:
329,130,98353,5,10,0:0:0:0:
275,52,98465,1,2,0:0:0:0:
190,92,98576,1,10,0:0:0:0:
71,39,98687,5,10,0:0:0:0:
142,17,98798,1,2,0:0:0:0:
188,75,98909,1,10,0:0:0:0:
107,126,99020,5,8,0:0:0:0:
296,272,99242,5,10,0:0:0:0:
299,257,99353,1,10,0:0:0:0:
358,329,99465,1,2,0:0:0:0:
447,303,99576,1,10,0:0:0:0:
392,221,99687,6,0,L|401:191,10,23.3333326212565,8|0|0|0|0|0|0|0|0|0|0,0:3|0:0|0:0|0:0|0:0|0:0|0:0|0:0|0:0|0:0|0:0,0:0:0:0:
334,143,100020,2,0,L|332:114,10,23.3333326212565,8|0|0|0|0|0|0|0|0|0|0,0:3|0:0|0:0|0:0|0:0|0:0|0:0|0:0|0:0|0:0|0:0,0:0:0:0:
264,187,100353,5,8,0:0:0:0:
238,198,100465,1,0,0:0:0:0:
210,195,100576,1,8,0:0:0:0:
125,223,100687,5,8,0:0:0:0:
139,267,100798,1,0,0:0:0:0:
184,278,100909,1,8,0:0:0:0:
213,187,101020,5,8,0:0:0:0:
208,159,101131,1,0,0:0:0:0:
195,134,101242,1,8,0:0:0:0:
178,44,101353,5,8,0:0:0:0:
242,29,101465,1,0,0:0:0:0:
265,89,101576,1,8,0:0:0:0:
188,137,101687,5,10,0:0:0:0:
160,133,101798,1,2,0:0:0:0:
134,143,101909,1,10,0:0:0:0:
42,155,102020,5,8,0:0:0:0:
7,78,102131,1,0,0:0:0:0:
89,62,102242,1,8,0:0:0:0:
130,152,102353,5,10,0:0:0:0:
129,180,102465,1,2,0:0:0:0:
135,207,102576,1,10,0:0:0:0:
213,277,102687,5,10,0:0:0:0:
277,196,102798,1,2,0:0:0:0:
360,255,102909,1,10,0:0:0:0:
389,123,103020,5,10,0:0:0:0:
386,111,103076,1,2,0:0:0:0:
383,98,103131,1,2,0:0:0:0:
381,86,103187,1,2,0:0:0:0:
378,73,103242,1,2,0:0:0:0:
375,60,103298,1,2,0:0:0:0:
373,48,103353,2,0,L|379:3,10,23.3333326212565,8|0|0|0|0|0|0|0|0|0|0,0:3|0:0|0:0|0:0|0:0|0:0|0:0|0:0|0:0|0:0|0:0,0:0:0:0:
300,80,103687,5,10,0:0:0:0:
232,111,103798,1,2,0:0:0:0:
188,50,103909,1,10,0:0:0:0:
107,137,104020,5,10,0:0:0:0:
184,172,104131,1,2,0:0:0:0:
235,102,104242,1,10,0:0:0:0:
313,213,104353,5,10,0:0:0:0:
315,226,104409,1,2,0:0:0:0:
315,240,104465,1,2,0:0:0:0:
310,253,104520,1,2,0:0:0:0:
304,266,104576,1,2,0:0:0:0:
294,275,104631,1,2,0:0:0:0:
281,281,104687,2,0,P|265:272|241:272,10,23.3333326212565,8|0|0|0|0|0|0|0|0|0|0,0:2|0:0|0:0|0:0|0:0|0:0|0:0|0:0|0:0|0:0|0:0,0:0:0:0:
203,329,105020,5,8,0:0:0:0:
157,250,105131,1,0,0:0:0:0:
66,269,105242,1,2,0:0:0:0:
117,346,105353,5,8,0:0:0:0:
117,354,105465,1,0,0:0:0:0:
111,350,105576,1,2,0:0:0:0:
186,179,105687,5,10,1:2:0:0:
256,192,105798,12,0,108131,0:0:0:0:
