osu file format v14

[General]
AudioFilename: audio.mp3
AudioLeadIn: 0
PreviewTime: 301438
Countdown: 1
SampleSet: Soft
StackLeniency: 0.7
Mode: 0
LetterboxInBreaks: 0
WidescreenStoryboard: 0

[Editor]
Bookmarks: 198531
DistanceSpacing: 1
BeatDivisor: 4
GridSize: 4
TimelineZoom: 1.4

[Metadata]
Title:Cytus Megamix!
TitleUnicode:Cytus Megamix!
Artist:ICE
ArtistUnicode:ICE
Creator:Nitronic Techno
Version:Million Master!
Source:Cytus
Tags:Cytus Megamix ICE Rabpit 3R2 PERSONA CRANKY KIVA Xi naotyu- maya yamajet Nitronic Techno Beat Nitro
BeatmapID:1240419
BeatmapSetID:585593

[Difficulty]
HPDrainRate:5
CircleSize:3.8
OverallDifficulty:8.5
ApproachRate:9.4
SliderMultiplier:2.05
SliderTickRate:1

[Events]
//Background and Video events
0,0,"Cytus.jpg",0,0
//Break Periods
2,46279,56682
2,136977,145984
2,312791,324589
//Storyboard Layer 0 (Background)
//Storyboard Layer 1 (Fail)
//Storyboard Layer 2 (Pass)
//Storyboard Layer 3 (Foreground)
//Storyboard Sound Samples

[TimingPoints]
905,348.837209302326,4,1,0,100,1,0
12591,-95.2380952380952,4,1,0,100,0,0
23405,-117.647058823529,4,1,0,100,0,0
23753,-90.9090909090909,4,1,0,100,0,0
57242,-92.5925925925926,4,1,0,100,0,0
68405,-86.9565217391304,4,1,0,100,0,0
79567,-111.111111111111,4,1,0,100,0,0
90730,-200,4,1,0,100,0,0
96137,-133.333333333333,4,1,0,100,0,0
96311,-100,4,1,0,100,0,0
107474,-95.2380952380952,4,1,0,100,0,0
111660,-117.647058823529,4,1,0,100,0,0
113056,-83.3333333333333,4,1,0,100,0,0
124218,-90.9090909090909,4,1,0,100,0,0
146544,-166.666666666667,4,1,0,100,0,0
149335,-120.481927710843,4,1,0,100,0,0
159974,-109.89010989011,4,1,0,100,0,0
166079,-94.3396226415094,4,1,0,100,0,0
171660,-90.9090909090909,4,1,0,100,0,0
182823,-66.6666666666667,4,1,0,100,0,0
188405,-100,4,2,0,100,0,0
199567,-125,4,1,0,100,0,0
221893,-100,4,1,0,100,0,0
244218,-86.2068965517241,4,1,0,100,0,0
249800,-80,4,1,0,100,0,0
256777,-76.9230769230769,4,1,0,100,0,0
277532,-58.8235294117647,4,1,0,100,0,0
278405,-76.9230769230769,4,1,0,100,0,0
279102,-200,4,2,0,100,0,0
290091,-125,4,2,0,100,0,0
301428,-200,4,2,0,100,0,0
325149,-90.9090909090909,4,1,0,100,0,0
336311,-86.9565217391304,4,1,0,100,0,0
347474,-125,4,1,0,100,0,0
350265,-111.111111111111,4,1,0,100,0,0
358637,-100,4,1,0,100,0,0
380963,-76.9230769230769,4,1,0,100,0,0
392125,-111.111111111111,4,1,0,100,0,0
405730,-66.6666666666667,4,1,0,100,0,0
406079,-90.9090909090909,4,1,0,100,0,0
428405,-125,4,1,0,100,0,0
439567,-95.2380952380952,4,1,0,100,0,0
467474,-80.6451612903226,4,1,0,100,0,0
473056,-111.111111111111,4,1,0,100,0,0
490672,-200,4,1,0,100,0,0
506544,-100,4,1,0,100,0,0
509335,-83.3333333333333,4,1,0,100,0,0
531660,-111.111111111111,4,1,0,100,0,0
542823,-90.9090909090909,4,1,0,100,0,0
580498,-100,4,1,0,100,0,0

[HitObjects]
211,147,904,5,2,0:0:0:0:
308,235,1079,1,0,0:0:0:0:
211,237,1253,1,2,0:0:0:0:
306,149,1428,2,0,P|335:92|229:26,1,205,2|0,0:0|0:0,0:0:0:0:
192,113,1951,2,0,P|135:110|199:266,1,307.5,2|0,0:0|0:0,0:0:0:0:
159,189,2649,2,0,B|231:260|399:181|474:252,1,307.5,2|0,0:0|0:0,0:0:0:0:
403,326,3346,2,0,P|348:346|97:270,1,307.5,2|0,0:0|0:0,0:0:0:0:
214,259,4044,2,0,P|231:192|140:103,1,205,10|0,0:0|0:0,0:0:0:0:
54,51,4567,6,0,L|127:32,1,51.25
198,78,4829,1,0,0:0:0:0:
329,46,5091,1,0,0:0:0:0:
422,87,5265,2,0,L|443:135,1,51.25
344,104,5527,1,0,0:0:0:0:
196,61,5789,1,0,0:0:0:0:
114,122,5963,2,0,L|92:176,1,51.25
73,269,6224,1,0,0:0:0:0:
166,225,6399,1,0,0:0:0:0:
194,238,6486,5,2,0:0:0:0:
195,135,6660,1,0,0:0:0:0:
318,238,6835,1,2,0:0:0:0:
317,135,7009,2,0,P|286:83|134:86,1,205,2|0,0:0|0:0,0:0:0:0:
220,148,7532,2,0,P|186:209|38:85,1,307.5,2|0,0:0|0:0,0:0:0:0:
127,138,8230,2,0,P|106:206|288:312,1,307.5,2|0,0:0|0:0,0:0:0:0:
201,224,8928,2,0,B|263:135|408:133|448:37,1,307.5,2|0,0:0|0:0,0:0:0:0:
465,144,9625,2,0,L|461:269,1,102.5,2|0,0:0|0:0,0:0:0:0:
440,268,9887,1,0,0:0:0:0:
413,283,9974,5,0,0:0:0:0:
318,324,10149,2,0,L|264:343,1,51.25
169,318,10410,1,0,0:0:0:0:
123,171,10672,1,0,0:0:0:0:
221,143,10846,2,0,L|221:79,1,51.25
312,173,11108,1,0,0:0:0:0:
446,247,11370,2,0,P|387:286|339:285,1,102.5
354,237,11631,2,0,P|300:251|247:286,2,102.5
405,238,12067,2,0,P|458:199|475:153,2,102.5
332,157,12591,6,0,L|332:34,2,107.624996715546,8|0|0,0:0|0:0|0:0,0:0:0:0:
302,180,13027,2,0,P|249:195|197:178,1,107.624996715546
176,157,13288,2,0,L|176:40,2,107.624996715546
200,180,13724,2,0,P|251:195|301:180,1,107.624996715546
332,157,13986,2,0,L|332:49,2,107.624996715546
302,180,14422,2,0,P|249:195|197:178,1,107.624996715546
176,157,14683,2,0,L|176:40,2,107.624996715546
200,180,15119,2,0,P|251:195|301:180,1,107.624996715546
332,227,15381,6,0,L|332:334,2,107.624996715546,8|0|0,0:0|0:0|0:0,0:0:0:0:
302,204,15817,2,0,P|249:189|197:206,1,107.624996715546
176,227,16079,2,0,L|176:344,2,107.624996715546
200,203,16514,2,0,P|251:188|301:203,1,107.624996715546
332,227,16776,2,0,L|332:334,2,107.624996715546
302,204,17213,2,0,P|249:189|197:206,1,107.624996715546
176,227,17474,2,0,L|176:344,2,107.624996715546
200,203,17910,2,0,P|251:188|301:203,1,107.624996715546
331,189,18172,5,8,0:0:0:0:
265,104,18346,1,0,0:0:0:0:
265,104,18434,1,0,0:0:0:0:
265,104,18521,1,0,0:0:0:0:
170,154,18695,1,0,0:0:0:0:
170,154,18782,1,0,0:0:0:0:
170,154,18870,1,8,0:0:0:0:
197,257,19044,2,0,L|170:315,2,53.8124983577729
301,230,19393,5,0,0:0:0:0:
301,230,19480,1,0,0:0:0:0:
301,230,19567,1,8,0:0:0:0:
323,124,19742,1,0,0:0:0:0:
323,124,19829,1,0,0:0:0:0:
323,124,19916,1,0,0:0:0:0:
215,120,20091,1,0,0:0:0:0:
215,120,20178,2,0,L|138:93,1,53.8124983577729,0|8,0:0|0:0,0:0:0:0:
255,45,20439,5,0,0:0:0:0:
255,45,20527,1,0,0:0:0:0:
255,45,20614,1,0,0:0:0:0:
339,111,20788,1,0,0:0:0:0:
339,111,20875,1,0,0:0:0:0:
339,111,20963,2,0,P|352:171|345:239,1,107.624996715546,8|0,0:0|0:0,0:0:0:0:
294,309,21311,2,0,P|274:248|285:187,1,107.624996715546,8|0,0:0|0:0,0:0:0:0:
184,120,21660,5,8,0:0:0:0:
151,163,21748,1,0,0:0:0:0:
118,205,21835,1,8,0:0:0:0:
151,247,21922,1,0,0:0:0:0:
188,284,22009,1,8,0:0:0:0:
225,246,22096,1,0,0:0:0:0:
263,207,22184,1,0,0:0:0:0:
304,173,22271,1,0,0:0:0:0:
256,192,22358,12,4,23230,0:0:0:0:
138,191,23405,5,2,0:0:0:0:
172,165,23492,1,2,0:0:0:0:
212,150,23579,1,2,0:0:0:0:
255,146,23666,1,2,0:0:0:0:
294,164,23753,6,0,P|367:177|477:88,1,225.500006881714,8|0,0:0|0:0,0:0:0:0:
312,241,24451,2,0,L|286:360,1,112.750003440857,8|0,0:0|0:0,0:0:0:0:
200,241,24800,2,0,L|226:360,1,112.750003440857,8|0,0:0|0:0,0:0:0:0:
253,193,25149,1,8,0:0:0:0:
313,141,25323,1,0,0:0:0:0:
173,194,25498,1,8,0:0:0:0:
310,251,25672,1,0,0:0:0:0:
143,292,25846,5,8,0:0:0:0:
370,227,26021,1,0,0:0:0:0:
144,156,26195,1,8,0:0:0:0:
369,94,26370,1,0,0:0:0:0:
487,20,26544,5,8,0:0:0:0:
29,130,26718,1,0,0:0:0:0:
489,239,26893,1,8,0:0:0:0:
27,351,27067,2,0,P|94:324|246:354,2,225.500006881714
154,238,27939,5,8,0:0:0:0:
155,192,28114,1,0,0:0:0:0:
156,147,28288,1,8,0:0:0:0:
156,101,28463,1,0,0:0:0:0:
355,32,28637,5,8,0:0:0:0:
355,144,28811,1,0,0:0:0:0:
356,257,28986,1,8,0:0:0:0:
356,369,29160,2,0,P|295:353|256:303,1,112.750003440857,0|8,0:0|0:0,0:0:0:0:
160,269,29509,6,0,B|104:241|89:238|37:253,2,112.750003440857,0|8|0,0:0|0:0|0:0,0:0:0:0:
210,167,30032,1,8,0:0:0:0:
303,104,30207,2,0,P|367:125|402:197,2,112.750003440857,0|8|0,0:0|0:0|0:0,0:0:0:0:
300,217,30730,1,8,0:0:0:0:
300,217,30905,1,0,0:0:0:0:
300,217,31253,1,0,0:0:0:0:
82,277,31602,1,0,0:0:0:0:
190,243,31777,1,8,0:0:0:0:
132,339,31951,1,0,0:0:0:0:
20,352,32125,5,8,0:0:0:0:
137,34,32474,1,8,0:0:0:0:
231,238,32823,1,8,0:0:0:0:
295,145,33172,1,8,0:0:0:0:
398,189,33521,2,0,L|512:189,1,112.750003440857,8|0,0:0|0:0,0:0:0:0:
423,261,33870,2,0,L|280:261,1,112.750003440857,8|0,0:0|0:0,0:0:0:0:
276,281,34131,1,0,0:0:0:0:
237,275,34218,6,2,L|168:207,1,56.3750017204285
271,192,34393,2,2,L|219:131,1,56.3750017204285
313,112,34567,2,2,L|271:62,1,56.3750017204285
368,50,34742,2,2,L|328:-2,1,56.3750017204285
444,0,34916,6,0,P|463:75|446:245,1,225.500006881714,8|8,0:0|0:0,0:0:0:0:
351,271,35439,1,0,0:0:0:0:
239,251,35614,2,0,P|216:180|225:121,1,112.750003440857,8|0,0:0|0:0,0:0:0:0:
125,79,35963,2,0,P|141:146|127:203,1,112.750003440857,8|0,0:0|0:0,0:0:0:0:
65,278,36311,1,8,0:0:0:0:
174,249,36486,5,0,0:0:0:0:
252,256,36660,1,8,0:0:0:0:
330,264,36835,1,0,0:0:0:0:
453,190,37009,5,8,0:0:0:0:
352,137,37184,1,0,0:0:0:0:
246,98,37358,1,8,0:0:0:0:
138,66,37532,1,0,0:0:0:0:
33,163,37707,5,8,0:0:0:0:
138,247,37881,1,0,0:0:0:0:
268,285,38056,1,8,0:0:0:0:
402,289,38230,2,0,P|429:223|414:55,1,225.500006881714
289,35,38928,1,0,0:0:0:0:
149,64,39102,5,8,0:0:0:0:
379,155,39276,1,0,0:0:0:0:
133,229,39451,1,8,0:0:0:0:
363,320,39625,1,0,0:0:0:0:
174,303,39800,5,8,0:0:0:0:
360,232,39974,1,0,0:0:0:0:
152,152,40149,1,8,0:0:0:0:
338,81,40323,1,0,0:0:0:0:
256,203,40498,5,8,0:0:0:0:
126,270,40672,2,0,P|51:227|41:166,2,112.750003440857,0|8|0,0:0|0:0|0:0,0:0:0:0:
129,156,41195,1,8,0:0:0:0:
207,74,41370,2,0,P|275:115|430:90,1,225.500006881714
463,201,41893,1,8,0:0:0:0:
386,283,42067,2,0,P|310:314|148:244,1,225.500006881714
76,222,42591,5,8,0:0:0:0:
166,155,42765,2,0,L|166:29,2,112.750003440857,0|8|0,0:0|0:0|0:0,0:0:0:0:
88,308,43288,5,8,0:0:0:0:
88,76,43637,1,8,0:0:0:0:
424,76,43986,1,8,0:0:0:0:
424,308,44335,1,8,0:0:0:0:
256,125,44684,5,8,0:0:0:0:
256,125,44771,2,2,P|234:197|247:266,1,112.750003440857
381,321,45207,1,2,0:0:0:0:
396,209,45381,1,8,0:0:0:0:
396,209,45468,2,2,P|385:121|349:84,1,112.750003440857
212,46,45905,1,2,0:0:0:0:
135,128,46079,5,4,0:0:0:0:
126,46,57242,5,8,0:0:0:0:
95,91,57329,1,0,0:0:0:0:
84,139,57416,1,0,0:0:0:0:
90,188,57503,1,0,0:0:0:0:
116,230,57591,1,8,0:0:0:0:
123,273,57678,1,0,0:0:0:0:
114,310,57765,1,0,0:0:0:0:
96,337,57852,1,0,0:0:0:0:
127,327,57939,5,8,0:0:0:0:
165,323,58027,1,0,0:0:0:0:
202,330,58114,1,0,0:0:0:0:
237,344,58201,1,0,0:0:0:0:
273,356,58288,1,8,0:0:0:0:
311,351,58375,1,0,0:0:0:0:
347,335,58463,1,0,0:0:0:0:
386,316,58550,1,0,0:0:0:0:
335,293,58637,5,8,0:0:0:0:
289,273,58724,1,0,0:0:0:0:
255,243,58811,1,0,0:0:0:0:
243,205,58899,1,0,0:0:0:0:
252,173,58986,1,8,0:0:0:0:
269,151,59073,1,0,0:0:0:0:
290,133,59160,1,0,0:0:0:0:
304,109,59248,1,0,0:0:0:0:
322,88,59335,5,8,0:0:0:0:
344,72,59422,1,0,0:0:0:0:
377,72,59509,1,0,0:0:0:0:
405,88,59596,1,0,0:0:0:0:
419,118,59684,1,8,0:0:0:0:
418,151,59771,1,0,0:0:0:0:
415,189,59858,1,0,0:0:0:0:
415,233,59945,1,0,0:0:0:0:
370,254,60032,5,8,0:0:0:0:
326,228,60120,1,0,0:0:0:0:
282,218,60207,1,0,0:0:0:0:
243,221,60294,1,0,0:0:0:0:
215,240,60381,1,8,0:0:0:0:
191,263,60468,1,0,0:0:0:0:
174,285,60556,1,0,0:0:0:0:
154,295,60643,1,0,0:0:0:0:
131,295,60730,5,8,0:0:0:0:
108,278,60817,1,0,0:0:0:0:
96,246,60905,1,0,0:0:0:0:
101,213,60992,1,0,0:0:0:0:
113,176,61079,1,8,0:0:0:0:
135,138,61166,1,0,0:0:0:0:
167,108,61253,1,0,0:0:0:0:
211,84,61341,1,0,0:0:0:0:
260,80,61428,6,0,L|329:72,3,55.3500013513184,8|0|0|0,0:0|0:0|0:0|0:0,0:0:0:0:
327,151,61777,2,0,L|408:157,3,55.3500013513184,8|0|0|0,0:0|0:0|0:0|0:0,0:0:0:0:
263,225,62125,2,0,L|202:230,1,55.3500013513184,8|0,0:0|0:0,0:0:0:0:
120,314,62300,6,2,L|76:321,1,27.6750006756592
99,270,62387,2,2,L|65:268,1,27.6750006756592
84,232,62474,2,2,L|48:223,1,27.6750006756592
81,187,62561,2,2,L|52:161,1,27.6750006756592
116,155,62649,2,2,L|98:93,1,55.3500013513184
128,60,62823,5,4,0:0:0:0:
166,38,62910,1,0,0:0:0:0:
204,43,62998,1,0,0:0:0:0:
234,55,63085,1,0,0:0:0:0:
258,66,63172,1,8,0:0:0:0:
277,76,63259,1,0,0:0:0:0:
291,83,63346,1,0,0:0:0:0:
300,88,63434,1,0,0:0:0:0:
310,89,63521,5,8,0:0:0:0:
326,90,63608,1,0,0:0:0:0:
346,98,63695,1,0,0:0:0:0:
365,117,63782,1,0,0:0:0:0:
379,147,63870,1,8,0:0:0:0:
382,185,63957,1,0,0:0:0:0:
379,229,64044,1,0,0:0:0:0:
352,270,64131,1,0,0:0:0:0:
310,297,64218,5,8,0:0:0:0:
265,304,64306,1,0,0:0:0:0:
228,292,64393,1,0,0:0:0:0:
205,267,64480,1,0,0:0:0:0:
194,241,64567,1,8,0:0:0:0:
191,218,64655,1,0,0:0:0:0:
190,201,64742,1,0,0:0:0:0:
190,189,64829,1,0,0:0:0:0:
190,177,64916,5,8,0:0:0:0:
193,160,65003,1,0,0:0:0:0:
200,138,65091,1,0,0:0:0:0:
215,115,65178,1,0,0:0:0:0:
240,93,65265,1,8,0:0:0:0:
271,70,65352,1,0,0:0:0:0:
314,59,65439,1,0,0:0:0:0:
357,68,65527,1,0,0:0:0:0:
317,98,65614,5,8,0:0:0:0:
276,114,65701,1,0,0:0:0:0:
244,136,65788,1,0,0:0:0:0:
231,166,65875,1,0,0:0:0:0:
232,193,65963,1,8,0:0:0:0:
242,212,66050,1,0,0:0:0:0:
251,225,66137,1,0,0:0:0:0:
259,232,66224,1,0,0:0:0:0:
267,238,66311,5,8,0:0:0:0:
288,244,66399,1,0,0:0:0:0:
315,244,66486,1,0,0:0:0:0:
352,233,66573,1,0,0:0:0:0:
387,206,66660,1,8,0:0:0:0:
418,160,66748,1,0,0:0:0:0:
426,99,66835,1,0,0:0:0:0:
377,46,66922,1,0,0:0:0:0:
305,39,67009,5,8,0:0:0:0:
251,67,67096,1,0,0:0:0:0:
218,112,67184,1,0,0:0:0:0:
206,154,67271,1,0,0:0:0:0:
205,187,67358,1,8,0:0:0:0:
208,214,67445,1,0,0:0:0:0:
211,230,67532,1,0,0:0:0:0:
219,244,67620,1,0,0:0:0:0:
233,252,67707,5,8,0:0:0:0:
254,254,67794,1,0,0:0:0:0:
281,251,67881,1,0,0:0:0:0:
312,239,67968,1,0,0:0:0:0:
345,218,68056,1,8,0:0:0:0:
374,184,68143,1,0,0:0:0:0:
396,139,68230,1,0,0:0:0:0:
408,85,68317,1,0,0:0:0:0:
408,29,68405,6,0,P|346:20|256:51,1,117.875002248287,4|2,0:0|0:0,0:0:0:0:
274,45,68666,1,2,0:0:0:0:
117,97,68928,2,0,L|107:241,1,117.875002248287,2|0,0:0|0:0,0:0:0:0:
173,313,69277,2,0,L|184:177,1,117.875002248287,2|0,0:0|0:0,0:0:0:0:
267,114,69625,2,0,L|255:247,1,117.875002248287,2|0,0:0|0:0,0:0:0:0:
325,327,69974,2,2,L|343:197,2,117.875002248287
427,266,70498,1,0,0:0:0:0:
438,148,70672,2,2,L|459:29,2,117.875002248287
320,137,71195,6,0,L|179:115,2,117.875002248287
266,242,71893,2,0,L|412:288,2,117.875002248287
149,220,72591,2,0,L|69:237,7,58.9375011241436
128,304,73288,2,0,L|199:316,7,58.9375011241436
215,319,73986,6,0,P|289:319|369:297,1,117.875002248287,4|2,0:0|0:0,0:0:0:0:
358,297,74248,1,2,0:0:0:0:
497,189,74509,2,0,L|469:62,1,117.875002248287
429,184,74858,2,0,L|396:50,1,117.875002248287,2|0,0:0|0:0,0:0:0:0:
361,181,75207,2,0,L|333:55,1,117.875002248287,2|0,0:0|0:0,0:0:0:0:
292,176,75556,2,2,L|257:33,2,117.875002248287
173,183,76079,1,0,0:0:0:0:
55,187,76253,2,2,L|80:311,2,117.875002248287
155,123,76777,6,0,L|295:96,2,117.875002248287
164,240,77474,2,0,L|44:269,2,117.875002248287
252,318,78172,6,0,L|235:197,1,117.875002248287
341,254,78521,2,0,L|385:126,1,117.875002248287
309,46,78870,2,0,L|275:114,1,58.9375011241436
201,41,79044,2,0,L|231:96,1,58.9375011241436
282,112,79218,2,0,L|269:188,1,58.9375011241436
221,112,79393,2,0,L|235:186,1,58.9375011241436
256,206,79567,6,8,P|256:283|166:348,1,184.499994369507,0|0,0:0|0:0,0:0:0:0:
175,253,80091,2,8,P|160:185|338:174,1,276.74999155426
242,192,80788,2,8,P|319:215|368:61,1,276.74999155426
300,126,81486,2,8,B|246:103|185:108|131:140|44:40,1,276.74999155426
46,135,82184,1,2,0:0:0:0:
46,135,82532,1,2,0:0:0:0:
466,249,82881,1,2,0:0:0:0:
466,249,83229,1,2,0:0:0:0:
381,287,83405,1,2,0:0:0:0:
306,340,83579,5,2,0:0:0:0:
306,340,83928,1,2,0:0:0:0:
206,44,84277,1,2,0:0:0:0:
206,44,84626,1,2,0:0:0:0:
206,44,84974,1,2,0:0:0:0:
126,91,85149,6,0,L|68:128,3,46.1249985923767
136,159,85498,2,0,L|88:204,3,46.1249985923767
165,216,85846,2,0,L|135:283,3,46.1249985923767
218,260,86195,2,2,B|279:262|346:285|422:265,2,184.499994369507
275,187,87067,2,2,P|246:125|115:103,2,184.499994369507
183,171,87939,5,0,0:0:0:0:
137,179,88027,1,0,0:0:0:0:
104,211,88114,1,0,0:0:0:0:
99,256,88201,1,0,0:0:0:0:
116,298,88288,1,0,0:0:0:0:
158,315,88375,1,0,0:0:0:0:
204,321,88463,1,0,0:0:0:0:
249,318,88550,1,0,0:0:0:0:
295,318,88637,5,0,0:0:0:0:
386,307,88811,2,2,L|414:193,2,92.2499971847535
313,248,89335,2,0,L|190:218,1,92.2499971847535
140,184,89684,2,0,L|256:144,1,92.2499971847535
302,100,90032,1,0,0:0:0:0:
329,95,90120,1,0,0:0:0:0:
356,96,90207,1,0,0:0:0:0:
382,103,90294,1,0,0:0:0:0:
404,119,90381,1,0,0:0:0:0:
424,137,90468,1,0,0:0:0:0:
439,160,90556,1,0,0:0:0:0:
448,185,90643,1,0,0:0:0:0:
451,212,90730,5,4,0:0:0:0:
367,152,91079,6,8,P|333:138|148:161,1,205
58,322,92474,6,8,P|76:277|59:113,1,205
255,48,93870,6,8,P|289:64|457:38,1,205
470,157,94742,1,2,0:0:0:0:
470,157,94829,1,2,0:0:0:0:
470,157,94916,1,2,0:0:0:0:
371,128,95265,6,8,P|346:192|364:335,1,205
285,345,96137,1,2,0:0:0:0:
195,295,96311,6,8,L|172:174,1,102.5
267,147,96660,2,8,L|258:37,1,102.5
361,47,97009,1,0,0:0:0:0:
456,85,97184,1,2,0:0:0:0:
458,187,97358,1,0,0:0:0:0:
388,261,97532,1,2,0:0:0:0:
286,276,97707,6,8,L|190:354,1,102.5
189,239,98056,2,8,L|77:251,1,102.5
96,147,98405,1,0,0:0:0:0:
166,72,98579,1,2,0:0:0:0:
268,73,98753,1,0,0:0:0:0:
342,143,98928,1,2,0:0:0:0:
384,235,99102,6,8,L|500:254,1,102.5
399,309,99451,2,8,L|277:283,1,102.5
198,264,99800,1,0,0:0:0:0:
184,162,99974,1,2,0:0:0:0:
277,205,100149,1,0,0:0:0:0:
269,103,100323,1,2,0:0:0:0:
357,51,100498,6,8,L|493:51,1,102.5
391,127,100846,2,8,L|483:227,1,102.5
357,207,101195,1,0,0:0:0:0:
293,287,101370,1,2,0:0:0:0:
225,209,101544,1,0,0:0:0:0:
298,138,101718,1,2,0:0:0:0:
257,43,101893,6,0,L|199:58,3,51.25,2|0|0|0,0:0|0:0|0:0|0:0,0:0:0:0:
208,107,102242,2,0,L|262:115,3,51.25,2|0|0|0,0:0|0:0|0:0|0:0,0:0:0:0:
224,153,102591,2,0,L|153:178,3,51.25,2|0|0|0,0:0|0:0|0:0|0:0,0:0:0:0:
215,201,102939,2,0,L|269:218,3,51.25,2|0|0|0,0:0|0:0|0:0|0:0,0:0:0:0:
376,348,103288,6,0,L|425:280,3,51.25,2|0|0|0,0:0|0:0|0:0|0:0,0:0:0:0:
356,289,103637,2,0,L|378:219,3,51.25,2|0|0|0,0:0|0:0|0:0|0:0,0:0:0:0:
319,238,103986,2,0,L|321:177,3,51.25,2|0|0|0,0:0|0:0|0:0|0:0,0:0:0:0:
279,217,104335,2,0,L|253:159,3,51.25,2|0|0|0,0:0|0:0|0:0|0:0,0:0:0:0:
49,203,104684,6,0,L|91:166,3,51.25,2|0|0|0,0:0|0:0|0:0|0:0,0:0:0:0:
119,208,105032,2,0,L|192:183,3,51.25,2|0|0|0,0:0|0:0|0:0|0:0,0:0:0:0:
163,139,105381,2,0,L|217:137,3,51.25,2|0|0|0,0:0|0:0|0:0|0:0,0:0:0:0:
227,187,105730,2,0,L|291:164,3,51.25,2|0|0|0,0:0|0:0|0:0|0:0,0:0:0:0:
328,53,106079,6,0,L|355:134,3,51.25,2|0|0|0,0:0|0:0|0:0|0:0,0:0:0:0:
381,137,106428,2,0,L|384:192,3,51.25,2|0|0|0,0:0|0:0|0:0|0:0,0:0:0:0:
333,199,106777,2,0,L|331:265,1,51.25,2|0,0:0|0:0,0:0:0:0:
256,272,106951,2,2,L|256:314,1,25.625
196,305,107038,2,2,L|196:335,1,25.625
133,307,107125,2,2,L|133:344,1,25.625
75,265,107213,2,2,L|74:302,1,25.625
34,220,107300,2,2,L|34:163,1,51.25
83,147,107474,6,8,P|165:126|296:165,1,215.249993431091
343,66,107998,2,8,P|392:124|435:298,1,215.249993431091
327,261,108521,2,8,P|259:299|119:301,1,215.249993431091
34,242,109044,2,8,P|13:145|82:52,1,215.249993431091
183,45,109567,2,8,L|240:155,1,107.624996715546
329,93,109916,2,8,L|400:218,1,107.624996715546
465,255,110265,6,8,P|406:288|250:307,1,215.249993431091
313,213,110788,2,8,P|245:206|96:252,1,215.249993431091
37,329,111311,2,8,L|37:201,1,107.624996715546
39,133,111660,5,2,0:0:0:0:
75,108,111748,1,0,0:0:0:0:
116,96,111835,1,0,0:0:0:0:
159,101,111922,1,0,0:0:0:0:
200,115,112009,1,2,0:0:0:0:
237,137,112096,1,0,0:0:0:0:
276,156,112184,1,0,0:0:0:0:
313,177,112271,1,0,0:0:0:0:
353,192,112358,5,2,0:0:0:0:
396,192,112445,1,0,0:0:0:0:
436,175,112532,1,0,0:0:0:0:
465,142,112620,1,0,0:0:0:0:
476,99,112707,1,2,0:0:0:0:
470,55,112794,1,2,0:0:0:0:
434,29,112881,1,2,0:0:0:0:
390,28,112968,1,2,0:0:0:0:
328,33,113056,6,0,L|271:117,1,61.499998123169,4|0,0:0|0:0,0:0:0:0:
264,176,113230,2,0,L|342:176,1,61.499998123169,8|0,0:0|0:0,0:0:0:0:
427,158,113405,2,0,L|400:84,1,61.499998123169,8|0,0:0|0:0,0:0:0:0:
328,33,113579,6,0,L|271:117,1,61.499998123169,4|0,0:0|0:0,0:0:0:0:
232,205,113753,2,0,L|329:206,1,61.499998123169,8|0,0:0|0:0,0:0:0:0:
427,158,113928,2,0,L|395:80,1,61.499998123169,8|0,0:0|0:0,0:0:0:0:
328,33,114102,6,0,L|271:117,1,61.499998123169,4|0,0:0|0:0,0:0:0:0:
200,239,114277,2,0,L|289:242,1,61.499998123169,8|0,0:0|0:0,0:0:0:0:
424,192,114451,2,0,L|387:112,1,61.499998123169,8|0,0:0|0:0,0:0:0:0:
328,33,114625,6,0,L|271:117,1,61.499998123169,4|0,0:0|0:0,0:0:0:0:
168,277,114800,2,0,L|252:279,1,61.499998123169,8|0,0:0|0:0,0:0:0:0:
428,231,114974,2,0,L|401:157,1,61.499998123169,8|0,0:0|0:0,0:0:0:0:
328,33,115149,6,0,L|271:117,1,61.499998123169,4|0,0:0|0:0,0:0:0:0:
122,324,115323,2,0,L|215:323,1,61.499998123169,8|0,0:0|0:0,0:0:0:0:
438,270,115498,2,8,L|397:212,3,61.499998123169
386,201,115846,5,8,0:0:0:0:
368,183,115934,1,0,0:0:0:0:
346,172,116021,1,0,0:0:0:0:
322,166,116108,1,0,0:0:0:0:
297,168,116195,1,8,0:0:0:0:
275,180,116282,1,0,0:0:0:0:
253,192,116370,1,0,0:0:0:0:
229,200,116457,1,0,0:0:0:0:
205,206,116544,6,0,L|137:218,3,61.499998123169,8|0|0|0,0:0|0:0|0:0|0:0,0:0:0:0:
185,113,116893,2,0,L|252:134,3,61.499998123169,8|0|0|0,0:0|0:0|0:0|0:0,0:0:0:0:
268,136,117242,5,8,0:0:0:0:
288,149,117329,1,0,0:0:0:0:
306,165,117416,1,0,0:0:0:0:
315,187,117503,1,0,0:0:0:0:
317,211,117591,1,8,0:0:0:0:
315,235,117678,1,0,0:0:0:0:
309,258,117765,1,0,0:0:0:0:
297,279,117852,1,0,0:0:0:0:
278,295,117939,6,0,L|229:346,7,61.499998123169,8|0|0|0|8|0|0|0,0:0|0:0|0:0|0:0|0:0|0:0|0:0|0:0,0:0:0:0:
210,338,118637,6,0,L|160:261,1,61.499998123169,4|0,0:0|0:0,0:0:0:0:
168,184,118811,2,0,L|244:184,1,61.499998123169,8|0,0:0|0:0,0:0:0:0:
315,228,118986,2,0,L|277:291,1,61.499998123169,8|0,0:0|0:0,0:0:0:0:
210,338,119160,6,0,L|160:261,1,61.499998123169,4|0,0:0|0:0,0:0:0:0:
168,148,119335,2,0,L|248:148,1,61.499998123169,8|0,0:0|0:0,0:0:0:0:
380,200,119509,2,0,L|343:266,1,61.499998123169,8|0,0:0|0:0,0:0:0:0:
210,338,119684,6,4,L|160:261,1,61.499998123169,4|0,0:0|0:0,0:0:0:0:
168,108,119858,2,0,L|251:108,1,61.499998123169,8|0,0:0|0:0,0:0:0:0:
446,170,120032,2,0,L|415:236,1,61.499998123169,8|0,0:0|0:0,0:0:0:0:
210,338,120207,6,0,L|160:261,1,61.499998123169,4|0,0:0|0:0,0:0:0:0:
168,72,120381,2,0,L|251:72,1,61.499998123169,8|0,0:0|0:0,0:0:0:0:
474,152,120555,2,0,L|443:218,1,61.499998123169,8|0,0:0|0:0,0:0:0:0:
210,338,120730,6,0,L|160:261,1,61.499998123169,4|0,0:0|0:0,0:0:0:0:
168,36,120904,2,0,L|251:36,1,61.499998123169,8|0,0:0|0:0,0:0:0:0:
502,117,121079,2,8,L|466:187,3,61.499998123169
458,190,121428,5,8,0:0:0:0:
441,208,121515,1,0,0:0:0:0:
421,222,121602,1,0,0:0:0:0:
396,226,121689,1,0,0:0:0:0:
372,219,121777,1,8,0:0:0:0:
351,205,121864,1,0,0:0:0:0:
332,189,121951,1,0,0:0:0:0:
311,174,122038,1,0,0:0:0:0:
291,159,122125,6,0,L|239:120,3,61.499998123169,8|0|0|0,0:0|0:0|0:0|0:0,0:0:0:0:
136,122,122474,2,0,L|90:172,3,61.499998123169,8|0|0|0,0:0|0:0|0:0|0:0,0:0:0:0:
83,189,122823,5,8,0:0:0:0:
81,213,122910,1,0,0:0:0:0:
89,236,122998,1,0,0:0:0:0:
100,257,123085,1,0,0:0:0:0:
115,275,123172,1,8,0:0:0:0:
136,286,123259,1,0,0:0:0:0:
160,289,123346,1,0,0:0:0:0:
184,292,123434,1,0,0:0:0:0:
208,294,123521,6,2,L|254:240,1,61.499998123169
285,297,123695,2,2,L|304:233,1,61.499998123169
351,263,123870,2,2,L|343:184,1,61.499998123169
401,203,124044,2,2,L|362:137,1,61.499998123169
434,135,124218,5,8,0:0:0:0:
340,70,124393,1,0,0:0:0:0:
328,181,124567,1,0,0:0:0:0:
434,135,124742,5,8,0:0:0:0:
279,51,124917,1,0,0:0:0:0:
256,223,125091,1,0,0:0:0:0:
434,135,125265,5,8,0:0:0:0:
218,38,125440,1,0,0:0:0:0:
187,275,125614,1,0,0:0:0:0:
434,135,125788,5,8,0:0:0:0:
170,16,125963,1,0,0:0:0:0:
127,311,126137,1,0,0:0:0:0:
434,135,126311,5,8,0:0:0:0:
324,163,126486,1,8,0:0:0:0:
214,138,126660,1,8,0:0:0:0:
112,188,126835,1,8,0:0:0:0:
48,316,127009,5,0,0:0:0:0:
48,316,127096,2,2,L|102:362,1,56.3750017204285
133,287,127271,1,0,0:0:0:0:
133,287,127358,2,2,L|184:330,1,56.3750017204285
213,250,127532,1,0,0:0:0:0:
213,250,127620,2,2,L|254:288,1,56.3750017204285
266,209,127794,1,0,0:0:0:0:
266,209,127881,2,2,L|319:246,1,56.3750017204285
314,165,128056,5,0,0:0:0:0:
323,144,128143,1,2,0:0:0:0:
327,121,128230,1,2,0:0:0:0:
326,98,128317,1,2,0:0:0:0:
302,59,128405,1,2,0:0:0:0:
258,47,128492,1,2,0:0:0:0:
214,59,128579,1,2,0:0:0:0:
194,99,128666,1,2,0:0:0:0:
188,143,128753,5,2,0:0:0:0:
202,186,128841,1,2,0:0:0:0:
229,221,128928,1,2,0:0:0:0:
270,238,129015,1,2,0:0:0:0:
314,243,129102,1,2,0:0:0:0:
358,237,129189,1,2,0:0:0:0:
399,218,129277,1,2,0:0:0:0:
429,185,129364,1,0,0:0:0:0:
455,148,129451,6,8,L|480:68,3,56.3750017204285
482,50,129800,5,2,0:0:0:0:
378,94,129974,1,0,0:0:0:0:
458,173,130149,1,0,0:0:0:0:
482,50,130323,5,2,0:0:0:0:
303,124,130497,1,0,0:0:0:0:
433,240,130672,1,0,0:0:0:0:
482,50,130846,5,2,0:0:0:0:
232,160,131020,1,0,0:0:0:0:
396,299,131195,1,0,0:0:0:0:
482,50,131370,5,2,0:0:0:0:
161,195,131544,1,0,0:0:0:0:
353,366,131718,1,0,0:0:0:0:
482,50,131893,5,2,0:0:0:0:
410,136,132067,1,2,0:0:0:0:
305,179,132242,1,2,0:0:0:0:
192,171,132416,1,2,0:0:0:0:
81,192,132591,5,0,0:0:0:0:
81,192,132678,2,2,L|42:249,1,56.3750017204285
140,232,132852,1,0,0:0:0:0:
140,232,132939,2,2,L|110:283,1,56.3750017204285
206,264,133114,1,0,0:0:0:0:
206,264,133201,2,2,L|173:324,1,56.3750017204285
279,280,133375,1,0,0:0:0:0:
279,280,133463,2,2,L|274:352,1,56.3750017204285
350,281,133637,5,0,0:0:0:0:
376,244,133724,1,0,0:0:0:0:
387,200,133811,1,2,0:0:0:0:
390,154,133899,1,2,0:0:0:0:
376,111,133986,1,2,0:0:0:0:
345,78,134073,1,2,0:0:0:0:
302,62,134160,1,2,0:0:0:0:
256,64,134248,1,2,0:0:0:0:
207,80,134335,5,2,0:0:0:0:
183,125,134422,1,2,0:0:0:0:
178,175,134509,1,2,0:0:0:0:
178,225,134596,1,2,0:0:0:0:
201,270,134684,1,2,0:0:0:0:
241,299,134771,1,2,0:0:0:0:
290,310,134858,1,2,0:0:0:0:
339,301,134945,1,2,0:0:0:0:
382,265,135032,5,0,0:0:0:0:
408,214,135120,1,0,0:0:0:0:
423,160,135207,1,0,0:0:0:0:
422,103,135294,2,4,L|422:79,1,14.0937504301071
128,88,135730,5,2,0:0:0:0:
256,192,135752,12,0,136777,0:0:0:0:
109,84,146544,5,8,0:0:0:0:
109,84,146893,2,8,L|257:84,1,122.999996246338
232,84,147591,1,8,0:0:0:0:
346,128,147939,5,8,0:0:0:0:
346,128,148288,2,8,L|346:266,1,122.999996246338
346,251,148986,1,8,0:0:0:0:
176,237,149335,6,0,L|150:174,1,42.5375006166172,8|0,0:0|0:0,0:0:0:0:
177,114,149596,1,0,0:0:0:0:
259,135,149771,2,0,L|319:149,1,42.5375006166172
341,156,149945,1,0,0:0:0:0:
375,180,150032,1,8,0:0:0:0:
406,209,150120,1,0,0:0:0:0:
424,247,150207,1,0,0:0:0:0:
366,309,150381,2,0,L|350:354,2,42.5375006166172,8|0|0,0:0|0:0|0:0,0:0:0:0:
291,268,150730,6,0,L|245:233,1,42.5375006166172,8|0,0:0|0:0,0:0:0:0:
171,242,150992,1,0,0:0:0:0:
169,157,151166,2,0,L|200:114,1,42.5375006166172
230,99,151341,1,0,0:0:0:0:
271,91,151428,1,8,0:0:0:0:
313,96,151515,1,0,0:0:0:0:
352,111,151602,1,0,0:0:0:0:
412,171,151777,2,0,L|472:212,2,42.5375006166172,8|0|0,0:0|0:0|0:0,0:0:0:0:
350,229,152125,6,0,L|303:255,1,42.5375006166172,8|0,0:0|0:0,0:0:0:0:
237,290,152387,1,0,0:0:0:0:
167,240,152561,2,0,L|116:200,1,42.5375006166172
117,174,152736,1,0,0:0:0:0:
119,131,152823,1,8,0:0:0:0:
143,96,152910,1,0,0:0:0:0:
180,75,152998,1,0,0:0:0:0:
96,59,153172,2,0,L|34:42,2,42.5375006166172,8|0|0,0:0|0:0|0:0,0:0:0:0:
53,133,153521,6,0,L|42:194,1,42.5375006166172,8|0,0:0|0:0,0:0:0:0:
96,242,153782,1,0,0:0:0:0:
175,211,153957,2,0,L|207:151,1,42.5375006166172
228,147,154131,1,0,0:0:0:0:
267,131,154218,1,8,0:0:0:0:
309,127,154306,1,0,0:0:0:0:
352,144,154393,1,0,0:0:0:0:
409,217,154567,2,0,L|444:268,2,42.5375006166172,8|0|0,0:0|0:0|0:0,0:0:0:0:
315,221,154916,6,0,L|287:272,1,42.5375006166172,8|0,0:0|0:0,0:0:0:0:
211,301,155178,1,0,0:0:0:0:
141,239,155352,2,0,L|108:187,1,42.5375006166172
108,156,155527,1,0,0:0:0:0:
118,110,155614,6,0,L|183:78,1,42.5375006166172,8|0,0:0|0:0,0:0:0:0:
247,73,155875,1,0,0:0:0:0:
340,84,156050,2,0,L|392:117,1,42.5375006166172
402,139,156224,1,0,0:0:0:0:
412,180,156311,1,8,0:0:0:0:
404,222,156399,1,0,0:0:0:0:
382,258,156486,1,8,0:0:0:0:
344,277,156573,1,0,0:0:0:0:
301,282,156660,5,8,0:0:0:0:
259,271,156748,1,0,0:0:0:0:
221,251,156835,1,8,0:0:0:0:
195,217,156922,1,0,0:0:0:0:
185,175,157009,1,8,0:0:0:0:
189,132,157096,1,0,0:0:0:0:
211,95,157184,1,8,0:0:0:0:
249,76,157271,1,0,0:0:0:0:
290,68,157358,1,8,0:0:0:0:
332,70,157445,1,0,0:0:0:0:
373,80,157532,1,8,0:0:0:0:
409,103,157620,1,0,0:0:0:0:
445,124,157707,6,8,L|467:203,7,42.5375006166172
256,192,158405,12,0,159800,0:0:0:0:
258,210,159974,6,0,L|247:244,10,23.318750782795,2|0|2|0|2|0|2|0|2|0|2,0:0|0:0|0:0|0:0|0:0|0:0|0:0|0:0|0:0|0:0|0:0,0:0:0:0:
214,191,160498,6,0,P|164:146|150:99,1,93.2750031311799,2|0,0:0|0:0,0:0:0:0:
335,78,161021,1,8,0:0:0:0:
335,78,161108,1,8,0:0:0:0:
335,78,161195,1,2,0:0:0:0:
404,140,161370,2,0,L|404:238,1,93.2750031311799,8|2,0:0|0:0,0:0:0:0:
314,259,161718,1,8,0:0:0:0:
220,261,161893,2,0,P|214:189|150:121,1,139.91250469677,2|0,0:0|0:0,0:0:0:0:
174,136,162242,2,2,P|196:89|327:79,1,186.55000626236
442,210,162939,5,2,0:0:0:0:
441,257,163027,1,2,0:0:0:0:
410,292,163114,1,8,0:0:0:0:
363,295,163201,1,8,0:0:0:0:
316,298,163288,5,2,0:0:0:0:
135,190,163550,1,0,0:0:0:0:
318,90,163811,1,8,0:0:0:0:
194,90,163986,1,2,0:0:0:0:
377,190,164247,1,0,0:0:0:0:
196,298,164509,1,8,0:0:0:0:
102,301,164684,2,0,P|80:253|95:151,1,139.91250469677,2|0,0:0|0:0,0:0:0:0:
86,167,165032,2,2,P|144:165|232:56,1,186.55000626236
412,112,165730,1,2,0:0:0:0:
409,205,165905,1,8,0:0:0:0:
406,298,166079,6,0,P|340:310|257:295,1,108.650000165787,2|8,0:0|0:0,0:0:0:0:
298,306,166341,1,0,0:0:0:0:
298,306,166428,1,2,0:0:0:0:
194,272,166602,1,8,0:0:0:0:
142,254,166689,1,0,0:0:0:0:
114,206,166777,1,2,0:0:0:0:
66,108,166951,2,0,P|115:80|194:83,1,108.650000165787,8|2,0:0|0:0,0:0:0:0:
253,141,167300,1,8,0:0:0:0:
341,78,167474,5,2,0:0:0:0:
374,120,167561,1,0,0:0:0:0:
381,174,167649,1,8,0:0:0:0:
374,227,167736,1,0,0:0:0:0:
353,277,167823,1,2,0:0:0:0:
311,312,167910,1,0,0:0:0:0:
258,329,167998,1,8,0:0:0:0:
204,324,168085,1,0,0:0:0:0:
165,285,168172,5,2,0:0:0:0:
143,235,168259,1,0,0:0:0:0:
135,181,168346,1,8,0:0:0:0:
140,126,168434,1,0,0:0:0:0:
168,80,168521,1,2,0:0:0:0:
213,51,168608,1,0,0:0:0:0:
266,45,168695,1,8,0:0:0:0:
319,52,168782,1,0,0:0:0:0:
368,75,168870,5,2,0:0:0:0:
294,307,169131,1,0,0:0:0:0:
135,120,169393,1,8,0:0:0:0:
137,228,169567,1,2,0:0:0:0:
269,22,169829,1,0,0:0:0:0:
393,232,170091,1,8,0:0:0:0:
254,146,170265,2,0,P|187:141|127:63,2,162.97500024868,2|0|8,0:0|0:0|0:0,0:0:0:0:
218,69,170963,2,0,P|276:66|319:201,1,217.300000331573,2|2,0:0|0:0,0:0:0:0:
304,226,171399,1,2,0:0:0:0:
280,255,171486,1,8,0:0:0:0:
248,276,171573,1,8,0:0:0:0:
213,294,171660,6,0,P|76:320|16:261,1,225.500006881714,4|2,0:0|0:0,0:0:0:0:
122,246,172184,1,8,0:0:0:0:
128,207,172271,1,0,0:0:0:0:
134,168,172358,1,2,0:0:0:0:
231,111,172532,2,0,L|264:-1,2,112.750003440857,8|2|8,0:0|0:0|0:0,0:0:0:0:
310,192,173056,2,0,P|291:259|296:379,1,169.125005161286,2|0,0:0|0:0,0:0:0:0:
347,365,173405,2,0,P|374:302|352:173,1,169.125005161286,2|0,0:0|0:0,0:0:0:0:
348,190,173753,5,2,0:0:0:0:
329,176,173841,1,2,0:0:0:0:
309,164,173928,1,8,0:0:0:0:
288,154,174015,1,8,0:0:0:0:
243,152,174102,5,2,0:0:0:0:
198,147,174189,1,2,0:0:0:0:
161,174,174277,1,8,0:0:0:0:
136,211,174364,1,8,0:0:0:0:
108,246,174451,6,0,P|139:302|326:315,1,225.500006881714,2|2,0:0|0:0,0:0:0:0:
214,247,174974,1,8,0:0:0:0:
234,207,175061,1,0,0:0:0:0:
255,166,175149,1,2,0:0:0:0:
164,98,175323,2,0,P|188:24|238:9,2,112.750003440857,8|2|8,0:0|0:0|0:0,0:0:0:0:
88,181,175846,2,0,P|65:257|137:349,1,169.125005161286,2|0,0:0|0:0,0:0:0:0:
140,325,176195,2,0,P|194:303|320:328,1,169.125005161286,2|0,0:0|0:0,0:0:0:0:
321,305,176544,5,2,0:0:0:0:
340,294,176631,1,2,0:0:0:0:
360,284,176718,1,8,0:0:0:0:
380,273,176806,1,8,0:0:0:0:
384,228,176893,5,2,0:0:0:0:
382,183,176980,1,2,0:0:0:0:
365,141,177067,1,8,0:0:0:0:
334,107,177155,1,8,0:0:0:0:
292,90,177242,6,2,P|225:83|70:147,1,225.500006881714
194,163,177765,1,2,0:0:0:0:
209,205,177852,1,0,0:0:0:0:
223,247,177939,1,8,0:0:0:0:
329,284,178114,2,0,L|472:354,2,112.750003440857,8|2|8,0:0|0:0|0:0,0:0:0:0:
287,178,178637,2,0,L|143:71,2,169.125005161286,2|0|8,0:0|0:0|0:0,0:0:0:0:
254,286,179335,2,0,L|254:367,2,56.3750017204285,2|0|8,0:0|0:0|0:0,0:0:0:0:
143,261,179684,5,2,0:0:0:0:
255,106,179858,1,8,0:0:0:0:
369,261,180032,2,2,P|397:191|385:39,1,225.500006881714
255,81,180556,1,8,0:0:0:0:
255,81,180643,1,8,0:0:0:0:
255,81,180730,2,0,P|196:128|98:144,2,169.125005161286,2|0|8,0:0|0:0|0:0,0:0:0:0:
257,303,181428,2,0,P|316:256|414:240,2,169.125005161286,2|0|8,0:0|0:0|0:0,0:0:0:0:
183,224,182125,2,0,L|370:120,2,169.125005161286,2|0|8,0:0|0:0|0:0,0:0:0:0:
174,280,182736,1,8,0:0:0:0:
217,315,182823,6,0,L|457:270,2,230.625008797646,4|2|2,0:0|0:0|0:0,0:0:0:0:
96,218,183521,2,8,L|96:-15,2,230.625008797646
132,252,184131,1,8,0:0:0:0:
179,219,184218,2,2,L|370:75,2,230.625008797646
333,219,184916,2,8,L|148:80,2,230.625008797646
380,252,185526,1,8,0:0:0:0:
416,218,185613,6,0,L|416:-12,2,230.625008797646,4|2|2,0:0|0:0|0:0,0:0:0:0:
303,323,186311,2,8,L|56:280,2,230.625008797646
340,263,186922,1,8,0:0:0:0:
408,258,187009,2,2,B|493:277|493:277|493:128,2,230.625008797646
288,187,187707,2,8,B|220:140|220:140|221:378,2,307.500011730195
333,195,188492,5,0,0:0:0:0:
375,176,188579,1,0,0:0:0:0:
397,136,188666,1,0,0:0:0:0:
390,90,188753,1,0,0:0:0:0:
361,53,188841,1,0,0:0:0:0:
318,34,188928,1,0,0:0:0:0:
274,49,189015,1,0,0:0:0:0:
236,75,189102,1,0,0:0:0:0:
190,81,189189,5,0,0:0:0:0:
152,108,189277,1,0,0:0:0:0:
140,152,189364,1,0,0:0:0:0:
152,196,189451,1,0,0:0:0:0:
119,228,189538,5,0,0:0:0:0:
113,273,189625,1,0,0:0:0:0:
128,316,189713,1,0,0:0:0:0:
166,341,189800,1,0,0:0:0:0:
175,306,189887,5,0,0:0:0:0:
187,272,189974,1,0,0:0:0:0:
217,254,190061,1,0,0:0:0:0:
251,243,190149,1,0,0:0:0:0:
257,207,190236,5,0,0:0:0:0:
275,176,190323,1,0,0:0:0:0:
308,164,190410,1,0,0:0:0:0:
344,166,190498,1,0,0:0:0:0:
337,190,190585,5,0,0:0:0:0:
337,215,190672,1,0,0:0:0:0:
345,238,190759,1,0,0:0:0:0:
364,254,190846,1,0,0:0:0:0:
361,279,190934,5,0,0:0:0:0:
367,303,191021,1,0,0:0:0:0:
382,323,191108,1,0,0:0:0:0:
404,334,191195,1,0,0:0:0:0:
411,320,191282,5,0,0:0:0:0:
412,304,191370,1,0,0:0:0:0:
408,289,191457,1,0,0:0:0:0:
398,277,191544,1,0,0:0:0:0:
399,261,191631,5,0,0:0:0:0:
400,245,191718,1,0,0:0:0:0:
395,230,191806,1,0,0:0:0:0:
386,217,191893,1,0,0:0:0:0:
391,202,191980,5,0,0:0:0:0:
396,187,192067,1,0,0:0:0:0:
391,172,192155,1,0,0:0:0:0:
382,159,192242,1,0,0:0:0:0:
386,144,192329,5,0,0:0:0:0:
388,128,192416,1,0,0:0:0:0:
385,112,192503,1,0,0:0:0:0:
377,98,192591,1,0,0:0:0:0:
373,94,192678,5,0,0:0:0:0:
369,90,192765,1,0,0:0:0:0:
364,87,192852,1,0,0:0:0:0:
359,84,192939,1,0,0:0:0:0:
354,81,193027,1,0,0:0:0:0:
349,78,193114,1,0,0:0:0:0:
344,76,193201,1,0,0:0:0:0:
339,74,193288,1,0,0:0:0:0:
333,73,193375,1,0,0:0:0:0:
327,72,193463,1,0,0:0:0:0:
321,72,193550,1,0,0:0:0:0:
315,72,193637,1,0,0:0:0:0:
309,72,193724,1,0,0:0:0:0:
304,73,193811,1,0,0:0:0:0:
299,74,193899,1,0,0:0:0:0:
290,98,193986,5,0,0:0:0:0:
284,97,194073,1,0,0:0:0:0:
278,96,194160,1,0,0:0:0:0:
272,95,194248,1,0,0:0:0:0:
254,63,194335,5,0,0:0:0:0:
249,65,194422,1,0,0:0:0:0:
244,67,194509,1,0,0:0:0:0:
239,69,194596,1,0,0:0:0:0:
239,110,194684,5,0,0:0:0:0:
229,112,194771,1,0,0:0:0:0:
219,114,194858,1,0,0:0:0:0:
209,116,194945,1,0,0:0:0:0:
181,79,195032,5,0,0:0:0:0:
167,86,195120,1,0,0:0:0:0:
155,96,195207,1,0,0:0:0:0:
146,108,195294,1,0,0:0:0:0:
178,147,195381,5,0,0:0:0:0:
169,165,195468,1,0,0:0:0:0:
161,184,195556,1,0,0:0:0:0:
152,202,195643,1,0,0:0:0:0:
104,231,195730,5,0,0:0:0:0:
106,256,195817,1,0,0:0:0:0:
116,279,195905,1,0,0:0:0:0:
128,301,195992,1,0,0:0:0:0:
189,297,196079,5,0,0:0:0:0:
213,316,196166,1,0,0:0:0:0:
242,322,196253,1,0,0:0:0:0:
272,318,196341,1,0,0:0:0:0:
338,314,196428,5,0,0:0:0:0:
360,286,196515,1,0,0:0:0:0:
374,253,196602,1,0,0:0:0:0:
381,218,196689,1,0,0:0:0:0:
313,191,196777,5,0,0:0:0:0:
324,151,196864,1,0,0:0:0:0:
323,110,196951,1,0,0:0:0:0:
303,73,197038,1,0,0:0:0:0:
239,30,197125,5,0,0:0:0:0:
193,18,197213,1,0,0:0:0:0:
147,24,197300,1,0,0:0:0:0:
104,42,197387,1,0,0:0:0:0:
104,123,197474,5,0,0:0:0:0:
72,163,197561,1,0,0:0:0:0:
60,213,197649,1,0,0:0:0:0:
93,251,197736,1,0,0:0:0:0:
108,336,197823,5,0,0:0:0:0:
162,350,197910,1,0,0:0:0:0:
218,350,197998,1,0,0:0:0:0:
271,333,198085,1,0,0:0:0:0:
286,247,198172,5,0,0:0:0:0:
341,220,198259,1,0,0:0:0:0:
400,205,198346,1,0,0:0:0:0:
462,204,198434,1,0,0:0:0:0:
512,184,198521,5,0,0:0:0:0:
489,138,198608,1,0,0:0:0:0:
451,111,198695,1,0,0:0:0:0:
410,103,198782,1,0,0:0:0:0:
379,105,198870,1,0,0:0:0:0:
353,104,198957,1,0,0:0:0:0:
332,102,199044,1,0,0:0:0:0:
321,100,199131,1,0,0:0:0:0:
305,100,199218,5,2,0:0:0:0:
279,105,199306,1,2,0:0:0:0:
244,114,199393,1,2,0:0:0:0:
199,124,199480,1,2,0:0:0:0:
162,142,199567,6,0,P|122:204|101:314,1,164,4|8,0:0|0:0,0:0:0:0:
183,302,200091,1,0,0:0:0:0:
183,302,200178,1,0,0:0:0:0:
183,302,200265,1,0,0:0:0:0:
249,254,200439,2,0,L|345:255,2,82,0|8|0,0:0|0:0|0:0,0:0:0:0:
233,172,200963,2,0,P|231:115|299:65,1,123
315,72,201311,2,0,P|364:80|441:178,1,164,8|0,0:0|0:0,0:0:0:0:
355,304,202009,6,0,L|286:343,3,41,8|0|0|0,0:0|0:0|0:0|0:0,0:0:0:0:
278,320,202358,2,0,P|209:331|104:312,1,164,0|8,0:0|0:0,0:0:0:0:
145,239,202881,1,0,0:0:0:0:
167,204,202968,1,0,0:0:0:0:
196,175,203056,1,0,0:0:0:0:
271,143,203230,2,0,L|344:80,2,82,0|8|0,0:0|0:0|0:0,0:0:0:0:
336,192,203753,2,0,P|344:269|308:333,1,123
290,329,204102,2,0,P|236:348|125:312,1,164,8|0,0:0|0:0,0:0:0:0:
65,172,204800,6,0,L|48:96,3,41,8|0|0|0,0:0|0:0|0:0|0:0,0:0:0:0:
88,106,205149,2,0,P|137:87|266:112,1,164,0|8,0:0|0:0,0:0:0:0:
327,103,205672,1,0,0:0:0:0:
327,103,205759,1,0,0:0:0:0:
327,103,205846,1,0,0:0:0:0:
373,171,206021,2,0,L|431:263,2,82,0|8|0,0:0|0:0|0:0,0:0:0:0:
303,215,206544,2,0,L|194:311,2,123
57,194,207591,6,0,L|64:133,3,41,8|0|0|0,0:0|0:0|0:0|0:0,0:0:0:0:
97,133,207939,2,0,P|165:153|272:130,1,164,0|8,0:0|0:0,0:0:0:0:
262,220,208463,1,0,0:0:0:0:
262,220,208550,1,0,0:0:0:0:
262,220,208637,1,0,0:0:0:0:
243,299,208811,2,0,L|142:299,2,82,0|8|0,0:0|0:0|0:0,0:0:0:0:
325,309,209335,2,0,P|378:303|441:235,1,123
313,115,209858,1,0,0:0:0:0:
89,216,210381,5,8,0:0:0:0:
108,180,210468,1,0,0:0:0:0:
149,183,210556,1,0,0:0:0:0:
179,209,210643,1,0,0:0:0:0:
171,252,210730,1,0,0:0:0:0:
251,239,211079,1,8,0:0:0:0:
302,175,211253,2,0,L|364:175,2,41
232,130,211602,1,0,0:0:0:0:
232,130,211777,1,8,0:0:0:0:
232,130,211951,1,0,0:0:0:0:
232,130,212125,1,0,0:0:0:0:
147,219,212387,1,0,0:0:0:0:
147,219,212474,1,8,0:0:0:0:
252,344,212823,2,0,L|287:305,3,41
300,278,213172,5,8,0:0:0:0:
276,244,213259,1,0,0:0:0:0:
282,203,213346,1,0,0:0:0:0:
317,181,213434,1,0,0:0:0:0:
357,183,213521,1,0,0:0:0:0:
330,116,213870,1,10,0:0:0:0:
254,147,214044,2,0,L|211:119,2,41
238,227,214393,1,0,0:0:0:0:
238,227,214567,1,8,0:0:0:0:
238,227,214742,1,0,0:0:0:0:
238,227,214916,1,0,0:0:0:0:
340,295,215178,1,0,0:0:0:0:
340,295,215265,1,8,0:0:0:0:
433,160,215614,2,0,L|431:89,3,41,2|0|0|0,0:0|0:0|0:0|0:0,0:0:0:0:
395,99,215963,5,8,0:0:0:0:
367,68,216050,1,0,0:0:0:0:
327,57,216137,1,0,0:0:0:0:
291,76,216224,1,0,0:0:0:0:
271,111,216311,1,2,0:0:0:0:
233,127,216660,1,8,0:0:0:0:
167,176,216835,2,0,L|157:232,2,41
247,158,217184,1,0,0:0:0:0:
247,158,217358,1,8,0:0:0:0:
247,158,217532,1,0,0:0:0:0:
309,104,217707,2,0,L|452:103,2,123
170,192,218579,2,0,L|80:192,2,82
252,192,219102,5,0,0:0:0:0:
256,192,219189,12,0,221544,0:0:0:0:
40,156,221893,6,0,P|94:118|232:182,1,205,4|0,0:0|0:0,0:0:0:0:
232,258,222416,1,0,0:0:0:0:
264,297,222503,1,0,0:0:0:0:
315,302,222591,1,8,0:0:0:0:
407,258,222765,2,0,P|436:199|431:136,1,102.5,0|8,0:0|0:0,0:0:0:0:
381,76,223114,2,0,P|359:132|362:186,1,102.5,0|8,0:0|0:0,0:0:0:0:
206,194,223550,2,0,L|153:151,1,51.25,0|8,0:0|0:0,0:0:0:0:
225,78,223811,2,0,P|256:124|263:216,1,102.5,0|8,0:0|0:0,0:0:0:0:
208,254,224160,2,0,P|145:266|99:257,2,102.5,0|8|0,0:0|0:0|0:0,0:0:0:0:
301,297,224684,6,8,P|388:315|479:244,1,205
400,180,225207,1,0,0:0:0:0:
349,188,225294,1,0,0:0:0:0:
305,161,225381,1,8,0:0:0:0:
203,142,225556,1,0,0:0:0:0:
113,190,225730,1,8,0:0:0:0:
139,281,225905,1,0,0:0:0:0:
237,309,226079,1,8,0:0:0:0:
357,212,226341,1,0,0:0:0:0:
289,74,226602,1,0,0:0:0:0:
186,72,226777,2,8,P|134:128|134:278,1,205
163,283,227213,1,0,0:0:0:0:
213,292,227300,1,0,0:0:0:0:
262,281,227387,1,0,0:0:0:0:
307,257,227474,6,8,P|305:156|243:77,1,205,0|0,0:0|0:0,0:0:0:0:
203,172,227998,1,0,0:0:0:0:
251,188,228085,1,0,0:0:0:0:
249,239,228172,1,8,0:0:0:0:
270,338,228346,2,0,P|359:347|411:334,1,102.5,0|8,0:0|0:0,0:0:0:0:
427,259,228695,1,0,0:0:0:0:
386,164,228870,2,0,P|307:121|210:111,1,153.75,8|0,0:0|0:0,0:0:0:0:
153,233,229393,2,0,P|233:272|286:273,1,102.5,0|8,0:0|0:0,0:0:0:0:
360,171,229829,1,0,0:0:0:0:
501,243,230091,1,0,0:0:0:0:
448,330,230265,5,8,0:0:0:0:
360,203,230527,1,0,0:0:0:0:
467,93,230788,1,0,0:0:0:0:
397,169,230963,5,8,0:0:0:0:
271,256,231224,1,0,0:0:0:0:
155,153,231486,1,0,0:0:0:0:
101,66,231660,5,8,0:0:0:0:
188,192,231922,1,0,0:0:0:0:
101,319,232184,1,0,0:0:0:0:
200,340,232358,6,0,L|221:220,1,102.5,8|0,0:0|0:0,0:0:0:0:
312,340,232707,2,0,L|291:220,1,102.5,8|0,0:0|0:0,0:0:0:0:
257,142,233056,6,0,P|217:103|317:79,1,205,4|8,0:0|0:0,0:0:0:0:
357,157,233579,1,0,0:0:0:0:
385,199,233666,1,0,0:0:0:0:
382,250,233753,1,8,0:0:0:0:
313,326,233928,2,0,P|259:355|185:359,2,102.5,0|8|0,0:0|0:0|0:0,0:0:0:0:
389,257,234451,2,0,P|413:176|401:68,2,153.75,8|0|0,0:0|0:0|0:0,0:0:0:0:
102,145,235498,1,8,0:0:0:0:
195,186,235672,1,0,0:0:0:0:
254,142,235846,6,0,P|286:61|200:65,1,205,8|8,0:0|0:0,0:0:0:0:
155,157,236369,1,0,0:0:0:0:
127,199,236456,1,0,0:0:0:0:
130,250,236543,1,8,0:0:0:0:
204,320,236718,2,0,P|279:343|347:348,2,102.5,0|8|0,0:0|0:0|0:0,0:0:0:0:
91,215,237242,2,0,P|80:149|163:61,2,153.75,8|0|0,0:0|0:0|0:0,0:0:0:0:
209,183,237939,1,8,0:0:0:0:
410,145,238288,1,8,0:0:0:0:
367,173,238375,1,0,0:0:0:0:
317,186,238462,1,0,0:0:0:0:
277,219,238550,1,0,0:0:0:0:
234,247,238637,6,8,P|161:273|30:239,1,205,0|8,0:0|0:0,0:0:0:0:
132,201,239160,2,0,L|143:119,1,51.25
185,127,239335,1,8,0:0:0:0:
271,73,239509,2,0,L|391:81,1,102.5,0|8,0:0|0:0,0:0:0:0:
433,163,239858,1,0,0:0:0:0:
373,246,240032,2,8,L|151:246,1,205,0|8,0:0|0:0,0:0:0:0:
208,150,240556,5,0,0:0:0:0:
239,109,240643,1,0,0:0:0:0:
290,107,240730,1,8,0:0:0:0:
391,125,240905,2,0,L|391:254,1,102.5,0|8,0:0|0:0,0:0:0:0:
298,271,241253,1,0,0:0:0:0:
200,239,241428,2,8,L|200:26,1,205
301,52,241951,5,0,0:0:0:0:
345,77,242038,1,0,0:0:0:0:
386,106,242125,1,8,0:0:0:0:
419,256,242387,1,0,0:0:0:0:
286,335,242649,1,0,0:0:0:0:
185,316,242823,2,0,P|114:328|42:298,1,102.5,8|0,0:0|0:0,0:0:0:0:
135,232,243172,2,0,P|58:188|53:141,1,102.5,8|0,0:0|0:0,0:0:0:0:
128,108,243521,5,8,0:0:0:0:
172,82,243608,1,0,0:0:0:0:
222,73,243695,1,8,0:0:0:0:
272,68,243782,1,0,0:0:0:0:
323,76,243870,1,8,0:0:0:0:
372,87,243957,1,0,0:0:0:0:
411,119,244044,1,8,0:0:0:0:
450,151,244131,1,0,0:0:0:0:
486,197,244218,6,2,L|486:272,1,59.4500018142701
382,315,244480,2,2,L|382:225,1,59.4500018142701
417,141,244742,2,2,L|417:62,1,59.4500018142701
309,31,245003,2,2,L|308:117,1,59.4500018142701
190,106,245265,1,8,0:0:0:0:
234,145,245352,1,8,0:0:0:0:
248,202,245439,1,8,0:0:0:0:
283,250,245527,1,8,0:0:0:0:
327,289,245614,6,2,L|327:196,1,59.4500018142701
256,134,245875,2,2,L|256:195,1,59.4500018142701
173,279,246137,2,2,L|173:206,1,59.4500018142701
93,130,246399,2,2,L|93:216,1,59.4500018142701
177,272,246660,1,8,0:0:0:0:
225,236,246748,1,8,0:0:0:0:
231,177,246835,1,8,0:0:0:0:
239,118,246922,1,8,0:0:0:0:
292,92,247009,6,2,L|369:92,1,59.4500018142701
272,181,247271,2,2,L|207:181,1,59.4500018142701
305,254,247532,2,2,L|368:254,1,59.4500018142701
274,332,247794,2,2,L|209:332,1,59.4500018142701
147,233,248056,1,8,0:0:0:0:
190,192,248143,1,8,0:0:0:0:
249,192,248230,1,8,0:0:0:0:
308,193,248317,1,8,0:0:0:0:
347,147,248405,6,2,L|347:79,1,59.4500018142701
272,180,248666,2,2,L|272:245,1,59.4500018142701
198,145,248928,2,2,L|198:79,1,59.4500018142701
111,166,249189,2,2,L|111:252,1,59.4500018142701
217,279,249451,1,8,0:0:0:0:
256,234,249538,1,8,0:0:0:0:
255,174,249625,1,8,0:0:0:0:
256,114,249713,1,8,0:0:0:0:
304,72,249800,6,2,P|384:69|442:112,1,128.125
394,148,250061,2,2,P|412:214|452:277,1,128.125
506,258,250323,2,2,P|487:328|423:371,1,128.125
332,303,250672,1,8,0:0:0:0:
217,359,250846,1,8,0:0:0:0:
114,281,251021,1,8,0:0:0:0:
23,191,251195,6,2,P|65:134|143:105,1,128.125
108,44,251457,2,2,P|191:40|262:67,1,128.125
281,10,251718,2,2,P|321:70|345:138,1,128.125
438,205,252067,1,8,0:0:0:0:
416,331,252242,1,8,0:0:0:0:
289,348,252416,1,8,0:0:0:0:
168,301,252591,6,2,L|168:156,1,128.125
170,109,252852,2,2,L|308:109,1,128.125
362,109,253114,2,2,L|362:255,1,128.125
255,309,253463,1,8,0:0:0:0:
193,196,253637,1,8,0:0:0:0:
256,85,253811,1,8,0:0:0:0:
380,54,253986,6,2,P|415:119|422:194,1,128.125
416,236,254248,2,2,P|364:308|300:330,1,128.125
266,324,254509,2,2,P|179:317|121:271,1,128.125
114,263,254771,1,8,0:0:0:0:
113,218,254858,1,8,0:0:0:0:
131,177,254945,1,8,0:0:0:0:
167,151,255032,1,8,0:0:0:0:
209,136,255120,1,8,0:0:0:0:
253,132,255207,5,8,0:0:0:0:
256,192,255294,12,0,256602,0:0:0:0:
156,194,256777,6,0,L|215:71,1,133.249993900299,2|0,0:0|0:0,0:0:0:0:
356,194,257125,2,0,L|297:71,1,133.249993900299,2|0,0:0|0:0,0:0:0:0:
254,326,257474,2,8,L|255:49,1,266.499987800599
133,154,257998,2,0,P|201:196|372:150,1,266.499987800599
256,82,258521,1,2,0:0:0:0:
257,301,258695,1,2,0:0:0:0:
323,47,258870,1,2,0:0:0:0:
178,345,259044,1,2,0:0:0:0:
437,129,259218,1,2,0:0:0:0:
64,258,259393,1,2,0:0:0:0:
190,297,259567,6,8,P|208:232|60:121,2,266.499987800599
323,306,260439,1,2,0:0:0:0:
189,78,260614,1,2,0:0:0:0:
322,86,260789,2,8,P|322:213|437:265,2,266.499987800599
397,159,261660,2,2,L|243:323,2,199.874990850449
256,78,262358,6,0,L|411:118,1,133.249993900299,2|0,0:0|0:0,0:0:0:0:
256,306,262707,2,0,L|411:266,1,133.249993900299,2|0,0:0|0:0,0:0:0:0:
142,192,263056,2,8,L|445:192,1,266.499987800599
338,73,263579,2,8,P|303:170|349:360,1,266.499987800599
202,284,264102,1,2,0:0:0:0:
318,118,264277,1,2,0:0:0:0:
109,191,264451,1,2,0:0:0:0:
406,273,264625,1,2,0:0:0:0:
168,43,264800,1,2,0:0:0:0:
298,350,264974,1,2,0:0:0:0:
380,244,265149,6,8,P|464:176|431:24,2,266.499987800599
340,116,266021,1,2,0:0:0:0:
172,268,266195,1,2,0:0:0:0:
71,351,266370,2,8,P|40:228|132:140,1,266.499987800599
221,40,266893,1,2,0:0:0:0:
353,46,267067,1,2,0:0:0:0:
396,149,267242,5,8,0:0:0:0:
409,186,267329,1,8,0:0:0:0:
408,225,267416,1,8,0:0:0:0:
403,264,267503,1,8,0:0:0:0:
387,301,267591,1,8,0:0:0:0:
351,320,267678,1,8,0:0:0:0:
313,334,267765,1,8,0:0:0:0:
273,341,267852,1,8,0:0:0:0:
233,343,267939,6,0,P|163:324|101:259,1,133.249993900299,2|0,0:0|0:0,0:0:0:0:
279,343,268288,2,0,P|349:324|411:259,1,133.249993900299,2|0,0:0|0:0,0:0:0:0:
256,80,268637,2,8,L|257:352,1,266.499987800599
182,235,269160,2,8,B|256:124|256:124|341:251,1,266.499987800599
451,198,269684,1,2,0:0:0:0:
367,94,269858,1,2,0:0:0:0:
240,52,270032,1,2,0:0:0:0:
115,100,270207,1,2,0:0:0:0:
76,227,270381,1,2,0:0:0:0:
160,330,270556,1,2,0:0:0:0:
351,329,270730,6,8,P|374:255|339:68,2,266.499987800599
378,203,271602,1,2,0:0:0:0:
134,203,271777,1,2,0:0:0:0:
170,72,271952,2,8,P|134:199|161:329,2,266.499987800599
215,197,272823,2,2,B|256:105|256:105|308:210,2,199.874990850449
237,33,273521,6,0,P|163:51|102:109,1,133.249993900299,2|0,0:0|0:0,0:0:0:0:
275,33,273870,2,0,P|349:51|410:109,1,133.249993900299,2|0,0:0|0:0,0:0:0:0:
257,289,274218,1,8,0:0:0:0:
189,192,274393,1,8,0:0:0:0:
312,133,274567,1,8,0:0:0:0:
256,31,274742,1,8,0:0:0:0:
156,278,275091,1,2,0:0:0:0:
256,364,275265,1,2,0:0:0:0:
356,278,275439,1,2,0:0:0:0:
334,146,275614,2,8,B|350:76|350:76|298:32,1,133.249993900299
178,146,275963,2,8,B|162:76|162:76|214:32,1,133.249993900299
102,115,276311,6,2,B|58:171|145:375,2,266.499987800599
221,52,277184,1,8,0:0:0:0:
291,332,277358,1,8,0:0:0:0:
410,269,277532,1,8,0:0:0:0:
410,269,277707,6,2,B|454:213|367:12,2,261.375004985333
337,223,278405,2,2,P|264:196|129:238,2,199.874990850449
339,274,279102,6,0,P|319:304|195:332,1,153.75,4|0,0:0|0:0,0:0:0:0:
189,324,279713,1,0,0:0:0:0:
169,308,279800,1,0,0:0:0:0:
150,260,279974,1,0,0:0:0:0:
143,235,280061,1,0,0:0:0:0:
149,209,280149,1,0,0:0:0:0:
153,158,280323,2,10,L|164:118,1,25.625,2|2,0:0|0:0,0:0:0:0:
170,109,280498,2,2,P|213:94|270:110,3,102.5
239,206,281718,1,0,0:0:0:0:
239,206,281806,1,0,0:0:0:0:
239,206,281893,2,2,P|285:229|393:192,1,153.75
380,205,282503,5,0,0:0:0:0:
380,205,282591,1,0,0:0:0:0:
418,171,282765,2,0,L|436:136,2,25.625
372,146,283114,2,0,L|363:108,2,25.625
321,155,283463,2,0,L|279:137,2,25.625
309,204,283811,2,0,L|273:212,2,25.625
340,244,284160,2,0,L|320:272,2,25.625
390,254,284509,2,0,L|393:301,1,25.625
391,305,284684,6,0,P|354:339|333:340,1,51.25,8|0,0:0|0:0,0:0:0:0:
329,341,284945,2,0,L|289:341,1,25.625
263,308,285207,2,0,L|231:309,2,25.625
292,265,285556,2,0,L|338:266,2,25.625
257,226,285905,1,2,0:0:0:0:
238,207,285992,1,2,0:0:0:0:
219,189,286079,1,2,0:0:0:0:
141,121,286428,2,2,P|131:170|148:239,2,102.5
184,94,287300,1,0,0:0:0:0:
184,94,287387,1,0,0:0:0:0:
184,94,287474,6,2,P|219:82|338:109,1,153.75
353,115,288085,1,0,0:0:0:0:
374,128,288172,1,2,0:0:0:0:
394,174,288346,2,0,L|402:207,2,25.625
345,189,288695,2,0,L|331:219,2,25.625
294,180,289044,2,0,L|259:201,2,25.625
264,137,289393,2,0,L|228:141,2,25.625
237,93,289742,1,8,0:0:0:0:
189,74,289916,1,8,0:0:0:0:
133,134,290091,1,8,0:0:0:0:
118,214,290265,5,4,0:0:0:0:
192,247,290439,2,0,L|216:287,2,41
257,196,290788,2,0,L|308:195,2,41
235,116,291137,2,0,L|280:93,2,41,0|0|2,0:0|0:0|0:0,0:0:0:0:
152,117,291486,1,2,0:0:0:0:
111,118,291573,1,0,0:0:0:0:
70,118,291660,1,2,0:0:0:0:
121,181,291835,1,0,0:0:0:0:
161,183,291922,1,0,0:0:0:0:
201,183,292009,1,2,0:0:0:0:
145,244,292184,1,0,0:0:0:0:
104,243,292271,1,0,0:0:0:0:
63,243,292358,1,2,0:0:0:0:
125,295,292532,1,0,0:0:0:0:
166,295,292620,1,0,0:0:0:0:
206,296,292707,1,2,0:0:0:0:
262,355,292881,1,0,0:0:0:0:
302,355,292968,1,0,0:0:0:0:
343,355,293056,6,0,P|376:307|377:266,1,82,2|0,0:0|0:0,0:0:0:0:
395,247,293317,1,0,0:0:0:0:
398,205,293405,2,0,P|373:157|344:130,1,82,2|0,0:0|0:0,0:0:0:0:
318,117,293666,1,0,0:0:0:0:
277,115,293753,2,0,P|214:132|192:159,1,82,2|0,0:0|0:0,0:0:0:0:
184,179,294015,1,0,0:0:0:0:
181,219,294102,2,0,P|182:274|209:310,1,82,2|0,0:0|0:0,0:0:0:0:
232,313,294364,1,0,0:0:0:0:
272,315,294451,1,2,0:0:0:0:
341,272,294625,6,0,L|359:231,2,41
297,201,294974,2,0,L|271:151,1,41
248,135,295149,1,8,0:0:0:0:
101,332,295410,1,8,0:0:0:0:
344,292,295672,1,8,0:0:0:0:
195,222,295846,1,8,0:0:0:0:
171,112,296021,6,0,L|153:153,2,41
215,183,296370,2,0,L|241:233,1,41
264,249,296544,1,8,0:0:0:0:
411,52,296806,1,8,0:0:0:0:
168,92,297068,1,8,0:0:0:0:
317,162,297242,1,8,0:0:0:0:
341,112,297416,6,0,L|359:153,2,41
297,183,297765,2,0,L|271:233,1,41
248,249,297940,1,8,0:0:0:0:
101,52,298201,1,8,0:0:0:0:
344,92,298463,1,8,0:0:0:0:
195,162,298637,1,8,0:0:0:0:
177,271,298811,2,0,L|192:217,2,41
142,110,299160,2,0,L|182:72,1,41,8|0,0:0|0:0,0:0:0:0:
212,75,299335,5,0,0:0:0:0:
251,63,299422,1,0,0:0:0:0:
291,60,299509,1,0,0:0:0:0:
329,72,299596,1,0,0:0:0:0:
361,97,299684,1,8,0:0:0:0:
381,132,299771,1,0,0:0:0:0:
389,172,299858,1,0,0:0:0:0:
388,212,299945,1,0,0:0:0:0:
380,252,300032,5,8,0:0:0:0:
357,286,300120,1,0,0:0:0:0:
331,317,300207,1,0,0:0:0:0:
299,339,300294,1,0,0:0:0:0:
259,348,300381,1,0,0:0:0:0:
218,342,300468,1,0,0:0:0:0:
181,323,300556,1,0,0:0:0:0:
150,295,300643,1,0,0:0:0:0:
132,257,300730,5,8,0:0:0:0:
121,217,300817,1,0,0:0:0:0:
131,176,300905,1,0,0:0:0:0:
154,144,300992,1,0,0:0:0:0:
192,130,301079,1,0,0:0:0:0:
232,130,301166,1,0,0:0:0:0:
266,151,301253,1,0,0:0:0:0:
283,188,301341,1,0,0:0:0:0:
295,226,301428,6,4,L|299:241,1,12.8125
76,204,302823,6,2,L|78:183,1,12.8125
272,68,303346,6,2,P|305:115|312:219,1,153.75
219,247,304218,2,2,P|207:193|224:88,1,153.75
362,156,305265,1,2,0:0:0:0:
293,232,305614,1,2,0:0:0:0:
246,253,305788,1,2,0:0:0:0:
192,308,306050,1,2,0:0:0:0:
130,263,306311,1,2,0:0:0:0:
99,182,306573,1,2,0:0:0:0:
149,120,306835,1,2,0:0:0:0:
184,83,307009,5,2,0:0:0:0:
418,125,307271,1,2,0:0:0:0:
163,149,307532,1,2,0:0:0:0:
254,21,307707,1,2,0:0:0:0:
328,301,308405,5,2,0:0:0:0:
94,259,308666,1,2,0:0:0:0:
349,235,308928,1,2,0:0:0:0:
258,363,309103,1,2,0:0:0:0:
131,258,309800,5,8,0:0:0:0:
216,99,309974,1,2,0:0:0:0:
436,266,310236,1,2,0:0:0:0:
150,159,310498,1,2,0:0:0:0:
355,102,310672,1,2,0:0:0:0:
226,317,310934,1,2,0:0:0:0:
170,44,311457,5,8,0:0:0:0:
372,102,311631,1,2,0:0:0:0:
229,319,311893,1,2,0:0:0:0:
166,130,312155,1,2,0:0:0:0:
449,199,312416,1,2,0:0:0:0:
362,293,312591,1,2,0:0:0:0:
40,103,325149,6,2,P|110:71|472:114,1,451.000013763428
258,192,326195,1,8,0:0:0:0:
155,287,326544,2,2,P|239:311|414:257,1,225.500006881714
449,202,327067,2,0,L|460:140,2,56.3750017204285
63,202,327416,2,0,L|52:140,1,56.3750017204285
46,111,327591,2,2,P|111:92|296:115,1,225.500006881714
439,248,328288,2,2,P|363:281|188:260,1,225.500006881714
361,134,328986,2,2,B|328:176|236:197|157:281,2,225.500006881714
253,332,330032,6,2,P|344:289|427:157,1,225.500006881714
303,192,330556,1,8,0:0:0:0:
190,192,330730,2,2,P|236:123|387:60,1,225.500006881714
150,61,331428,2,2,P|253:103|322:192,1,225.500006881714
95,190,332126,2,2,P|159:281|259:332,1,225.500006881714
372,336,332649,2,0,L|463:336,2,56.3750017204285
140,48,332998,2,0,L|49:48,1,56.3750017204285
60,72,333172,6,2,P|63:163|148:281,1,225.500006881714
361,274,333870,2,2,P|401:224|395:49,1,225.500006881714
148,79,334567,2,2,P|222:58|370:90,1,225.500006881714
386,312,335265,2,0,P|300:332|262:334,1,112.750003440857,2|0,0:0|0:0,0:0:0:0:
248,335,335527,1,0,0:0:0:0:
213,332,335614,2,0,P|143:294|123:251,1,112.750003440857,2|0,0:0|0:0,0:0:0:0:
234,228,335963,1,2,0:0:0:0:
466,193,336311,6,0,L|435:72,2,117.875002248287,2|0|0,0:0|0:0|0:0,0:0:0:0:
355,237,336835,2,0,L|345:304,2,58.9375011241436,0|0|2,0:0|0:0|0:0,0:0:0:0:
268,156,337184,2,0,P|219:102|156:87,2,117.875002248287,0|8|0,0:0|0:0|0:0,0:0:0:0:
234,269,337707,2,2,P|158:283|7:229,2,235.750004496574
382,85,338753,2,2,P|400:154|380:273,1,176.812503372431
370,278,339102,2,2,P|296:318|124:256,1,235.750004496574
333,132,339800,2,2,P|269:94|99:160,1,235.750004496574
288,298,340498,2,2,P|325:243|275:79,1,235.750004496574
220,315,341195,2,2,P|171:248|248:106,1,235.750004496574
372,43,341718,5,0,0:0:0:0:
372,43,341806,1,0,0:0:0:0:
372,43,341893,2,2,B|255:248|255:248|129:21,1,471.500008993149
348,153,342939,1,8,0:0:0:0:
112,161,343288,2,2,P|216:126|437:269,1,353.625006744862
387,346,343986,2,2,P|416:264|382:79,1,235.750004496574
174,52,344684,2,2,P|138:158|417:337,2,471.500008993149
398,122,346428,5,2,0:0:0:0:
166,165,346777,1,2,0:0:0:0:
394,219,347125,1,2,0:0:0:0:
170,293,347474,1,4,0:0:0:0:
170,293,347823,1,8,0:0:0:0:
170,293,348172,1,8,0:0:0:0:
170,293,348521,1,8,0:0:0:0:
208,50,348695,1,8,0:0:0:0:
208,50,349044,5,8,0:0:0:0:
208,50,349393,1,8,0:0:0:0:
444,114,349567,1,8,0:0:0:0:
444,114,349916,1,8,0:0:0:0:
444,114,350265,2,2,P|429:181|357:304,1,184.499994369507
100,328,350963,2,8,P|89:253|114:106,1,184.499994369507
222,77,351486,1,8,0:0:0:0:
359,71,351660,1,4,0:0:0:0:
470,153,351835,5,8,0:0:0:0:
194,175,352184,1,8,0:0:0:0:
465,222,352532,1,8,0:0:0:0:
362,315,352707,1,8,0:0:0:0:
362,315,352794,1,0,0:0:0:0:
362,315,352881,1,0,0:0:0:0:
256,331,353056,1,4,0:0:0:0:
48,147,353405,5,8,0:0:0:0:
183,120,353579,2,0,L|202:63,2,46.1249985923767,0|0|8,0:0|0:0|0:0,0:0:0:0:
321,120,353928,1,0,0:0:0:0:
343,125,354015,2,0,L|366:201,1,46.1249985923767,0|8,0:0|0:0,0:0:0:0:
304,298,354277,1,8,0:0:0:0:
171,336,354451,1,4,0:0:0:0:
71,240,354625,5,8,0:0:0:0:
71,240,354713,1,0,0:0:0:0:
71,240,354800,1,0,0:0:0:0:
71,240,354887,2,0,L|77:158,1,46.1249985923767
176,99,355149,1,4,0:0:0:0:
312,77,355323,5,0,0:0:0:0:
312,77,355410,1,0,0:0:0:0:
312,77,355498,2,0,P|330:150|325:193,1,92.2499971847535,8|0,0:0|0:0,0:0:0:0:
311,303,355846,1,4,0:0:0:0:
172,315,356021,5,0,0:0:0:0:
172,315,356108,1,0,0:0:0:0:
172,315,356195,1,4,0:0:0:0:
143,179,356370,5,0,0:0:0:0:
267,119,356544,1,4,0:0:0:0:
394,172,356718,1,0,0:0:0:0:
256,27,356893,5,4,0:0:0:0:
257,369,357067,5,0,0:0:0:0:
256,192,357242,12,0,358463,0:0:0:0:
69,130,358637,6,2,P|140:88|271:155,2,205
165,311,359684,2,8,P|240:319|388:290,2,205
230,231,360556,2,2,P|240:172|188:33,2,205
157,158,361428,2,8,P|231:136|379:172,1,205
256,192,361951,1,2,0:0:0:0:
157,226,362125,2,8,P|231:248|379:212,1,205
256,192,362649,1,2,0:0:0:0:
290,290,362824,2,8,P|313:191|290:93,1,205
221,290,363346,2,2,P|198:191|222:93,2,205
119,291,364218,6,8,P|117:198|109:158,1,102.5
186,114,364567,2,2,P|182:191|189:255,1,102.5
230,307,364916,2,8,P|258:231|256:180,1,102.5
327,133,365265,2,2,P|319:197|329:263,1,102.5
377,321,365614,2,8,P|405:237|386:82,1,205
327,48,366137,2,2,P|240:70|148:157,1,205
258,143,366660,1,8,0:0:0:0:
110,51,366835,1,2,0:0:0:0:
256,192,367009,12,0,368056,0:0:0:0:
256,192,368230,12,0,369625,0:0:0:0:
35,194,369800,6,8,P|74:143|188:194,1,205
477,190,370498,2,2,P|438:241|324:190,1,205
254,192,371021,1,8,0:0:0:0:
219,288,371195,2,2,L|151:60,1,205
293,288,371718,2,8,L|361:60,2,205
208,347,372591,6,2,P|136:301|79:151,1,205
182,219,373114,1,8,0:0:0:0:
279,249,373288,2,2,P|338:261|502:223,1,205
404,164,373811,1,8,0:0:0:0:
336,86,373986,2,2,P|257:111|153:196,1,205
93,262,374509,2,8,P|180:286|338:276,1,205
356,203,375032,1,0,0:0:0:0:
456,181,375207,1,0,0:0:0:0:
456,181,375294,1,0,0:0:0:0:
456,181,375381,6,2,P|446:108|420:68,1,102.5
372,167,375730,2,8,P|348:228|361:295,1,102.5
280,187,376079,2,2,P|283:98|270:77,1,102.5
213,169,376428,2,8,P|197:241|207:300,1,102.5
122,200,376777,2,2,P|128:129|252:49,1,205
211,151,377300,2,8,P|286:144|372:32,1,205
435,129,377823,1,2,0:0:0:0:
437,231,377998,1,8,0:0:0:0:
256,192,378172,12,0,379218,0:0:0:0:
256,192,379393,12,0,380614,0:0:0:0:
115,67,380788,5,0,0:0:0:0:
115,67,380875,1,0,0:0:0:0:
115,67,380963,5,8,0:0:0:0:
364,158,381137,1,8,0:0:0:0:
154,321,381311,1,0,0:0:0:0:
115,67,381486,1,0,0:0:0:0:
313,48,381660,5,8,0:0:0:0:
355,243,381835,1,8,0:0:0:0:
171,165,382009,1,0,0:0:0:0:
313,48,382184,1,0,0:0:0:0:
268,173,382358,5,8,0:0:0:0:
285,304,382532,1,8,0:0:0:0:
393,225,382707,1,0,0:0:0:0:
268,173,382881,1,0,0:0:0:0:
100,284,383056,5,8,0:0:0:0:
209,117,383230,1,8,0:0:0:0:
334,273,383405,1,0,0:0:0:0:
100,284,383579,1,0,0:0:0:0:
359,342,383753,5,8,0:0:0:0:
385,75,383928,1,8,0:0:0:0:
157,212,384102,1,0,0:0:0:0:
359,342,384277,1,0,0:0:0:0:
301,151,384451,5,8,0:0:0:0:
118,71,384625,1,8,0:0:0:0:
143,269,384800,1,0,0:0:0:0:
301,151,384974,1,0,0:0:0:0:
376,261,385149,5,8,0:0:0:0:
365,128,385323,1,8,0:0:0:0:
253,201,385498,1,0,0:0:0:0:
376,261,385672,1,0,0:0:0:0:
425,67,385846,5,8,0:0:0:0:
420,267,386021,1,8,0:0:0:0:
252,159,386195,1,8,0:0:0:0:
425,67,386370,1,8,0:0:0:0:
425,67,386457,1,8,0:0:0:0:
425,67,386544,5,2,0:0:0:0:
322,312,386718,1,2,0:0:0:0:
155,102,386893,1,0,0:0:0:0:
425,67,387067,1,0,0:0:0:0:
188,191,387242,5,2,0:0:0:0:
357,85,387416,1,2,0:0:0:0:
326,283,387591,1,0,0:0:0:0:
188,191,387765,1,0,0:0:0:0:
305,351,387939,5,2,0:0:0:0:
360,229,388114,1,2,0:0:0:0:
227,230,388288,1,0,0:0:0:0:
305,351,388463,1,0,0:0:0:0:
121,273,388637,5,2,0:0:0:0:
296,274,388811,1,2,0:0:0:0:
347,117,388986,1,0,0:0:0:0:
149,115,389160,1,0,0:0:0:0:
76,327,389335,5,2,0:0:0:0:
171,78,389509,1,2,0:0:0:0:
361,229,389684,1,0,0:0:0:0:
76,327,389858,1,0,0:0:0:0:
341,339,390032,5,2,0:0:0:0:
473,184,390207,1,2,0:0:0:0:
233,180,390381,1,0,0:0:0:0:
395,47,390556,1,0,0:0:0:0:
195,40,390730,5,2,0:0:0:0:
87,121,390905,1,2,0:0:0:0:
87,253,391079,1,0,0:0:0:0:
191,335,391253,1,0,0:0:0:0:
324,342,391428,6,2,P|392:328|451:275,1,133.249993900299
451,257,391689,1,8,0:0:0:0:
455,223,391777,1,8,0:0:0:0:
455,189,391864,1,8,0:0:0:0:
450,156,391951,1,8,0:0:0:0:
438,124,392038,1,8,0:0:0:0:
400,105,392125,6,2,P|321:83|190:124,1,184.499994369507
220,196,392649,1,0,0:0:0:0:
220,196,392736,1,0,0:0:0:0:
220,196,392823,2,2,P|160:240|40:203,1,184.499994369507
57,127,393346,2,0,L|57:71,1,46.1249985923767
58,217,393521,2,2,P|62:273|190:342,1,184.499994369507
250,350,394044,1,0,0:0:0:0:
285,321,394131,1,0,0:0:0:0:
320,291,394218,5,2,0:0:0:0:
320,272,394393,1,0,0:0:0:0:
321,216,394567,1,2,0:0:0:0:
321,123,394742,1,0,0:0:0:0:
104,131,394916,6,2,P|98:186|171:313,1,184.499994369507
196,283,395352,1,0,0:0:0:0:
241,277,395439,1,0,0:0:0:0:
286,285,395527,1,0,0:0:0:0:
329,299,395614,2,2,P|352:246|342:112,1,184.499994369507
314,87,396050,1,0,0:0:0:0:
270,71,396137,1,0,0:0:0:0:
224,77,396224,1,0,0:0:0:0:
260,104,396311,5,2,0:0:0:0:
275,147,396399,1,0,0:0:0:0:
271,192,396486,1,0,0:0:0:0:
252,234,396573,1,0,0:0:0:0:
215,262,396660,1,2,0:0:0:0:
168,258,396748,1,0,0:0:0:0:
128,234,396835,1,0,0:0:0:0:
112,190,396922,1,0,0:0:0:0:
157,192,397009,5,2,0:0:0:0:
202,184,397096,1,0,0:0:0:0:
239,156,397184,1,0,0:0:0:0:
266,118,397271,1,0,0:0:0:0:
298,150,397358,1,2,0:0:0:0:
339,170,397445,1,0,0:0:0:0:
384,174,397532,1,0,0:0:0:0:
427,158,397620,1,0,0:0:0:0:
468,138,397707,6,0,P|490:205|476:258,1,92.2499971847535,2|0,0:0|0:0,0:0:0:0:
465,265,397968,1,0,0:0:0:0:
440,304,398056,2,0,P|395:342|325:351,1,92.2499971847535,2|0,0:0|0:0,0:0:0:0:
271,351,398405,2,0,P|204:337|176:309,1,92.2499971847535,2|0,0:0|0:0,0:0:0:0:
148,297,398666,1,0,0:0:0:0:
125,256,398753,2,0,P|106:189|115:153,2,92.2499971847535,2|0|2,0:0|0:0|0:0,0:0:0:0:
215,233,399277,5,0,0:0:0:0:
199,189,399364,1,0,0:0:0:0:
204,143,399451,1,2,0:0:0:0:
239,113,399538,1,0,0:0:0:0:
284,104,399625,1,0,0:0:0:0:
327,121,399713,1,0,0:0:0:0:
350,160,399800,1,2,0:0:0:0:
351,252,399974,6,0,L|344:315,2,46.1249985923767,0|0|2,0:0|0:0|0:0,0:0:0:0:
276,196,400323,2,0,L|300:120,2,46.1249985923767,0|0|2,0:0|0:0|0:0,0:0:0:0:
222,271,400672,1,0,0:0:0:0:
176,278,400759,1,0,0:0:0:0:
141,309,400846,1,2,0:0:0:0:
104,338,400934,1,0,0:0:0:0:
59,328,401021,2,0,P|37:279|55:213,1,92.2499971847535,0|2,0:0|0:0,0:0:0:0:
93,165,401370,2,0,P|106:222|106:267,1,92.2499971847535,0|2,0:0|0:0,0:0:0:0:
198,256,401718,2,0,P|207:194|238:149,1,92.2499971847535,0|2,0:0|0:0,0:0:0:0:
269,89,402067,5,0,0:0:0:0:
321,131,402155,1,0,0:0:0:0:
367,177,402242,1,2,0:0:0:0:
402,261,402416,2,0,P|384:316|339:347,1,92.2499971847535,0|2,0:0|0:0,0:0:0:0:
266,343,402765,2,0,L|148:344,2,92.2499971847535,0|2|0,0:0|0:0|0:0,0:0:0:0:
257,250,403288,5,4,0:0:0:0:
341,110,403463,1,0,0:0:0:0:
341,110,403637,1,0,0:0:0:0:
257,250,403811,1,4,0:0:0:0:
257,250,403986,5,4,0:0:0:0:
171,110,404160,1,0,0:0:0:0:
171,110,404334,1,0,0:0:0:0:
255,250,404509,1,4,0:0:0:0:
255,250,404683,5,4,0:0:0:0:
311,322,404858,1,8,0:0:0:0:
356,329,404945,1,8,0:0:0:0:
401,334,405032,1,8,0:0:0:0:
248,141,405207,1,2,0:0:0:0:
401,334,405381,1,2,0:0:0:0:
461,263,405556,1,0,0:0:0:0:
472,218,405643,1,0,0:0:0:0:
460,175,405730,6,2,P|382:118|230:117,1,230.625008797646
223,159,406079,6,0,P|177:193|96:222,1,112.750003440857,8|0,0:0|0:0,0:0:0:0:
89,321,406428,1,8,0:0:0:0:
200,336,406602,2,0,L|232:261,1,56.3750017204285
252,200,406777,1,8,0:0:0:0:
368,216,406951,1,0,0:0:0:0:
333,297,407038,2,0,L|310:348,1,56.3750017204285,0|8,0:0|0:0,0:0:0:0:
423,350,407300,1,0,0:0:0:0:
451,241,407474,6,0,P|453:168|440:117,1,112.750003440857,8|0,0:0|0:0,0:0:0:0:
346,72,407823,1,8,0:0:0:0:
236,100,407998,2,0,L|144:142,1,56.3750017204285
92,152,408172,1,8,0:0:0:0:
92,244,408346,1,0,0:0:0:0:
184,280,408434,2,0,L|261:304,1,56.3750017204285,0|8,0:0|0:0,0:0:0:0:
336,328,408695,1,0,0:0:0:0:
424,334,408870,6,0,P|455:260|457:214,1,112.750003440857,8|0,0:0|0:0,0:0:0:0:
432,194,409131,1,0,0:0:0:0:
420,154,409218,1,8,0:0:0:0:
434,114,409306,1,0,0:0:0:0:
415,60,409393,2,0,L|375:13,1,56.3750017204285
300,9,409567,1,8,0:0:0:0:
216,78,409742,1,0,0:0:0:0:
145,125,409829,2,0,L|99:156,1,56.3750017204285,0|8,0:0|0:0,0:0:0:0:
110,327,410091,1,0,0:0:0:0:
166,331,410178,1,0,0:0:0:0:
222,331,410265,6,2,L|285:283,1,56.3750017204285
179,249,410439,2,2,L|248:232,1,56.3750017204285
169,160,410614,2,2,L|244:169,1,56.3750017204285
199,67,410788,2,2,L|245:101,1,56.3750017204285
303,22,410963,2,2,L|303:86,1,56.3750017204285
416,43,411137,2,2,L|347:102,1,56.3750017204285
433,143,411311,1,2,0:0:0:0:
386,245,411486,1,2,0:0:0:0:
277,275,411660,6,0,P|234:358|261:380,2,112.750003440857,4|0|8,0:0|0:0|0:0,0:0:0:0:
163,266,412184,2,0,L|138:210,1,56.3750017204285
114,141,412358,1,8,0:0:0:0:
237,89,412532,1,0,0:0:0:0:
273,155,412620,2,0,L|301:205,1,56.3750017204285,0|8,0:0|0:0,0:0:0:0:
194,153,412881,1,8,0:0:0:0:
258,65,413056,6,0,P|353:51|415:64,1,112.750003440857,8|0,0:0|0:0,0:0:0:0:
421,81,413317,1,0,0:0:0:0:
441,138,413405,1,8,0:0:0:0:
447,198,413492,1,0,0:0:0:0:
451,251,413579,2,0,L|452:320,1,56.3750017204285
451,380,413753,1,8,0:0:0:0:
337,382,413928,1,0,0:0:0:0:
337,301,414015,2,0,L|337:228,1,56.3750017204285,0|8,0:0|0:0,0:0:0:0:
254,198,414277,1,0,0:0:0:0:
186,115,414451,5,8,0:0:0:0:
257,27,414625,1,0,0:0:0:0:
313,36,414713,1,0,0:0:0:0:
359,67,414800,1,8,0:0:0:0:
392,112,414887,1,0,0:0:0:0:
399,167,414974,2,0,L|417:241,1,56.3750017204285
428,306,415149,1,8,0:0:0:0:
271,286,415323,2,0,P|184:300|133:280,2,112.750003440857,0|8|0,0:0|0:0|0:0,0:0:0:0:
154,191,415846,5,8,0:0:0:0:
252,135,416021,2,0,L|309:98,2,56.3750017204285,0|0|8,0:0|0:0|0:0,0:0:0:0:
349,192,416370,1,0,0:0:0:0:
277,293,416544,1,8,0:0:0:0:
212,174,416718,1,0,0:0:0:0:
351,128,416893,1,8,0:0:0:0:
331,284,417067,1,0,0:0:0:0:
178,209,417242,5,8,0:0:0:0:
252,96,417416,1,0,0:0:0:0:
384,72,417591,1,8,0:0:0:0:
430,198,417765,2,0,L|456:280,1,56.3750017204285
470,342,417939,1,8,0:0:0:0:
355,341,418114,1,0,0:0:0:0:
321,257,418201,2,0,L|292:193,1,56.3750017204285,0|8,0:0|0:0,0:0:0:0:
249,97,418463,1,0,0:0:0:0:
143,145,418637,5,8,0:0:0:0:
73,260,418811,1,0,0:0:0:0:
207,275,418986,1,8,0:0:0:0:
341,279,419160,2,0,L|376:212,1,56.3750017204285
410,143,419335,1,8,0:0:0:0:
275,143,419509,1,0,0:0:0:0:
233,232,419596,2,0,L|206:286,1,56.3750017204285,0|8,0:0|0:0,0:0:0:0:
95,327,419858,1,0,0:0:0:0:
95,203,420032,5,8,0:0:0:0:
196,113,420207,1,0,0:0:0:0:
240,108,420294,1,0,0:0:0:0:
280,89,420381,1,8,0:0:0:0:
317,113,420468,1,0,0:0:0:0:
361,124,420556,2,0,L|411:165,1,56.3750017204285
471,220,420730,1,8,0:0:0:0:
397,311,420905,1,0,0:0:0:0:
322,257,420992,2,0,L|264:204,1,56.3750017204285,0|8,0:0|0:0,0:0:0:0:
140,270,421253,2,0,L|92:214,1,56.3750017204285
143,193,421428,6,2,L|140:131,1,56.3750017204285
187,105,421602,2,2,L|239:44,1,56.3750017204285
277,79,421777,2,2,L|371:79,1,56.3750017204285
363,126,421951,2,2,L|443:160,1,56.3750017204285
415,204,422125,2,2,L|448:275,1,56.3750017204285
393,289,422300,2,2,L|372:348,1,56.3750017204285
318,353,422474,1,2,0:0:0:0:
234,277,422649,1,2,0:0:0:0:
331,220,422823,5,4,0:0:0:0:
421,152,422998,1,0,0:0:0:0:
342,71,423172,1,8,0:0:0:0:
230,54,423346,2,0,L|210:150,1,56.3750017204285
207,187,423521,1,8,0:0:0:0:
305,198,423695,1,0,0:0:0:0:
293,274,423783,2,0,L|282:330,1,56.3750017204285,0|8,0:0|0:0,0:0:0:0:
392,311,424044,1,0,0:0:0:0:
439,209,424218,5,8,0:0:0:0:
368,120,424393,1,0,0:0:0:0:
316,96,424480,1,0,0:0:0:0:
259,99,424567,1,8,0:0:0:0:
208,125,424655,1,0,0:0:0:0:
175,170,424742,2,0,L|117:226,1,56.3750017204285
84,275,424916,1,8,0:0:0:0:
214,279,425091,1,0,0:0:0:0:
270,220,425178,2,0,L|310:181,1,56.3750017204285,0|8,0:0|0:0,0:0:0:0:
256,82,425439,1,0,0:0:0:0:
163,147,425614,5,8,0:0:0:0:
349,147,425788,1,0,0:0:0:0:
361,201,425875,1,0,0:0:0:0:
341,254,425963,1,8,0:0:0:0:
304,296,426050,1,0,0:0:0:0:
251,315,426137,2,0,L|185:326,1,56.3750017204285
92,325,426311,1,8,0:0:0:0:
92,221,426486,1,0,0:0:0:0:
72,94,426660,1,0,0:0:0:0:
192,110,426835,1,0,0:0:0:0:
192,110,426922,1,0,0:0:0:0:
192,110,427009,5,8,0:0:0:0:
415,143,427184,1,2,0:0:0:0:
257,202,427358,1,2,0:0:0:0:
362,240,427532,1,2,0:0:0:0:
317,275,427707,2,2,P|260:325|98:324,1,225.500006881714
39,186,428405,6,0,P|55:118|70:94,1,82,4|0,0:0|0:0,0:0:0:0:
101,103,428666,2,0,L|122:43,1,41
178,134,428841,2,0,L|185:79,1,41
256,143,429015,2,0,L|256:84,1,41
334,134,429189,2,0,L|328:93,1,41
411,103,429364,2,0,L|397:64,1,41
472,160,429538,2,0,L|491:96,1,41
405,226,429713,6,0,L|386:167,1,41
476,296,429887,2,0,L|491:239,1,41
416,348,430061,2,0,L|406:294,1,41
335,351,430236,2,0,L|332:282,1,41
255,350,430410,2,0,L|255:297,1,41
177,351,430585,2,0,L|178:310,1,41
96,348,430760,2,0,L|103:307,1,41,0|4,0:0|0:0,0:0:0:0:
136,189,431108,1,4,0:0:0:0:
150,150,431195,6,0,P|197:133|253:137,1,82,4|0,0:0|0:0,0:0:0:0:
234,152,431457,1,0,0:0:0:0:
237,172,431544,2,0,L|306:194,1,41
232,251,431718,2,0,L|287:264,1,41
221,326,431893,2,0,L|269:340,1,41
360,341,432067,2,0,L|410:326,1,41
350,264,432242,2,0,L|404:250,1,41
342,190,432416,2,0,L|386:179,1,41
328,117,432591,6,0,L|346:70,1,41
253,114,432765,2,0,L|253:57,1,41
177,118,432939,2,0,L|177:55,1,41
94,130,433114,2,0,P|72:185|82:296,1,164
151,325,433637,2,4,P|199:338|293:318,1,123
309,314,433986,1,4,0:0:0:0:
381,276,434160,5,0,0:0:0:0:
415,253,434248,1,0,0:0:0:0:
430,215,434335,1,0,0:0:0:0:
429,174,434422,1,0,0:0:0:0:
414,135,434509,1,0,0:0:0:0:
379,113,434596,1,0,0:0:0:0:
337,116,434684,1,0,0:0:0:0:
310,147,434771,1,0,0:0:0:0:
279,119,434858,5,0,0:0:0:0:
240,105,434945,1,0,0:0:0:0:
201,117,435032,1,0,0:0:0:0:
181,153,435120,1,0,0:0:0:0:
182,193,435207,1,0,0:0:0:0:
194,231,435294,1,0,0:0:0:0:
223,258,435381,1,0,0:0:0:0:
263,263,435468,1,0,0:0:0:0:
266,234,435556,5,0,0:0:0:0:
279,208,435643,1,0,0:0:0:0:
300,189,435730,1,0,0:0:0:0:
328,183,435817,1,0,0:0:0:0:
356,182,435905,1,0,0:0:0:0:
383,188,435992,1,0,0:0:0:0:
407,203,436079,1,0,0:0:0:0:
428,221,436166,1,0,0:0:0:0:
433,201,436253,5,0,0:0:0:0:
431,180,436341,1,0,0:0:0:0:
425,160,436428,1,0,0:0:0:0:
417,141,436515,1,0,0:0:0:0:
409,131,436602,1,0,0:0:0:0:
400,122,436689,1,0,0:0:0:0:
391,113,436777,1,0,0:0:0:0:
381,105,436864,1,0,0:0:0:0:
366,119,436951,5,0,0:0:0:0:
348,129,437038,1,0,0:0:0:0:
337,135,437125,1,0,0:0:0:0:
324,136,437213,1,0,0:0:0:0:
311,136,437300,1,0,0:0:0:0:
298,134,437387,1,0,0:0:0:0:
285,134,437474,1,0,0:0:0:0:
273,130,437561,1,0,0:0:0:0:
266,154,437649,5,0,0:0:0:0:
251,173,437736,1,0,0:0:0:0:
242,187,437823,1,0,0:0:0:0:
236,197,437910,1,0,0:0:0:0:
227,206,437998,1,0,0:0:0:0:
217,214,438085,1,0,0:0:0:0:
205,218,438172,1,0,0:0:0:0:
193,220,438259,1,0,0:0:0:0:
218,240,438346,5,0,0:0:0:0:
244,251,438434,1,0,0:0:0:0:
272,253,438521,1,0,0:0:0:0:
300,252,438608,1,0,0:0:0:0:
328,250,438695,1,0,0:0:0:0:
356,248,438782,1,0,0:0:0:0:
377,236,438870,1,0,0:0:0:0:
398,224,438957,1,0,0:0:0:0:
411,203,439044,5,0,0:0:0:0:
422,186,439131,1,0,0:0:0:0:
426,170,439218,1,0,0:0:0:0:
426,157,439306,1,0,0:0:0:0:
425,148,439393,1,0,0:0:0:0:
424,143,439480,1,0,0:0:0:0:
425,137,439567,6,0,P|376:97|234:159,1,215.249993431091,4|0,0:0|0:0,0:0:0:0:
236,171,440003,1,0,0:0:0:0:
219,198,440091,1,2,0:0:0:0:
193,217,440178,1,2,0:0:0:0:
161,224,440265,1,2,0:0:0:0:
129,218,440352,1,2,0:0:0:0:
108,224,440439,1,2,0:0:0:0:
100,238,440527,1,2,0:0:0:0:
101,254,440614,1,2,0:0:0:0:
109,267,440701,1,0,0:0:0:0:
121,277,440788,1,0,0:0:0:0:
214,330,440963,6,0,P|293:337|430:294,2,215.249993431091
172,173,441922,1,8,0:0:0:0:
174,98,442009,1,8,0:0:0:0:
338,98,442271,1,8,0:0:0:0:
340,173,442358,1,8,0:0:0:0:
152,278,442707,5,2,0:0:0:0:
197,305,442794,1,2,0:0:0:0:
243,316,442881,1,2,0:0:0:0:
285,314,442968,1,2,0:0:0:0:
321,304,443056,1,2,0:0:0:0:
348,287,443143,1,2,0:0:0:0:
363,264,443230,1,2,0:0:0:0:
369,243,443317,1,2,0:0:0:0:
372,221,443405,6,8,L|377:131,1,53.8124983577729
241,119,443666,2,8,L|232:194,1,53.8124983577729
240,258,444102,2,8,P|148:294|83:195,1,215.249993431091
92,129,444713,5,8,0:0:0:0:
172,131,444800,1,8,0:0:0:0:
333,131,445061,1,8,0:0:0:0:
414,131,445149,1,8,0:0:0:0:
294,310,445498,5,2,0:0:0:0:
247,323,445585,1,2,0:0:0:0:
204,324,445672,1,2,0:0:0:0:
167,315,445759,1,2,0:0:0:0:
140,296,445846,1,2,0:0:0:0:
124,273,445934,1,2,0:0:0:0:
119,251,446021,1,2,0:0:0:0:
119,234,446108,1,2,0:0:0:0:
113,219,446195,6,8,L|53:176,1,53.8124983577729
252,216,446457,2,8,L|321:170,1,53.8124983577729
465,52,446893,2,0,P|446:114|461:274,1,215.249993431091
253,336,447591,2,0,P|168:339|100:324,2,107.624996715546,0|0|8,0:0|0:0|0:0,0:0:0:0:
162,140,448288,2,0,P|225:112|392:165,1,215.249993431091,8|0,0:0|0:0,0:0:0:0:
453,336,448986,6,8,L|502:285,1,53.8124983577729
492,189,449248,2,8,L|440:151,1,53.8124983577729
346,191,449509,2,8,P|274:219|201:210,1,107.624996715546
60,331,450032,1,8,0:0:0:0:
172,215,450294,2,8,P|187:144|185:123,1,53.8124983577729
311,61,450643,2,8,P|300:121|302:123,1,53.8124983577729
456,245,451079,5,0,0:0:0:0:
449,253,451166,1,0,0:0:0:0:
432,266,451253,1,0,0:0:0:0:
406,286,451341,1,0,0:0:0:0:
371,310,451428,1,0,0:0:0:0:
342,324,451515,1,0,0:0:0:0:
321,328,451602,1,0,0:0:0:0:
310,330,451689,1,0,0:0:0:0:
288,329,451777,5,0,0:0:0:0:
256,323,451864,1,0,0:0:0:0:
236,313,451951,1,0,0:0:0:0:
206,299,452038,1,0,0:0:0:0:
188,286,452125,1,8,0:0:0:0:
319,234,452300,1,0,0:0:0:0:
254,190,452387,1,0,0:0:0:0:
189,147,452474,1,8,0:0:0:0:
324,98,452649,1,0,0:0:0:0:
429,119,452823,5,2,0:0:0:0:
438,144,452910,1,2,0:0:0:0:
439,165,452998,1,2,0:0:0:0:
439,186,453085,1,2,0:0:0:0:
434,228,453172,5,2,0:0:0:0:
407,261,453259,1,2,0:0:0:0:
372,287,453346,1,2,0:0:0:0:
333,307,453434,1,2,0:0:0:0:
291,317,453521,6,2,P|222:335|122:312,1,161.437495073319
211,214,454044,2,2,P|272:180|402:216,1,161.437495073319
323,63,454567,2,2,P|269:104|119:43,1,215.249993431091
65,178,455178,2,2,P|116:220|211:225,1,161.437495073319
323,285,455701,2,0,P|350:231|356:178,1,107.624996715546,2|8,0:0|0:0,0:0:0:0:
385,152,455963,1,8,0:0:0:0:
411,118,456050,1,2,0:0:0:0:
337,74,456224,1,8,0:0:0:0:
294,77,456311,1,8,0:0:0:0:
177,133,456573,6,2,P|150:210|163:293,1,161.437495073319
289,298,457096,2,0,P|297:220|299:148,1,107.624996715546,2|8,0:0|0:0,0:0:0:0:
280,151,457358,1,8,0:0:0:0:
280,108,457445,1,2,0:0:0:0:
172,96,457620,1,8,0:0:0:0:
173,149,457707,1,10,0:0:0:0:
147,308,457968,2,2,P|221:312|323:296,1,161.437495073319
414,284,458405,2,2,P|437:221|443:111,1,161.437495073319,2|10,0:0|0:0,0:0:0:0:
412,84,458753,5,8,0:0:0:0:
271,164,459015,1,8,0:0:0:0:
225,192,459102,1,8,0:0:0:0:
123,317,459364,2,0,P|206:318|297:309,1,161.437495073319,0|2,0:0|0:0,0:0:0:0:
302,277,459713,1,2,0:0:0:0:
342,241,459800,1,2,0:0:0:0:
379,236,459887,1,2,0:0:0:0:
405,240,459974,1,2,0:0:0:0:
431,242,460061,6,8,L|477:192,1,53.8124983577729
341,100,460410,2,8,L|301:147,1,53.8124983577729
144,140,460759,2,2,P|138:215|135:309,2,161.437495073319
272,41,461544,2,2,L|302:90,1,53.8124983577729
334,127,461718,2,0,L|334:269,1,107.624996715546,2|8,0:0|0:0,0:0:0:0:
28,341,462416,6,0,P|40:271|114:182,1,161.437495073319,8|2,0:0|0:0,0:0:0:0:
117,168,462765,1,8,0:0:0:0:
224,167,462939,2,0,P|272:194|332:182,1,107.624996715546,2|8,0:0|0:0,0:0:0:0:
356,229,463201,1,2,0:0:0:0:
233,334,463463,1,8,0:0:0:0:
139,202,463724,1,2,0:0:0:0:
139,202,463811,2,0,P|186:169|253:171,1,107.624996715546,8|2,0:0|0:0,0:0:0:0:
324,105,464160,2,0,L|400:108,1,53.8124983577729,8|2,0:0|0:0,0:0:0:0:
418,142,464335,1,8,0:0:0:0:
388,245,464509,1,8,0:0:0:0:
298,305,464684,6,2,P|209:307|220:41,1,430.499986862183
410,97,465730,2,8,P|428:171|349:244,1,161.437495073319
325,232,466079,1,8,0:0:0:0:
253,152,466253,1,2,0:0:0:0:
196,171,466341,1,2,0:0:0:0:
141,192,466428,1,2,0:0:0:0:
340,263,466602,1,2,0:0:0:0:
289,293,466689,1,2,0:0:0:0:
238,324,466777,1,2,0:0:0:0:
26,359,466951,1,8,0:0:0:0:
27,299,467038,1,8,0:0:0:0:
26,239,467125,1,8,0:0:0:0:
25,179,467213,1,8,0:0:0:0:
24,119,467300,1,8,0:0:0:0:
24,59,467387,1,8,0:0:0:0:
23,25,467474,6,0,L|155:25,1,127.099994957581,4|0,0:0|0:0,0:0:0:0:
202,62,467736,1,0,0:0:0:0:
251,102,467823,2,4,L|420:102,1,127.099994957581
359,292,468172,1,8,0:0:0:0:
173,247,468346,1,8,0:0:0:0:
340,154,468521,1,8,0:0:0:0:
259,326,468695,2,0,L|259:44,1,254.199989915161,4|0,0:0|0:0,0:0:0:0:
198,51,469131,1,0,0:0:0:0:
137,70,469218,2,4,L|137:224,1,127.099994957581
312,272,469567,5,8,0:0:0:0:
230,99,469742,1,8,0:0:0:0:
133,263,469916,1,8,0:0:0:0:
306,181,470091,1,8,0:0:0:0:
306,181,470178,2,4,P|374:182|487:280,1,190.649992436371
439,305,470527,2,0,P|376:306|258:218,1,190.649992436371,0|8,0:0|0:0,0:0:0:0:
173,75,470963,1,8,0:0:0:0:
105,252,471137,1,8,0:0:0:0:
232,111,471311,6,2,P|306:95|441:131,1,190.649992436371
339,174,471660,2,2,P|346:243|417:306,1,127.099994957581
418,285,471922,1,0,0:0:0:0:
445,258,472009,1,0,0:0:0:0:
450,220,472096,1,0,0:0:0:0:
441,182,472184,1,0,0:0:0:0:
412,156,472271,1,0,0:0:0:0:
375,146,472358,1,0,0:0:0:0:
342,165,472445,1,0,0:0:0:0:
315,192,472532,5,2,0:0:0:0:
37,30,472707,1,4,0:0:0:0:
128,274,472881,1,8,0:0:0:0:
128,274,472968,1,8,0:0:0:0:
128,274,473056,6,2,P|203:280|292:249,2,138.37499577713
112,251,473666,1,2,0:0:0:0:
98,227,473753,2,8,P|91:145|109:74,2,138.37499577713
125,232,474364,1,8,0:0:0:0:
152,227,474451,2,2,P|170:156|163:87,2,138.37499577713
178,235,475061,1,2,0:0:0:0:
203,246,475149,2,8,P|252:259|349:250,2,138.37499577713
218,222,475759,1,8,0:0:0:0:
238,203,475846,6,2,P|291:154|308:97,1,92.2499971847535
227,77,476195,2,2,P|211:142|216:182,1,92.2499971847535
200,258,476544,2,8,P|159:303|66:329,2,138.37499577713
312,258,477242,2,8,P|353:303|477:325,1,184.499994369507
420,248,477765,1,2,0:0:0:0:
310,99,477939,1,2,0:0:0:0:
202,99,478114,1,2,0:0:0:0:
92,248,478288,1,2,0:0:0:0:
256,333,478463,1,8,0:0:0:0:
256,333,478550,1,8,0:0:0:0:
256,333,478637,6,2,P|280:267|261:129,1,184.499994369507
155,122,479160,2,8,L|83:111,2,46.1249985923767
273,143,479509,1,2,0:0:0:0:
196,235,479684,1,2,0:0:0:0:
313,255,479858,1,2,0:0:0:0:
313,255,479945,1,2,0:0:0:0:
313,255,480032,2,2,P|368:281|493:251,1,184.499994369507
389,182,480556,1,8,0:0:0:0:
285,241,480730,1,8,0:0:0:0:
179,182,480905,1,8,0:0:0:0:
84,254,481079,1,8,0:0:0:0:
167,339,481253,1,2,0:0:0:0:
167,339,481341,1,2,0:0:0:0:
167,339,481428,6,2,P|190:255|171:150,1,184.499994369507,0|0,0:0|0:0,0:0:0:0:
256,71,481951,1,8,0:0:0:0:
256,71,482038,1,8,0:0:0:0:
256,71,482125,2,8,L|384:102,1,92.2499971847535
444,160,482474,2,2,P|425:249|383:291,1,138.37499577713
276,304,482910,1,2,0:0:0:0:
276,304,482998,2,2,P|208:319|157:303,1,92.2499971847535,2|0,0:0|0:0,0:0:0:0:
224,201,483346,1,0,0:0:0:0:
276,92,483521,5,8,0:0:0:0:
231,81,483608,1,8,0:0:0:0:
184,81,483695,1,8,0:0:0:0:
144,104,483782,1,8,0:0:0:0:
114,139,483870,1,8,0:0:0:0:
169,212,484044,5,8,0:0:0:0:
169,212,484131,1,8,0:0:0:0:
169,212,484218,2,2,P|148:279|114:343,2,138.37499577713
206,184,484829,1,2,0:0:0:0:
252,184,484916,2,8,P|303:209|423:223,2,138.37499577713
245,137,485527,1,8,0:0:0:0:
252,91,485614,2,2,P|311:71|412:58,2,138.37499577713
207,100,486224,1,2,0:0:0:0:
161,96,486311,2,8,P|78:79|11:39,2,138.37499577713
172,141,486922,1,8,0:0:0:0:
181,185,487009,6,8,P|183:286|175:308,1,92.2499971847535
259,331,487358,2,2,P|256:261|271:213,1,92.2499971847535
343,280,487707,2,2,P|391:214|408:130,1,138.37499577713
407,113,488056,2,2,P|375:67|312:51,1,92.2499971847535,2|4,0:0|0:0,0:0:0:0:
165,103,488579,1,4,0:0:0:0:
347,281,488753,1,4,0:0:0:0:
256,192,488928,12,0,489800,0:0:0:0:
110,161,490672,6,0,L|110:240,2,76.875
193,101,491544,2,0,P|253:79|293:108,1,102.5
331,113,492067,2,0,L|424:113,1,76.875
416,189,492591,2,0,L|332:189,2,76.875
420,239,493288,2,0,P|416:279|362:329,1,102.5
273,340,493986,2,0,P|239:320|174:338,1,102.5
183,230,494684,2,0,L|182:129,2,76.875
206,239,495294,1,0,0:0:0:0:
230,244,495381,6,0,L|326:314,2,102.5
272,215,496253,2,0,L|293:140,2,76.875
169,221,497125,2,0,P|197:181|205:118,1,102.5
159,106,497649,2,0,P|182:71|229:54,1,76.875
299,55,498172,2,0,P|333:73|353:106,2,76.875
268,96,498870,2,0,L|261:215,1,102.5
322,281,499567,2,0,L|339:160,1,102.5
426,129,500265,2,0,L|401:252,1,102.5
386,277,500788,2,0,L|363:317,1,25.625
358,320,500963,6,0,P|321:339|244:330,2,102.5
313,294,501835,2,0,L|240:269,2,76.875
251,211,502707,2,0,P|202:183|149:167,1,102.5
134,123,503230,2,0,L|87:49,2,76.875
202,46,504102,2,0,P|242:64|308:36,1,102.5
234,130,504800,2,0,P|267:137|350:108,1,102.5
356,110,505236,2,0,L|406:79,1,51.25
430,153,505672,2,0,L|414:222,1,51.25
344,194,506021,2,0,L|322:257,1,51.25
318,264,506282,5,8,0:0:0:0:
306,287,506370,1,8,0:0:0:0:
290,307,506457,1,8,0:0:0:0:
243,327,506544,6,0,P|179:336|101:272,1,153.75
108,287,506893,2,0,P|116:232|92:148,1,102.5
170,104,507242,2,0,P|228:84|356:96,1,153.75
319,84,507591,2,0,L|331:186,1,102.5
433,189,507939,2,0,L|440:250,1,51.25
253,154,508201,2,0,L|234:85,1,51.25
123,245,508463,2,0,L|140:318,1,51.25
216,323,508637,6,0,L|193:249,1,51.25
275,98,508899,2,0,L|299:165,1,51.25
485,277,509160,2,0,L|451:203,1,51.25
454,123,509335,6,0,P|384:96|304:112,1,122.999996246338
314,119,509596,1,0,0:0:0:0:
297,145,509684,2,0,P|219:176|163:168,1,122.999996246338
109,272,510032,2,0,P|174:308|237:307,1,122.999996246338
252,311,510294,1,0,0:0:0:0:
282,308,510381,2,0,P|366:281|407:248,1,122.999996246338
461,158,510730,2,0,L|310:158,1,122.999996246338
308,134,510992,1,0,0:0:0:0:
279,157,511079,2,0,L|152:157,1,122.999996246338
119,275,511428,1,0,0:0:0:0:
167,101,511602,1,0,0:0:0:0:
344,101,511777,1,0,0:0:0:0:
392,275,511951,1,0,0:0:0:0:
256,357,512125,6,0,P|225:299|221:186,1,122.999996246338
179,174,512387,2,0,P|226:131|239:10,1,184.499994369507
359,42,512823,2,0,L|437:66,3,61.499998123169
373,144,513172,2,0,L|302:157,3,61.499998123169
402,239,513521,1,0,0:0:0:0:
395,275,513608,1,0,0:0:0:0:
373,305,513695,1,0,0:0:0:0:
341,324,513782,1,0,0:0:0:0:
304,328,513870,5,0,0:0:0:0:
244,313,513957,1,0,0:0:0:0:
182,313,514044,1,0,0:0:0:0:
122,329,514131,1,0,0:0:0:0:
148,273,514218,1,0,0:0:0:0:
160,212,514306,1,0,0:0:0:0:
148,151,514393,1,0,0:0:0:0:
110,102,514480,1,0,0:0:0:0:
171,105,514567,5,0,0:0:0:0:
232,109,514655,1,0,0:0:0:0:
291,93,514742,1,0,0:0:0:0:
339,55,514829,1,0,0:0:0:0:
395,32,514916,2,0,L|415:96,3,61.499998123169
335,159,515265,2,0,L|314:235,3,61.499998123169
415,282,515614,2,0,L|406:351,3,61.499998123169
295,300,515963,2,0,L|245:252,3,61.499998123169
195,283,516311,6,0,P|122:319|39:193,1,245.999992492676
72,186,516748,1,0,0:0:0:0:
109,164,516835,1,0,0:0:0:0:
148,180,516922,1,0,0:0:0:0:
187,196,517009,2,0,P|174:260|325:257,1,245.999992492676
329,162,517532,1,0,0:0:0:0:
251,65,517707,6,0,P|183:67|112:110,1,122.999996246338
96,141,517968,1,0,0:0:0:0:
91,206,518056,2,0,P|164:240|247:221,1,122.999996246338
253,275,518317,1,0,0:0:0:0:
289,323,518405,2,0,P|359:328|457:315,1,122.999996246338
455,275,518666,1,0,0:0:0:0:
462,211,518753,2,0,P|442:140|408:85,1,122.999996246338
362,61,519015,1,0,0:0:0:0:
299,65,519102,6,0,L|206:77,3,81.9999974975587
116,146,519625,2,0,L|85:225,1,61.499998123169
75,262,519800,2,0,P|136:294|232:299,1,122.999996246338
245,326,520061,1,0,0:0:0:0:
301,349,520149,2,0,P|378:352|446:313,1,122.999996246338
461,286,520410,1,0,0:0:0:0:
448,234,520498,6,0,P|420:154|377:103,1,122.999996246338
343,91,520759,1,0,0:0:0:0:
285,112,520846,2,0,P|225:152|179:219,1,122.999996246338
155,231,521108,1,0,0:0:0:0:
143,283,521195,2,0,P|159:342|242:365,1,122.999996246338
262,364,521457,1,0,0:0:0:0:
309,356,521544,2,0,P|392:353|441:303,1,122.999996246338
441,272,521806,1,0,0:0:0:0:
448,219,521893,6,0,P|451:142|425:84,1,122.999996246338
381,77,522155,1,0,0:0:0:0:
323,75,522242,2,0,P|256:86|173:146,1,122.999996246338
165,159,522503,1,0,0:0:0:0:
146,217,522591,2,0,P|189:300|244:307,1,122.999996246338
251,311,522852,1,0,0:0:0:0:
311,288,522939,2,0,P|338:210|318:161,1,122.999996246338
274,138,523201,1,0,0:0:0:0:
215,100,523288,6,0,P|140:103|91:276,1,245.999992492676
107,257,523724,1,0,0:0:0:0:
145,275,523811,1,0,0:0:0:0:
171,240,523899,1,0,0:0:0:0:
202,211,523986,2,0,P|260:147|365:121,2,184.499994369507
256,321,524684,6,0,P|331:334|413:317,1,122.999996246338
420,285,524945,1,0,0:0:0:0:
396,228,525032,2,0,P|318:215|244:227,1,122.999996246338
234,266,525294,1,0,0:0:0:0:
188,306,525381,2,0,P|112:317|29:281,1,122.999996246338
47,247,525643,1,0,0:0:0:0:
86,199,525730,2,0,P|180:199|231:217,1,122.999996246338
245,255,525992,1,0,0:0:0:0:
291,295,526079,6,0,L|338:353,3,61.499998123169
338,233,526428,2,0,L|404:255,3,61.499998123169
343,158,526777,2,0,L|425:120,3,61.499998123169
288,102,527125,2,0,L|311:39,3,61.499998123169
213,44,527474,5,0,0:0:0:0:
176,93,527561,1,0,0:0:0:0:
129,133,527649,1,0,0:0:0:0:
71,153,527736,1,0,0:0:0:0:
31,191,527823,1,0,0:0:0:0:
28,246,527910,1,0,0:0:0:0:
49,297,527998,1,0,0:0:0:0:
95,327,528085,1,0,0:0:0:0:
144,326,528172,1,0,0:0:0:0:
193,324,528259,1,0,0:0:0:0:
240,337,528346,1,0,0:0:0:0:
289,329,528434,1,0,0:0:0:0:
331,326,528521,1,0,0:0:0:0:
369,306,528608,1,0,0:0:0:0:
392,269,528695,1,0,0:0:0:0:
396,226,528782,1,0,0:0:0:0:
441,183,528870,5,0,0:0:0:0:
470,128,528957,1,0,0:0:0:0:
460,67,529044,1,0,0:0:0:0:
407,35,529131,1,0,0:0:0:0:
352,44,529218,1,0,0:0:0:0:
308,78,529306,1,0,0:0:0:0:
291,130,529393,1,0,0:0:0:0:
298,184,529480,1,0,0:0:0:0:
255,159,529567,1,0,0:0:0:0:
208,142,529655,1,0,0:0:0:0:
158,143,529742,1,0,0:0:0:0:
114,165,529829,1,0,0:0:0:0:
82,194,529916,1,0,0:0:0:0:
67,227,530003,1,0,0:0:0:0:
47,259,530091,1,0,0:0:0:0:
30,292,530178,1,0,0:0:0:0:
32,333,530265,5,0,0:0:0:0:
80,295,530352,1,0,0:0:0:0:
137,272,530439,1,0,0:0:0:0:
198,278,530527,1,0,0:0:0:0:
256,294,530614,1,0,0:0:0:0:
291,244,530701,1,0,0:0:0:0:
304,184,530788,1,0,0:0:0:0:
291,123,530875,1,0,0:0:0:0:
257,71,530963,1,0,0:0:0:0:
213,114,531050,1,0,0:0:0:0:
202,174,531137,1,0,0:0:0:0:
213,234,531224,1,0,0:0:0:0:
249,283,531311,1,0,0:0:0:0:
306,259,531399,1,0,0:0:0:0:
367,263,531486,1,0,0:0:0:0:
416,299,531573,1,0,0:0:0:0:
461,342,531660,6,0,P|484:275|412:60,1,276.74999155426
346,149,532358,2,0,B|177:272|97:151|97:151|185:34|352:150,1,553.499983108521
331,282,533579,1,0,0:0:0:0:
253,331,533753,1,0,0:0:0:0:
160,324,533928,1,0,0:0:0:0:
93,260,534102,1,0,0:0:0:0:
80,168,534277,1,0,0:0:0:0:
135,94,534451,6,0,P|200:72|408:141,1,276.74999155426
341,203,535149,2,0,B|291:256|299:328|333:359|333:359|285:352|228:332|168:347|126:365|126:365|141:336|165:214|81:175,1,553.499983108521
169,127,536370,1,0,0:0:0:0:
237,188,536544,1,0,0:0:0:0:
279,106,536718,1,0,0:0:0:0:
344,171,536893,1,0,0:0:0:0:
414,111,537067,1,0,0:0:0:0:
470,184,537242,6,0,P|466:254|294:357,1,276.74999155426
226,316,537939,2,0,P|175:292|89:310,1,138.37499577713
96,305,538288,2,0,P|114:247|73:15,1,276.74999155426
177,49,538986,2,0,P|240:81|351:66,1,184.499994369507
349,251,539684,2,0,P|280:263|164:211,1,184.499994369507
256,192,540120,12,0,542474,0:0:0:0:
96,77,542823,6,0,P|169:55|460:95,1,338.250010322571
475,170,543521,2,0,P|423:208|46:148,1,451.000013763428
82,95,544567,1,0,0:0:0:0:
255,47,544741,1,0,0:0:0:0:
397,158,544916,1,0,0:0:0:0:
373,300,545090,1,0,0:0:0:0:
182,340,545264,1,0,0:0:0:0:
98,187,545439,1,0,0:0:0:0:
113,62,545614,6,0,P|177:94|294:334,1,338.250010322571
392,333,546311,2,0,P|442:276|226:67,1,451.000013763428
95,221,547358,1,0,0:0:0:0:
173,144,547532,1,0,0:0:0:0:
255,221,547707,1,0,0:0:0:0:
339,144,547881,1,0,0:0:0:0:
417,221,548055,1,0,0:0:0:0:
256,67,548230,1,0,0:0:0:0:
254,327,548405,6,0,P|288:259|513:126,1,338.250010322571
256,28,549102,2,0,P|228:85|120:151,1,169.125005161286
143,145,549451,2,0,P|100:204|290:288,1,338.250010322571
197,234,550149,2,0,P|230:177|402:177,2,225.500006881714
406,316,551195,2,0,P|411:251|120:100,2,451.000013763428
297,347,552765,2,0,L|236:323,2,56.3750017204285
242,247,553114,2,0,L|182:220,2,56.3750017204285
183,150,553463,5,0,0:0:0:0:
84,95,553637,1,0,0:0:0:0:
12,182,553811,1,0,0:0:0:0:
101,251,553986,6,0,P|171:268|460:224,1,338.250010322571
476,133,554684,2,0,P|406:86|157:117,1,338.250010322571
66,164,555381,2,0,P|134:186|303:165,1,225.500006881714
423,351,556079,2,0,P|436:268|391:119,1,225.500006881714
456,23,556777,2,0,P|433:96|463:356,1,338.250010322571
348,355,557474,2,0,P|282:297|47:364,1,338.250010322571
170,353,558172,2,0,P|175:232|126:106,1,225.500006881714
307,289,558870,2,0,P|282:217|367:87,1,225.500006881714
346,37,559567,6,0,B|266:79|160:88|117:62|117:62|128:112|149:179|115:279,1,451.000013763428
333,338,560614,2,0,P|392:301|439:152,2,225.500006881714
179,338,561660,2,0,P|120:301|73:152,1,225.500006881714
174,112,562358,2,0,P|241:88|415:348,1,451.000013763428
338,112,563753,2,0,P|271:88|97:348,1,451.000013763428
148,333,564538,1,0,0:0:0:0:
203,321,564625,1,0,0:0:0:0:
250,289,564713,1,0,0:0:0:0:
294,254,564800,1,0,0:0:0:0:
326,208,564887,1,0,0:0:0:0:
342,154,564974,1,0,0:0:0:0:
337,97,565061,1,0,0:0:0:0:
316,44,565149,6,0,L|160:59,2,112.750003440857
427,64,565672,2,0,L|452:193,2,112.750003440857
313,63,566195,1,0,0:0:0:0:
206,116,566370,2,0,L|171:228,1,112.750003440857
284,231,566718,1,0,0:0:0:0:
378,316,566893,2,0,L|259:352,1,112.750003440857
298,239,567242,2,0,L|184:267,1,112.750003440857
207,154,567591,2,0,L|117:250,1,112.750003440857
50,175,567939,6,0,L|95:51,2,112.750003440857
162,191,568463,2,0,L|235:76,1,112.750003440857
334,91,568811,2,0,L|380:209,1,112.750003440857
339,303,569160,2,0,P|271:318|187:313,1,112.750003440857
171,309,569422,1,0,0:0:0:0:
120,283,569509,1,0,0:0:0:0:
83,240,569596,1,0,0:0:0:0:
80,183,569684,2,0,L|121:51,1,112.750003440857
224,92,570032,2,0,L|181:207,1,112.750003440857
297,205,570381,2,0,L|362:331,1,112.750003440857
225,87,570730,6,0,L|377:103,2,112.750003440857
286,181,571253,2,0,L|143:163,1,112.750003440857
196,277,571602,2,0,L|277:288,1,56.3750017204285
308,293,571777,2,0,P|389:256|475:107,1,225.500006881714
204,293,572474,2,0,P|123:256|37:107,2,225.500006881714
357,330,573521,6,0,L|412:199,1,112.750003440857
358,120,573870,2,0,L|299:261,1,112.750003440857
209,264,574218,2,0,L|270:131,1,112.750003440857
213,56,574567,2,0,L|131:189,1,112.750003440857
293,39,574916,6,0,L|430:91,1,112.750003440857
305,143,575265,2,0,L|176:92,1,112.750003440857
233,209,575614,2,0,L|383:268,1,112.750003440857
368,359,575963,2,0,L|253:328,1,112.750003440857
160,315,576311,5,0,0:0:0:0:
106,295,576399,1,0,0:0:0:0:
74,248,576486,1,0,0:0:0:0:
71,191,576573,1,0,0:0:0:0:
91,138,576660,1,0,0:0:0:0:
135,102,576748,1,0,0:0:0:0:
186,78,576835,1,0,0:0:0:0:
241,85,576922,1,0,0:0:0:0:
283,121,577009,5,0,0:0:0:0:
298,175,577096,1,0,0:0:0:0:
300,231,577184,1,0,0:0:0:0:
351,254,577271,1,0,0:0:0:0:
405,241,577358,1,0,0:0:0:0:
413,185,577445,1,0,0:0:0:0:
407,128,577532,1,0,0:0:0:0:
387,74,577620,1,0,0:0:0:0:
350,58,577707,5,0,0:0:0:0:
311,48,577794,1,0,0:0:0:0:
271,46,577881,1,0,0:0:0:0:
234,60,577968,1,0,0:0:0:0:
194,62,578056,1,0,0:0:0:0:
155,55,578143,1,0,0:0:0:0:
120,36,578230,1,0,0:0:0:0:
83,20,578317,1,0,0:0:0:0:
83,59,578405,5,0,0:0:0:0:
81,98,578492,1,0,0:0:0:0:
70,135,578579,1,0,0:0:0:0:
89,169,578666,1,0,0:0:0:0:
117,196,578753,1,0,0:0:0:0:
125,234,578841,1,0,0:0:0:0:
113,271,578928,1,0,0:0:0:0:
80,293,579015,1,0,0:0:0:0:
75,332,579102,5,0,0:0:0:0:
256,192,579189,12,0,580498,0:0:0:0:
