osu file format v14

[General]
AudioFilename: audio.mp3
AudioLeadIn: 0
PreviewTime: 59629
Countdown: 0
SampleSet: Normal
StackLeniency: 0.7
Mode: 2
LetterboxInBreaks: 0
WidescreenStoryboard: 1

[Editor]
Bookmarks: 61653,91653
DistanceSpacing: 1.1
BeatDivisor: 4
GridSize: 4
TimelineZoom: 1.5

[Metadata]
Title:Grezy
TitleUnicode:Грезы
Artist:IC3PEAK
ArtistUnicode:IC3PEAK
Creator:Nelly
Version:Cup
Source:
Tags:pandahero experimental electronic industrial noise pop punk russian сладкая жизнь sweet life
BeatmapID:2894177
BeatmapSetID:1403065

[Difficulty]
HPDrainRate:3
CircleSize:2.4
OverallDifficulty:5.8
ApproachRate:5.8
SliderMultiplier:1.2
SliderTickRate:1

[Events]
//Background and Video events
0,0,"BG.jpg",0,0
//Break Periods
//Storyboard Layer 0 (Background)
//Storyboard Layer 1 (Fail)
//Storyboard Layer 2 (Pass)
//Storyboard Layer 3 (Foreground)
//Storyboard Layer 4 (Overlay)
//Storyboard Sound Samples

[TimingPoints]
1102,560.747663551402,4,2,0,15,1,0
1943,451.127819548872,4,2,0,15,1,0
2619,487.80487804878,4,2,0,15,1,0
4570,400,4,2,0,15,1,0
4970,576.923076923077,4,2,0,15,1,0
6412,465.116279069767,4,2,0,15,1,0
6877,500,4,2,0,15,1,0
7877,408.163265306122,4,2,0,15,1,0
8693,540.540540540541,4,2,0,15,1,0
9774,425.531914893617,4,2,0,15,1,0
10199,612.244897959184,4,2,0,15,1,0
12035,468.75,4,2,0,15,1,0
12503,521.739130434783,4,2,0,20,1,0
13285,534.521158129176,4,2,0,20,1,0
13546,408.163265306122,4,2,0,20,1,0
13954,444.444444444444,4,2,0,25,1,0
14396,466.381655654878,4,2,0,25,1,0
15795,500,4,2,0,25,1,0
16295,476.190476190476,4,2,0,30,1,0
17009,444.444444444444,4,2,0,30,1,0
17675,500,4,2,0,30,1,0
18675,469.483568075117,4,2,0,30,1,0
20083,495.867768595041,4,2,0,30,1,0
20826,451.127819548872,4,2,0,30,1,0
21502,517.241379310345,4,2,0,30,1,0
22536,442.80442804428,4,2,0,30,1,0
23864,483.870967741935,4,2,0,30,1,0
24589,458.015267175573,4,2,0,30,1,0
25276,491.803278688525,4,2,0,30,1,0
26259,465.116279069767,4,2,0,30,1,0
27189,480,4,2,0,30,1,0
27669,476.947535771065,4,2,0,30,1,0
28384,458.015267175573,4,2,0,30,1,0
29071,437.956204379562,4,2,0,30,1,0
30822,594.059405940594,4,2,0,30,1,0
31416,491.803278688525,4,2,2,35,1,0
32891,416.666666666667,4,2,1,40,1,0
33291,472.44094488189,4,2,1,40,1,0
38960,-100,4,1,1,45,0,0
45810,-100,4,1,1,50,0,0
46519,-100,4,1,1,55,0,0
52897,-100,4,1,2,55,0,0
53605,-100,4,1,1,55,0,0
54078,-100,4,1,1,60,0,0
57385,-100,4,1,0,45,0,0
61637,-83.3333333333333,4,3,2,60,0,1
61755,-83.3333333333333,4,2,1,60,0,0
62346,-83.3333333333333,4,3,2,60,0,0
68960,-83.3333333333333,4,3,1,60,0,0
69196,-83.3333333333333,4,1,2,65,0,1
69314,-83.3333333333333,4,1,2,65,0,0
69550,-83.3333333333333,4,1,1,65,0,0
69905,-83.3333333333333,4,1,2,65,0,0
72739,-83.3333333333333,4,1,1,65,0,0
72976,-83.3333333333333,4,1,2,65,0,0
75338,-83.3333333333333,4,3,1,65,0,0
75574,-83.3333333333333,4,1,2,65,0,0
76519,-83.3333333333333,4,1,1,65,0,0
76755,-83.3333333333333,4,1,2,65,0,1
76873,-83.3333333333333,4,1,2,65,0,0
77464,-83.3333333333333,4,1,2,65,0,0
79826,-83.3333333333333,4,1,1,65,0,0
80062,-83.3333333333333,4,1,2,65,0,0
80298,-83.3333333333333,4,1,1,65,0,0
80535,-83.3333333333333,4,1,2,65,0,0
83133,-83.3333333333333,4,1,2,65,0,0
83605,-83.3333333333333,4,1,1,65,0,0
83842,-83.3333333333333,4,1,2,65,0,0
84314,-83.3333333333333,4,1,1,65,0,0
85023,-83.3333333333333,4,1,2,65,0,0
91873,-83.3333333333333,4,1,2,45,0,0
91991,-83.3333333333333,4,2,0,45,0,0
93763,-83.3333333333333,4,2,0,40,0,0
94235,-83.3333333333333,4,2,0,35,0,0
94708,-83.3333333333333,4,2,0,30,0,0
95180,-83.3333333333333,4,2,0,25,0,0
95653,-83.3333333333333,4,2,0,20,0,0

[Colours]
Combo1 : 0,88,234
Combo2 : 0,66,147

[HitObjects]
150,333,31416,6,0,P|131:314|238:66,1,360,4|2,0:3|3:0,0:0:0:0:
344,355,33291,6,0,P|363:336|256:88,1,360,4|8,0:3|3:0,0:0:0:0:
137,290,35180,6,0,P|213:300|369:100,1,360,4|2,1:3|1:2,0:0:0:0:
248,50,37070,6,0,P|211:48|82:291,1,360,4|4,1:3|1:3,0:0:0:0:
199,318,38960,6,0,L|288:313,2,90,4|8|2,0:3|0:3|0:2,0:0:0:0:
120,316,39905,2,0,L|114:196,1,120,4|2,0:2|0:3,0:0:0:0:
270,161,40850,6,0,L|362:165,2,90,4|8|2,0:3|0:3|0:2,0:0:0:0:
192,64,41794,2,0,L|317:60,1,120,0|2,0:0|0:2,0:0:0:0:
468,265,42739,6,0,P|483:255|468:194,1,90,4|8,0:3|0:3,0:0:0:0:
349,172,43448,1,10,0:2:0:0:
270,218,43684,2,0,L|390:215,1,120,2|4,1:2|0:3,0:0:0:0:
232,120,44629,6,0,L|142:116,2,90,4|8|10,0:3|0:3|0:2,0:0:0:0:
310,130,45574,2,0,L|313:254,1,120,4|2,0:2|0:3,0:0:0:0:
153,284,46519,6,0,L|63:280,2,90,4|8|8,0:3|0:3|0:0,0:0:0:0:
232,178,47464,2,0,L|112:181,1,120,4|2,0:3|0:3,0:0:0:0:
269,310,48409,6,0,P|297:287|271:244,1,90,4|8,0:3|0:3,0:0:0:0:
155,217,49117,1,8,0:0:0:0:
77,206,49353,2,0,L|74:86,1,120,4|2,0:3|0:3,0:0:0:0:
233,43,50298,6,0,L|322:46,2,90,4|8|8,0:3|0:3|0:0,0:0:0:0:
154,51,51243,2,0,L|151:176,1,120,4|2,0:3|0:3,0:0:0:0:
308,211,52188,6,0,L|397:214,2,90,4|8|8,0:3|0:3|0:0,0:0:0:0:
230,219,53133,2,0,L|200:280,2,60,0|8|4,0:0|0:0|0:3,0:0:0:0:
388,300,54078,6,0,P|414:282|390:239,1,90,4|8,0:3|0:3,0:0:0:0:
273,215,54787,1,8,0:0:0:0:
352,187,55023,2,0,L|475:194,1,120,4|2,0:3|0:3,0:0:0:0:
316,63,55968,6,0,L|226:66,2,90,4|8|8,0:3|0:3|0:0,0:0:0:0:
394,87,56913,1,4,0:3:0:0:
429,154,57149,1,8,0:0:0:0:
403,224,57385,1,2,0:2:0:0:
316,253,57621,5,0,0:0:0:0:
256,192,58094,12,0,60692,2:0:0:0:
102,69,61637,6,0,L|319:75,2,215.999993408203,6|6|8,0:0|0:0|0:0,0:0:0:0:
275,335,63527,6,0,P|320:299|281:163,1,215.999993408203,6|6,0:0|0:0,0:0:0:0:
67,130,64944,1,8,0:0:0:0:
237,250,65416,6,0,L|21:243,2,215.999993408203,6|8|8,0:0|0:0|0:0,0:0:0:0:
410,241,67306,6,0,L|418:22,1,215.999993408203,6|8,0:0|0:0,0:0:0:0:
202,200,68724,1,10,0:0:0:0:
195,106,68960,1,2,0:0:0:0:
285,67,69196,6,0,L|393:72,2,107.999996704102,4|4|8,0:3|0:3|0:2,0:0:0:0:
69,223,70613,1,4,0:3:0:0:
146,220,70850,1,8,0:2:0:0:
222,126,71086,6,0,L|113:121,1,107.999996704102,4|4,0:3|0:3,0:0:0:0:
237,293,71794,2,0,P|278:287|271:204,1,143.999995605469,8|8,0:2|0:0,0:0:0:0:
183,196,72503,1,4,0:3:0:0:
357,87,72976,6,0,L|467:92,2,107.999996704102,4|4|8,0:3|0:3|0:2,0:0:0:0:
135,314,74393,1,4,0:3:0:0:
128,220,74629,1,8,0:2:0:0:
219,202,74865,6,0,P|249:196|227:62,1,215.999993408203,4|8,0:3|0:2,0:0:0:0:
139,57,75810,1,8,0:0:0:0:
53,62,76046,1,8,0:0:0:0:
139,57,76283,1,4,0:3:0:0:
289,288,76755,6,0,P|293:268|170:146,1,215.999993408203,4|8,0:3|0:2,0:0:0:0:
393,211,78172,1,4,0:3:0:0:
400,117,78408,1,8,0:2:0:0:
313,81,78645,6,0,L|206:85,2,107.999996704102,4|4|4,0:3|0:3|0:3,0:0:0:0:
400,237,79590,1,8,0:0:0:0:
407,143,79826,1,8,0:0:0:0:
319,127,80062,1,2,0:3:0:0:
145,150,80535,6,0,P|116:190|151:225,1,107.999996704102,4|2,0:3|0:3,0:0:0:0:
281,242,81243,2,0,L|353:238,2,71.9999978027344,8|4|8,0:0|0:2|0:2,0:0:0:0:
194,233,81952,1,4,0:3:0:0:
338,98,82424,6,0,L|230:92,1,107.999996704102,4|2,0:3|0:3,0:0:0:0:
120,345,83133,1,2,0:3:0:0:
70,269,83369,1,8,0:0:0:0:
89,186,83605,1,8,0:0:0:0:
164,147,83842,1,4,0:3:0:0:
311,241,84314,6,0,L|314:131,1,107.999996704102,4|8,0:3|0:2,0:0:0:0:
184,166,85023,1,2,0:3:0:0:
150,105,85259,1,4,0:2:0:0:
195,48,85495,1,8,0:0:0:0:
271,36,85731,1,4,0:3:0:0:
125,69,86204,6,0,L|18:71,1,107.999996704102,4|4,0:3|0:3,0:0:0:0:
147,220,86913,1,2,0:3:0:0:
219,212,87149,1,8,0:0:0:0:
147,316,87385,1,8,0:0:0:0:
75,308,87621,1,2,0:3:0:0:
248,341,88094,6,0,L|356:337,1,107.999996704102,4|4,0:3|0:3,0:0:0:0:
464,272,88802,1,2,0:3:0:0:
488,184,89038,1,4,0:2:0:0:
444,111,89274,1,8,0:0:0:0:
360,97,89511,1,2,0:3:0:0:
215,229,89983,6,0,L|325:223,2,107.999996704102,4|4|2,0:3|0:3|0:3,0:0:0:0:
128,230,90928,1,8,0:0:0:0:
87,167,91165,1,8,0:0:0:0:
118,92,91401,1,4,0:3:0:0:
214,73,91637,5,10,0:2:0:0:
256,192,92109,12,2,95653,0:0:0:0:
