osu file format v14

[General]
AudioFilename: audio.mp3
AudioLeadIn: 0
PreviewTime: 71093
Countdown: 0
SampleSet: Normal
StackLeniency: 0.3
Mode: 0
LetterboxInBreaks: 0
WidescreenStoryboard: 0

[Editor]
Bookmarks: 1540
DistanceSpacing: 0.8
BeatDivisor: 6
GridSize: 4
TimelineZoom: 2.2

[Metadata]
Title:Kingdom Of Welcome Addiction
TitleUnicode:Kingdom Of Welcome Addiction
Artist:IAMX
ArtistUnicode:IAMX
Creator:PandaHero
Version:Insane
Source:
Tags:Mirash Chris Corner synthpop dark cabaret alternative industrial electronica experimental
BeatmapID:1378610
BeatmapSetID:650596

[Difficulty]
HPDrainRate:6
CircleSize:4
OverallDifficulty:7
ApproachRate:8
SliderMultiplier:2.49999990463257
SliderTickRate:1

[Events]
//Background and Video events
0,0,"54678.jpg",0,0
//Break Periods
2,48189,58852
2,141089,151751
//Storyboard Layer 0 (Background)
//Storyboard Layer 1 (Fail)
//Storyboard Layer 2 (Pass)
//Storyboard Layer 3 (Foreground)
//Storyboard Sound Samples

[TimingPoints]
1540,725.777186403774,4,2,0,20,1,0
1540,-125,4,2,0,20,0,0
2628,-125,4,2,0,10,0,0
2749,-125,4,2,0,20,0,0
3233,-166.666666666667,4,2,0,20,0,0
4443,-125,4,2,0,20,0,0
6620,-166.666666666667,4,2,0,20,0,0
7346,-125,4,2,0,20,0,0
8434,-125,4,2,0,10,0,0
8555,-125,4,2,0,20,0,0
10854,-125,4,2,0,10,0,0
10975,-125,4,2,0,20,0,0
13152,-100,4,2,0,50,0,0
24764,-66.6666666666667,4,1,1,65,0,0
47990,-100,4,3,0,55,0,0
71214,-66.6666666666667,4,1,1,65,0,1
94439,-133.333333333333,4,3,0,40,0,0
106051,-133.333333333333,4,3,0,45,0,0
117664,-66.6666666666667,4,1,1,65,0,0
140889,-100,4,3,0,55,0,0
164114,-66.6666666666667,4,1,1,65,0,1
187338,-133.333333333333,4,3,0,40,0,0
198951,-133.333333333333,4,3,0,45,0,0
210563,-62.5,4,1,1,70,0,1
233788,-66.6666666666667,4,1,1,65,0,0

[Colours]
Combo1 : 179,34,34
Combo2 : 192,192,192
Combo3 : 106,106,106
Combo4 : 223,96,96

[HitObjects]
90,70,1540,5,2,0:0:0:0:
166,91,1781,1,0,0:0:0:0:
224,36,2023,1,2,0:0:0:0:
90,70,2265,2,0,L|90:191,1,99.9999961853028,2|0,0:0|0:0,0:0:0:0:
91,210,2749,5,2,0:0:0:0:
153,288,2991,1,0,0:0:0:0:
243,242,3233,2,0,L|306:246,1,49.9999965667726,2|0,0:0|0:0,0:0:0:0:
274,322,3717,2,0,L|337:318,1,49.9999965667726,2|0,0:0|0:0,0:0:0:0:
399,312,4201,1,2,0:0:0:0:
178,355,4443,6,0,L|177:284,2,66.6666641235352,2|0|0,0:0|0:0|0:0,0:0:0:0:
105,255,5168,2,0,L|118:177,1,66.6666641235352,2|0,0:0|0:0,0:0:0:0:
19,111,5652,2,0,L|19:192,1,66.6666641235352,2|0,0:0|0:0,0:0:0:0:
25,252,6136,1,2,0:0:0:0:
182,150,6620,6,0,L|244:155,1,49.9999965667726,2|0,0:0|0:0,0:0:0:0:
290,106,7104,1,2,0:0:0:0:
124,32,7346,2,0,P|165:33|217:30,1,66.6666641235352,4|0,0:0|0:0,0:0:0:0:
270,28,7830,1,2,0:0:0:0:
364,160,8071,2,0,L|362:276,1,99.9999961853028,2|0,0:0|0:0,0:0:0:0:
358,300,8555,1,2,0:0:0:0:
267,343,8797,6,0,P|226:344|174:341,1,66.6666641235352,4|0,0:0|0:0,0:0:0:0:
132,299,9281,1,2,0:0:0:0:
52,290,9523,2,0,P|49:325|51:366,1,66.6666641235352,2|0,0:0|0:0,0:0:0:0:
132,299,10007,1,0,0:0:0:0:
267,343,10249,5,6,0:0:0:0:
359,305,10491,2,0,P|326:272|279:226,1,99.9999961853028,2|0,0:0|0:0,0:0:0:0:
256,209,10975,1,2,0:0:0:0:
355,195,11217,1,2,0:0:0:0:
393,103,11458,1,0,0:0:0:0:
318,36,11700,1,2,0:0:0:0:
218,47,11942,2,0,L|199:119,1,66.6666641235352,2|0,0:0|0:0,0:0:0:0:
95,33,12426,2,0,L|114:105,1,66.6666641235352,2|0,0:0|0:0,0:0:0:0:
161,184,12910,1,2,0:0:0:0:
200,302,13152,6,0,P|148:290|100:258,2,83.333330154419,4|2|2,1:2|0:0|0:0,0:0:0:0:
314,352,13878,2,0,P|366:340|414:308,2,83.333330154419,0|2|2,1:0|0:0|0:0,0:0:0:0:
45,265,14603,6,0,P|41:317|49:373,2,83.333330154419,0|2|2,1:0|0:0|0:0,0:0:0:0:
118,163,15329,2,0,P|159:167|201:165,2,83.333330154419,0|2|2,1:0|0:0|0:0,0:0:0:0:
352,40,16055,6,0,P|360:84|356:132,1,83.333330154419,0|2,1:0|0:0,0:0:0:0:
344,200,16539,1,2,0:0:0:0:
487,129,16781,6,0,P|452:157|409:178,1,83.333330154419,0|2,1:0|0:0,0:0:0:0:
344,200,17265,1,2,0:0:0:0:
336,360,17507,6,0,P|328:316|332:268,1,83.333330154419,0|2,1:0|0:0,0:0:0:0:
344,200,17990,1,2,0:0:0:0:
201,271,18232,6,0,P|235:242|278:221,1,83.333330154419,0|2,1:0|0:0,0:0:0:0:
344,200,18716,1,2,0:0:0:0:
140,137,18958,5,4,1:2:0:0:
84,200,19200,2,0,P|68:236|56:292,1,83.333330154419,2|2,0:0|0:0,0:0:0:0:
221,153,19684,5,0,1:0:0:0:
140,137,19926,2,0,P|100:141|46:158,1,83.333330154419,2|2,0:0|0:0,0:0:0:0:
305,141,20410,5,0,1:0:0:0:
221,153,20652,2,0,P|181:148|127:131,1,83.333330154419,2|2,0:0|0:0,0:0:0:0:
257,73,21135,5,0,1:0:0:0:
305,141,21377,2,0,P|321:177|333:233,1,83.333330154419,2|2,0:0|0:0,0:0:0:0:
472,340,21861,5,4,1:2:0:0:
396,304,22103,1,2,0:0:0:0:
320,340,22345,1,2,0:0:0:0:
185,149,22587,5,0,1:0:0:0:
191,232,22829,1,2,0:0:0:0:
260,280,23071,1,2,0:0:0:0:
403,221,23313,5,4,1:2:0:0:
351,155,23555,1,2,0:0:0:0:
266,156,23797,1,2,0:0:0:0:
41,245,24039,5,0,1:0:0:0:
118,274,24281,1,2,0:0:0:0:
191,232,24522,1,2,0:0:0:0:
44,60,24764,6,2,P|100:56|178:33,1,125,4|0,0:0|0:0,0:2:0:0:
166,37,25127,1,0,0:0:0:0:
166,37,25248,1,2,0:2:0:0:
36,156,25490,5,8,0:0:0:0:
56,252,25732,1,0,0:0:0:0:
76,348,25974,1,2,0:2:0:0:
269,302,26216,6,0,P|325:306|401:322,1,125,8|0,0:0|0:0,0:0:0:0:
427,332,26579,1,0,0:0:0:0:
460,349,26700,1,2,0:2:0:0:
285,182,26942,2,0,P|341:186|417:202,1,125,8|0,0:0|0:0,0:0:0:0:
443,211,27305,1,0,0:0:0:0:
476,227,27426,1,2,0:2:0:0:
330,50,27667,6,2,P|273:46|198:29,1,125,4|0,0:0|0:0,0:2:0:0:
206,31,28030,1,0,0:0:0:0:
206,31,28151,1,2,0:2:0:0:
44,24,28393,5,8,0:0:0:0:
51,123,28635,1,0,0:2:0:0:
55,222,28877,1,2,0:2:0:0:
189,326,29119,5,8,0:0:0:0:
377,354,29361,1,0,0:0:0:0:
426,359,29482,1,0,0:0:0:0:
473,344,29603,1,2,0:2:0:0:
473,185,29845,5,8,0:0:0:0:
285,213,30087,1,0,0:0:0:0:
235,218,30208,1,0,0:0:0:0:
186,206,30329,1,2,0:2:0:0:
34,75,30571,6,2,L|34:223,1,125,4|0,0:0|0:0,0:2:0:0:
34,200,30933,1,0,0:0:0:0:
34,200,31054,1,2,0:2:0:0:
91,352,31296,1,8,0:0:0:0:
166,253,31538,1,0,0:0:0:0:
166,253,31659,1,0,0:0:0:0:
166,253,31780,1,2,0:2:0:0:
164,38,32022,6,0,L|163:179,1,125,8|0,0:0|0:0,0:0:0:0:
163,162,32385,1,0,0:0:0:0:
163,162,32506,1,2,0:2:0:0:
255,352,32748,1,8,0:0:0:0:
346,171,32990,1,0,0:0:0:0:
203,266,33232,1,2,0:2:0:0:
387,311,33474,6,2,P|440:265|473:208,1,125,4|0,0:0|0:0,0:2:0:0:
468,218,33837,1,0,0:0:0:0:
468,218,33958,1,2,0:2:0:0:
503,66,34199,2,0,P|432:72|356:61,1,125,8|0,0:0|0:0,0:0:0:0:
257,32,34683,1,2,0:2:0:0:
43,144,34925,5,8,0:0:0:0:
78,261,35167,1,0,0:0:0:0:
176,194,35409,1,2,0:2:0:0:
304,236,35651,5,8,0:0:0:0:
269,353,35893,1,0,0:0:0:0:
171,286,36135,1,2,0:2:0:0:
445,203,36377,6,2,P|452:272|442:347,1,125,4|0,0:0|0:0,0:2:0:0:
446,327,36740,1,0,0:0:0:0:
446,327,36861,1,2,0:2:0:0:
322,248,37103,1,8,0:0:0:0:
317,124,37345,1,0,0:0:0:0:
432,77,37586,1,2,0:2:0:0:
244,194,37828,6,0,P|179:186|115:156,1,125,8|0,0:0|0:0,0:0:0:0:
124,162,38191,1,0,0:0:0:0:
124,162,38312,1,2,0:2:0:0:
37,39,38554,6,2,L|38:300,1,250,4|2,0:0|0:2,0:2:0:0:
127,75,39280,2,2,P|189:80|277:74,1,125,4|0,0:0|0:0,0:2:0:0:
289,72,39643,1,0,0:0:0:0:
325,63,39764,1,2,0:2:0:0:
483,107,40006,6,2,P|497:228|452:377,1,250,8|2,0:0|0:2,0:0:0:0:
221,333,40731,2,2,P|344:319|464:350,1,250,8|2,0:0|0:2,0:0:0:0:
221,333,41457,2,2,P|208:210|239:90,1,250,8|2,0:0|0:2,0:0:0:0:
358,204,42183,6,2,P|362:272|353:335,1,125,4|0,0:0|0:0,0:2:0:0:
354,328,42546,1,0,0:0:0:0:
354,328,42667,1,2,0:2:0:0:
204,348,42909,2,0,P|141:339|76:341,2,125,8|0|2,0:0|0:0|0:2,0:0:0:0:
136,208,43635,2,2,P|86:168|18:135,1,125,8|0,0:0|0:0,0:2:0:0:
31,140,43997,1,0,0:0:0:0:
31,140,44118,1,2,0:2:0:0:
204,36,44360,5,8,0:0:0:0:
296,72,44602,1,0,0:0:0:0:
392,40,44844,1,2,0:2:0:0:
204,36,45086,6,2,P|193:124|201:185,1,125,4|0,0:0|0:0,0:2:0:0:
196,159,45449,1,0,0:0:0:0:
196,159,45570,1,2,0:2:0:0:
288,252,45812,1,8,0:0:0:0:
116,172,46054,1,0,0:0:0:0:
290,141,46296,1,2,0:2:0:0:
157,280,46538,6,2,P|92:288|16:278,1,125,4|0,0:0|0:0,0:2:0:0:
33,282,46901,1,0,0:0:0:0:
33,282,47022,1,2,0:2:0:0:
116,172,47263,1,8,0:0:0:0:
268,332,47505,1,0,0:0:0:0:
304,240,47747,1,2,0:2:0:0:
172,352,47989,1,4,0:1:0:0:
40,304,59602,5,4,0:0:0:0:
116,336,59844,2,8,L|180:359,2,41.6666650772095
51,191,60327,5,4,0:0:0:0:
126,206,60569,1,0,0:0:0:0:
174,146,60811,1,2,0:0:0:0:
144,28,61053,5,4,0:0:0:0:
68,60,61295,2,8,L|4:88,2,41.6666650772095
224,56,61779,5,4,0:0:0:0:
300,56,62021,1,0,0:0:0:0:
376,56,62263,1,2,0:0:0:0:
464,160,62505,6,0,P|416:164|352:160,1,83.333330154419,4|0,0:0|0:0,0:0:0:0:
380,163,62868,1,8,0:0:0:0:
380,163,62989,1,8,0:0:0:0:
312,308,63231,5,4,0:0:0:0:
276,244,63472,1,0,0:0:0:0:
304,172,63714,1,2,0:0:0:0:
184,208,63956,5,4,0:0:0:0:
104,232,64198,2,8,L|60:244,2,41.6666650772095
276,244,64682,2,0,P|340:260|428:320,1,166.666660308838,4|2,0:0|0:0,0:0:0:0:
440,160,65408,6,0,P|440:116|436:56,1,83.333330154419,4|0,0:0|0:0,0:0:0:0:
437,76,65771,1,8,0:0:0:0:
437,76,65892,1,8,0:0:0:0:
292,40,66134,5,4,0:0:0:0:
224,68,66376,1,0,0:0:0:0:
156,40,66618,1,2,0:0:0:0:
32,56,66859,5,4,0:0:0:0:
32,140,67101,2,8,L|32:216,2,41.6666650772095
176,200,67585,5,4,0:0:0:0:
176,276,67827,1,0,0:0:0:0:
176,352,68069,1,2,0:0:0:0:
340,352,68311,6,0,P|324:270|287:196,1,166.666660308838,4|0,0:0|0:0,0:0:0:0:
176,116,69037,1,4,0:0:0:0:
176,200,69279,1,0,0:0:0:0:
344,60,69521,5,2,0:0:0:0:
380,40,69642,1,0,0:0:0:0:
420,36,69763,2,0,P|400:76|384:128,1,83.333330154419,4|0,0:0|0:0,0:0:0:0:
387,112,70125,1,8,0:0:0:0:
387,112,70246,1,8,0:0:0:0:
433,292,70488,6,0,P|453:252|469:200,1,83.333330154419,4|0,0:0|0:0,0:0:0:0:
465,215,70851,1,8,0:0:0:0:
465,215,70972,1,8,0:0:0:0:
279,197,71214,6,2,P|221:202|146:203,1,125,4|0,0:0|0:0,0:2:0:0:
161,166,71577,1,8,0:3:0:0:
177,132,71698,1,8,0:3:0:0:
86,31,71940,6,2,P|38:103|46:287,1,250,8|0,0:0|0:0,0:0:0:0:
149,359,72666,2,2,P|251:290|374:287,1,250,8|0,0:0|0:0,0:0:0:0:
478,356,73391,1,8,0:0:0:0:
507,234,73633,1,2,0:2:0:0:
407,157,73875,1,2,0:2:0:0:
270,285,74117,2,2,L|270:149,1,125,4|0,0:0|0:0,0:2:0:0:
270,160,74480,1,8,0:3:0:0:
270,160,74601,1,8,0:3:0:0:
491,71,74843,6,2,P|411:36|231:76,1,250,8|0,0:0|0:0,0:0:0:0:
104,262,75569,2,2,P|75:142|114:26,1,250,8|0,0:0|0:0,0:0:0:0:
3,318,76295,2,2,P|82:352|262:312,1,250,8|0,0:0|0:0,0:0:0:0:
476,337,77020,6,2,P|396:302|216:342,1,250,4|0,0:0|0:0,0:2:0:0:
239,326,77746,1,8,0:0:0:0:
375,344,77988,1,2,0:2:0:0:
419,193,78230,1,2,0:2:0:0:
270,78,78472,6,0,P|162:106|22:94,1,250,8|0,0:0|0:0,0:0:0:0:
126,22,79198,1,8,0:0:0:0:
146,146,79440,1,2,0:2:0:0:
62,238,79682,1,2,0:2:0:0:
270,78,79923,6,2,P|338:90|410:130,1,125,4|0,0:0|0:0,0:2:0:0:
418,138,80286,1,8,0:3:0:0:
443,165,80407,1,8,0:3:0:0:
474,50,80649,5,8,0:0:0:0:
310,178,80891,1,2,0:2:0:0:
478,274,81133,1,2,0:2:0:0:
212,352,81375,6,0,P|201:277|204:204,1,125,8|0,0:0|0:0,0:0:0:0:
202,227,81738,1,8,0:3:0:0:
202,227,81859,1,8,0:3:0:0:
36,352,82101,2,0,P|46:277|44:204,1,125,8|0,0:0|0:0,0:0:0:0:
46,227,82464,1,8,0:3:0:0:
46,227,82585,1,8,0:3:0:0:
204,40,82827,5,4,0:0:0:0:
24,36,83068,1,8,0:3:0:0:
25,73,83189,1,8,0:3:0:0:
31,110,83310,1,8,0:3:0:0:
236,128,83552,6,2,P|336:96|368:76,1,125,8|0,0:0|0:0,0:0:0:0:
387,70,83915,1,8,0:3:0:0:
386,107,84036,1,8,0:3:0:0:
476,300,84278,2,2,P|376:268|344:248,1,125,8|0,0:0|0:0,0:0:0:0:
323,244,84641,1,8,0:3:0:0:
325,281,84762,1,8,0:3:0:0:
172,352,85004,5,8,0:3:0:0:
28,304,85246,1,8,0:3:0:0:
184,324,85488,1,8,0:3:0:0:
20,274,85730,2,2,P|41:207|72:147,1,125,4|0,0:0|0:0,0:2:0:0:
65,158,86093,1,8,0:3:0:0:
65,158,86214,1,8,0:3:0:0:
152,44,86455,6,2,P|236:83|262:235,1,250,8|0,0:0|0:0,0:0:0:0:
367,36,87181,2,2,P|375:129|256:227,1,250,8|0,0:0|0:0,0:0:0:0:
481,219,87907,2,2,P|404:272|260:219,1,250,8|0,0:0|0:0,0:0:0:0:
37,347,88633,6,2,P|109:307|173:303,1,125,4|0,0:0|0:0,0:2:0:0:
187,310,88996,1,8,0:3:0:0:
219,328,89117,1,8,0:3:0:0:
172,125,89359,1,8,0:0:0:0:
81,225,89600,1,2,0:2:0:0:
268,225,89842,1,2,0:2:0:0:
107,32,90084,6,0,P|173:29|246:44,1,125,8|0,0:0|0:0,0:0:0:0:
266,50,90447,1,8,0:3:0:0:
299,67,90568,1,8,0:3:0:0:
395,228,90810,5,8,0:0:0:0:
475,132,91052,1,2,0:2:0:0:
391,36,91294,1,2,0:2:0:0:
244,152,91536,6,2,P|244:208|252:300,1,125,4|0,0:0|0:0,0:2:0:0:
254,314,91899,1,8,0:3:0:0:
259,351,92020,1,8,0:3:0:0:
423,349,92262,5,8,0:0:0:0:
327,268,92504,1,2,0:2:0:0:
175,352,92745,1,2,0:2:0:0:
32,230,92987,6,2,P|32:162|40:94,1,125,8|0,0:0|0:0,0:2:0:0:
48,69,93350,1,8,0:3:0:0:
63,34,93471,1,8,0:3:0:0:
235,106,93713,5,8,0:0:0:0:
235,206,93955,1,2,0:2:0:0:
141,242,94197,1,2,0:2:0:0:
129,142,94439,5,4,0:0:0:0:
129,142,95165,1,4,0:0:0:0:
129,142,95891,1,4,0:0:0:0:
129,142,96616,1,4,0:0:0:0:
383,142,97342,5,8,0:0:0:0:
383,142,98068,1,8,0:0:0:0:
383,142,98794,1,8,0:0:0:0:
383,142,99519,1,8,0:0:0:0:
83,320,100245,5,4,0:0:0:0:
83,320,100971,1,4,0:0:0:0:
83,320,101697,1,4,0:0:0:0:
83,320,102423,1,4,0:0:0:0:
429,320,103148,5,8,0:0:0:0:
429,320,103874,1,8,0:0:0:0:
429,320,104600,1,8,0:0:0:0:
429,320,105326,1,8,0:0:0:0:
168,176,106051,5,2,0:2:0:0:
172,184,106777,1,2,0:2:0:0:
176,192,107503,1,2,0:2:0:0:
180,200,108229,1,2,0:2:0:0:
255,94,108713,1,2,0:0:0:0:
366,200,108955,5,2,0:2:0:0:
362,208,109680,1,2,0:2:0:0:
358,216,110406,1,2,0:2:0:0:
354,224,111132,1,2,0:2:0:0:
255,94,111616,1,2,0:0:0:0:
256,292,111858,5,2,0:2:0:0:
255,283,112583,1,2,0:2:0:0:
255,274,113309,1,2,0:2:0:0:
255,265,114035,1,2,0:2:0:0:
140,212,114519,1,2,0:0:0:0:
256,92,114761,5,2,0:2:0:0:
257,101,115487,1,2,0:2:0:0:
257,110,116212,1,2,0:2:0:0:
257,119,116938,1,2,0:2:0:0:
36,312,117664,6,2,P|112:316|184:312,1,125,4|0,0:0|0:0,0:2:0:0:
160,314,118027,1,0,0:0:0:0:
160,314,118148,1,2,0:2:0:0:
348,356,118390,5,8,0:0:0:0:
276,284,118632,1,0,0:0:0:0:
208,212,118873,1,2,0:2:0:0:
324,40,119115,6,0,P|260:64|192:80,1,125,8|0,0:0|0:0,0:0:0:0:
205,77,119478,1,0,0:0:0:0:
205,77,119599,1,2,0:2:0:0:
472,136,119841,2,0,P|408:160|340:176,1,125,8|0,0:0|0:0,0:0:0:0:
353,173,120204,1,0,0:0:0:0:
353,173,120325,1,2,0:2:0:0:
144,152,120567,5,4,0:0:0:0:
264,176,120809,1,0,0:0:0:0:
255,225,120930,1,0,0:0:0:0:
228,267,121051,1,2,0:2:0:0:
404,344,121293,5,8,0:0:0:0:
436,248,121535,1,0,0:0:0:0:
468,152,121777,1,2,0:2:0:0:
264,176,122019,6,2,P|156:224|72:324,1,250,8|2,0:0|0:2,0:0:0:0:
39,82,122744,2,2,P|81:199|72:323,1,250,8|2,0:0|0:2,0:0:0:0:
39,82,123470,2,2,P|107:91|188:80,1,125,4|2,0:0|0:2,0:0:0:0:
200,85,123833,1,0,0:0:0:0:
236,75,123954,1,2,0:2:0:0:
464,32,124196,5,8,0:0:0:0:
424,124,124438,1,0,0:0:0:0:
384,216,124680,1,2,0:2:0:0:
216,300,124922,6,0,P|205:238|170:187,1,125,8|0,0:0|0:0,0:0:0:0:
170,187,125285,1,0,0:0:0:0:
170,187,125405,1,2,0:2:0:0:
296,300,125647,2,0,P|306:238|341:187,1,125,8|0,0:0|0:0,0:0:0:0:
340,187,126010,1,0,0:0:0:0:
340,187,126131,1,2,0:2:0:0:
160,352,126373,6,2,P|96:344|44:312,1,125,4|0,0:0|0:0,0:2:0:0:
45,313,126736,1,0,0:0:0:0:
45,313,126857,1,2,0:2:0:0:
192,72,127099,5,8,0:0:0:0:
164,168,127341,1,0,0:0:0:0:
132,264,127583,1,2,0:2:0:0:
352,352,127825,6,2,P|416:344|468:312,1,125,4|0,0:0|0:0,0:2:0:0:
466,313,128188,1,0,0:0:0:0:
466,313,128309,1,2,0:2:0:0:
320,72,128551,5,8,0:0:0:0:
348,168,128792,1,0,0:0:0:0:
380,264,129034,1,2,0:2:0:0:
480,72,129276,5,4,0:0:0:0:
244,52,129518,1,0,0:0:0:0:
244,52,129639,1,0,0:0:0:0:
244,52,129760,1,2,0:2:0:0:
404,152,130002,5,8,0:0:0:0:
351,236,130244,1,0,0:0:0:0:
301,322,130486,1,2,0:2:0:0:
48,228,130728,6,0,P|104:232|172:252,1,125,8|0,0:0|0:0,0:0:0:0:
169,251,131091,1,0,0:0:0:0:
169,251,131212,1,2,0:2:0:0:
48,360,131454,6,2,P|28:264|68:104,1,250,4|2,0:0|0:2,0:2:0:0:
264,32,132179,2,2,P|284:128|244:288,1,250,4|2,0:0|0:2,0:2:0:0:
220,128,132905,6,2,P|284:116|352:120,1,125,8|0,0:0|0:0,0:0:0:0:
343,118,133268,1,0,0:0:0:0:
343,118,133389,1,2,0:2:0:0:
480,32,133631,2,2,P|492:96|488:164,1,125,8|0,0:0|0:0,0:0:0:0:
489,155,133994,1,0,0:0:0:0:
489,155,134115,1,2,0:2:0:0:
419,330,134357,2,2,P|407:266|411:198,1,125,8|0,0:0|0:0,0:0:0:0:
409,206,134720,1,0,0:0:0:0:
409,206,134841,1,2,0:2:0:0:
264,80,135083,6,2,P|136:124|32:228,1,250,4|2,0:0|0:2,0:2:0:0:
104,76,135808,5,8,0:0:0:0:
168,152,136050,1,0,0:0:0:0:
116,236,136292,1,2,0:2:0:0:
124,64,136534,5,8,0:0:0:0:
188,140,136776,1,0,0:0:0:0:
136,224,137018,1,2,0:2:0:0:
148,48,137260,5,8,0:0:0:0:
212,124,137502,1,0,0:0:0:0:
160,208,137744,1,2,0:2:0:0:
260,36,137986,6,2,P|356:104|492:108,1,250,4|2,0:0|0:2,0:2:0:0:
412,253,138711,5,8,0:0:0:0:
297,209,138953,1,0,0:0:0:0:
314,329,139195,1,2,0:2:0:0:
252,72,139437,6,2,P|156:140|20:144,1,250,4|2,0:0|0:2,0:2:0:0:
100,253,140163,5,8,0:0:0:0:
215,209,140405,1,0,0:0:0:0:
198,329,140647,1,2,0:2:0:0:
252,72,140889,5,4,0:1:0:0:
440,276,152501,6,0,P|459:234|468:188,1,83.333330154419,4|0,0:0|0:0,0:0:0:0:
467,197,152864,1,8,0:0:0:0:
467,197,152985,1,8,0:0:0:0:
444,52,153227,5,4,0:0:0:0:
369,37,153469,1,0,0:0:0:0:
321,97,153711,1,2,0:0:0:0:
360,220,153953,5,4,0:0:0:0:
280,192,154195,2,8,L|240:177,2,41.6666650772095
136,228,154678,5,4,0:0:0:0:
104,160,154920,1,0,0:0:0:0:
148,96,155162,1,2,0:0:0:0:
28,28,155404,6,0,P|24:76|28:140,1,83.333330154419,4|0,0:0|0:0,0:0:0:0:
24,111,155767,1,8,0:0:0:0:
24,111,155888,1,8,0:0:0:0:
64,268,156130,5,4,0:0:0:0:
140,260,156372,1,0,0:0:0:0:
204,308,156614,1,2,0:0:0:0:
324,352,156856,5,4,0:0:0:0:
404,328,157098,2,8,L|448:312,2,41.6666650772095
272,244,157582,5,4,0:0:0:0:
264,168,157824,1,0,0:0:0:0:
312,104,158065,1,2,0:0:0:0:
488,108,158307,6,0,P|448:104|388:108,1,83.333330154419,4|0,0:0|0:0,0:0:0:0:
404,105,158670,1,8,0:0:0:0:
404,105,158791,1,8,0:0:0:0:
280,36,159033,5,4,0:0:0:0:
312,104,159275,1,0,0:0:0:0:
284,172,159517,1,2,0:0:0:0:
172,220,159759,5,4,0:0:0:0:
92,176,160001,2,8,L|28:140,2,41.6666650772095
144,324,160485,5,4,0:0:0:0:
212,292,160727,1,0,0:0:0:0:
280,320,160969,1,2,0:0:0:0:
400,352,161210,6,0,P|432:320|464:280,1,83.333330154419,4|0,0:0|0:0,0:0:0:0:
456,290,161573,1,8,0:0:0:0:
456,290,161694,1,8,0:0:0:0:
344,176,161936,5,4,0:0:0:0:
412,208,162178,1,0,0:0:0:0:
480,176,162420,1,2,0:0:0:0:
380,44,162662,6,0,P|344:70|304:92,1,83.333330154419,4|0,0:0|0:0,0:0:0:0:
310,89,163025,1,8,0:0:0:0:
310,89,163146,1,8,0:0:0:0:
104,40,163388,5,4,0:0:0:0:
176,80,163630,2,8,L|240:112,2,41.6666650772095
28,196,164114,6,2,P|16:256|20:336,1,125,4|0,0:0|0:0,0:2:0:0:
50,337,164476,1,8,0:3:0:0:
84,350,164597,1,8,0:3:0:0:
256,256,164839,6,2,P|387:287|472:368,1,250,8|0,0:0|0:0,0:0:0:0:
476,68,165565,2,2,P|344:99|304:136,1,187.5,8|0,0:0|0:0,0:0:0:0:
307,131,166049,1,8,0:3:0:0:
340,252,166291,1,8,0:0:0:0:
220,220,166533,1,2,0:2:0:0:
312,136,166775,1,2,0:2:0:0:
456,328,167017,6,0,P|380:340|304:344,1,125,4|0,0:0|0:0,0:0:0:0:
294,336,167380,1,8,0:3:0:0:
263,319,167501,1,8,0:3:0:0:
27,309,167742,6,2,P|107:344|287:304,1,250,8|0,0:0|0:0,0:0:0:0:
420,172,168468,2,2,P|449:291|422:374,1,187.5,8|0,0:0|0:0,0:0:0:0:
433,351,168952,1,8,0:3:0:0:
196,216,169194,2,2,P|167:97|194:14,1,187.5,8|0,0:0|0:0,0:0:0:0:
182,36,169678,1,8,0:3:0:0:
312,164,169920,6,2,B|240:208|152:108|52:159,1,250,4|0,0:0|0:0,0:0:0:0:
112,36,170646,1,8,0:0:0:0:
8,104,170888,1,2,0:2:0:0:
44,224,171129,1,2,0:2:0:0:
200,288,171371,6,2,B|272:332|360:232|460:283,1,250,8|0,0:0|0:0,0:0:0:0:
400,160,172097,1,8,0:0:0:0:
504,228,172339,1,2,0:2:0:0:
468,348,172581,1,2,0:2:0:0:
272,360,172823,6,2,P|284:292|324:220,1,125,4|0,0:0|0:0,0:2:0:0:
308,241,173186,1,8,0:3:0:0:
308,241,173307,1,8,0:3:0:0:
181,139,173549,5,8,0:0:0:0:
162,262,173791,1,2,0:2:0:0:
38,244,174033,1,2,0:2:0:0:
68,40,174274,6,2,P|143:29|216:32,1,125,8|0,0:0|0:0,0:0:0:0:
229,37,174637,1,8,0:3:0:0:
263,52,174758,1,8,0:3:0:0:
441,145,175000,2,2,P|366:134|293:137,1,125,8|0,0:0|0:0,0:0:0:0:
280,142,175363,1,8,0:3:0:0:
246,157,175484,1,8,0:3:0:0:
396,336,175726,5,4,0:0:0:0:
496,216,175968,1,8,0:3:0:0:
496,253,176089,1,8,0:3:0:0:
489,289,176210,1,8,0:3:0:0:
296,348,176452,6,2,P|172:324|48:352,1,250,8|0,0:0|0:0,0:0:0:0:
32,64,177178,2,2,P|20:168|32:280,1,187.5,8|0,0:0|0:0,0:0:0:0:
26,250,177661,1,8,0:3:0:0:
172,320,177903,1,4,0:0:0:0:
261,184,178145,1,2,0:2:0:0:
136,189,178387,1,2,0:2:0:0:
29,36,178629,6,2,P|97:56|165:64,1,125,4|0,0:0|0:0,0:2:0:0:
188,63,178992,1,8,0:3:0:0:
225,57,179113,1,8,0:3:0:0:
480,32,179355,6,2,P|441:116|289:142,1,250,8|0,0:0|0:0,0:0:0:0:
488,247,180081,2,2,P|395:255|297:136,1,250,8|0,0:0|0:0,0:0:0:0:
305,361,180806,2,2,P|252:284|305:140,1,250,0|0,0:0|0:0,0:0:0:0:
476,20,181532,6,2,P|404:60|340:64,1,125,4|0,0:0|0:0,0:0:0:0:
324,66,181895,1,8,0:3:0:0:
288,55,182016,1,8,0:3:0:0:
342,234,182258,1,8,0:0:0:0:
422,138,182500,1,2,0:2:0:0:
236,112,182742,1,2,0:2:0:0:
491,290,182984,6,2,P|406:295|308:357,1,187.5,8|0,0:0|0:0,0:0:0:0:
319,346,183468,1,8,0:3:0:0:
305,220,183710,1,8,0:0:0:0:
181,232,183951,1,2,0:2:0:0:
193,356,184193,1,2,0:2:0:0:
401,239,184435,6,2,P|428:190|468:106,1,125,8|0,0:0|0:0,0:0:0:0:
458,127,184798,1,8,0:3:0:0:
458,127,184919,1,8,0:3:0:0:
317,43,185161,1,8,0:0:0:0:
255,152,185403,1,2,0:2:0:0:
317,260,185645,1,2,0:2:0:0:
111,239,185887,6,2,P|83:190|43:106,1,125,8|0,0:0|0:0,0:0:0:0:
52,128,186250,1,8,0:3:0:0:
52,128,186371,1,8,0:3:0:0:
195,43,186613,1,8,0:0:0:0:
255,152,186855,1,2,0:2:0:0:
195,260,187097,1,2,0:2:0:0:
145,152,187338,5,4,0:0:0:0:
145,152,188064,1,4,0:0:0:0:
145,152,188790,1,4,0:0:0:0:
145,152,189516,1,4,0:0:0:0:
367,152,190242,5,8,0:0:0:0:
367,152,190967,1,8,0:0:0:0:
367,152,191693,1,8,0:0:0:0:
367,152,192419,1,8,0:0:0:0:
255,345,193145,5,4,0:0:0:0:
255,345,193870,1,4,0:0:0:0:
255,345,194596,1,4,0:0:0:0:
255,345,195322,1,4,0:0:0:0:
145,152,196048,5,8,0:0:0:0:
367,152,196774,1,8,0:0:0:0:
255,345,197499,1,8,0:0:0:0:
145,152,198225,1,8,0:0:0:0:
476,345,198951,5,2,0:2:0:0:
468,329,199677,1,2,0:2:0:0:
460,313,200402,1,2,0:2:0:0:
452,297,201128,1,2,0:2:0:0:
304,337,201612,1,2,0:0:0:0:
444,282,201854,5,2,0:2:0:0:
436,266,202580,1,2,0:2:0:0:
428,250,203306,1,2,0:2:0:0:
420,234,204031,1,2,0:2:0:0:
272,274,204515,1,2,0:0:0:0:
116,209,204757,5,2,0:2:0:0:
124,193,205483,1,2,0:2:0:0:
132,177,206209,1,2,0:2:0:0:
140,161,206934,1,2,0:2:0:0:
284,217,207418,1,2,0:0:0:0:
148,144,207660,5,2,0:2:0:0:
156,128,208386,1,2,0:2:0:0:
164,112,209112,1,2,0:2:0:0:
172,96,209838,1,2,0:2:0:0:
40,348,210563,6,2,B|24:288|24:288|40:140,1,199.999992370606,4|0,0:0|0:0,0:2:0:0:
38,150,211047,1,8,0:3:0:0:
264,32,211289,6,2,P|368:36|488:172,1,266.666656494141,8|0,0:0|2:0,0:0:0:0:
216,184,212015,2,2,P|112:180|-8:44,1,266.666656494141,8|0,0:0|2:0,0:0:0:0:
264,116,212741,2,2,P|312:208|254:379,1,266.666656494141,8|0,0:0|2:0,0:0:0:0:
472,348,213466,6,2,B|488:288|488:288|472:140,1,199.999992370606,4|0,0:0|0:0,0:0:0:0:
473,150,213950,1,8,0:3:0:0:
392,44,214192,1,8,0:0:0:0:
300,140,214434,1,2,0:2:0:0:
392,44,214676,1,2,0:2:0:0:
164,156,214918,6,2,P|130:97|104:12,1,133.33332824707,8|0,0:0|0:0,0:2:0:0:
69,26,215281,1,8,0:3:0:0:
52,62,215402,1,8,0:3:0:0:
20,192,215644,1,8,0:0:0:0:
116,296,215886,1,2,0:2:0:0:
236,236,216128,1,2,0:2:0:0:
476,128,216370,6,2,P|356:140|264:124,1,199.999992370606,4|0,0:0|0:0,0:2:0:0:
278,127,216853,1,8,0:3:0:0:
120,16,217095,6,2,B|80:104|80:104|92:172|92:172|40:276,1,266.666656494141,8|0,0:0|2:0,0:0:0:0:
344,292,217821,2,2,B|247:301|247:301|194:345|194:345|78:352,1,266.666656494141,8|0,0:0|2:0,0:0:0:0:
438,274,218547,2,2,B|434:198|434:198|406:158|406:158|398:62,1,199.999992370606,8|0,0:0|2:0,0:0:0:0:
399,83,219031,1,8,0:3:0:0:
109,81,219273,6,2,P|165:193|93:317,1,266.666656494141,4|0,0:0|0:0,0:0:0:0:
403,81,219998,2,2,P|347:193|419:317,1,266.666656494141,8|0,0:0|0:0,0:0:0:0:
143,378,220724,2,2,P|255:322|379:394,1,266.666656494141,8|0,0:0|0:0,0:0:0:0:
143,6,221450,2,2,P|255:62|379:-10,1,266.666656494141,8|0,0:0|0:0,0:0:0:0:
40,36,222176,6,2,B|25:141|40:244,1,199.999992370606,4|0,0:0|0:0,0:2:0:0:
38,234,222660,1,8,0:3:0:0:
232,256,222902,6,2,B|312:208|432:298|508:248,1,266.666656494141,8|0,0:0|2:0,0:0:0:0:
260,92,223627,2,2,B|180:44|59:135|-16:84,1,266.666656494141,8|0,0:0|2:0,0:0:0:0:
372,40,224353,2,2,B|324:120|412:240|364:316,1,266.666656494141,8|0,0:0|2:0,0:0:0:0:
140,344,225079,2,2,B|184:276|100:200|148:132,1,199.999992370606,8|0,0:0|2:0,0:0:0:0:
138,149,225563,1,8,0:3:0:0:
272,336,225805,2,0,P|332:344|412:336,2,133.33332824707,8|0|0,0:0|0:0|0:0,0:0:0:0:
456,264,226530,6,0,P|468:196|472:104,1,133.33332824707,8|0,0:0|0:0,0:0:0:0:
431,130,226893,1,8,0:3:0:0:
421,168,227014,1,8,0:3:0:0:
272,164,227256,2,0,P|260:96|256:4,1,133.33332824707,8|0,0:0|0:0,0:0:0:0:
296,32,227619,1,8,0:3:0:0:
305,70,227740,1,8,0:3:0:0:
232,261,227982,2,2,B|172:277|172:277|24:261,1,199.999992370606,4|0,0:0|0:0,0:2:0:0:
34,262,228466,1,8,0:3:0:0:
52,48,228708,6,2,B|128:72|128:72|214:155,1,199.999992370606,8|0,0:0|2:0,0:0:0:0:
214,155,229192,1,8,0:3:0:0:
460,336,229434,2,2,B|384:312|384:312|297:228,1,199.999992370606,8|0,0:0|2:0,0:0:0:0:
297,228,229917,1,8,0:3:0:0:
52,336,230159,2,2,B|128:312|128:312|240:204,1,199.999992370606,8|0,0:0|2:0,0:0:0:0:
214,228,230643,1,8,0:3:0:0:
460,48,230885,6,2,B|384:72|384:72|272:180,1,199.999992370606,4|0,0:0|2:0,0:0:0:0:
297,155,231369,1,8,0:3:0:0:
465,349,231611,1,8,0:0:0:0:
489,189,231853,1,2,0:2:0:0:
297,344,232095,1,2,0:2:0:0:
301,160,232337,6,2,P|301:88|305:16,1,133.33332824707,4|0,0:0|0:0,0:2:0:0:
265,38,232700,1,8,0:3:0:0:
264,77,232820,1,8,0:3:0:0:
164,216,233062,2,0,P|164:288|168:360,2,133.33332824707,8|2|2,0:0|0:2|0:2,0:0:0:0:
76,31,233788,6,2,P|40:87|36:175,1,124.999995231629,4|0,0:0|0:0,0:2:0:0:
31,143,234151,1,8,0:3:0:0:
31,143,234272,1,8,0:3:0:0:
164,216,234514,2,0,P|188:142|190:74,2,125,8|0|2,0:0|0:0|0:2,0:0:0:0:
96,350,235240,5,8,0:0:0:0:
229,281,235482,1,8,0:3:0:0:
229,281,235603,1,8,0:3:0:0:
229,281,235724,1,8,0:3:0:0:
360,354,235966,2,0,P|421:354|507:334,2,125,8|0|2,0:0|0:0|0:2,0:0:0:0:
316,155,236691,6,2,P|323:106|340:3,1,125,4|0,0:0|0:0,0:2:0:0:
334,31,237054,1,8,0:3:0:0:
334,31,237175,1,8,0:3:0:0:
199,97,237417,2,0,P|123:81|63:49,2,125,8|0|2,0:0|0:0|0:2,0:0:0:0:
282,222,238143,6,0,P|289:271|306:374,1,125,8|0,0:0|0:0,0:0:0:0:
300,345,238506,1,8,0:3:0:0:
300,345,238627,1,8,0:3:0:0:
165,280,238869,2,0,P|89:296|29:328,2,125,8|0|2,0:0|0:0|0:2,0:0:0:0:
148,64,239594,6,2,P|87:79|25:80,1,125,4|0,0:0|0:0,0:2:0:0:
25,80,239957,1,8,0:3:0:0:
25,80,240078,1,8,0:3:0:0:
180,156,240320,2,0,P|178:219|163:279,2,125,8|0|2,0:0|0:0|0:2,0:0:0:0:
392,88,241046,6,0,P|331:102|269:104,1,125,8|0,0:0|0:0,0:0:0:0:
268,103,241409,1,8,0:3:0:0:
268,103,241530,1,8,0:3:0:0:
334,256,241772,1,8,0:0:0:0:
442,190,242014,1,8,0:3:0:0:
442,190,242135,1,8,0:3:0:0:
442,190,242256,1,8,0:3:0:0:
303,336,242498,6,2,P|175:317|48:355,1,250,4|0,0:0|0:0,0:0:0:0:
47,106,243223,2,2,P|26:220|60:349,1,250,8|0,0:0|0:0,0:0:0:0:
247,224,243949,2,2,P|134:203|37:75,1,250,4|0,0:0|0:0,0:0:0:0:
305,0,244675,2,2,P|249:72|249:231,1,250,8|0,0:0|0:0,0:0:0:0:
352,336,245401,6,2,P|408:344|504:340,1,125,4|0,0:0|0:0,0:2:0:0:
476,343,245764,1,8,0:3:0:0:
476,343,245884,1,8,0:3:0:0:
358,198,246126,2,0,P|421:198|483:206,2,125,8|0|2,0:0|0:0|0:2,0:0:0:0:
256,308,246852,5,8,0:0:0:0:
212,164,247094,1,8,0:3:0:0:
212,164,247215,1,8,0:3:0:0:
212,164,247336,1,8,0:3:0:0:
80,232,247578,5,8,0:0:0:0:
40,140,247820,1,0,0:2:0:0:
104,64,248062,1,2,0:2:0:0:
316,96,248304,6,2,P|375:90|455:75,1,125,4|0,0:0|0:0,0:2:0:0:
439,78,248667,1,8,0:3:0:0:
439,78,248788,1,8,0:3:0:0:
344,192,249030,2,0,P|333:254|328:316,2,125,8|0|2,0:0|0:0|0:2,0:0:0:0:
168,256,249755,6,0,P|108:261|28:276,1,125,8|0,0:0|0:0,0:0:0:0:
44,272,250118,1,8,0:3:0:0:
44,272,250239,1,8,0:3:0:0:
140,160,250481,2,0,P|151:98|156:36,2,125,8|0|2,0:0|0:0|0:2,0:0:0:0:
255,308,251207,6,2,P|315:288|387:268,1,125,4|0,0:0|0:0,0:2:0:0:
374,271,251570,1,8,0:3:0:0:
374,271,251691,1,8,0:3:0:0:
256,124,251933,2,0,P|316:144|388:164,2,125,8|0|2,0:0|0:0|0:2,0:0:0:0:
75,70,252658,6,0,P|135:50|207:30,1,125,8|0,0:0|0:0,0:0:0:0:
194,33,253021,1,8,0:3:0:0:
194,33,253142,1,8,0:3:0:0:
199,220,253384,2,0,P|131:216|63:204,2,125,8|0|2,0:0|0:0|0:2,0:0:0:0:
472,172,254110,6,2,P|376:220|372:352,1,250,4|0,0:0|0:0,0:0:0:0:
376,112,254836,2,2,P|369:219|481:288,1,250,8|0,0:0|0:0,0:0:0:0:
220,72,255562,6,2,P|160:175|41:172,1,250,4|0,0:0|0:0,0:0:0:0:
99,72,256287,2,2,P|156:177|276:177,1,250,4|0,0:0|0:0,0:0:0:0:
220,72,257013,1,4,0:0:0:0:
