osu file format v14

[General]
AudioFilename: audio.mp3
AudioLeadIn: 0
PreviewTime: 71093
Countdown: 0
SampleSet: None
StackLeniency: 0.4
Mode: 0
LetterboxInBreaks: 0
WidescreenStoryboard: 0

[Editor]
Bookmarks: 13150,24762,36374,47987,59599,71212,82824,94437,117661,129274,140886,152499,164111,175724,187336,210561,222173,233786,245398,257011
DistanceSpacing: 1.6
BeatDivisor: 6
GridSize: 4
TimelineZoom: 1

[Metadata]
Title:Kingdom Of Welcome Addiction
TitleUnicode:Kingdom Of Welcome Addiction
Artist:IAMX
ArtistUnicode:IAMX
Creator:PandaHero
Version:Collab Hard
Source:
Tags:Mirash Chris Corner synthpop dark cabaret alternative industrial electronica experimental
BeatmapID:1382003
BeatmapSetID:650596

[Difficulty]
HPDrainRate:5
CircleSize:3.5
OverallDifficulty:6
ApproachRate:7
SliderMultiplier:2.19999990463257
SliderTickRate:1

[Events]
//Background and Video events
0,0,"54678.jpg",0,0
//Break Periods
2,48189,58702
2,141089,151601
//Storyboard Layer 0 (Background)
//Storyboard Layer 1 (Fail)
//Storyboard Layer 2 (Pass)
//Storyboard Layer 3 (Foreground)
//Storyboard Sound Samples

[TimingPoints]
1540,725.777186403774,4,2,0,20,1,0
8434,-100,4,2,0,10,0,0
8555,-100,4,2,0,20,0,0
10854,-100,4,2,0,10,0,0
10975,-100,4,2,0,20,0,0
13152,-100,4,2,0,50,0,0
24765,-83.3333333333333,4,1,1,65,0,0
47990,-100,4,3,1,55,0,0
71214,-83.3333333333333,4,1,1,65,0,1
94439,-133.333333333333,4,3,1,40,0,0
106052,-133.333333333333,4,2,1,45,0,0
117664,-83.3333333333333,4,1,1,65,0,0
140889,-100,4,3,1,55,0,0
164114,-83.3333333333333,4,1,1,65,0,1
187338,-133.333333333333,4,3,1,40,0,0
198951,-133.333333333333,4,2,1,45,0,0
210563,-83.3333333333333,4,1,1,70,0,1
233788,-83.3333333333333,4,1,1,65,0,0

[Colours]
Combo1 : 179,34,34
Combo2 : 192,192,192
Combo3 : 106,106,106
Combo4 : 223,96,96

[HitObjects]
99,278,1540,6,0,P|141:276|183:280,1,73.333330154419,2|0,0:0|0:0,0:0:0:0:
240,334,2023,1,2,0:0:0:0:
320,298,2265,1,2,0:0:0:0:
259,131,2749,1,2,0:0:0:0:
317,63,2991,2,0,P|351:75|387:80,1,73.333330154419,2|0,0:0|0:0,0:0:0:0:
475,70,3475,1,0,0:0:0:0:
454,155,3717,2,0,P|460:200|470:233,1,73.333330154419,2|0,0:0|0:0,0:0:0:0:
428,306,4201,1,0,0:0:0:0:
360,362,4443,5,2,0:0:0:0:
339,276,4685,1,2,0:0:0:0:
186,363,5168,1,2,0:0:0:0:
99,344,5410,2,0,P|88:280|82:260,1,73.333330154419,2|0,0:0|0:0,0:0:0:0:
4,237,5894,1,2,0:0:0:0:
76,187,6136,1,2,0:0:0:0:
98,12,6620,1,2,0:0:0:0:
167,68,6862,2,0,P|204:65|253:65,1,73.333330154419,2|0,0:0|0:0,0:0:0:0:
343,104,7346,6,0,P|304:133|287:160,2,73.333330154419,4|0|0,0:0|0:0|0:0,0:0:0:0:
426,133,8071,2,0,P|458:193|459:266,1,109.999995231628,2|0,0:0|0:0,0:0:0:0:
444,274,8555,1,2,0:0:0:0:
378,332,8797,2,0,P|341:332|305:340,1,73.333330154419,4|0,0:0|0:0,0:0:0:0:
217,333,9281,1,2,0:0:0:0:
205,245,9523,2,0,P|250:254|287:252,2,73.333330154419,2|0|0,0:0|0:0|0:0,0:0:0:0:
116,253,10249,5,4,0:0:0:0:
108,164,10491,2,0,P|137:144|235:137,1,109.999995231628,2|0,0:0|0:0,0:0:0:0:
250,149,10975,1,2,0:0:0:0:
319,205,11217,2,0,P|377:208|404:199,1,73.333330154419,2|0,0:0|0:0,0:0:0:0:
403,117,11700,2,0,P|345:114|318:123,1,73.333330154419,2|2,0:0|0:0,0:0:0:0:
250,149,12184,1,0,0:0:0:0:
194,217,12426,1,2,0:0:0:0:
247,287,12668,1,0,0:0:0:0:
328,264,12910,1,2,0:0:0:0:
408,288,13152,6,0,P|411:338|403:382,2,73.333330154419,4|2|2,1:2|0:0|0:0,0:0:0:0:
380,204,13878,2,0,P|376:153|384:109,2,73.333330154419,0|2|2,1:0|0:0|0:0,0:0:0:0:
320,272,14603,6,0,P|269:275|225:267,2,73.333330154419,0|2|2,1:0|0:0|0:0,0:0:0:0:
408,288,15329,2,0,P|458:291|502:283,2,73.333330154419,0|2|2,1:0|0:0|0:0,0:0:0:0:
380,204,16055,6,0,P|388:164|416:108,1,73.333330154419,0|2,1:0|0:0,0:0:0:0:
456,68,16539,1,2,0:0:0:0:
376,32,16781,6,0,P|336:40|280:68,1,73.333330154419,0|2,1:0|0:0,0:0:0:0:
240,108,17265,1,2,0:0:0:0:
164,156,17507,6,0,P|124:148|68:120,1,73.333330154419,0|2,1:0|0:0,0:0:0:0:
28,80,17990,1,2,0:0:0:0:
12,168,18232,6,0,P|20:208|48:264,1,73.333330154419,0|2,1:0|0:0,0:0:0:0:
88,304,18716,1,2,0:0:0:0:
176,296,18958,5,4,1:2:0:0:
264,280,19200,2,0,P|304:284|352:308,1,73.333330154419,2|2,0:0|0:0,0:0:0:0:
368,216,19684,5,0,1:0:0:0:
441,266,19926,2,0,P|466:297|483:348,1,73.333330154419,2|2,0:0|0:0,0:0:0:0:
368,216,20410,5,0,1:0:0:0:
280,232,20652,2,0,P|240:228|192:204,1,73.333330154419,2|2,0:0|0:0,0:0:0:0:
176,296,21135,5,0,1:0:0:0:
103,246,21377,2,0,P|77:214|60:163,1,73.333330154419,2|2,0:0|0:0,0:0:0:0:
48,36,21861,5,4,1:2:0:0:
132,56,22103,2,0,P|168:52|228:28,1,73.333330154419,2|2,0:0|0:0,0:0:0:0:
288,137,22587,5,0,1:0:0:0:
204,157,22829,2,0,P|168:153|108:129,1,73.333330154419,2|2,0:0|0:0,0:0:0:0:
217,243,23313,5,4,1:2:0:0:
301,263,23555,2,0,P|337:259|397:235,1,73.333330154419,2|2,0:0|0:0,0:0:0:0:
443,132,24039,5,0,1:0:0:0:
359,152,24281,2,0,P|323:148|263:124,1,73.333330154419,2|2,0:0|0:0,0:0:0:0:
423,30,24764,5,4,0:0:0:0:
317,35,25006,1,0,0:0:0:0:
317,35,25127,1,0,0:0:0:0:
317,35,25248,1,2,0:2:0:0:
287,136,25490,2,0,L|299:237,1,87.9999934997561,8|0,0:0|0:0,0:0:0:0:
381,288,25974,1,2,0:2:0:0:
283,326,26216,2,0,P|206:336|119:326,2,131.999990249634,8|2|8,0:0|0:2|0:0,0:0:0:0:
215,244,27184,1,0,0:0:0:0:
109,252,27426,1,2,0:2:0:0:
65,328,27667,6,2,P|121:330|159:334,1,87.9999934997561,4|0,0:0|0:0,0:2:0:0:
174,349,28030,1,0,0:0:0:0:
187,371,28151,1,2,0:2:0:0:
290,349,28393,2,0,P|359:330|395:329,1,87.9999934997561,8|0,0:0|0:2,0:0:0:0:
416,231,28877,2,0,P|403:172|406:134,1,87.9999934997561,2|8,0:2|0:0,0:0:0:0:
327,71,29361,1,0,0:0:0:0:
327,71,29482,1,0,0:0:0:0:
327,71,29603,1,2,0:2:0:0:
251,143,29845,5,8,0:0:0:0:
270,246,30087,1,0,0:0:0:0:
290,349,30329,1,2,0:2:0:0:
443,327,30571,6,2,P|431:252|418:213,1,87.9999934997561,4|0,0:0|0:0,0:2:0:0:
404,227,30933,1,0,0:0:0:0:
378,220,31054,1,2,0:2:0:0:
426,145,31296,2,0,P|480:90|505:72,1,87.9999934997561,8|0,0:0|0:0,0:0:0:0:
344,136,31780,2,0,P|291:127|251:127,1,87.9999934997561,2|8,0:2|0:0,0:0:0:0:
170,188,32264,1,0,0:0:0:0:
170,188,32385,1,0,0:0:0:0:
170,188,32506,1,2,0:2:0:0:
99,109,32748,2,0,P|106:52|116:19,2,87.9999934997561,8|0|2,0:0|0:0|0:2,0:0:0:0:
70,211,33474,6,2,P|60:267|51:363,2,131.999990249634,4|2|8,0:0|0:2|0:0,0:2:0:0:
173,231,34441,1,2,0:2:0:0:
276,253,34683,1,2,0:2:0:0:
379,276,34925,2,2,P|396:179|133:159,1,439.999967498781,8|2,0:0|0:2,0:2:0:0:
84,292,36377,5,4,0:0:0:0:
52,196,36619,1,0,0:0:0:0:
52,196,36740,1,0,0:0:0:0:
52,196,36861,1,2,0:2:0:0:
139,143,37103,2,0,L|243:159,1,87.9999934997561,8|0,0:0|0:0,0:0:0:0:
288,232,37586,1,2,0:2:0:0:
386,144,37828,2,0,L|366:332,1,175.999986999512,8|2,0:0|0:2,0:0:0:0:
466,356,38554,2,2,L|487:156,1,175.999986999512,4|2,0:0|0:2,0:2:0:0:
440,48,39280,6,2,P|392:52|324:48,1,87.9999934997561,4|0,0:0|0:0,0:2:0:0:
325,48,39643,1,0,0:0:0:0:
298,44,39764,1,2,0:2:0:0:
176,28,40006,1,8,0:0:0:0:
157,131,40248,1,0,0:0:0:0:
137,234,40490,1,2,0:2:0:0:
200,320,40731,2,0,B|243:342|243:342|340:347,2,131.999990249634,8|2|8,0:0|0:2|0:0,0:0:0:0:
212,216,41699,1,0,0:0:0:0:
312,176,41941,1,2,0:2:0:0:
472,184,42183,6,2,P|488:296|456:352,1,175.999986999512,4|2,0:0|0:2,0:2:0:0:
380,276,42909,1,8,0:0:0:0:
364,172,43151,1,0,0:0:0:0:
424,88,43393,1,2,0:2:0:0:
264,100,43635,2,0,P|248:212|280:268,1,175.999986999512,8|2,0:0|0:2,0:0:0:0:
156,348,44360,2,0,P|163:291|173:258,2,87.9999934997561,8|0|2,0:0|0:0|0:2,0:0:0:0:
48,232,45086,6,2,P|40:156|8:68,2,131.999990249634,4|2|8,0:0|0:2|0:0,0:2:0:0:
52,340,46054,1,0,0:0:0:0:
156,348,46296,1,2,0:2:0:0:
248,216,46538,2,2,P|348:232|472:344,1,263.999980499268,4|8,0:0|0:0,0:2:0:0:
364,356,47505,5,0,0:0:0:0:
344,252,47747,1,2,0:2:0:0:
420,180,47989,1,4,0:1:0:0:
100,92,59602,6,0,P|180:89|223:91,1,109.999995231628,4|8,0:0|0:0,0:0:0:0:
228,102,60086,1,8,0:0:0:0:
289,164,60327,2,0,P|260:226|251:258,2,73.333330154419,4|0|2,0:0|0:0|0:0,0:0:0:0:
322,82,61053,2,0,P|385:76|416:77,1,73.333330154419,4|8,0:0|0:0,0:0:0:0:
417,76,61416,1,8,0:0:0:0:
438,78,61537,1,8,0:0:0:0:
392,186,61779,2,0,P|397:269|394:293,1,73.333330154419,4|0,0:0|0:0,0:0:0:0:
381,345,62263,1,2,0:0:0:0:
273,314,62505,6,0,B|188:309|216:351|130:346,1,146.666660308838,4|8,0:0|3:0,0:0:0:0:
45,357,63231,2,0,B|54:322|54:322|48:275,1,73.333330154419,4|0,0:0|0:0,0:0:0:0:
122,236,63714,1,2,0:0:0:0:
44,193,63956,2,0,P|51:135|54:102,1,73.333330154419,4|8,0:0|0:0,0:0:0:0:
51,98,64319,1,8,0:0:0:0:
47,76,64440,1,8,0:0:0:0:
140,107,64682,5,4,0:0:0:0:
227,116,64924,1,0,0:0:0:0:
314,126,65166,1,2,0:0:0:0:
369,195,65408,6,0,P|394:137|376:55,1,146.666660308838,4|8,0:0|0:0,0:0:0:0:
483,169,66134,2,0,P|463:215|479:320,1,146.666660308838,4|2,0:0|0:0,0:0:0:0:
348,290,66859,2,0,P|308:287|263:272,1,73.333330154419,4|8,0:0|0:0,0:0:0:0:
254,272,67222,1,8,0:3:0:0:
234,260,67343,1,8,0:3:0:0:
146,256,67585,1,4,0:0:0:0:
127,342,67827,1,0,0:0:0:0:
214,345,68069,1,2,0:0:0:0:
234,260,68311,6,0,P|273:247|324:243,1,73.333330154419,4|0,0:0|0:0,0:0:0:0:
324,254,68674,1,8,0:0:0:0:
343,265,68795,1,8,0:0:0:0:
429,250,69037,5,4,0:0:0:0:
380,176,69279,1,0,0:0:0:0:
326,105,69521,1,2,0:0:0:0:
221,97,69763,6,0,P|171:99|135:94,1,73.333330154419,4|0,0:0|0:0,0:0:0:0:
129,84,70125,1,8,0:0:0:0:
113,68,70246,1,8,0:0:0:0:
73,146,70488,5,4,0:0:0:0:
83,233,70730,1,0,0:0:0:0:
93,320,70972,1,2,0:0:0:0:
231,317,71214,6,2,L|406:347,1,175.999986999512,4|8,0:0|0:3,0:2:0:0:
476,212,71940,2,2,P|493:126|470:36,1,175.999986999512,8|8,0:0|0:3,0:0:0:0:
312,44,72666,2,2,P|294:129|312:188,1,131.999990249634,8|0,0:0|0:0,0:0:0:0:
312,196,73150,1,8,0:3:0:0:
240,300,73391,1,8,0:0:0:0:
142,256,73633,1,2,0:2:0:0:
136,150,73875,1,2,0:2:0:0:
220,32,74117,6,0,L|45:62,1,175.999986999512,8|8,0:0|0:3,0:0:0:0:
35,226,74843,2,2,P|115:244|235:219,1,175.999986999512,8|8,0:0|0:3,0:0:0:0:
328,333,75569,2,2,P|251:351|135:327,1,175.999986999512,8|8,0:0|0:3,0:0:0:0:
292,253,76295,2,2,P|306:167|288:81,1,175.999986999512,8|8,0:0|0:3,0:0:0:0:
140,22,77020,6,2,L|164:208,1,175.999986999512,4|8,0:0|0:3,0:2:0:0:
80,292,77746,1,8,0:0:0:0:
185,277,77988,1,2,0:2:0:0:
256,352,78230,1,2,0:2:0:0:
352,304,78472,6,0,L|363:192,1,87.9999934997561,8|0,0:0|0:0,0:0:0:0:
363,188,78835,1,8,0:3:0:0:
367,160,78956,1,8,0:3:0:0:
416,44,79198,1,8,0:0:0:0:
504,100,79440,1,2,0:2:0:0:
468,200,79682,1,2,0:2:0:0:
367,160,79923,6,2,P|294:168|278:276,1,175.999986999512,4|8,0:0|0:3,0:2:0:0:
384,292,80649,1,8,0:0:0:0:
280,296,80891,1,2,0:2:0:0:
380,336,81133,1,2,0:2:0:0:
276,348,81375,6,0,P|224:340|164:320,1,87.9999934997561,8|0,0:0|0:0,0:0:0:0:
167,316,81738,1,8,0:3:0:0:
144,301,81859,1,8,0:3:0:0:
48,204,82101,2,0,P|100:196|160:176,1,87.9999934997561,8|0,0:0|0:0,0:0:0:0:
208,116,82585,1,8,0:3:0:0:
331,52,82827,6,2,B|306:146|370:128|336:255,1,175.999986999512,4|8,0:0|0:3,0:2:0:0:
323,328,83552,2,0,P|385:310|420:312,1,87.9999934997561,8|0,0:0|0:0,0:0:0:0:
453,214,84036,1,8,0:3:0:0:
343,224,84278,2,0,P|283:224|221:216,1,87.9999934997561,8|0,0:0|0:0,0:0:0:0:
233,205,84641,1,8,0:3:0:0:
212,188,84762,1,8,0:3:0:0:
65,112,85004,5,8,0:3:0:0:
74,217,85246,1,8,0:3:0:0:
83,322,85488,1,8,0:3:0:0:
185,362,85730,6,0,L|172:245,1,87.9999934997561,4|0,0:0|0:0,0:0:0:0:
183,249,86093,1,8,0:3:0:0:
191,224,86214,1,8,0:3:0:0:
290,280,86455,6,2,P|354:189|377:103,1,175.999986999512,8|2,0:0|0:2,0:0:0:0:
342,44,87181,2,2,P|234:14|155:28,1,175.999986999512,8|2,0:0|0:2,0:0:0:0:
66,14,87907,2,2,B|97:100|34:94|64:195,1,175.999986999512,8|2,0:0|0:2,0:0:0:0:
57,292,88633,5,4,0:0:0:0:
160,314,88875,2,0,P|163:337|171:365,2,43.9999967498781,0|8|8,0:0|0:3|0:3,0:0:0:0:
241,245,89359,2,0,P|282:259|326:267,1,87.9999934997561,8|2,0:0|0:2,0:0:0:0:
365,364,89842,1,2,0:2:0:0:
422,275,90084,2,0,P|427:232|443:191,2,87.9999934997561,8|2|2,0:0|0:2|0:2,0:0:0:0:
354,193,90810,2,0,P|348:149|333:108,2,87.9999934997561,8|2|2,0:0|0:2|0:2,0:0:0:0:
232,222,91536,5,8,0:0:0:0:
169,299,91778,2,0,P|172:325|180:350,2,43.9999967498781,0|8|8,0:0|0:3|0:3,0:0:0:0:
90,236,92262,1,8,0:0:0:0:
163,159,92504,2,0,P|190:125|211:83,1,87.9999934997561,2|2,0:2|0:2,0:0:0:0:
305,145,92987,5,8,0:0:0:0:
242,230,93229,2,0,P|263:245|280:263,2,43.9999967498781,0|8|8,0:0|0:3|0:3,0:0:0:0:
169,307,93713,1,8,0:0:0:0:
90,236,93955,1,2,0:2:0:0:
163,159,94197,1,2,0:2:0:0:
242,230,94439,5,4,0:0:0:0:
396,104,95165,2,0,B|404:160|404:160|396:280,2,164.999999141693,4|4|4,0:0|0:0|0:0,0:0:0:0:
212,36,97342,5,8,0:0:0:0:
52,152,98068,2,0,B|108:160|108:160|228:152,2,164.999999141693,8|8|8,0:0|0:0|0:0,0:0:0:0:
200,284,100245,5,4,0:0:0:0:
368,180,100971,2,0,L|336:344,1,164.999999141693,4|4,0:0|0:0,0:0:0:0:
255,159,102423,1,4,0:0:0:0:
175,341,103148,2,0,L|144:180,3,164.999999141693,8|8|8|8,0:0|0:0|0:0|0:0,0:0:0:0:
348,40,106051,5,2,0:2:0:0:
100,56,106777,2,0,P|56:128|40:212,2,164.999999141693,2|2|2,0:2|0:2|0:2,0:0:0:0:
254,114,108713,5,2,0:3:0:0:
254,114,108955,2,0,P|338:126|434:110,1,164.999999141693,2|2,0:2|0:2,0:0:0:0:
254,302,110406,2,0,P|170:314|74:298,1,164.999999141693,2|2,0:2|0:2,0:0:0:0:
227,209,111616,5,2,0:3:0:0:
227,209,111858,1,2,0:2:0:0:
256,192,112100,12,2,116212,0:2:0:0:
106,343,117664,6,2,P|208:333|291:340,1,175.999986999512,4|2,0:0|0:2,0:2:0:0:
387,333,118390,2,0,P|378:277|384:228,2,87.9999934997561,0|0|2,0:0|0:0|0:2,0:0:0:0:
492,332,119115,2,0,P|495:248|487:227,1,87.9999934997561,8|0,0:0|0:0,0:0:0:0:
478,223,119478,1,0,0:0:0:0:
462,201,119599,1,2,0:2:0:0:
381,164,119841,2,0,P|335:161|282:160,1,87.9999934997561,8|0,0:0|0:0,0:0:0:0:
218,113,120325,1,2,0:2:0:0:
89,205,120567,6,2,B|203:201|148:249|277:241,1,175.999986999512,4|2,0:0|0:2,0:2:0:0:
336,313,121293,1,8,0:0:0:0:
336,313,121535,1,0,0:0:0:0:
336,313,121777,1,2,0:2:0:0:
248,363,122019,2,0,P|195:360|150:346,1,87.9999934997561,8|0,0:0|0:0,0:0:0:0:
144,330,122381,1,0,0:0:0:0:
126,310,122502,1,0,0:0:0:0:
33,258,122744,2,0,P|38:215|42:154,1,87.9999934997561,8|0,0:0|0:0,0:0:0:0:
121,102,123228,1,2,0:2:0:0:
223,184,123470,6,2,P|312:177|333:172,1,87.9999934997561,4|0,0:0|0:0,0:2:0:0:
332,162,123833,1,0,0:0:0:0:
354,148,123954,1,2,0:2:0:0:
453,113,124196,1,8,0:0:0:0:
438,217,124438,1,0,0:0:0:0:
424,321,124680,1,2,0:2:0:0:
325,359,124922,2,0,P|243:348|215:338,1,87.9999934997561,8|0,0:0|0:0,0:0:0:0:
154,281,125405,1,2,0:2:0:0:
254,243,125647,2,0,P|336:254|364:264,1,87.9999934997561,8|0,0:0|0:0,0:0:0:0:
424,321,126131,1,2,0:2:0:0:
438,184,126373,6,2,B|424:88|486:131|470:12,1,175.999986999512,4|2,0:0|0:2,0:2:0:0:
366,38,127099,2,0,P|291:50|259:52,1,87.9999934997561,8|0,0:0|0:0,0:0:0:0:
176,22,127583,1,2,0:2:0:0:
37,85,127825,2,2,P|95:203|23:323,1,263.999980499268,4|8,0:0|0:0,0:2:0:0:
134,358,128792,2,0,P|188:340|218:336,1,87.9999934997561,0|2,0:0|0:2,0:0:0:0:
344,368,129276,6,2,P|368:256|348:184,1,175.999986999512,4|2,0:0|0:2,0:2:0:0:
260,152,130002,2,0,P|208:144|148:144,2,87.9999934997561,8|0|2,0:0|0:0|0:2,0:0:0:0:
357,109,130728,2,0,P|465:53|461:-3,1,175.999986999512,8|2,0:0|0:2,0:0:0:0:
334,25,131454,2,2,P|251:35|138:49,1,175.999986999512,4|2,0:0|0:2,0:2:0:0:
27,37,132179,2,2,P|39:105|35:161,1,87.9999934997561,4|0,0:0|0:0,0:2:0:0:
40,150,132542,1,0,0:0:0:0:
36,176,132663,1,2,0:2:0:0:
104,312,132905,6,2,P|128:224|212:188,1,175.999986999512,8|2,0:0|0:2,0:0:0:0:
320,236,133631,2,2,P|296:148|212:112,1,175.999986999512,8|2,0:0|0:2,0:0:0:0:
96,104,134357,2,2,P|184:80|220:-4,1,175.999986999512,8|2,0:0|0:2,0:0:0:0:
344,32,135083,6,2,L|356:152,1,87.9999934997561,4|0,0:0|0:0,0:2:0:0:
355,145,135445,1,0,0:0:0:0:
358,171,135566,1,0,0:0:0:0:
484,136,135808,2,0,L|472:256,2,87.9999934997561,8|0|2,0:0|0:0|0:2,0:0:0:0:
352,119,136534,2,2,P|256:151|200:323,1,263.999980499268,8|8,0:0|0:0,0:0:0:0:
280,352,137502,1,0,0:0:0:0:
348,272,137744,1,2,0:2:0:0:
264,204,137986,6,2,P|180:216|96:272,1,175.999986999512,4|2,0:0|0:2,0:2:0:0:
20,328,138711,2,0,P|16:284|28:216,1,87.9999934997561,8|0,0:0|0:0,0:0:0:0:
56,140,139195,1,2,0:2:0:0:
124,32,139437,2,2,P|208:44|292:100,1,175.999986999512,4|2,0:0|0:2,0:2:0:0:
340,184,140163,1,8,0:0:0:0:
428,128,140405,1,0,0:0:0:0:
372,36,140647,1,2,0:2:0:0:
284,91,140889,1,4,0:1:0:0:
426,244,152501,6,0,L|417:341,1,73.333330154419,4|0,0:0|0:0,0:0:0:0:
430,335,152864,1,8,0:0:0:0:
441,353,152985,1,8,0:0:0:0:
353,361,153227,2,0,P|266:348|107:377,1,219.999990463257,4|4,0:0|0:0,0:0:0:0:
48,352,154195,2,8,L|-12:353,2,36.6666650772095
105,285,154678,2,0,P|104:222|99:190,1,73.333330154419,4|0,0:0|0:0,0:0:0:0:
50,140,155162,1,2,0:0:0:0:
137,128,155404,6,0,B|258:130|211:203|354:194,2,219.999990463257,4|4|4,0:0|0:0|0:0,0:0:0:0:
115,41,157098,2,8,L|66:47,2,36.6666650772095
202,51,157582,1,4,0:0:0:0:
288,67,157824,1,0,0:0:0:0:
374,83,158065,1,2,0:0:0:0:
468,176,158307,6,0,P|458:278|460:328,1,146.666660308838,4|8,0:0|0:0,0:0:0:0:
375,349,159033,2,0,P|308:324|277:314,1,73.333330154419,4|0,0:0|0:0,0:0:0:0:
218,329,159517,1,2,0:0:0:0:
257,250,159759,2,0,P|271:182|276:145,1,73.333330154419,4|8,0:0|0:0,0:0:0:0:
263,157,160122,1,8,0:0:0:0:
254,136,160243,1,8,0:0:0:0:
179,88,160485,1,4,0:0:0:0:
91,99,160727,1,0,0:0:0:0:
3,110,160969,1,2,0:0:0:0:
47,185,161210,6,0,P|56:254|24:347,1,146.666660308838,4|8,0:0|0:0,0:0:0:0:
124,330,161936,1,4,0:0:0:0:
211,333,162178,1,0,0:0:0:0:
298,339,162420,1,2,0:0:0:0:
366,283,162662,2,0,P|346:208|372:56,1,219.999990463257,4|4,0:0|0:0,0:0:0:0:
452,86,163630,1,8,0:0:0:0:
452,86,163872,1,2,0:0:0:0:
296,32,164114,5,4,0:0:0:0:
28,252,164839,2,2,P|80:208|80:100,1,175.999986999512,8|0,0:0|0:0,0:0:0:0:
176,24,165565,2,2,P|171:111|251:175,1,175.999986999512,8|0,0:0|0:0,0:0:0:0:
332,140,166291,1,8,0:0:0:0:
428,184,166533,1,2,0:2:0:0:
436,288,166775,1,2,0:2:0:0:
344,344,167017,1,4,0:0:0:0:
456,56,167742,6,2,P|368:52|268:68,1,175.999986999512,8|0,0:0|0:0,0:0:0:0:
164,12,168468,2,2,P|168:100|152:200,1,175.999986999512,8|0,0:0|0:0,0:0:0:0:
32,168,169194,2,2,P|124:184|128:276,1,175.999986999512,8|0,0:0|0:0,0:0:0:0:
24,320,169920,6,2,L|232:360,1,175.999986999512,4|0,0:0|0:0,0:2:0:0:
276,280,170646,2,0,P|280:332|276:368,2,87.9999934997561,8|2|2,0:0|0:2|0:2,0:0:0:0:
332,160,171371,2,0,L|124:200,1,175.999986999512,8|0,0:0|0:0,0:0:0:0:
80,120,172097,2,0,P|76:172|80:208,2,87.9999934997561,8|2|2,0:0|0:2|0:2,0:0:0:0:
160,28,172823,6,0,P|212:32|272:32,1,87.9999934997561,4|0,0:0|0:0,0:0:0:0:
274,32,173186,1,8,0:3:0:0:
300,28,173307,1,8,0:3:0:0:
384,120,173549,2,0,P|332:124|272:124,2,87.9999934997561,8|2|2,0:0|0:2|0:2,0:0:0:0:
480,36,174274,5,8,0:0:0:0:
485,141,174516,1,0,0:0:0:0:
485,141,174637,1,8,0:3:0:0:
485,141,174758,1,8,0:3:0:0:
384,120,175000,5,8,0:0:0:0:
384,224,175242,1,0,0:0:0:0:
480,272,175484,1,8,0:3:0:0:
328,350,175726,6,2,P|251:338|131:351,1,175.999986999512,4|8,0:0|0:3,0:2:0:0:
28,328,176452,2,2,P|54:247|46:149,1,175.999986999512,8|0,0:0|0:0,0:0:0:0:
54,28,177178,2,2,P|109:41|157:37,1,87.9999934997561,8|0,0:0|0:0,0:0:0:0:
164,28,177540,1,8,0:3:0:0:
188,17,177661,1,8,0:3:0:0:
286,54,177903,5,4,0:0:0:0:
262,156,178145,1,2,0:2:0:0:
238,259,178387,1,2,0:2:0:0:
317,329,178629,6,2,P|354:300|359:168,1,175.999986999512,4|8,0:0|0:3,0:2:0:0:
390,76,179355,2,2,P|437:104|473:118,2,87.9999934997561,8|0|0,0:0|0:0|0:0,0:1:0:0:
284,86,180081,2,2,P|240:127|114:135,1,175.999986999512,8|0,0:0|0:0,0:0:0:0:
31,99,180806,2,2,B|36:158|36:158|0:279,1,175.999986999512,8|2,0:0|0:2,0:0:0:0:
115,333,181532,6,2,P|189:308|241:305,1,87.9999934997561,4|0,0:0|0:0,0:2:0:0:
224,311,181895,1,8,0:3:0:0:
249,315,182016,1,8,0:3:0:0:
344,359,182258,2,0,P|340:295|344:258,1,87.9999934997561,8|2,0:0|0:2,0:0:0:0:
250,216,182742,2,0,P|308:188|332:164,1,87.9999934997561,2|8,0:2|0:0,0:0:0:0:
430,185,183226,1,0,0:0:0:0:
430,185,183347,1,0,0:0:0:0:
430,185,183468,1,8,0:3:0:0:
381,91,183710,5,8,0:0:0:0:
276,83,183951,1,2,0:2:0:0:
170,75,184193,1,2,0:2:0:0:
77,126,184435,6,0,L|88:242,2,87.9999934997561,8|0|8,0:0|0:0|0:3,0:0:0:0:
132,35,185161,1,8,0:0:0:0:
237,41,185403,1,2,0:2:0:0:
342,47,185645,1,2,0:2:0:0:
425,112,185887,6,0,L|414:228,2,87.9999934997561,8|0|8,0:0|0:0|0:3,0:0:0:0:
342,47,186613,1,8,0:0:0:0:
237,41,186855,1,2,0:2:0:0:
132,35,187097,1,2,0:2:0:0:
183,126,187338,5,4,0:0:0:0:
69,346,188064,2,0,B|61:290|61:290|73:246|73:246|61:170,2,164.999999141693,4|4|4,0:0|0:0|0:0,0:0:0:0:
183,126,190242,5,8,0:0:0:0:
421,189,190967,2,0,B|365:197|365:197|321:185|321:185|245:197,2,164.999999141693,8|8|8,0:0|0:0|0:0,0:0:0:0:
222,40,193145,5,4,0:0:0:0:
126,267,193870,2,0,P|114:183|138:103,1,164.999999141693,4|4,0:0|0:0,0:0:0:0:
255,324,195322,1,4,0:0:0:0:
377,107,196048,2,0,P|398:185|386:266,3,164.999999141693,8|8|8|8,0:0|0:0|0:0|0:0,0:0:0:0:
138,262,198951,5,0,0:0:0:0:
369,348,199677,2,0,P|433:301|473:218,2,164.999999141693,2|2|2,0:0|0:2|0:2,0:0:0:0:
225,266,201612,5,2,0:3:0:0:
225,266,201854,2,0,P|141:254|45:270,1,164.999999141693,2|2,0:2|0:2,0:0:0:0:
284,153,203306,2,0,P|368:141|464:157,1,164.999999141693,2|2,0:2|0:2,0:0:0:0:
311,245,204515,5,2,0:3:0:0:
311,245,204757,1,2,0:2:0:0:
256,192,204999,12,2,209112,0:2:0:0:
25,196,210563,6,2,B|112:208|112:208|199:167|199:167|302:175,1,263.999980499268,4|8,0:0|0:0,0:2:0:0:
381,201,211531,1,2,0:2:0:0:
484,223,211773,1,2,0:2:0:0:
448,322,212015,6,2,P|378:305|261:324,1,175.999986999512,8|0,0:0|2:0,0:0:0:0:
182,369,212741,2,2,P|191:312|191:278,1,87.9999934997561,8|2,0:0|0:2,0:0:0:0:
268,209,213225,1,2,0:2:0:0:
166,182,213466,6,2,P|154:124|185:7,1,175.999986999512,4|8,0:0|0:3,0:2:0:0:
284,37,214192,1,8,0:0:0:0:
387,58,214434,1,2,0:2:0:0:
490,81,214676,1,2,0:2:0:0:
437,172,214918,6,0,P|421:232|421:288,1,87.9999934997561,0|0,0:0|0:0,0:0:0:0:
428,282,215281,1,8,0:3:0:0:
437,306,215402,1,8,0:3:0:0:
336,339,215644,2,0,P|269:334|230:337,2,87.9999934997561,8|2|2,0:0|0:2|0:2,0:0:0:0:
300,239,216370,6,2,P|200:245|85:220,1,175.999986999512,4|8,0:0|0:3,0:2:0:0:
60,149,217095,1,8,0:0:0:0:
164,134,217337,1,2,0:2:0:0:
125,232,217579,1,2,0:2:0:0:
86,330,217821,2,0,L|275:323,1,175.999986999512,8|0,0:0|2:0,0:0:0:0:
362,357,218547,2,0,L|356:167,1,175.999986999512,8|8,0:0|0:3,0:0:0:0:
379,48,219273,6,2,B|247:55|283:132|105:126,2,263.999980499268,4|8|8,0:0|0:0|0:0,0:0:0:0:
465,108,220966,1,0,0:0:0:0:
465,108,221087,1,8,0:3:0:0:
465,108,221208,1,8,0:3:0:0:
370,155,221450,1,8,0:0:0:0:
376,260,221692,1,2,0:2:0:0:
383,365,221934,1,2,0:2:0:0:
269,309,222176,5,4,0:0:0:0:
133,48,222902,6,0,B|265:55|229:132|407:126,2,263.999980499268,8|8|8,0:0|0:0|0:0,0:0:0:0:
41,179,224837,1,0,0:0:0:0:
41,179,225079,2,2,B|25:263|25:263|39:369,1,175.999986999512,8|8,0:0|0:3,0:2:0:0:
148,299,225805,1,8,0:0:0:0:
251,317,226047,1,2,0:2:0:0:
354,339,226289,1,2,0:2:0:0:
460,265,226530,6,0,B|476:181|476:181|462:75,1,175.999986999512,8|8,0:0|0:3,0:0:0:0:
349,40,227256,1,8,0:0:0:0:
325,142,227498,1,2,0:2:0:0:
297,243,227740,1,2,0:2:0:0:
194,311,227982,6,2,L|142:142,1,175.999986999512,4|8,0:0|0:3,0:2:0:0:
27,84,228708,2,2,P|125:99|214:55,1,175.999986999512,8|8,0:0|0:3,0:0:0:0:
300,200,229434,2,2,P|316:114|287:32,1,175.999986999512,8|8,0:0|0:3,0:0:0:0:
432,92,230159,2,2,P|415:177|444:259,1,175.999986999512,8|8,0:0|0:3,0:0:0:0:
320,356,230885,6,2,B|245:332|245:332|126:358,1,175.999986999512,4|0,0:0|0:0,0:2:0:0:
45,335,231611,2,0,B|97:276|97:276|214:239,1,175.999986999512,8|0,0:0|0:0,0:0:0:0:
288,287,232337,1,0,0:0:0:0:
258,185,232579,1,0,0:0:0:0:
258,185,232700,1,8,0:3:0:0:
258,185,232820,1,8,0:3:0:0:
125,185,233062,5,8,0:0:0:0:
57,104,233304,1,2,0:2:0:0:
120,19,233546,1,2,0:2:0:0:
225,98,233788,6,2,P|283:83|377:93,1,131.999990249634,4|8,0:0|0:3,0:2:0:0:
372,105,234272,1,8,0:3:0:0:
456,168,234514,1,8,0:0:0:0:
352,190,234756,1,2,0:2:0:0:
248,213,234998,1,2,0:2:0:0:
192,303,235240,6,0,P|250:318|344:308,1,131.999990249634,8|8,0:0|0:3,0:0:0:0:
339,296,235724,1,8,0:3:0:0:
432,246,235966,2,0,P|426:306|427:355,2,87.9999934997561,8|2|2,0:0|0:2|0:2,0:0:0:0:
388,105,236691,6,2,B|293:109|316:57|215:68,1,175.999986999512,4|8,0:0|0:3,0:2:0:0:
129,27,237417,2,0,P|141:105|143:145,2,87.9999934997561,8|2|2,0:0|0:2|0:2,0:0:0:0:
64,146,238143,5,8,0:0:0:0:
47,250,238385,1,8,0:3:0:0:
120,325,238627,1,8,0:3:0:0:
120,325,238748,1,0,0:0:0:0:
120,325,238869,2,0,P|189:321|213:322,1,87.9999934997561,8|2,0:0|0:2,0:0:0:0:
307,355,239352,1,2,0:2:0:0:
292,250,239594,6,2,P|256:175|248:79,1,175.999986999512,4|8,0:0|0:3,0:2:0:0:
348,50,240320,1,8,0:0:0:0:
418,128,240562,1,2,0:2:0:0:
484,210,240804,1,2,0:2:0:0:
474,307,241046,6,0,P|414:304|367:311,1,87.9999934997561,8|8,0:0|0:3,0:0:0:0:
368,326,241409,1,8,0:3:0:0:
350,346,241530,1,8,0:3:0:0:
250,309,241772,1,8,0:0:0:0:
150,343,242014,1,2,0:2:0:0:
49,374,242256,1,2,0:2:0:0:
68,270,242498,6,2,P|86:194|61:102,1,175.999986999512,4|0,0:0|0:0,0:0:0:0:
166,100,243223,2,2,B|262:99|217:155|342:151,1,175.999986999512,8|0,0:0|0:0,0:0:0:0:
434,138,243949,2,2,B|416:199|416:199|440:286,1,131.999990249634,4|0,0:0|0:0,0:0:0:0:
458,275,244433,1,8,0:3:0:0:
383,350,244675,1,4,0:0:0:0:
277,349,244917,1,2,0:2:0:0:
171,347,245159,1,2,0:2:0:0:
34,247,245401,6,2,P|92:262|222:245,1,175.999986999512,4|8,0:0|0:3,0:2:0:0:
277,349,246126,1,8,0:0:0:0:
310,267,246368,1,2,0:2:0:0:
339,184,246610,1,2,0:2:0:0:
459,187,246852,6,0,P|461:290|434:369,1,175.999986999512,8|8,0:0|0:3,0:0:0:0:
348,345,247578,2,0,P|325:305|305:250,2,87.9999934997561,8|2|2,0:0|0:2|0:2,0:0:0:0:
205,346,248304,6,2,P|116:340|34:295,1,175.999986999512,4|8,0:0|0:3,0:2:0:0:
40,194,249030,2,0,P|88:197|144:206,1,87.9999934997561,8|2,0:0|0:2,0:0:0:0:
219,255,249513,1,2,0:2:0:0:
210,132,249755,2,0,P|132:91|45:86,1,175.999986999512,8|8,0:0|0:3,0:0:0:0:
145,12,250481,2,0,P|187:27|247:56,2,87.9999934997561,8|2|2,0:0|0:2|0:2,0:0:0:0:
45,86,251207,6,2,P|40:175|44:268,1,175.999986999512,4|8,0:0|0:3,0:2:0:0:
136,340,251933,1,8,0:0:0:0:
213,267,252175,1,2,0:2:0:0:
317,278,252416,1,2,0:2:0:0:
387,168,252658,6,0,P|298:173|192:144,1,175.999986999512,8|8,0:0|0:3,0:0:0:0:
233,49,253384,1,8,0:0:0:0:
330,8,253626,1,2,0:2:0:0:
417,66,253868,1,2,0:2:0:0:
325,119,254110,6,2,B|260:246|359:235|297:375,1,263.999980499268,4|8,0:0|0:0,0:0:0:0:
108,118,255562,2,2,B|173:245|74:234|136:374,1,263.999980499268,4|8,0:0|0:0,0:0:0:0:
219,67,257013,1,4,0:0:0:0:
