osu file format v14

[General]
AudioFilename: audio.mp3
AudioLeadIn: 0
PreviewTime: 71093
Countdown: 0
SampleSet: Normal
StackLeniency: 0.6
Mode: 0
LetterboxInBreaks: 0
WidescreenStoryboard: 0

[Editor]
Bookmarks: 13149
DistanceSpacing: 1.2
BeatDivisor: 6
GridSize: 4
TimelineZoom: 2.2

[Metadata]
Title:Kingdom Of Welcome Addiction
TitleUnicode:Kingdom Of Welcome Addiction
Artist:IAMX
ArtistUnicode:IAMX
Creator:PandaHero
Version:Normal
Source:
Tags:Mirash Chris Corner synthpop dark cabaret alternative industrial electronica experimental
BeatmapID:1382001
BeatmapSetID:650596

[Difficulty]
HPDrainRate:3
CircleSize:3.3
OverallDifficulty:4
ApproachRate:4
SliderMultiplier:1.89999990463257
SliderTickRate:1

[Events]
//Background and Video events
0,0,"54678.jpg",0,0
//Break Periods
2,47986,58282
2,94436,104731
2,114961,116344
2,140886,151181
2,187335,197631
2,207860,209243
//Storyboard Layer 0 (Background)
//Storyboard Layer 1 (Fail)
//Storyboard Layer 2 (Pass)
//Storyboard Layer 3 (Foreground)
//Storyboard Sound Samples

[TimingPoints]
1540,725.777186403774,4,2,0,50,1,0
24765,-100,4,1,1,65,0,0
47990,-100,4,3,0,55,0,0
71214,-100,4,1,1,65,0,1
94439,-100,4,3,0,40,0,0
106052,-100,4,3,0,45,0,0
117664,-100,4,1,1,65,0,0
140889,-100,4,3,0,55,0,0
164114,-100,4,1,1,65,0,1
187338,-100,4,3,0,40,0,0
198951,-100,4,3,0,45,0,0
210563,-100,4,1,1,70,0,1
233788,-100,4,1,1,65,0,0
242498,-100,4,1,1,65,0,0
245401,-100,4,1,1,65,0,0

[Colours]
Combo1 : 179,34,34
Combo2 : 192,192,192
Combo3 : 106,106,106
Combo4 : 223,96,96

[HitObjects]
196,84,13152,6,0,B|256:76|256:76|396:88,1,189.999990463257,4|0,1:2|1:0,0:0:0:0:
316,304,14603,2,0,B|256:312|256:312|116:300,1,189.999990463257,0|0,1:0|1:0,0:0:0:0:
40,92,16055,6,0,L|40:296,2,189.999990463257,0|0|0,1:0|1:0|1:0,0:0:0:0:
251,177,18232,1,0,1:0:0:0:
389,357,18958,6,0,P|431:280|422:175,1,189.999990463257,4|0,1:2|1:0,0:0:0:0:
235,52,20410,2,0,P|151:76|83:156,1,189.999990463257,0|0,1:0|1:0,0:0:0:0:
313,159,21861,6,0,B|321:219|321:219|309:359,1,189.999990463257,4|0,1:2|1:0,0:0:0:0:
102,253,23313,2,0,B|162:245|162:245|290:256,1,189.999990463257,4|0,1:2|1:0,0:0:0:0:
209,42,24764,6,2,B|165:42|165:42|73:58,1,126.666660308838,4|2,0:0|0:2,0:2:0:0:
41,118,25490,2,0,B|41:162|41:162|57:254,1,126.666660308838,8|2,0:0|0:2,0:0:0:0:
97,306,26216,2,0,P|185:302|301:322,1,189.999990463257,8|8,0:0|0:0,0:0:0:0:
468,188,27667,6,2,B|472:148|472:148|464:40,1,126.666660308838,4|2,0:0|0:2,0:2:0:0:
396,32,28393,1,8,0:0:0:0:
204,156,29119,1,8,0:0:0:0:
332,344,29845,1,8,0:0:0:0:
104,344,30571,6,2,P|88:272|52:208,1,126.666660308838,4|2,0:0|0:2,0:2:0:0:
32,156,31296,2,0,P|48:84|84:20,1,126.666660308838,8|2,0:0|0:2,0:0:0:0:
148,52,32022,2,0,B|248:84|240:32|352:64,1,189.999990463257,8|8,0:0|0:0,0:0:0:0:
496,220,33474,6,2,L|284:260,1,189.999990463257,4|8,0:0|0:0,0:2:0:0:
160,288,34683,1,2,0:2:0:0:
87,311,34925,2,2,L|299:351,1,189.999990463257,4|8,0:0|0:0,0:2:0:0:
280,124,36377,6,2,B|316:120|316:120|416:144,1,126.666660308838,4|2,0:0|0:2,0:2:0:0:
464,96,37103,2,0,B|468:132|468:132|444:232,1,126.666660308838,8|2,0:0|0:2,0:0:0:0:
501,272,37828,2,0,B|465:276|465:276|365:252,1,126.666660308838,8|2,0:0|0:2,0:0:0:0:
303,234,38554,1,4,0:0:0:0:
108,344,39280,5,4,0:0:0:0:
28,132,40006,2,2,P|8:204|16:332,2,189.999990463257,8|8|8,0:0|0:0|0:0,0:0:0:0:
240,48,42183,6,2,P|300:44|384:64,1,126.666660308838,4|2,0:0|0:2,0:2:0:0:
394,127,42909,2,2,P|367:180|308:243,1,126.666660308838,8|2,0:0|0:2,0:0:0:0:
247,219,43635,2,2,P|213:169|188:86,1,126.666660308838,8|2,0:0|0:2,0:0:0:0:
239,48,44360,1,8,0:0:0:0:
452,132,45086,6,2,L|420:336,1,189.999990463257,4|8,0:0|0:0,0:2:0:0:
273,347,46296,1,2,0:2:0:0:
253,273,46538,2,2,L|223:85,1,189.999990463257,4|8,0:0|0:0,0:2:0:0:
52,76,59602,6,0,L|207:77,1,126.666660308838,4|8,0:0|0:0,0:0:0:0:
240,121,60327,2,0,B|253:194|253:194|249:246,1,126.666660308838,4|2,0:0|0:0,0:0:0:0:
183,285,61053,2,0,B|112:259|112:259|69:229,1,126.666660308838,4|8,0:0|0:0,0:0:0:0:
72,153,61779,2,0,B|128:105|128:105|175:82,1,126.666660308838,4|2,0:0|0:0,0:0:0:0:
240,121,62505,5,4,0:0:0:0:
276,268,62989,1,8,0:0:0:0:
276,268,63231,2,0,B|351:268|351:268|391:292|391:292|479:292,1,189.999990463257,4|4,0:0|0:0,0:0:0:0:
468,140,64440,1,8,0:0:0:0:
468,140,64682,2,0,P|400:148|324:136,1,126.666660308838,4|2,0:0|0:0,0:0:0:0:
286,89,65408,6,0,P|222:37|138:93,1,189.999990463257,4|4,0:0|0:0,0:0:0:0:
175,234,66618,1,2,0:0:0:0:
175,234,66859,2,0,P|271:222|371:262,1,189.999990463257,4|4,0:0|0:0,0:0:0:0:
448,130,68069,5,2,0:0:0:0:
448,130,68311,2,0,P|380:130|316:146,1,126.666660308838,4|8,0:0|0:0,0:0:0:0:
271,199,69037,2,0,L|271:60,1,126.666660308838,4|2,0:0|0:0,0:0:0:0:
196,57,69763,2,0,P|161:58|120:53,2,63.333330154419,4|0|8,0:0|0:0|0:0,0:0:0:0:
271,72,70488,2,0,P|331:100|367:156,1,126.666660308838,4|2,0:0|0:0,0:0:0:0:
365,224,71214,6,2,P|293:228|221:260,1,126.666660308838,4|8,0:0|0:3,0:2:0:0:
168,226,71940,2,2,L|128:366,1,126.666660308838,8|0,0:0|0:0,0:0:0:0:
56,346,72666,2,2,L|21:224,1,126.666660308838,8|0,0:0|0:0,0:0:0:0:
59,158,73391,2,0,P|103:149|151:150,2,63.333330154419,8|2|2,0:0|0:2|0:2,0:0:0:0:
21,224,74117,1,8,0:0:0:0:
179,62,74843,6,2,P|239:58|319:70,1,126.666660308838,8|0,0:0|0:0,0:0:0:0:
380,71,75569,2,2,P|353:124|303:188,1,126.666660308838,8|0,0:0|0:0,0:0:0:0:
305,253,76295,2,2,P|331:306|381:370,1,126.666660308838,8|0,0:0|0:0,0:0:0:0:
447,356,77020,6,2,P|471:264|455:152,1,189.999990463257,4|8,0:0|0:0,0:2:0:0:
388,147,77988,1,2,0:2:0:0:
333,94,78230,1,2,0:2:0:0:
299,26,78472,2,0,P|287:110|303:226,1,189.999990463257,8|8,0:0|0:0,0:0:0:0:
345,359,79682,5,2,0:2:0:0:
285,312,79923,2,2,P|221:304|149:316,1,126.666660308838,8|8,0:0|0:3,0:0:0:0:
87,339,80649,1,8,0:0:0:0:
47,273,80891,2,0,L|39:185,1,63.333330154419,2|2,0:2|0:2,0:0:0:0:
111,180,81375,2,0,P|151:188|187:196,2,63.333330154419,8|0|8,0:0|0:0|0:3,0:0:0:0:
50,134,82101,2,0,P|70:78|142:26,1,126.666660308838,8|8,0:0|0:3,0:0:0:0:
195,44,82827,1,4,0:0:0:0:
421,72,83552,6,2,P|353:84|285:132,1,126.666660308838,8|8,0:0|0:3,0:0:0:0:
244,160,84278,2,2,P|312:172|380:220,1,126.666660308838,8|8,0:0|0:3,0:0:0:0:
425,240,85004,1,8,0:3:0:0:
487,283,85246,2,0,P|491:251|491:203,1,63.333330154419,8|8,0:3|0:3,0:0:0:0:
475,145,85730,1,4,0:0:0:0:
272,39,86455,6,2,P|219:83|184:158,1,126.666660308838,8|0,0:0|0:0,0:0:0:0:
163,203,87181,2,2,P|227:179|310:186,1,126.666660308838,8|0,0:0|0:0,0:0:0:0:
336,235,87907,2,2,P|323:303|276:371,1,126.666660308838,8|0,0:0|0:0,0:0:0:0:
218,356,88633,6,2,L|14:332,1,189.999990463257,4|8,0:0|0:0,0:2:0:0:
23,257,89600,1,2,0:2:0:0:
62,192,89842,1,2,0:2:0:0:
137,179,90084,2,0,L|341:155,1,189.999990463257,8|8,0:0|0:0,0:0:0:0:
480,132,91294,5,2,0:2:0:0:
484,208,91536,2,2,P|484:249|472:304,2,63.333330154419,8|0|8,0:0|0:0|0:3,0:2:0:0:
480,132,92262,1,8,0:0:0:0:
352,52,92745,1,2,0:2:0:0:
280,76,92987,2,2,P|212:68|132:40,1,126.666660308838,4|8,0:0|0:3,0:2:0:0:
93,7,93713,2,0,L|93:151,1,126.666660308838,8|2,0:0|0:2,0:0:0:0:
92,212,106051,6,0,L|304:212,2,189.999990463257,2|2|2,0:2|0:2|0:2,0:0:0:0:
280,340,108229,1,2,0:2:0:0:
472,220,108955,6,0,L|472:24,2,189.999990463257,2|2|2,0:2|0:2|0:2,0:0:0:0:
280,340,111132,1,2,0:2:0:0:
256,192,111858,12,2,114761,0:2:0:0:
304,340,117664,6,2,B|348:340|348:340|440:324,1,126.666660308838,4|2,0:0|0:2,0:2:0:0:
472,264,118390,2,0,B|472:220|472:220|456:128,1,126.666660308838,8|2,0:0|0:2,0:0:0:0:
416,76,119115,2,0,P|312:64|200:80,1,189.999990463257,8|8,0:0|0:0,0:0:0:0:
44,196,120567,6,2,B|40:236|40:236|48:344,1,126.666660308838,4|2,0:0|0:2,0:2:0:0:
116,352,121293,1,8,0:0:0:0:
340,304,122019,1,8,0:0:0:0:
296,80,122744,1,8,0:0:0:0:
72,44,123470,6,2,P|56:116|20:180,1,126.666660308838,4|2,0:0|0:2,0:2:0:0:
12,236,124196,2,0,P|28:308|64:372,1,126.666660308838,8|2,0:0|0:2,0:0:0:0:
124,336,124922,2,0,B|224:304|216:356|328:324,1,189.999990463257,8|8,0:0|0:0,0:0:0:0:
476,172,126373,6,2,L|264:132,1,189.999990463257,4|8,0:0|0:0,0:2:0:0:
144,96,127583,1,2,0:2:0:0:
72,68,127825,2,2,L|284:28,1,189.999990463257,4|8,0:0|0:0,0:2:0:0:
228,260,129276,6,2,B|192:264|192:264|92:240,1,126.666660308838,4|2,0:0|0:2,0:2:0:0:
44,288,130002,2,0,B|40:252|40:252|64:152,1,126.666660308838,8|2,0:0|0:2,0:0:0:0:
4,112,130728,2,0,B|40:108|40:108|140:132,1,126.666660308838,8|2,0:0|0:2,0:0:0:0:
200,152,131454,1,4,0:0:0:0:
400,44,132179,5,4,0:0:0:0:
484,256,132905,2,2,P|504:184|496:56,2,189.999990463257,8|8|8,0:0|0:0|0:0,0:0:0:0:
272,340,135083,6,2,L|128:324,1,126.666660308838,4|2,0:0|0:2,0:2:0:0:
111,257,135808,2,2,L|197:141,1,126.666660308838,8|2,0:0|0:2,0:0:0:0:
262,161,136534,2,2,L|328:308,1,126.666660308838,8|2,0:0|0:2,0:0:0:0:
272,340,137260,1,8,0:0:0:0:
60,252,137986,6,2,L|92:48,1,189.999990463257,4|8,0:0|0:0,0:2:0:0:
240,36,139195,1,2,0:2:0:0:
256,112,139437,2,2,L|286:300,1,189.999990463257,4|8,0:0|0:0,0:2:0:0:
268,80,152501,6,0,P|280:112|285:229,1,126.666660308838,4|8,0:0|0:0,0:0:0:0:
238,260,153227,2,0,P|154:280|66:344,2,189.999990463257,4|4|4,0:0|0:0|0:0,0:0:0:0:
449,174,155404,6,0,P|413:170|313:143,1,126.666660308838,4|8,0:0|0:0,0:0:0:0:
259,108,156130,2,0,B|179:108|179:108|63:160,1,189.999990463257,4|4,0:0|0:0,0:0:0:0:
193,350,157582,2,0,P|189:282|197:202,1,126.666660308838,4|2,0:0|0:0,0:0:0:0:
263,193,158307,6,0,P|341:238|344:329,1,189.999990463257,4|4,0:0|0:0,0:0:0:0:
463,236,159517,1,2,0:0:0:0:
463,236,159759,2,0,P|467:146|436:41,1,189.999990463257,4|4,0:0|0:0,0:0:0:0:
288,51,160969,5,2,0:0:0:0:
288,51,161210,2,0,P|220:51|156:35,1,126.666660308838,4|8,0:0|0:0,0:0:0:0:
90,60,161936,2,0,P|86:100|96:200,1,126.666660308838,4|2,0:0|0:0,0:0:0:0:
124,255,162662,2,0,L|204:257,2,63.333330154419,4|0|8,0:0|0:0|0:0,0:0:0:0:
89,323,163388,2,0,B|121:347|121:347|237:347,1,126.666660308838,4|2,0:0|0:0,0:0:0:0:
277,317,164114,5,4,0:0:0:0:
229,94,164839,2,2,P|153:102|81:122,1,126.666660308838,8|0,0:0|0:0,0:0:0:0:
36,79,165565,2,2,P|44:155|64:227,1,126.666660308838,8|8,0:0|0:3,0:0:0:0:
129,224,166291,2,0,P|168:220|213:207,2,63.333330154419,8|2|2,0:0|0:2|0:2,0:0:0:0:
74,277,167017,1,4,0:0:0:0:
284,189,167742,6,2,P|276:249|280:329,1,126.666660308838,8|0,0:0|0:0,0:0:0:0:
336,266,168468,2,2,P|396:274|476:270,1,126.666660308838,8|8,0:0|0:3,0:0:0:0:
494,202,169194,2,2,P|470:146|427:78,1,126.666660308838,8|8,0:0|0:3,0:0:0:0:
380,37,169920,6,2,P|276:53|188:125,1,189.999990463257,4|8,0:0|0:0,0:2:0:0:
103,211,171129,1,2,0:2:0:0:
177,227,171371,2,2,B|273:191|273:255|377:215,1,189.999990463257,8|0,0:0|0:0,0:0:0:0:
481,317,172581,5,0,0:0:0:0:
493,241,172823,2,2,P|496:210|493:173,1,63.333330154419,4|0,0:0|0:0,0:2:0:0:
479,103,173307,1,8,0:3:0:0:
426,47,173549,2,0,B|386:63|386:63|346:171,1,126.666660308838,8|2,0:0|0:2,0:0:0:0:
363,217,174274,2,0,B|379:241|379:241|395:285,2,63.333330154419,8|0|8,0:0|0:0|0:3,0:0:0:0:
286,222,175000,2,0,P|226:230|150:222,1,126.666660308838,8|8,0:0|0:3,0:0:0:0:
93,187,175726,1,4,0:0:0:0:
264,37,176452,6,2,P|340:45|412:65,1,126.666660308838,8|0,0:0|0:0,0:0:0:0:
460,29,177178,2,2,P|452:105|432:177,1,126.666660308838,8|8,0:0|0:3,0:0:0:0:
365,171,177903,2,0,P|333:159|288:147,2,63.333330154419,4|2|2,0:0|0:2|0:2,0:0:0:0:
419,224,178629,1,4,0:0:0:0:
227,347,179355,6,2,P|151:339|79:319,1,126.666660308838,8|0,0:0|0:0,0:0:0:0:
30,353,180081,2,2,P|38:277|58:205,1,126.666660308838,8|0,0:0|0:0,0:0:0:0:
95,166,180806,2,2,P|147:194|123:278,1,126.666660308838,8|0,0:0|0:0,0:0:0:0:
217,284,181532,6,2,P|313:296|441:280,1,189.999990463257,4|8,0:0|0:0,0:2:0:0:
466,241,182500,1,2,0:2:0:0:
467,165,182742,1,2,0:2:0:0:
423,102,182984,2,0,P|327:114|199:98,1,189.999990463257,8|8,0:0|0:0,0:0:0:0:
92,52,184193,5,0,0:0:0:0:
50,115,184435,2,2,P|42:139|34:195,2,63.333330154419,8|0|8,0:0|0:0|0:3,0:2:0:0:
125,122,185161,2,0,P|157:190|153:282,1,126.666660308838,8|2,0:0|0:2,0:0:0:0:
201,305,185887,2,0,P|225:313|281:321,2,63.333330154419,4|0|4,0:0|0:0|0:3,0:0:0:0:
237,237,186613,2,0,P|301:229|385:241,1,126.666660308838,8|2,0:0|0:2,0:0:0:0:
420,172,198951,6,0,P|316:160|208:184,2,189.999990463257,2|2|2,0:2|0:2|0:2,0:0:0:0:
232,44,201128,1,2,0:2:0:0:
40,164,201854,6,0,P|32:252|48:356,2,189.999990463257,2|2|2,0:2|0:2|0:2,0:0:0:0:
232,44,204031,1,2,0:2:0:0:
256,192,204757,12,2,207660,0:2:0:0:
480,56,210563,5,4,0:0:0:0:
480,284,211289,2,2,P|416:292|328:268,1,126.666660308838,8|0,0:0|2:0,0:0:0:0:
320,212,212015,2,2,P|258:200|195:208,1,126.666660308838,8|0,0:0|2:0,0:0:0:0:
168,279,212741,2,2,P|104:287|16:263,1,126.666660308838,8|0,0:0|2:0,0:0:0:0:
13,205,213466,6,2,P|5:141|29:53,1,126.666660308838,4|8,0:0|0:3,0:2:0:0:
74,30,214192,2,0,P|110:30|166:38,1,63.333330154419,8|2,0:0|0:2,0:0:0:0:
204,68,214676,1,2,0:2:0:0:
226,140,214918,2,0,P|294:152|382:132,1,126.666660308838,8|8,0:0|0:3,0:0:0:0:
421,170,215644,2,0,P|425:218|417:266,2,63.333330154419,8|2|2,0:0|0:2|0:2,0:0:0:0:
408,94,216370,1,4,0:0:0:0:
185,144,217095,6,2,L|329:160,1,126.666660308838,8|0,0:0|2:0,0:0:0:0:
309,234,217821,2,2,L|165:250,1,126.666660308838,8|0,0:0|2:0,0:0:0:0:
185,324,218547,2,2,L|329:340,1,126.666660308838,8|8,0:0|0:3,0:0:0:0:
386,344,219273,5,4,0:0:0:0:
506,150,219998,1,8,0:0:0:0:
277,150,220724,1,8,0:0:0:0:
386,344,221450,1,8,0:0:0:0:
277,150,222176,5,4,0:0:0:0:
55,205,222902,2,2,P|35:129|35:53,1,126.666660308838,8|0,0:0|2:0,0:0:0:0:
89,31,223627,2,2,P|164:51|230:89,1,126.666660308838,8|0,0:0|2:0,0:0:0:0:
227,147,224353,2,2,P|171:202|105:240,1,126.666660308838,8|0,0:0|2:0,0:0:0:0:
55,205,225079,1,8,0:0:0:0:
240,337,225805,6,0,P|272:341|328:353,2,63.333330154419,8|0|8,0:0|0:0|0:3,0:0:0:0:
164,329,226530,1,8,0:0:0:0:
373,239,227256,6,0,P|405:243|461:255,2,63.333330154419,8|0|8,0:0|0:0|0:3,0:0:0:0:
297,231,227982,1,4,0:0:0:0:
171,40,228708,6,2,P|139:92|131:188,1,126.666660308838,8|0,0:0|2:0,0:0:0:0:
187,204,229434,2,2,P|238:167|299:152,1,126.666660308838,8|0,0:0|2:0,0:0:0:0:
367,188,230159,2,2,P|335:240|327:336,1,126.666660308838,8|0,0:0|2:0,0:0:0:0:
380,352,230885,5,4,0:0:0:0:
152,352,231611,1,8,0:0:0:0:
380,352,232337,1,4,0:0:0:0:
152,352,233062,1,8,0:0:0:0:
380,352,233788,5,4,0:0:0:0:
452,136,234514,2,0,P|456:176|456:224,2,63.333330154419,8|0|2,0:0|0:0|0:2,0:0:0:0:
434,61,235240,1,8,0:0:0:0:
216,120,235966,6,0,P|176:124|128:124,2,63.333330154419,8|0|2,0:0|0:0|0:2,0:0:0:0:
288,148,236691,2,2,P|292:240|280:340,1,189.999990463257,4|8,0:0|0:0,0:2:0:0:
52,340,238143,2,0,P|48:248|60:148,1,189.999990463257,8|8,0:0|0:0,0:0:0:0:
260,44,239594,5,4,0:0:0:0:
436,188,240320,2,0,P|460:220|484:260,2,63.333330154419,8|0|2,0:0|0:0|0:2,0:0:0:0:
368,152,241046,1,8,0:0:0:0:
192,296,241772,6,0,P|168:328|144:368,2,63.333330154419,8|8|8,0:0|0:3|0:3,0:0:0:0:
260,328,242498,2,2,P|360:348|452:324,1,189.999990463257,4|8,0:0|0:0,0:0:0:0:
240,224,243949,1,4,0:0:0:0:
468,224,244675,1,4,0:0:0:0:
328,44,245401,5,4,0:0:0:0:
104,84,246126,2,0,P|64:84|16:72,2,63.333330154419,8|0|2,0:0|0:0|0:2,0:0:0:0:
164,132,246852,1,8,0:0:0:0:
388,172,247578,6,0,P|428:172|476:160,2,63.333330154419,8|0|2,0:0|0:2|0:2,0:0:0:0:
312,180,248304,2,2,P|248:248|208:352,1,189.999990463257,4|8,0:0|0:0,0:2:0:0:
216,108,249755,2,0,P|128:144|59:209,1,189.999990463257,8|8,0:0|0:0,0:0:0:0:
244,344,251207,5,4,0:0:0:0:
436,224,251933,2,0,P|460:204|484:180,2,63.333330154419,8|0|2,0:0|0:0|0:2,0:0:0:0:
360,236,252658,1,8,0:0:0:0:
168,116,253384,6,0,P|144:96|120:72,2,63.333330154419,8|0|2,0:0|0:0|0:2,0:0:0:0:
232,156,254110,2,2,P|332:144|404:80,1,189.999990463257,4|8,0:0|0:0,0:0:0:0:
172,88,255562,1,4,0:0:0:0:
280,288,256287,1,4,0:0:0:0:
388,88,257013,1,4,0:0:0:0:
