osu file format v14

[General]
AudioFilename: audio.mp3
AudioLeadIn: 0
PreviewTime: 73872
Countdown: 0
SampleSet: Normal
StackLeniency: 0.7
Mode: 0
LetterboxInBreaks: 0
WidescreenStoryboard: 1

[Editor]
DistanceSpacing: 1
BeatDivisor: 4
GridSize: 8
TimelineZoom: 1.2

[Metadata]
Title:An I For An I
TitleUnicode:An I For An I
Artist:IAMX
ArtistUnicode:IAMX
Creator:PandaHero
Version:Normal
Source:
Tags:Kingdom Of Welcome Addiction Chris Corner synthpop dark cabaret alternative industrial electronica experimental
BeatmapID:1845323
BeatmapSetID:851768

[Difficulty]
HPDrainRate:3
CircleSize:3.5
OverallDifficulty:4
ApproachRate:5
SliderMultiplier:1
SliderTickRate:1

[Events]
//Background and Video events
0,0,"background-1487545_1920.jpg",0,0
//Break Periods
2,140248,141201
//Storyboard Layer 0 (Background)
//Storyboard Layer 1 (Fail)
//Storyboard Layer 2 (Pass)
//Storyboard Layer 3 (Foreground)
//Storyboard Sound Samples

[TimingPoints]
8284,392.156862745098,3,2,0,35,1,0
12989,-100,3,2,0,40,0,0
17695,-100,3,1,1,40,0,0
36519,-100,3,1,1,45,0,0
74166,-83.3333333333333,3,1,1,60,0,1
78872,-100,3,1,1,45,0,0
82989,-100,3,1,1,45,0,1
83578,-100,3,1,1,45,0,0
84362,-100,3,1,1,45,0,1
84754,-100,3,1,1,45,0,0
86519,-100,3,1,1,35,0,0
87107,-100,3,1,1,45,0,0
88284,-100,3,1,1,50,0,0
105538,-100,3,1,1,35,0,0
105931,-100,3,1,1,50,0,0
125931,-83.3333333333333,3,1,1,65,0,1
130636,-100,3,1,1,45,0,0
140048,-100,3,2,2,25,0,0
142401,-100,3,1,1,60,0,1
142793,-100,3,1,1,60,0,0
161225,-83.3333333333333,3,1,1,70,0,1
165833,-100,3,1,1,70,0,0
165931,-100,3,1,1,70,0,1
166127,-100,3,1,1,70,0,0
168283,-100,3,1,1,70,0,1
168676,-100,3,1,1,70,0,0
170636,-100,3,1,1,70,0,1
170833,-100,3,1,1,70,0,0
172989,-100,3,1,1,70,0,1
173382,-100,3,1,1,70,0,0
175342,-100,3,1,1,70,0,1
175440,-100,3,1,1,70,0,0
177695,-100,3,1,1,70,0,1
177793,-100,3,1,1,70,0,0
180048,-100,3,1,1,70,0,1
180146,-100,3,1,1,70,0,0
182401,-100,3,1,1,70,0,1
182499,-100,3,1,1,70,0,0
184754,-83.3333333333333,3,1,1,75,0,1
194068,-83.3333333333333,3,1,1,75,0,0
194166,-83.3333333333333,3,1,1,75,0,1
194264,-100,3,1,1,35,0,0

[Colours]
Combo1 : 9,157,247
Combo2 : 141,216,220
Combo3 : 32,136,136
Combo4 : 237,80,100
Combo5 : 148,16,33
Combo6 : 233,233,233

[HitObjects]
38,132,8284,5,4,1:3:0:0:
130,170,8676,1,4,0:3:0:0:
275,32,9460,2,0,B|203:53|203:53|118:30,2,150,4|8|4,1:3|0:3|1:3,0:0:0:0:
343,105,11029,1,4,0:3:0:0:
197,242,11813,2,0,B|122:235|122:235|43:273,1,150,4|8,1:3|0:3,0:0:0:0:
177,354,12989,5,0,1:0:0:0:
277,354,13382,2,0,P|281:253|344:157,1,200,8|4,1:3|1:3,0:0:0:0:
475,206,14754,1,8,1:3:0:0:
461,57,15342,1,4,1:3:0:0:
387,124,15734,2,0,P|285:161|191:108,1,200,8|4,1:3|1:3,0:0:0:0:
83,39,17107,1,8,1:3:0:0:
51,185,17695,70,0,P|45:241|46:301,2,100,4|10|2,0:3|0:0|0:0,0:0:0:0:
151,181,18872,2,0,B|198:198|198:198|259:191,1,100,4|2,0:3|0:0,0:0:0:0:
287,162,19460,2,0,L|273:74,2,50,8|2|0,0:0|0:0|0:0,0:0:0:0:
334,178,20048,5,4,0:3:0:0:
411,240,20440,1,10,0:0:0:0:
370,331,20833,1,2,0:0:0:0:
291,268,21225,2,0,P|205:264|141:310,1,150,4|8,0:3|0:0,0:0:0:0:
117,332,22009,1,2,0:0:0:0:
52,255,22401,70,0,P|100:227|138:193,2,100,4|10|2,0:3|0:0|0:0,0:0:0:0:
25,158,23578,1,4,0:3:0:0:
103,96,23970,2,0,L|169:116,2,50,2|8|2,0:0|0:0|0:0,0:0:0:0:
149,7,24754,5,4,0:3:0:0:
239,49,25146,1,10,0:0:0:0:
229,148,25538,1,2,0:0:0:0:
326,168,25931,2,0,P|398:151|432:74,1,150,4|8,0:3|0:0,0:0:0:0:
415,40,26715,1,2,0:0:0:0:
316,25,27107,69,4,0:3:0:0:
250,100,27499,2,0,B|284:167|284:167|264:318,1,200,10|4,0:0|0:3,0:0:0:0:
172,288,28676,2,0,L|130:318,1,50,2|8,0:0|0:0,0:0:0:0:
87,340,29068,1,2,0:0:0:0:
46,248,29460,5,4,0:3:0:0:
128,190,29852,2,0,B|196:167|196:167|342:200,1,200,10|4,0:0|0:3,0:0:0:0:
382,115,31029,2,0,L|441:138,2,50,2|8|2,0:0|0:0|0:0,0:0:0:0:
293,69,31813,69,4,0:3:0:0:
197,100,32205,2,0,B|163:167|163:167|183:318,1,200,10|4,0:0|0:3,0:0:0:0:
255,356,33382,2,0,L|290:297,1,50,2|8,0:0|0:0,0:0:0:0:
309,272,33774,1,2,0:0:0:0:
372,349,34166,5,4,0:3:0:0:
461,305,34558,2,0,B|481:232|481:232|433:88,1,200,10|4,0:0|0:3,0:0:0:0:
342,122,35734,2,0,L|283:126,1,50,2|8,0:0|0:0,0:0:0:0:
253,93,36127,1,8,0:0:0:0:
271,46,36323,1,2,0:3:0:0:
316,24,36519,70,0,P|358:23|447:33,2,100,4|8|0,0:0|0:0|3:0,0:0:0:0:
226,71,37695,2,0,P|184:72|95:62,1,100,4|0,0:3|0:0,0:0:0:0:
76,74,38284,2,0,P|76:144|81:193,1,100,8|2,0:0|0:0,0:0:0:0:
121,199,38872,5,4,0:3:0:0:
219,179,39264,2,0,P|296:166|348:165,1,100,8|0,0:0|3:0,0:0:0:0:
360,255,40048,2,0,P|353:315|354:392,1,100,4|0,0:3|0:0,0:0:0:0:
402,363,40636,1,8,0:0:0:0:
449,347,40833,2,0,L|449:262,1,50,0|2,0:0|0:0,0:0:0:0:
472,252,41225,70,0,P|468:208|456:119,2,100,4|8|0,0:3|0:0|3:0,0:0:0:0:
376,222,42401,2,0,P|293:218|240:223,1,100,4|0,0:3|0:0,0:0:0:0:
236,249,42989,2,0,P|186:250|136:245,1,100,8|2,0:0|0:0,0:0:0:0:
91,267,43578,5,4,0:3:0:0:
49,176,43970,2,0,P|55:125|72:62,1,100,8|0,0:0|3:0,0:0:0:0:
146,17,44754,1,4,0:3:0:0:
228,73,45146,2,0,L|315:72,2,50,0|8|0,0:0|0:0|3:0,0:0:0:0:
203,116,45734,1,2,0:0:0:0:
193,165,45931,70,0,P|188:230|194:287,1,100,4|8,0:3|0:0,0:0:0:0:
281,305,46715,1,0,3:0:0:0:
352,228,47107,2,0,P|438:228|489:237,1,100,4|0,0:3|0:0,0:0:0:0:
481,270,47695,2,0,P|486:320|481:379,1,100,8|2,0:0|0:0,0:0:0:0:
432,363,48284,5,4,0:3:0:0:
338,326,48676,2,0,P|280:330|203:352,1,100,8|0,0:0|3:0,0:0:0:0:
141,359,49460,1,4,0:3:0:0:
143,259,49852,2,0,L|204:255,2,50,0|8|0,0:0|0:0|3:0,0:0:0:0:
97,237,50440,1,2,0:0:0:0:
88,187,50636,70,0,P|95:135|126:79,1,100,4|8,0:3|0:0,0:0:0:0:
194,31,51421,2,0,L|269:46,1,50,0|0,3:0|0:0,0:0:0:0:
279,75,51813,2,0,L|411:66,1,100,4|0,0:3|0:0,0:0:0:0:
416,101,52401,2,0,L|498:89,2,50,8|0|2,0:0|3:0|0:0,0:0:0:0:
373,127,52989,5,4,0:3:0:0:
354,225,53382,2,0,P|347:324|349:364,1,100,8|0,0:0|3:0,0:0:0:0:
255,364,54166,1,4,0:3:0:0:
180,296,54558,2,0,L|114:297,1,50,0|8,0:0|0:0,0:0:0:0:
93,262,54950,2,0,L|27:265,1,50,0|2,3:0|0:0,0:0:0:0:
23,218,55342,70,0,P|35:151|59:93,2,100,4|8|0,0:0|0:0|3:0,0:0:0:0:
122,227,56519,2,0,P|170:214|242:209,1,100,4|0,0:3|0:0,0:0:0:0:
258,240,57107,2,0,P|307:234|355:221,1,100,8|2,0:0|0:0,0:0:0:0:
402,239,57695,6,0,L|391:320,2,50,4|0|8,0:3|0:0|0:0,0:0:0:0:
422,140,58480,1,0,3:0:0:0:
369,54,58872,2,0,P|300:77|245:85,1,100,4|0,0:3|0:0,0:0:0:0:
223,89,59460,1,8,0:0:0:0:
173,74,59656,2,0,L|103:51,1,50,0|2,0:0|0:0,0:0:0:0:
79,77,60048,69,4,0:3:0:0:
40,169,60440,2,0,P|36:229|46:302,1,100,8|0,0:0|3:0,0:0:0:0:
89,355,61225,2,0,P|137:344|187:344,1,100,4|0,0:3|0:0,0:0:0:0:
238,348,61813,2,0,P|242:288|232:215,1,100,8|2,0:0|0:0,0:0:0:0:
198,218,62401,6,0,P|171:224|130:232,2,50,4|0|8,0:3|0:0|0:0,0:0:0:0:
284,168,63185,1,0,3:0:0:0:
375,208,63578,2,0,P|383:263|378:335,1,100,4|0,0:3|0:0,0:0:0:0:
414,345,64166,2,0,L|480:330,2,50,8|0|2,0:0|0:0|0:0,0:0:0:0:
367,362,64754,69,4,0:3:0:0:
267,357,65146,2,0,L|151:347,1,100,8|0,0:0|3:0,0:0:0:0:
117,261,65931,2,0,P|116:207|128:142,1,100,4|0,0:3|0:0,0:0:0:0:
148,118,66519,2,0,P|196:117|251:120,1,100,8|2,0:0|0:0,0:0:0:0:
271,75,67107,6,0,L|342:93,2,50,4|0|8,0:3|0:0|0:0,0:0:0:0:
177,39,67891,1,0,3:0:0:0:
98,101,68284,2,0,P|92:162|91:234,1,100,4|0,0:3|0:0,0:0:0:0:
74,247,68872,2,0,L|23:233,2,50,8|0|2,0:0|0:0|0:0,0:0:0:0:
118,268,69460,69,4,0:3:0:0:
215,292,69852,1,8,0:0:0:0:
288,224,70244,2,0,P|250:212|209:202,1,50,0|0,0:0|3:0,0:0:0:0:
212,167,70636,2,0,L|130:176,2,50,4|0|0,0:3|0:0|0:0,0:0:0:0:
239,125,71225,2,0,P|294:117|372:129,1,100,8|2,0:0|0:0,0:0:0:0:
388,119,71813,5,4,0:3:0:0:
473,66,72205,1,8,0:0:0:0:
389,10,72597,1,0,3:0:0:0:
306,66,72989,2,0,P|212:95|139:82,1,150,4|8,0:3|0:0,0:0:0:0:
121,180,73970,1,8,0:0:0:0:
165,210,74166,6,0,L|309:207,1,119.999996337891,4|8,0:0|0:0,0:0:0:0:
391,188,74950,1,4,0:2:0:0:
460,271,75342,2,0,L|452:350,1,59.9999981689454,12|4,0:0|0:2,0:0:0:0:
347,349,75931,2,0,L|268:346,2,59.9999981689454,12|4|0,0:0|0:2|0:0,0:0:0:0:
370,300,76519,5,4,0:0:0:0:
278,242,76911,1,10,0:0:0:0:
176,279,77303,1,2,0:0:0:0:
169,171,77695,2,0,L|208:94,1,59.9999981689454,12|4,0:0|0:2,0:0:0:0:
251,24,78284,2,0,L|323:58,1,59.9999981689454,12|4,0:0|0:2,0:0:0:0:
350,78,78676,1,8,0:0:0:0:
398,100,78872,38,0,P|441:89|501:46,2,100,4|8|2,0:0|0:2|3:0,0:0:0:0:
323,166,80048,2,0,P|312:238|319:335,1,150,4|8,0:3|0:0,0:0:0:0:
222,353,81029,2,0,L|134:340,1,50,2|4,0:0|0:3,0:0:0:0:
83,296,81617,5,8,0:2:0:0:
167,243,82009,1,2,3:0:0:0:
79,193,82401,2,0,P|87:128|101:62,1,100,4|0,0:3|0:0,0:0:0:0:
104,46,82989,38,0,B|167:62|167:62|223:35,1,100,10|2,0:0|0:0,0:0:0:0:
243,24,83578,21,4,0:3:0:0:
311,96,83970,1,8,0:2:0:0:
228,152,84362,70,2,B|214:203|214:203|227:258,1,100,2|4,0:0|0:3,0:0:0:0:
168,331,85146,22,0,L|113:298,2,50,0|8|2,0:0|0:0|0:3,0:0:0:0:
213,351,85734,1,2,0:0:0:0:
262,357,85931,70,0,P|311:343|352:313,1,100,4|8,0:3|0:2,0:0:0:0:
396,334,86519,2,0,L|538:339,1,100,2|2,0:0|0:0,0:0:0:0:
502,287,87107,1,4,0:3:0:0:
442,206,87499,2,0,L|378:222,2,50,2|8|2,0:3|0:0|0:3,0:0:0:0:
479,172,88087,1,2,0:0:0:0:
475,121,88284,6,0,P|470:75|455:8,2,100,4|8|0,0:0|0:2|3:0,0:0:0:0:
375,129,89460,2,0,P|297:118|249:118,1,100,4|0,0:3|0:0,0:0:0:0:
238,149,90048,2,0,P|188:145|138:137,1,100,8|2,0:0|0:0,0:0:0:0:
93,158,90636,69,4,0:3:0:0:
126,252,91029,2,0,P|135:305|132:384,1,100,8|0,0:2|3:0,0:0:0:0:
36,347,91813,2,0,P|36:297|45:247,1,100,4|0,0:3|0:0,0:0:0:0:
54,198,92401,1,8,0:0:0:0:
89,162,92597,2,0,L|167:174,1,50,0|2,0:0|0:0,0:0:0:0:
187,177,92989,6,0,P|224:160|308:147,2,100,4|8|0,0:3|0:2|3:0,0:0:0:0:
230,266,94166,2,0,P|269:282|329:295,1,100,4|0,0:3|0:0,0:0:0:0:
368,268,94754,2,0,P|367:218|372:168,1,100,8|2,0:0|0:0,0:0:0:0:
415,144,95342,69,4,0:3:0:0:
480,220,95734,2,0,P|481:269|476:319,1,100,8|0,0:2|3:0,0:0:0:0:
385,363,96519,1,4,0:3:0:0:
294,321,96911,2,0,L|207:322,2,50,0|8|0,0:0|0:0|3:0,0:0:0:0:
317,276,97499,1,2,0:0:0:0:
293,231,97695,6,0,P|243:213|195:209,1,100,4|8,0:3|0:2,0:0:0:0:
106,253,98480,1,0,3:0:0:0:
26,192,98872,2,0,P|27:129|48:63,1,100,4|0,0:3|0:0,0:0:0:0:
74,62,99460,2,0,L|188:79,1,100,8|2,0:0|0:0,0:0:0:0:
222,81,100048,69,4,0:3:0:0:
303,137,100440,2,0,P|313:185|312:235,1,100,8|0,0:2|3:0,0:0:0:0:
212,234,101225,1,4,0:3:0:0:
135,298,101617,2,0,L|82:268,2,50,0|8|0,0:0|0:0|3:0,0:0:0:0:
174,329,102205,1,2,0:0:0:0:
222,342,102401,6,0,P|295:322|333:322,1,100,4|8,0:3|0:2,0:0:0:0:
378,240,103185,2,0,L|303:224,1,50,0|0,0:0|3:0,0:0:0:0:
280,218,103578,1,4,0:3:0:0:
330,131,103970,2,0,L|393:146,2,50,0|8|0,0:0|0:0|3:0,0:0:0:0:
290,100,104558,1,2,0:0:0:0:
250,69,104754,70,0,P|186:85|137:80,1,100,4|8,0:3|0:2,0:0:0:0:
63,128,105538,2,0,L|-7:114,2,50,2|0|4,0:0|0:0|0:3,0:0:0:0:
139,192,106323,2,0,L|140:258,1,50,0|8,0:0|0:0,0:0:0:0:
96,266,106715,2,0,L|93:332,1,50,8|2,0:0|0:0,0:0:0:0:
126,353,107107,6,0,P|173:337|222:330,2,100,4|8|0,0:0|0:2|3:0,0:0:0:0:
54,283,108284,2,0,P|59:233|72:185,1,100,4|0,0:3|0:0,0:0:0:0:
114,158,108872,2,0,P|162:171|211:177,1,100,8|2,0:0|0:0,0:0:0:0:
250,146,109460,70,0,L|328:126,2,50,4|0|8,0:3|0:0|0:2,0:0:0:0:
253,246,110244,1,0,0:0:0:0:
352,251,110636,2,0,P|421:228|476:220,1,100,4|0,0:3|0:0,0:0:0:0:
490,196,111225,1,8,0:0:0:0:
493,146,111421,2,0,L|473:83,1,50,0|2,0:0|0:0,0:0:0:0:
459,51,111813,6,0,P|400:65|322:72,1,100,4|8,0:3|0:2,0:0:0:0:
272,24,112597,1,0,0:0:0:0:
204,97,112989,2,0,P|196:148|199:210,1,100,4|0,0:3|0:0,0:0:0:0:
169,238,113578,2,0,P|121:233|65:233,1,100,8|2,0:0|0:0,0:0:0:0:
25,257,114166,69,4,0:3:0:0:
74,343,114558,2,0,P|121:347|178:348,1,100,8|0,0:2|3:0,0:0:0:0:
273,356,115342,1,4,0:3:0:0:
351,293,115734,2,0,L|415:306,2,50,0|8|0,0:0|0:0|3:0,0:0:0:0:
306,270,116323,1,2,0:0:0:0:
283,225,116519,6,0,P|288:168|299:119,2,100,4|8|0,0:3|0:2|0:0,0:0:0:0:
192,181,117695,2,0,P|188:131|178:82,1,100,4|0,0:3|0:0,0:0:0:0:
202,38,118284,2,0,P|251:48|313:49,1,100,8|2,0:0|0:0,0:0:0:0:
350,55,118872,70,0,L|415:37,2,50,4|0|8,0:3|0:0|0:2,0:0:0:0:
311,147,119656,1,0,3:0:0:0:
398,196,120048,2,0,P|392:247|392:300,1,100,4|0,0:3|0:0,0:0:0:0:
381,344,120636,1,8,0:0:0:0:
282,324,121029,1,2,0:0:0:0:
241,352,121225,6,0,P|201:351|145:330,1,100,4|8,0:3|0:2,0:0:0:0:
92,245,122009,2,0,L|99:158,1,50,0|0,0:0|3:0,0:0:0:0:
80,147,122401,2,0,L|7:157,2,50,4|0|0,0:3|0:0|0:0,0:0:0:0:
119,115,122989,2,0,P|168:114|239:62,1,100,8|2,0:0|0:0,0:0:0:0:
256,66,123578,69,4,0:3:0:0:
343,113,123970,2,0,P|349:176|347:248,1,100,8|0,0:2|0:0,0:0:0:0:
282,286,124754,2,0,P|188:257|115:270,1,150,4|8,0:3|0:0,0:0:0:0:
58,322,125734,1,8,0:0:0:0:
29,280,125931,22,0,L|34:135,1,119.999996337891,4|8,0:0|0:0,0:0:0:0:
68,58,126715,1,4,0:2:0:0:
170,92,127107,2,0,L|172:175,1,59.9999981689454,12|4,0:0|0:2,0:0:0:0:
273,187,127695,2,0,L|334:168,2,59.9999981689454,12|4|0,0:0|0:2|0:0,0:0:0:0:
227,216,128284,5,4,0:0:0:0:
134,272,128676,1,10,0:0:0:0:
195,360,129068,1,2,0:0:0:0:
292,314,129460,2,0,L|370:320,1,59.9999981689454,12|4,0:0|0:2,0:0:0:0:
400,222,130048,2,0,L|317:213,1,59.9999981689454,12|4,0:0|0:2,0:0:0:0:
287,206,130440,1,8,0:0:0:0:
264,156,130636,38,0,P|269:106|279:53,2,100,4|8|2,0:0|0:2|3:0,0:0:0:0:
168,185,131813,2,0,P|183:260|171:365,1,150,4|8,0:3|0:0,0:0:0:0:
272,368,132793,1,2,0:0:0:0:
272,368,132989,2,0,L|344:355,1,50,4|0,0:3|0:3,0:0:0:0:
371,360,133382,5,8,0:2:0:0:
425,276,133774,1,2,3:0:0:0:
347,215,134166,2,0,P|278:238|187:234,1,150,4|8,0:3|0:0,0:0:0:0:
143,155,135146,1,2,0:0:0:0:
143,155,135342,2,0,L|196:110,1,50,4|0,0:3|0:3,0:0:0:0:
210,82,135734,70,0,P|273:101|331:111,1,100,8|2,0:2|3:0,0:0:0:0:
395,61,136519,1,4,0:3:0:0:
408,160,136911,2,0,L|383:224,2,50,0|8|2,0:0|0:0|3:0,0:0:0:0:
457,156,137499,1,2,0:0:0:0:
485,197,137695,6,0,P|491:259|492:312,2,100,4|8|2,0:3|0:2|0:3,0:0:0:0:
387,218,138872,1,4,0:3:0:0:
317,290,139264,2,0,L|315:360,1,50,0|8,0:0|0:0,0:0:0:0:
271,363,139656,2,0,L|210:357,2,50,2|0|2,3:0|0:3|1:2,0:0:0:0:
271,363,142401,38,0,P|279:303|274:237,1,100,4|8,0:0|0:0,0:0:0:0:
188,219,143185,1,0,0:0:0:0:
80,246,143578,2,0,P|41:194|57:110,1,150,4|8,0:3|0:0,0:0:0:0:
120,39,144558,1,2,0:3:0:0:
166,56,144754,6,0,P|215:67|286:70,2,100,4|8|0,0:3|0:0|0:0,0:0:0:0:
115,142,145931,2,0,P|243:203|267:236,1,150,4|8,0:3|0:0,0:0:0:0:
280,242,146715,2,0,L|331:234,2,50,2|2|4,0:3|0:0|0:3,0:0:0:0:
215,318,147499,69,8,0:0:0:0:
307,356,147891,1,0,0:0:0:0:
389,299,148283,2,0,P|391:211|404:135,1,150,4|8,0:3|0:0,0:0:0:0:
418,103,149068,2,0,L|481:117,2,50,2|2|4,0:0|0:3|0:3,0:0:0:0:
350,29,149852,6,0,L|233:49,1,100,8|0,0:0|0:0,0:0:0:0:
153,65,150636,1,4,0:3:0:0:
118,101,150833,2,0,L|19:84,1,100,2|8,0:0|0:0,0:0:0:0:
15,133,151421,2,0,L|21:199,1,50,2|2,0:0|3:0,0:0:0:0:
40,227,151813,69,4,0:3:0:0:
76,320,152205,1,8,0:0:0:0:
156,261,152597,1,0,0:0:0:0:
243,309,152989,2,0,P|269:226|273:149,1,150,4|8,0:3|0:0,0:0:0:0:
268,113,153774,2,0,L|186:116,2,50,2|2|4,0:0|0:3|0:3,0:0:0:0:
366,96,154558,5,8,0:0:0:0:
449,150,154950,1,0,0:0:0:0:
365,205,155342,1,4,0:3:0:0:
446,264,155734,2,0,L|520:244,2,50,0|8|2,0:0|0:0|0:3,0:0:0:0:
355,306,156519,70,0,P|319:352|244:368,1,100,4|8,0:3|0:0,0:0:0:0:
202,306,157303,1,0,0:0:0:0:
243,215,157695,2,0,L|314:221,2,50,4|2|0,0:3|0:0|0:0,0:0:0:0:
202,186,158283,2,0,L|87:194,1,100,8|2,0:0|0:0,0:0:0:0:
53,182,158872,5,4,0:3:0:0:
100,93,159264,1,8,0:0:0:0:
197,71,159656,2,0,L|268:103,1,50,0|0,0:0|0:0,0:0:0:0:
283,120,160048,2,0,P|301:212|300:243,1,100,4|2,0:3|0:0,0:0:0:0:
265,253,160636,2,0,L|192:248,2,50,8|2|8,0:0|0:0|0:0,0:0:0:0:
298,290,161225,37,4,0:0:0:0:
385,353,161617,1,8,0:0:0:0:
451,268,162009,1,4,0:2:0:0:
367,199,162401,2,0,L|310:152,1,59.9999981689454,12|4,0:0|0:2,0:0:0:0:
378,69,162989,2,0,L|456:91,2,59.9999981689454,12|4|0,0:0|0:2|0:0,0:0:0:0:
324,62,163578,6,0,L|185:90,1,119.999996337891,4|10,0:0|0:0,0:0:0:0:
99,70,164362,1,2,0:0:0:0:
56,167,164754,2,0,B|33:268|103:224|71:355,1,179.999994506836,12|12,0:0|0:0,0:0:0:0:
127,348,165538,2,0,L|185:326,1,59.9999981689454,4|8,0:2|0:0,0:0:0:0:
225,311,165931,5,4,0:0:0:0:
318,275,166323,1,10,0:0:0:0:
380,353,166715,1,2,0:0:0:0:
443,275,167107,2,0,L|428:200,1,50,12|4,0:0|0:2,0:0:0:0:
351,169,167695,2,0,L|268:181,2,50,12|4|2,0:0|0:2|0:0,0:0:0:0:
398,155,168283,5,4,0:0:0:0:
432,60,168676,2,0,L|324:34,1,100,10|2,0:0|0:0,0:0:0:0:
243,77,169460,2,0,L|149:68,1,50,12|4,0:0|0:2,0:0:0:0:
94,87,170048,1,12,0:0:0:0:
72,131,170244,2,0,B|58:183|58:183|66:248,1,100,4|4,0:2|0:0,0:0:0:0:
116,314,171029,69,10,0:0:0:0:
199,259,171421,1,2,0:0:0:0:
259,338,171813,2,0,L|321:295,1,50,12|4,0:0|0:2,0:0:0:0:
384,255,172401,2,0,L|433:262,2,50,12|4|2,0:0|0:2|0:0,0:0:0:0:
343,223,172989,5,4,0:0:0:0:
373,127,173382,2,0,L|491:159,1,100,10|2,0:0|0:0,0:0:0:0:
450,55,174166,2,0,L|373:35,1,50,12|4,0:0|0:2,0:0:0:0:
302,52,174754,2,0,L|250:35,2,50,12|4|2,0:0|0:2|0:0,0:0:0:0:
290,100,175342,69,4,0:0:0:0:
198,141,175734,1,10,0:0:0:0:
109,93,176127,1,2,0:0:0:0:
119,192,176519,2,0,L|131:278,1,50,12|4,0:0|0:2,0:0:0:0:
216,284,177107,2,0,L|281:230,2,50,12|4|2,0:0|0:2|0:0,0:0:0:0:
175,313,177695,5,4,0:0:0:0:
264,358,178087,2,0,L|395:365,1,100,10|2,0:0|0:0,0:0:0:0:
394,267,178872,2,0,L|316:266,1,50,12|4,0:0|0:2,0:0:0:0:
311,171,179460,1,12,0:0:0:0:
352,143,179656,2,0,B|400:143|400:143|484:169,1,100,4|4,0:2|0:0,0:0:0:0:
492,68,180440,69,10,0:0:0:0:
400,26,180833,1,2,0:0:0:0:
308,67,181225,2,0,L|239:108,1,50,12|4,0:0|0:2,0:0:0:0:
169,120,181813,2,0,L|89:88,2,50,12|4|2,0:0|0:2|0:0,0:0:0:0:
198,160,182401,5,4,0:0:0:0:
228,255,182793,2,0,L|221:386,1,100,10|2,0:0|0:0,0:0:0:0:
322,362,183578,2,0,L|322:275,1,50,12|4,0:0|0:2,0:0:0:0:
377,228,184166,1,4,0:3:0:0:
426,231,184362,2,0,L|521:246,1,50,12|8,0:0|0:0,0:0:0:0:
483,189,184754,38,0,B|484:137|484:137|450:57,1,119.999996337891,4|8,0:0|0:0,0:0:0:0:
359,29,185538,1,0,0:0:0:0:
275,97,185931,1,4,0:3:0:0:
172,63,186323,2,0,L|92:40,1,59.9999981689454,0|4,0:0|0:3,0:0:0:0:
83,90,186715,2,0,L|78:171,1,59.9999981689454,8|8,0:0|0:0,0:0:0:0:
123,180,187107,6,0,B|167:172|167:172|266:187,2,119.999996337891,4|8|0,0:0|0:0|0:0,0:0:0:0:
32,238,188283,1,4,0:3:0:0:
132,278,188676,2,0,L|218:256,2,59.9999981689454,0|4|8,0:0|0:3|0:0,0:0:0:0:
86,306,189264,1,8,0:0:0:0:
111,353,189460,70,0,L|247:353,1,119.999996337891,4|8,0:0|0:0,0:0:0:0:
338,359,190244,1,0,0:0:0:0:
296,259,190636,1,4,0:3:0:0:
396,217,191029,2,0,L|458:237,1,59.9999981689454,0|4,0:0|0:3,0:0:0:0:
489,195,191421,2,0,L|492:113,1,59.9999981689454,8|8,0:0|0:0,0:0:0:0:
470,85,191813,6,0,B|421:110|421:110|335:103,2,119.999996337891,4|8|0,0:0|0:0|0:0,0:0:0:0:
389,13,192989,2,0,P|286:28|244:108,1,179.999994506836,6|4,0:0|0:3,0:0:0:0:
250,140,193774,2,0,L|251:225,1,59.9999981689454,8|8,0:0|0:0,0:0:0:0:
252,253,194166,1,4,0:2:0:0:
256,192,194362,12,4,196519,0:3:0:0:
