osu file format v14

[General]
AudioFilename: audio.mp3
AudioLeadIn: 0
PreviewTime: 73872
Countdown: 0
SampleSet: Normal
StackLeniency: 0.7
Mode: 0
LetterboxInBreaks: 0
WidescreenStoryboard: 0

[Editor]
Bookmarks: 73480
DistanceSpacing: 1
BeatDivisor: 4
GridSize: 8
TimelineZoom: 2

[Metadata]
Title:An I For An I
TitleUnicode:An I For An I
Artist:IAMX
ArtistUnicode:IAMX
Creator:PandaHero
Version:Insane
Source:
Tags:Kingdom Of Welcome Addiction Chris Corner synthpop dark cabaret alternative industrial electronica experimental
BeatmapID:1780649
BeatmapSetID:851768

[Difficulty]
HPDrainRate:7
CircleSize:4
OverallDifficulty:8
ApproachRate:8.7
SliderMultiplier:1.6
SliderTickRate:1

[Events]
//Background and Video events
0,0,"background-1487545_1920.jpg",0,0
//Break Periods
//Storyboard Layer 0 (Background)
//Storyboard Layer 1 (Fail)
//Storyboard Layer 2 (Pass)
//Storyboard Layer 3 (Foreground)
//Storyboard Sound Samples

[TimingPoints]
8284,392.156862745098,3,2,0,35,1,0
8284,-142.857142857143,3,2,0,35,0,0
12989,-111.111111111111,3,2,0,40,0,0
17695,-90.9090909090908,3,1,1,40,0,0
36519,-90.9090909090908,3,1,1,45,0,0
74166,-66.6666666666667,3,1,1,60,0,1
78872,-111.111111111111,3,1,1,45,0,0
82989,-76.9230769230769,3,1,1,45,0,1
83578,-111.111111111111,3,1,1,45,0,0
84362,-76.9230769230769,3,1,1,45,0,1
84754,-111.111111111111,3,1,1,45,0,0
86519,-142.857142857143,3,1,1,35,0,0
87107,-142.857142857143,3,1,1,45,0,0
88284,-90.9090909090909,3,1,1,50,0,0
105538,-90.9090909090909,3,1,1,35,0,0
105931,-90.9090909090909,3,1,1,50,0,0
125931,-66.6666666666667,3,1,1,65,0,1
130636,-111.111111111111,3,1,1,45,0,0
140048,-333.333333333332,3,2,2,25,0,0
142009,-333.333333333332,3,2,2,35,0,0
142401,-66.6666666666667,3,1,1,60,0,1
142793,-66.6666666666667,3,1,1,60,0,0
161225,-58.8235294117647,3,1,1,70,0,1
165833,-58.8235294117647,3,1,1,70,0,0
165931,-66.6666666666667,3,1,1,70,0,1
166127,-66.6666666666667,3,1,1,70,0,0
168283,-66.6666666666667,3,1,1,70,0,1
168676,-66.6666666666667,3,1,1,70,0,0
170636,-66.6666666666667,3,1,1,70,0,1
170833,-66.6666666666667,3,1,1,70,0,0
172989,-66.6666666666667,3,1,1,70,0,1
173382,-66.6666666666667,3,1,1,70,0,0
175342,-66.6666666666667,3,1,1,70,0,1
175440,-66.6666666666667,3,1,1,70,0,0
177695,-66.6666666666667,3,1,1,70,0,1
177793,-66.6666666666667,3,1,1,70,0,0
180048,-66.6666666666667,3,1,1,70,0,1
180146,-66.6666666666667,3,1,1,70,0,0
182401,-66.6666666666667,3,1,1,70,0,1
182499,-66.6666666666667,3,1,1,70,0,0
184754,-58.8235294117647,3,1,1,75,0,1
194068,-58.8235294117647,3,1,1,75,0,0
194166,-142.857142857143,3,1,1,75,0,1
194264,-142.857142857143,3,1,1,35,0,0

[Colours]
Combo1 : 9,157,247
Combo2 : 141,216,220
Combo3 : 32,136,136
Combo4 : 237,80,100
Combo5 : 148,16,33
Combo6 : 233,233,233

[HitObjects]
89,295,8284,5,4,1:3:0:0:
89,295,8676,1,4,0:3:0:0:
385,194,9460,1,4,1:3:0:0:
385,194,10048,1,8,0:3:0:0:
89,89,10636,5,4,1:3:0:0:
89,89,11029,1,4,0:3:0:0:
385,194,11813,1,4,1:3:0:0:
385,194,12401,1,8,0:3:0:0:
385,194,12989,70,0,L|373:288,1,71.9999978027344,0|0,1:0|0:0,0:0:0:0:
512,97,13382,2,0,B|469:174|469:174|455:312,1,215.999993408203,8|2,1:3|0:3,0:0:0:0:
316,333,14166,2,0,L|269:251,2,71.9999978027344,4|2|0,1:3|0:0|0:0,0:0:0:0:
241,373,14754,2,0,P|152:359|75:363,1,143.999995605469,8|2,1:3|0:0,0:0:0:0:
30,217,15342,6,0,L|119:223,1,71.9999978027344,4|0,1:3|0:0,0:0:0:0:
255,127,15734,2,0,B|174:118|174:118|113:140|113:140|17:135,1,215.999993408203,8|2,1:3|0:3,0:0:0:0:
200,38,16519,2,0,L|285:49,2,71.9999978027344,4|2|0,1:3|0:0|0:0,0:0:0:0:
153,118,17107,1,8,1:3:0:0:
110,201,17303,1,2,1:3:0:0:
43,136,17499,1,2,0:0:0:0:
181,271,17695,70,0,B|228:235|228:235|361:245,1,176.000005371094,4|10,0:3|0:0,0:0:0:0:
344,243,18284,1,2,0:3:0:0:
433,351,18480,2,0,L|308:340,1,88.000002685547,2|0,0:0|2:0,0:0:0:0:
196,333,18872,2,0,L|81:354,2,88.000002685547,4|2|2,0:3|2:0|0:0,0:0:0:0:
259,179,19460,1,8,0:0:0:0:
163,224,19656,2,0,P|108:225|22:201,1,132.00000402832,2|0,0:0|2:0,0:0:0:0:
34,162,20048,5,4,0:3:0:0:
95,44,20244,1,0,0:0:0:0:
234,114,20440,2,0,L|249:244,1,88.000002685547,10|0,0:0|2:0,0:0:0:0:
338,52,20833,2,0,L|324:165,1,88.000002685547,2|0,0:0|2:0,0:0:0:0:
443,267,21225,1,4,0:3:0:0:
452,161,21421,1,2,2:0:0:0:
365,213,21617,69,2,0:0:0:0:
490,346,21813,1,8,0:0:0:0:
359,318,22009,2,0,P|307:318|225:344,1,132.00000402832,2|0,0:0|2:0,0:0:0:0:
189,355,22401,6,0,B|172:285|172:285|196:147,1,176.000005371094,4|10,0:3|0:0,0:0:0:0:
189,182,22989,1,2,0:3:0:0:
79,298,23185,2,0,L|98:396,1,88.000002685547,2|0,0:0|2:0,0:0:0:0:
15,199,23578,1,4,0:3:0:0:
118,218,23774,1,2,2:0:0:0:
124,112,23970,1,2,0:0:0:0:
324,173,24166,1,8,0:0:0:0:
237,233,24362,2,0,P|238:163|235:97,1,132.00000402832,2|0,0:0|2:0,0:0:0:0:
225,58,24754,70,0,P|175:71|121:73,2,88.000002685547,4|0|10,0:3|0:0|0:0,0:0:0:0:
376,66,25342,1,2,0:3:0:0:
466,120,25538,2,0,P|459:183|460:238,1,88.000002685547,2|0,0:0|2:0,0:0:0:0:
304,204,25931,2,0,P|302:160|296:116,1,88.000002685547,4|2,0:3|2:0,0:0:0:0:
377,293,26323,1,2,0:0:0:0:
182,210,26519,1,8,0:0:0:0:
258,370,26715,1,2,0:0:0:0:
304,204,26911,1,2,0:3:0:0:
110,296,27107,6,0,P|119:340|125:398,1,88.000002685547,4|0,0:3|0:0,0:0:0:0:
5,272,27499,2,2,P|26:187|68:98,1,176.000005371094,10|2,0:0|2:0,0:0:0:0:
62,106,28284,2,0,P|114:126|170:131,1,88.000002685547,4|2,0:3|2:0,0:0:0:0:
215,54,28676,1,2,0:0:0:0:
126,36,28872,1,8,0:0:0:0:
227,140,29068,1,2,0:0:0:0:
297,29,29264,1,2,0:3:0:0:
385,84,29460,70,0,P|367:127|347:205,1,88.000002685547,4|0,0:3|0:0,0:0:0:0:
479,48,29852,2,2,P|494:120|500:246,1,176.000005371094,10|2,0:0|2:0,0:0:0:0:
500,222,30636,2,0,P|439:220|397:227,1,88.000002685547,4|2,0:3|2:0,0:0:0:0:
234,281,31029,2,0,P|279:306|324:353,1,88.000002685547,2|8,0:0|0:0,0:0:0:0:
271,146,31421,2,0,P|303:186|328:246,1,88.000002685547,2|2,0:0|0:3,0:0:0:0:
164,349,31813,6,0,P|131:308|106:248,1,88.000002685547,4|0,0:3|0:0,0:0:0:0:
8,356,32205,2,2,P|25:267|35:168,1,176.000005371094,10|2,0:0|2:0,0:0:0:0:
34,182,32989,2,0,P|91:159|126:156,1,88.000002685547,4|2,0:3|2:0,0:0:0:0:
222,166,33382,1,2,0:0:0:0:
59,39,33578,1,8,0:0:0:0:
158,4,33774,1,2,0:0:0:0:
246,61,33970,1,2,0:3:0:0:
166,221,34166,70,0,P|158:290|158:351,1,88.000002685547,4|0,0:3|0:0,0:0:0:0:
305,161,34558,2,2,P|326:245|332:360,1,176.000005371094,10|2,0:0|2:0,0:0:0:0:
332,333,35342,2,0,P|377:320|439:315,1,88.000002685547,4|2,0:3|2:0,0:0:0:0:
504,375,35734,1,2,0:0:0:0:
376,156,35931,1,8,0:0:0:0:
307,375,36127,1,10,0:0:0:0:
447,277,36323,1,2,0:3:0:0:
253,188,36519,6,0,P|170:165|166:76,2,176.000005371094,4|8|0,0:0|0:0|3:0,0:0:0:0:
253,188,37695,2,0,P|240:239|229:297,1,88.000002685547,4|0,0:3|3:0,0:0:0:0:
273,371,38087,1,0,0:0:0:0:
344,223,38284,2,0,P|357:172|368:114,1,88.000002685547,8|0,0:0|3:0,0:0:0:0:
309,47,38676,1,2,0:0:0:0:
115,115,38872,70,0,P|45:128|3:126,1,88.000002685547,4|0,0:3|0:0,0:0:0:0:
138,30,39264,2,0,P|206:104|182:173,1,176.000005371094,8|0,0:0|3:0,0:0:0:0:
186,167,40048,2,0,P|256:154|298:156,2,88.000002685547,4|0|0,0:3|3:0|0:0,0:0:0:0:
42,253,40636,1,8,0:0:0:0:
121,322,40833,1,0,0:0:0:0:
213,270,41029,1,2,0:0:0:0:
324,302,41225,6,0,P|320:335|318:409,1,88.000002685547,4|0,0:3|0:0,0:0:0:0:
450,140,41617,2,0,P|435:228|422:333,1,176.000005371094,8|0,0:0|3:0,0:0:0:0:
423,314,42401,1,4,0:3:0:0:
447,211,42597,1,0,3:0:0:0:
461,106,42793,1,0,0:0:0:0:
350,247,42989,1,8,0:0:0:0:
323,349,43185,1,0,3:0:0:0:
272,180,43382,1,2,0:0:0:0:
129,264,43578,70,0,P|62:264|12:247,1,88.000002685547,4|0,0:3|0:0,0:0:0:0:
154,104,43970,2,0,P|233:50|334:64,1,176.000005371094,8|0,0:0|3:0,0:0:0:0:
310,53,44754,2,0,P|377:66|409:64,1,88.000002685547,4|0,0:3|3:0,0:0:0:0:
494,26,45146,1,0,0:0:0:0:
379,158,45342,2,0,P|312:145|280:147,1,88.000002685547,8|0,0:0|3:0,0:0:0:0:
190,171,45734,1,2,0:0:0:0:
274,335,45931,6,0,P|341:348|373:346,1,88.000002685547,4|0,0:3|0:0,0:0:0:0:
179,284,46323,2,0,P|100:289|40:371,1,176.000005371094,8|0,0:0|3:0,0:0:0:0:
258,202,47107,2,0,P|265:148|264:93,2,88.000002685547,4|0|0,0:3|3:0|0:0,0:0:0:0:
368,127,47695,2,0,P|345:67|318:13,1,88.000002685547,8|0,0:0|3:0,0:0:0:0:
151,205,48087,1,2,0:0:0:0:
94,277,48284,70,0,P|92:320|93:364,1,88.000002685547,4|0,0:3|0:0,0:0:0:0:
14,196,48676,2,0,P|25:89|46:22,1,176.000005371094,8|0,0:0|3:0,0:0:0:0:
201,255,49460,5,4,0:3:0:0:
300,289,49656,1,0,3:0:0:0:
365,206,49852,1,0,0:0:0:0:
262,98,50048,69,8,0:0:0:0:
162,131,50244,1,0,3:0:0:0:
94,49,50440,1,2,0:0:0:0:
254,197,50636,6,0,P|248:273|245:397,1,176.000005371094,4|8,0:3|0:0,0:0:0:0:
476,80,51421,1,0,3:0:0:0:
386,135,51617,1,0,0:0:0:0:
425,232,51813,2,0,P|479:285|452:381,1,176.000005371094,4|0,0:3|0:0,0:0:0:0:
352,372,52401,2,0,L|341:269,1,88.000002685547,8|0,0:0|3:0,0:0:0:0:
323,180,52793,1,2,0:0:0:0:
142,127,52989,70,0,P|66:175|63:271,2,176.000005371094,4|8|0,0:3|0:0|3:0,0:0:0:0:
174,373,54166,5,4,0:3:0:0:
249,204,54362,1,0,3:0:0:0:
268,307,54558,1,0,0:0:0:0:
472,383,54754,69,8,0:0:0:0:
397,214,54950,1,0,3:0:0:0:
378,317,55146,1,2,0:0:0:0:
333,122,55342,6,0,P|337:75|346:20,1,88.000002685547,4|0,0:0|0:0,0:0:0:0:
223,202,55734,2,0,P|213:102|194:22,1,176.000005371094,8|0,0:0|3:0,0:0:0:0:
101,232,56519,2,0,P|53:240|-2:241,2,88.000002685547,4|0|0,0:3|3:0|0:0,0:0:0:0:
223,202,57107,1,8,0:0:0:0:
171,294,57303,2,0,P|163:340|156:396,1,88.000002685547,0|2,3:0|0:0,0:0:0:0:
304,254,57695,69,4,0:3:0:0:
356,345,57891,1,0,0:0:0:0:
460,331,58087,2,0,P|489:240|431:160,1,176.000005371094,8|0,0:0|3:0,0:0:0:0:
140,97,58872,2,0,L|345:131,1,176.000005371094,4|0,0:3|0:0,0:0:0:0:
401,66,59460,1,8,0:0:0:0:
246,204,59656,2,0,L|127:183,1,88.000002685547,0|2,0:0|0:0,0:0:0:0:
23,223,60048,5,4,0:3:0:0:
23,328,60244,1,0,0:0:0:0:
143,357,60440,2,0,P|168:293|147:162,1,176.000005371094,8|0,0:0|3:0,0:0:0:0:
351,28,61225,2,0,P|346:77|352:141,1,88.000002685547,4|0,0:3|3:0,0:0:0:0:
430,164,61617,1,0,0:0:0:0:
478,81,61813,1,8,0:0:0:0:
456,206,62009,2,0,P|451:255|439:323,1,88.000002685547,0|2,3:0|0:0,0:0:0:0:
334,362,62401,70,0,P|283:345|221:335,1,88.000002685547,4|0,0:3|0:0,0:0:0:0:
49,366,62793,2,0,P|33:305|113:204,1,176.000005371094,8|0,0:0|3:0,0:0:0:0:
304,72,63578,5,4,0:3:0:0:
205,109,63774,1,0,3:0:0:0:
129,34,63970,1,0,0:0:0:0:
288,155,64166,69,8,0:0:0:0:
191,198,64362,1,0,3:0:0:0:
103,138,64558,1,2,0:0:0:0:
273,243,64754,6,0,P|270:286|270:336,1,88.000002685547,4|0,0:3|0:0,0:0:0:0:
408,204,65146,2,0,P|427:139|375:15,1,176.000005371094,8|0,0:0|3:0,0:0:0:0:
451,286,65931,2,0,P|401:294|347:281,1,88.000002685547,4|0,0:3|3:0,0:0:0:0:
290,228,66323,1,0,0:0:0:0:
162,224,66519,1,8,0:0:0:0:
220,294,66715,2,0,P|204:350|201:401,1,88.000002685547,0|2,3:0|0:0,0:0:0:0:
236,140,67107,70,0,B|329:111|313:171|446:134,2,176.000005371094,4|8|0,0:3|0:0|3:0,0:0:0:0:
20,269,68284,2,0,P|24:312|37:355,1,88.000002685547,4|0,0:3|3:0,0:0:0:0:
78,180,68676,1,0,0:0:0:0:
136,92,68872,2,0,P|132:48|119:6,2,88.000002685547,8|0|2,0:0|3:0|0:0,0:0:0:0:
265,295,69460,6,0,P|360:337|411:277,1,176.000005371094,4|8,0:3|0:0,0:0:0:0:
354,30,70244,1,0,0:0:0:0:
307,108,70440,1,0,3:0:0:0:
395,158,70636,2,0,P|431:169|491:153,2,88.000002685547,4|0|0,0:3|0:0|0:0,0:0:0:0:
250,116,71225,1,8,0:0:0:0:
159,167,71421,2,0,P|151:219|152:274,1,88.000002685547,0|2,3:0|0:0,0:0:0:0:
86,114,71813,70,0,P|94:62|93:7,1,88.000002685547,4|0,0:3|0:0,0:0:0:0:
250,199,72205,2,0,P|308:260|260:355,1,176.000005371094,8|0,0:0|3:0,0:0:0:0:
387,103,72989,5,4,0:3:0:0:
487,56,73185,1,0,3:0:0:0:
475,161,73382,1,0,0:0:0:0:
297,144,73578,69,8,0:0:0:0:
454,259,73774,1,0,3:0:0:0:
231,354,73970,1,8,0:0:0:0:
231,354,74068,1,8,0:0:0:0:
231,354,74166,22,0,B|186:283|186:283|33:208,1,240.000009155274,4|8,0:0|0:0,0:0:0:0:
189,52,74754,1,2,0:3:0:0:
261,113,74950,2,0,L|256:260,1,120.000004577637,4|2,0:2|0:3,0:0:0:0:
381,104,75342,5,12,0:0:0:0:
474,154,75538,1,4,0:2:0:0:
426,250,75734,1,0,0:0:0:0:
162,169,75931,69,12,0:0:0:0:
80,235,76127,1,4,0:2:0:0:
145,320,76323,1,0,0:0:0:0:
246,148,76519,6,0,L|246:18,1,120.000004577637,4|2,0:0|0:3,0:0:0:0:
230,248,76911,2,0,L|363:230,1,120.000004577637,10|2,0:0|0:3,0:0:0:0:
148,340,77303,2,0,L|281:322,1,120.000004577637,2|2,0:0|0:3,0:0:0:0:
19,322,77695,69,12,0:0:0:0:
95,264,77891,1,4,0:2:0:0:
173,209,78087,1,2,0:3:0:0:
488,230,78284,5,12,0:0:0:0:
382,171,78480,1,4,0:2:0:0:
270,115,78676,1,8,0:0:0:0:
270,115,78774,1,8,0:0:0:0:
270,115,78872,38,0,P|256:209|259:260,2,143.999995605469,4|8|2,0:0|0:2|3:0,0:0:0:0:
255,348,80048,2,0,P|180:341|88:341,1,143.999995605469,4|0,0:3|0:0,0:0:0:0:
15,358,80636,1,8,0:0:0:0:
68,244,80833,2,0,P|135:229|168:228,1,71.9999978027344,2|2,0:3|0:0,0:0:0:0:
297,197,81225,5,4,0:3:0:0:
392,230,81421,1,0,0:0:0:0:
433,138,81617,2,0,P|397:87|305:38,1,143.999995605469,8|2,0:2|3:0,0:0:0:0:
39,207,82401,2,0,L|120:207,1,71.9999978027344,4|0,0:3|3:0,0:0:0:0:
207,234,82793,1,0,0:0:0:0:
294,378,82989,38,0,B|287:309|287:309|365:160,1,207.999990478516,10|2,0:0|0:0,0:0:0:0:
384,39,83578,21,4,0:3:0:0:
284,24,83774,1,0,0:0:0:0:
210,93,83970,2,0,P|146:95|91:89,1,107.999996704102,8|0,0:2|2:0,0:0:0:0:
51,82,84362,70,2,B|42:130|42:130|58:186|58:186|49:273,1,155.999992858887,2|0,0:0|2:0,0:0:0:0:
76,274,84754,5,4,0:3:0:0:
156,334,84950,1,2,0:3:0:0:
250,294,85146,1,0,0:0:0:0:
398,145,85342,5,8,0:0:0:0:
310,194,85538,1,2,0:3:0:0:
229,134,85734,1,2,0:0:0:0:
361,281,85931,70,0,P|425:296|493:370,1,143.999995605469,4|8,0:3|0:2,0:0:0:0:
406,197,86519,2,0,L|340:170,1,55.9999982910157,2|0,0:0|3:0,0:0:0:0:
481,153,86911,1,2,0:0:0:0:
262,21,87107,5,4,0:3:0:0:
341,82,87303,1,0,3:0:0:0:
436,49,87499,1,2,0:3:0:0:
220,116,87695,69,8,0:0:0:0:
406,197,87891,1,2,0:3:0:0:
225,273,88087,1,2,0:0:0:0:
309,192,88284,5,4,0:0:0:0:
309,192,88676,2,0,P|325:296|321:381,1,176.000005371094,8|0,0:2|3:0,0:0:0:0:
322,366,89264,1,0,0:0:0:0:
196,274,89460,2,0,P|83:275|15:229,1,176.000005371094,4|0,0:3|0:0,0:0:0:0:
73,147,90048,2,0,P|133:152|167:162,2,88.000002685547,8|0|2,0:0|3:0|0:0,0:0:0:0:
183,39,90636,69,4,0:3:0:0:
286,14,90833,1,0,0:0:0:0:
352,95,91029,2,0,P|343:170|348:303,1,176.000005371094,8|0,0:2|3:0,0:0:0:0:
344,270,91617,1,0,0:0:0:0:
441,317,91813,2,0,P|457:262|462:196,2,88.000002685547,4|0|0,0:3|3:0|0:0,0:0:0:0:
287,361,92401,1,8,0:0:0:0:
214,284,92597,1,0,0:0:0:0:
121,334,92793,1,2,0:0:0:0:
93,176,92989,6,0,P|154:191|198:191,1,88.000002685547,4|0,0:3|0:0,0:0:0:0:
365,95,93382,2,0,B|267:61|282:135|188:97,1,176.000005371094,8|0,0:2|3:0,0:0:0:0:
194,99,93970,1,0,0:0:0:0:
32,135,94166,2,0,P|29:179|31:237,1,88.000002685547,4|0,0:3|3:0,0:0:0:0:
77,304,94558,1,0,0:0:0:0:
193,375,94754,2,0,P|196:331|194:273,1,88.000002685547,8|0,0:0|3:0,0:0:0:0:
148,206,95146,1,2,0:0:0:0:
286,313,95342,70,0,P|341:330|412:318,1,88.000002685547,4|0,0:3|0:0,0:0:0:0:
480,193,95734,2,0,P|464:285|462:396,1,176.000005371094,8|0,0:2|3:0,0:0:0:0:
460,367,96323,1,0,0:0:0:0:
359,236,96519,1,4,0:3:0:0:
407,142,96715,1,0,3:0:0:0:
510,164,96911,1,0,0:0:0:0:
418,39,97107,2,0,P|336:47|310:55,1,88.000002685547,8|0,0:0|3:0,0:0:0:0:
230,81,97499,1,2,0:0:0:0:
116,203,97695,6,0,P|63:109|-2:49,2,176.000005371094,4|8|0,0:3|0:2|3:0,0:0:0:0:
116,203,98676,1,0,0:0:0:0:
55,348,98872,2,0,P|154:306|239:300,1,176.000005371094,4|0,0:3|0:0,0:0:0:0:
345,224,99460,2,0,P|289:217|231:188,2,88.000002685547,8|0|2,0:0|3:0|0:0,0:0:0:0:
475,186,100048,69,4,0:3:0:0:
496,82,100244,1,0,0:0:0:0:
399,161,100440,2,0,P|381:272|385:374,1,176.000005371094,8|0,0:2|3:0,0:0:0:0:
381,335,101029,1,0,0:0:0:0:
291,279,101225,5,4,0:3:0:0:
193,319,101421,1,0,3:0:0:0:
280,377,101617,1,0,0:0:0:0:
254,179,101813,69,8,0:0:0:0:
155,216,102009,1,0,3:0:0:0:
73,148,102205,1,2,0:0:0:0:
168,102,102401,6,0,P|187:185|191:308,1,176.000005371094,4|8,0:3|0:2,0:0:0:0:
192,275,102989,1,0,0:0:0:0:
20,201,103185,2,0,P|30:141|45:89,1,88.000002685547,0|0,0:0|3:0,0:0:0:0:
170,30,103578,69,4,0:3:0:0:
258,87,103774,1,0,0:0:0:0:
359,58,103970,1,0,0:0:0:0:
121,150,104166,5,8,0:0:0:0:
225,160,104362,1,0,3:0:0:0:
285,246,104558,1,2,0:0:0:0:
46,208,104754,70,0,P|43:251|77:382,1,176.000005371094,4|8,0:3|0:2,0:0:0:0:
75,378,105342,1,0,0:0:0:0:
178,213,105538,2,0,P|154:175|124:144,1,88.000002685547,2|0,0:0|0:0,0:0:0:0:
280,268,105931,2,0,P|272:313|278:379,2,88.000002685547,4|2|0,0:3|3:1|0:0,0:0:0:0:
347,32,106519,5,8,0:0:0:0:
460,98,106715,1,8,0:0:0:0:
257,134,106911,1,2,0:0:0:0:
432,231,107107,70,0,P|493:303|482:389,2,176.000005371094,4|8|0,0:0|0:2|3:0,0:0:0:0:
432,231,108087,1,0,0:0:0:0:
237,290,108284,2,0,P|293:288|340:294,1,88.000002685547,4|0,0:3|3:0,0:0:0:0:
379,373,108676,1,0,0:0:0:0:
282,203,108872,2,0,P|303:141|332:106,1,88.000002685547,8|0,0:0|3:0,0:0:0:0:
401,63,109264,1,2,0:0:0:0:
224,89,109460,5,4,0:3:0:0:
150,17,109656,1,0,0:0:0:0:
53,53,109852,2,0,P|39:129|42:204,1,132.00000402832,8|0,0:2|2:0,0:0:0:0:
56,203,110244,2,0,P|108:182|150:179,1,88.000002685547,0|0,0:0|3:0,0:0:0:0:
290,245,110636,2,0,P|333:238|373:220,2,88.000002685547,4|0|0,0:3|0:0|0:0,0:0:0:0:
137,288,111225,1,8,0:0:0:0:
205,359,111421,2,0,P|257:338|299:335,1,88.000002685547,0|2,0:0|0:0,0:0:0:0:
44,383,111813,70,0,L|34:187,1,176.000005371094,4|8,0:3|0:2,0:0:0:0:
35,207,112401,1,0,0:0:0:0:
115,39,112597,2,0,L|122:148,1,88.000002685547,0|0,0:0|3:0,0:0:0:0:
215,211,112989,1,4,0:3:0:0:
318,230,113185,1,0,3:0:0:0:
383,146,113382,1,0,0:0:0:0:
281,116,113578,1,8,0:0:0:0:
238,294,113774,2,0,L|251:408,1,88.000002685547,0|2,3:0|0:0,0:0:0:0:
386,299,114166,5,4,0:3:0:0:
477,351,114362,1,0,0:0:0:0:
360,384,114558,2,0,L|377:188,1,176.000005371094,8|0,0:2|3:0,0:0:0:0:
375,208,115146,1,0,0:0:0:0:
322,93,115342,1,4,0:3:0:0:
419,132,115538,1,0,3:0:0:0:
426,26,115734,1,0,0:0:0:0:
277,158,115931,2,0,P|226:141|164:134,1,88.000002685547,8|0,0:0|3:0,0:0:0:0:
104,160,116323,1,2,0:0:0:0:
223,33,116519,70,0,P|274:49|336:53,1,88.000002685547,4|0,0:3|3:0,0:0:0:0:
425,213,116911,2,0,P|338:195|235:213,1,176.000005371094,8|0,0:2|3:0,0:0:0:0:
252,206,117499,1,0,0:0:0:0:
91,352,117695,1,4,0:3:0:0:
10,283,117891,1,0,3:0:0:0:
90,215,118087,1,0,0:0:0:0:
168,286,118284,2,0,B|227:338|342:320,1,176.000005371094,8|2,0:0|0:0,0:0:0:0:
462,162,118872,6,0,L|451:271,1,88.000002685547,4|0,0:3|0:0,0:0:0:0:
392,27,119264,2,0,P|353:111|260:131,1,176.000005371094,8|0,0:2|3:0,0:0:0:0:
278,134,119852,1,0,0:0:0:0:
88,159,120048,69,4,0:3:0:0:
184,200,120244,1,0,3:0:0:0:
99,263,120440,1,0,0:0:0:0:
341,242,120636,5,8,0:0:0:0:
245,283,120833,1,0,3:0:0:0:
330,346,121029,1,2,0:0:0:0:
99,263,121225,70,0,P|102:179|112:80,1,176.000005371094,4|8,0:3|0:2,0:0:0:0:
110,87,121813,1,0,0:0:0:0:
205,247,122009,2,0,P|198:343|199:363,1,88.000002685547,0|0,0:0|3:0,0:0:0:0:
439,256,122401,5,4,0:3:0:0:
456,361,122597,1,0,0:0:0:0:
357,327,122793,1,0,0:0:0:0:
147,189,122989,69,8,0:0:0:0:
130,294,123185,1,0,3:0:0:0:
229,260,123382,1,2,0:0:0:0:
297,135,123578,6,0,P|372:162|492:177,1,176.000005371094,4|8,0:3|0:2,0:0:0:0:
466,176,124166,1,0,0:0:0:0:
335,42,124362,2,0,P|276:26|219:13,1,88.000002685547,0|0,0:0|3:0,0:0:0:0:
57,146,124754,69,4,0:3:0:0:
82,248,124950,1,0,3:0:0:0:
108,350,125146,1,0,0:0:0:0:
150,103,125342,5,8,0:0:0:0:
44,106,125538,1,0,3:0:0:0:
217,173,125734,1,8,0:0:0:0:
217,173,125833,1,8,0:0:0:0:
217,173,125931,6,0,B|286:204|286:204|312:378,1,240.000009155274,4|8,0:0|0:0,0:0:0:0:
310,366,126519,1,2,0:3:0:0:
385,27,126715,2,0,B|339:52|339:52|318:133,1,120.000004577637,4|2,0:2|0:3,0:0:0:0:
36,123,127107,5,12,0:0:0:0:
117,189,127303,2,0,L|123:376,1,180.000006866455,4|0,0:2|2:0,0:0:0:0:
167,350,127695,1,12,0:0:0:0:
277,303,127891,1,4,0:2:0:0:
384,355,128087,1,0,0:0:0:0:
227,216,128284,70,0,L|248:27,1,180.000006866455,4|0,0:0|2:0,0:0:0:0:
288,61,128676,2,0,L|422:82,1,120.000004577637,10|2,0:0|0:3,0:0:0:0:
131,200,129068,2,0,L|-3:179,1,120.000004577637,2|2,0:0|0:3,0:0:0:0:
213,377,129460,5,12,0:0:0:0:
330,332,129656,2,0,B|348:272|348:272|321:139,1,180.000006866455,4|0,0:2|2:0,0:0:0:0:
288,125,130048,1,12,0:0:0:0:
58,111,130244,1,4,0:2:0:0:
134,191,130440,1,8,0:0:0:0:
134,191,130538,1,8,0:0:0:0:
134,191,130636,38,0,P|122:284|125:358,2,143.999995605469,4|8|2,0:0|0:2|3:0,0:0:0:0:
473,367,131813,2,0,L|314:353,1,143.999995605469,4|0,0:3|0:0,0:0:0:0:
161,333,132401,1,8,0:0:0:0:
237,292,132597,1,2,3:0:0:0:
228,377,132793,1,2,0:0:0:0:
134,241,132989,6,0,L|132:143,1,71.9999978027344,4|0,0:3|0:0,0:0:0:0:
53,316,133382,1,8,0:2:0:0:
53,316,133774,1,2,3:0:0:0:
201,72,134166,70,0,L|276:95,1,71.9999978027344,4|2,0:3|3:0,0:0:0:0:
361,66,134558,1,0,0:0:0:0:
360,196,134754,2,0,L|285:173,1,71.9999978027344,8|2,0:0|3:0,0:0:0:0:
200,202,135146,1,2,0:0:0:0:
357,352,135342,6,0,P|423:363|487:291,2,143.999995605469,4|8|2,0:3|0:2|3:0,0:0:0:0:
184,29,136519,1,4,0:3:0:0:
269,88,136715,2,0,P|281:155|254:226,1,143.999995605469,2|8,0:0|0:0,0:0:0:0:
346,264,137303,2,0,P|365:212|376:169,1,71.9999978027344,2|2,3:0|0:0,0:0:0:0:
243,308,137695,70,0,L|197:400,1,71.9999978027344,4|0,0:3|0:0,0:0:0:0:
149,232,138087,2,0,L|140:334,1,71.9999978027344,8|0,0:2|3:0,0:0:0:0:
29,209,138480,2,0,L|59:307,1,71.9999978027344,2|0,0:3|3:0,0:0:0:0:
266,206,138872,6,0,L|361:194,1,71.9999978027344,4|2,0:3|3:0,0:0:0:0:
439,228,139264,1,0,0:0:0:0:
400,107,139460,2,0,L|305:95,2,71.9999978027344,8|2|0,0:0|3:0|0:3,0:0:0:0:
468,176,140048,70,0,B|464:221|464:221|469:240|469:240|465:290,1,113.999996520996,2|0,1:2|0:0,0:0:0:0:
381,340,141176,1,2,0:0:0:0:
205,139,142009,1,0,1:0:0:0:
241,235,142205,1,2,3:0:0:0:
33,261,142401,54,0,P|29:161|129:42,1,240.000009155274,4|8,0:0|0:0,0:0:0:0:
109,52,142989,1,2,0:3:0:0:
181,260,143185,2,0,L|163:395,1,120.000004577637,0|0,0:0|0:0,0:0:0:0:
337,135,143578,1,4,0:3:0:0:
444,225,143774,2,0,P|482:295|413:366,1,180.000006866455,2|0,0:0|2:0,0:0:0:0:
376,362,144166,1,8,0:0:0:0:
281,343,144362,1,0,0:0:0:0:
350,276,144558,1,2,0:3:0:0:
189,358,144754,6,0,L|50:337,1,120.000004577637,4|0,0:3|0:0,0:0:0:0:
215,132,145146,1,8,0:0:0:0:
341,176,145342,1,2,0:0:0:0:
395,53,145538,1,0,0:0:0:0:
299,93,145734,1,2,0:3:0:0:
247,229,145931,70,0,L|246:365,1,120.000004577637,4|0,0:3|0:0,0:0:0:0:
247,229,146323,1,0,0:0:0:0:
336,170,146519,2,0,L|337:34,1,120.000004577637,8|2,0:0|0:3,0:0:0:0:
336,170,146911,1,2,0:0:0:0:
372,269,147107,6,0,P|453:240|444:88,1,240.000009155274,4|8,0:3|0:0,0:0:0:0:
187,245,147695,1,2,0:3:0:0:
217,157,147891,2,0,P|280:159|347:173,1,120.000004577637,0|0,0:0|3:0,0:0:0:0:
80,364,148283,69,4,0:3:0:0:
61,259,148480,1,2,0:0:0:0:
187,361,148676,1,0,0:0:0:0:
186,148,148872,5,8,0:0:0:0:
164,252,149068,1,2,0:0:0:0:
85,110,149264,1,2,0:3:0:0:
309,258,149460,69,4,0:3:0:0:
396,170,149656,1,2,0:0:0:0:
282,25,149852,2,0,L|282:173,1,120.000004577637,8|0,0:0|3:0,0:0:0:0:
397,255,150244,2,0,L|368:400,1,120.000004577637,0|0,0:0|3:0,0:0:0:0:
230,211,150636,5,4,0:3:0:0:
86,367,150833,2,0,P|170:291|274:338,1,240.000009155274,2|8,0:0|0:0,0:0:0:0:
146,186,151421,2,0,B|81:165|83:209|11:184,1,120.000004577637,2|2,0:0|3:0,0:0:0:0:
235,60,151813,70,0,L|486:78,2,240.000009155274,4|8|0,0:3|0:0|0:0,0:0:0:0:
48,106,152793,1,2,0:3:0:0:
48,106,152891,1,0,0:3:0:0:
48,106,152989,1,4,0:3:0:0:
117,28,153185,1,2,0:0:0:0:
185,224,153382,1,0,0:0:0:0:
82,203,153578,1,8,0:0:0:0:
219,50,153774,1,2,0:0:0:0:
252,149,153970,1,2,0:3:0:0:
358,160,154166,6,0,P|423:141|469:68,1,120.000004577637,4|0,0:3|0:0,0:0:0:0:
252,149,154558,1,8,0:0:0:0:
223,344,154754,1,2,0:3:0:0:
185,224,154950,1,0,0:0:0:0:
301,273,155146,1,2,0:0:0:0:
181,35,155342,69,4,0:3:0:0:
118,114,155538,1,2,0:3:0:0:
19,82,155734,1,0,0:0:0:0:
159,207,155931,1,8,0:0:0:0:
118,114,156127,1,2,0:3:0:0:
94,349,156323,1,2,0:0:0:0:
94,349,156421,1,0,0:0:0:0:
94,349,156519,6,0,B|154:311|154:311|350:333,1,240.000009155274,4|8,0:3|0:0,0:0:0:0:
497,360,157107,1,2,0:3:0:0:
395,185,157303,1,0,0:0:0:0:
134,243,157499,69,2,0:0:0:0:
134,243,157597,1,0,0:0:0:0:
134,243,157695,1,4,0:3:0:0:
75,136,157891,1,2,0:0:0:0:
200,160,158087,1,0,0:0:0:0:
28,231,158283,1,8,0:0:0:0:
157,46,158480,1,2,0:3:0:0:
218,260,158676,1,2,0:0:0:0:
312,301,158872,6,0,B|337:253|337:253|335:92,1,180.000006866455,4|0,0:3|2:0,0:0:0:0:
353,75,159264,69,8,0:0:0:0:
441,111,159460,1,2,0:3:0:0:
440,309,159656,5,0,0:0:0:0:
348,332,159852,1,0,0:0:0:0:
379,199,160048,69,4,0:3:0:0:
379,199,160244,1,2,0:0:0:0:
248,358,160440,1,2,0:0:0:0:
248,358,160636,1,8,0:0:0:0:
302,265,160833,1,2,0:0:0:0:
108,369,161029,1,8,0:0:0:0:
108,369,161127,1,8,0:0:0:0:
108,369,161225,54,0,L|43:225,1,136.000002593994,4|0,0:0|0:0,0:0:0:0:
217,34,161617,2,0,B|366:-23|324:118|495:52,1,272.000005187988,8|4,0:0|0:2,0:0:0:0:
179,117,162205,1,2,0:3:0:0:
370,183,162401,5,12,0:0:0:0:
326,338,162597,1,4,0:2:0:0:
182,285,162793,1,0,0:0:0:0:
262,229,162989,69,12,0:0:0:0:
408,288,163185,1,4,0:2:0:0:
459,143,163382,1,0,0:0:0:0:
243,106,163578,6,0,L|104:136,1,136.000002593994,4|2,0:0|0:3,0:0:0:0:
299,30,163970,2,0,L|447:-4,1,136.000002593994,10|2,0:0|0:3,0:0:0:0:
301,228,164362,2,0,P|228:228|150:342,1,204.000003890991,2|0,0:0|2:0,0:0:0:0:
196,352,164754,69,12,0:0:0:0:
21,277,164950,1,4,0:2:0:0:
101,97,165146,1,2,0:3:0:0:
241,35,165342,5,12,0:0:0:0:
161,215,165538,1,4,0:2:0:0:
336,290,165734,1,8,0:0:0:0:
336,290,165833,1,8,0:0:0:0:
336,290,165931,6,0,P|367:193|394:142,1,120.000004577637,4|0,0:0|0:0,0:0:0:0:
210,362,166323,2,0,P|182:227|134:105,1,240.000009155274,10|2,0:0|0:0,0:0:0:0:
146,131,166911,1,2,0:3:0:0:
15,356,167107,5,12,0:0:0:0:
82,242,167303,1,4,0:2:0:0:
133,363,167499,1,0,0:0:0:0:
133,86,167695,69,12,0:0:0:0:
66,200,167891,1,4,0:2:0:0:
15,79,168087,1,2,0:0:0:0:
198,241,168283,6,0,P|246:225|337:358,1,240.000009155274,4|10,0:0|0:0,0:0:0:0:
338,354,168872,1,2,0:3:0:0:
185,160,169068,2,0,P|210:83|246:26,1,120.000004577637,2|2,0:0|0:3,0:0:0:0:
478,205,169460,69,12,0:0:0:0:
453,352,169656,1,4,0:2:0:0:
394,259,169852,1,2,0:3:0:0:
267,85,170048,5,12,0:0:0:0:
292,232,170244,1,4,0:2:0:0:
351,139,170440,1,2,0:0:0:0:
184,259,170636,70,0,P|144:310|146:378,1,120.000004577637,4|0,0:0|0:0,0:0:0:0:
37,65,171029,2,0,L|43:315,1,240.000009155274,10|2,0:0|0:0,0:0:0:0:
42,304,171617,1,2,0:3:0:0:
223,200,171813,5,12,0:0:0:0:
345,249,172009,1,4,0:2:0:0:
396,127,172205,1,0,0:0:0:0:
255,299,172401,69,12,0:0:0:0:
413,361,172597,1,4,0:2:0:0:
478,203,172793,1,2,0:0:0:0:
325,35,172989,6,0,P|256:31|98:93,1,240.000009155274,4|10,0:0|0:0,0:0:0:0:
99,91,173578,1,2,0:3:0:0:
97,302,173774,2,0,P|58:229|23:184,1,120.000004577637,2|2,0:0|0:3,0:0:0:0:
207,146,174166,69,12,0:0:0:0:
315,196,174362,1,4,0:2:0:0:
422,141,174558,1,2,0:3:0:0:
474,360,174754,5,12,0:0:0:0:
365,309,174950,1,4,0:2:0:0:
256,359,175146,1,2,0:0:0:0:
340,182,175342,69,4,0:0:0:0:
340,182,175734,6,0,P|332:115|310:45,1,120.000004577637,10|2,0:0|0:3,0:0:0:0:
157,296,176127,2,0,P|116:249|72:169,1,120.000004577637,2|2,0:0|0:3,0:0:0:0:
277,263,176519,69,12,0:0:0:0:
380,326,176715,1,4,0:2:0:0:
380,326,176911,1,0,0:0:0:0:
248,69,177107,5,12,0:0:0:0:
160,154,177303,1,4,0:2:0:0:
160,154,177499,1,2,0:0:0:0:
402,28,177695,69,4,0:0:0:0:
402,28,178087,6,0,P|426:93|431:183,1,120.000004577637,10|2,0:0|0:3,0:0:0:0:
215,229,178480,2,0,P|280:205|370:200,1,120.000004577637,2|2,0:0|0:3,0:0:0:0:
187,343,178872,69,12,0:0:0:0:
45,283,179068,1,4,0:2:0:0:
109,136,179264,1,2,0:3:0:0:
149,231,179460,5,12,0:0:0:0:
13,162,179656,1,4,0:2:0:0:
84,24,179852,1,2,0:0:0:0:
232,73,180048,69,4,0:0:0:0:
232,73,180440,6,0,P|323:65|482:100,1,240.000009155274,10|2,0:0|0:0,0:0:0:0:
467,94,181225,69,12,0:0:0:0:
337,67,181421,1,4,0:2:0:0:
232,147,181617,1,0,0:0:0:0:
31,277,181813,5,12,0:0:0:0:
166,246,182009,1,4,0:2:0:0:
271,326,182205,1,2,0:0:0:0:
241,51,182401,69,4,0:0:0:0:
241,51,182793,6,0,P|134:57|1:122,1,240.000009155274,10|2,0:0|0:0,0:0:0:0:
15,112,183578,69,12,0:0:0:0:
128,179,183774,1,4,0:2:0:0:
39,276,183970,1,2,0:3:0:0:
80,28,184166,1,4,0:3:0:0:
212,155,184362,5,8,0:0:0:0:
209,202,184460,1,8,0:0:0:0:
203,249,184558,1,8,0:0:0:0:
198,296,184656,1,8,0:0:0:0:
192,343,184754,38,0,B|245:303|245:303|267:86,1,272.000005187988,4|8,0:0|0:0,0:0:0:0:
265,98,185342,1,2,0:0:0:0:
346,235,185538,2,0,B|335:299|335:299|358:372,1,136.000002593994,0|2,0:0|3:0,0:0:0:0:
460,189,185931,1,4,0:3:0:0:
356,52,186127,1,2,0:0:0:0:
460,189,186323,1,0,0:0:0:0:
295,149,186519,1,4,0:3:0:0:
460,189,186715,5,8,0:0:0:0:
454,134,186813,1,8,0:0:0:0:
449,79,186911,1,8,0:0:0:0:
443,24,187009,1,8,0:0:0:0:
404,46,187107,70,0,B|249:5|297:116|109:59,1,272.000005187988,4|8,0:0|0:0,0:0:0:0:
140,67,187695,1,2,0:0:0:0:
23,197,187891,2,0,P|101:163|172:164,1,136.000002593994,0|2,0:0|3:0,0:0:0:0:
226,257,188283,1,4,0:3:0:0:
149,363,188480,1,2,0:0:0:0:
120,269,188676,1,0,0:0:0:0:
288,377,188872,1,4,0:3:0:0:
340,167,189068,5,8,0:0:0:0:
355,114,189166,1,8,0:0:0:0:
341,60,189264,1,8,0:0:0:0:
299,24,189362,1,8,0:0:0:0:
244,23,189460,70,0,P|236:123|247:308,1,272.000005187988,4|8,0:0|0:0,0:0:0:0:
245,294,190048,1,2,0:0:0:0:
112,195,190244,2,0,P|133:114|161:38,1,136.000002593994,0|2,0:0|3:0,0:0:0:0:
372,148,190636,5,4,0:3:0:0:
451,208,190833,1,2,0:0:0:0:
340,262,191029,1,0,0:0:0:0:
359,111,191225,69,4,0:3:0:0:
483,219,191421,1,8,0:0:0:0:
485,273,191519,1,8,0:0:0:0:
460,321,191617,1,8,0:0:0:0:
411,345,191715,1,8,0:0:0:0:
357,333,191813,6,0,B|185:297|273:384|75:347,1,272.000005187988,4|8,0:0|0:0,0:0:0:0:
91,349,192401,1,2,0:0:0:0:
241,216,192597,2,0,P|320:221|404:214,1,136.000002593994,0|2,0:0|3:0,0:0:0:0:
236,35,192989,70,0,P|86:47|111:297,1,408.000007781983,6|4,0:0|0:3,0:0:0:0:
343,148,193774,1,8,0:0:0:0:
250,360,193970,1,8,0:0:0:0:
177,166,194166,1,4,0:2:0:0:
256,192,194264,12,4,196519,0:3:0:0:
